  0
SECTION
  2
HEADER
  9
$ACADVER
  1
AC1015
  9
$ACADMAINTVER
 70
    13
  9
$DWGCODEPAGE
  3
ANSI_1252
  9
$INSBASE
 10
0.0
 20
0.0
 30
0.0
  9
$EXTMIN
 10
-5.459318831886747
 20
-19.99682011437755
 30
0.0
  9
$EXTMAX
 10
111.2646108703191
 20
13.99517201753266
 30
0.0
  9
$LIMMIN
 10
0.0
 20
0.0
  9
$LIMMAX
 10
12.0
 20
9.0
  9
$ORTHOMODE
 70
     0
  9
$REGENMODE
 70
     1
  9
$FILLMODE
 70
     1
  9
$QTEXTMODE
 70
     0
  9
$MIRRTEXT
 70
     1
  9
$LTSCALE
 40
1.0
  9
$ATTMODE
 70
     1
  9
$TEXTSIZE
 40
0.2
  9
$TRACEWID
 40
0.05
  9
$TEXTSTYLE
  7
Standard
  9
$CLAYER
  8
METAL1
  9
$CELTYPE
  6
ByLayer
  9
$CECOLOR
 62
   256
  9
$CELTSCALE
 40
1.0
  9
$DISPSILH
 70
     0
  9
$DIMSCALE
 40
1.0
  9
$DIMASZ
 40
0.18
  9
$DIMEXO
 40
0.0625
  9
$DIMDLI
 40
0.38
  9
$DIMRND
 40
0.0
  9
$DIMDLE
 40
0.0
  9
$DIMEXE
 40
0.18
  9
$DIMTP
 40
0.0
  9
$DIMTM
 40
0.0
  9
$DIMTXT
 40
0.18
  9
$DIMCEN
 40
0.09
  9
$DIMTSZ
 40
0.0
  9
$DIMTOL
 70
     0
  9
$DIMLIM
 70
     0
  9
$DIMTIH
 70
     1
  9
$DIMTOH
 70
     1
  9
$DIMSE1
 70
     0
  9
$DIMSE2
 70
     0
  9
$DIMTAD
 70
     0
  9
$DIMZIN
 70
     0
  9
$DIMBLK
  1

  9
$DIMASO
 70
     1
  9
$DIMSHO
 70
     1
  9
$DIMPOST
  1

  9
$DIMAPOST
  1

  9
$DIMALT
 70
     0
  9
$DIMALTD
 70
     2
  9
$DIMALTF
 40
25.4
  9
$DIMLFAC
 40
1.0
  9
$DIMTOFL
 70
     0
  9
$DIMTVP
 40
0.0
  9
$DIMTIX
 70
     0
  9
$DIMSOXD
 70
     0
  9
$DIMSAH
 70
     0
  9
$DIMBLK1
  1

  9
$DIMBLK2
  1

  9
$DIMSTYLE
  2
Standard
  9
$DIMCLRD
 70
     0
  9
$DIMCLRE
 70
     0
  9
$DIMCLRT
 70
     0
  9
$DIMTFAC
 40
1.0
  9
$DIMGAP
 40
0.09
  9
$DIMJUST
 70
     0
  9
$DIMSD1
 70
     0
  9
$DIMSD2
 70
     0
  9
$DIMTOLJ
 70
     1
  9
$DIMTZIN
 70
     0
  9
$DIMALTZ
 70
     0
  9
$DIMALTTZ
 70
     0
  9
$DIMUPT
 70
     0
  9
$DIMDEC
 70
     4
  9
$DIMTDEC
 70
     4
  9
$DIMALTU
 70
     2
  9
$DIMALTTD
 70
     2
  9
$DIMTXSTY
  7
Standard
  9
$DIMAUNIT
 70
     0
  9
$DIMADEC
 70
     0
  9
$DIMALTRND
 40
0.0
  9
$DIMAZIN
 70
     0
  9
$DIMDSEP
 70
    46
  9
$DIMATFIT
 70
     3
  9
$DIMFRAC
 70
     0
  9
$DIMLDRBLK
  1

  9
$DIMLUNIT
 70
     2
  9
$DIMLWD
 70
    -2
  9
$DIMLWE
 70
    -2
  9
$DIMTMOVE
 70
     0
  9
$LUNITS
 70
     2
  9
$LUPREC
 70
     4
  9
$SKETCHINC
 40
0.1
  9
$FILLETRAD
 40
0.0
  9
$AUNITS
 70
     0
  9
$AUPREC
 70
     0
  9
$MENU
  1
.
  9
$ELEVATION
 40
0.0
  9
$PELEVATION
 40
0.0
  9
$THICKNESS
 40
0.0
  9
$LIMCHECK
 70
     0
  9
$CHAMFERA
 40
0.0
  9
$CHAMFERB
 40
0.0
  9
$CHAMFERC
 40
0.0
  9
$CHAMFERD
 40
0.0
  9
$SKPOLY
 70
     0
  9
$TDCREATE
 40
2451734.432341782
  9
$TDUCREATE
 40
2451734.349008449
  9
$TDUPDATE
 40
2452548.485339537
  9
$TDUUPDATE
 40
2452548.402006204
  9
$TDINDWG
 40
0.1598159722
  9
$TDUSRTIMER
 40
0.1598159722
  9
$USRTIMER
 70
     1
  9
$ANGBASE
 50
0.0
  9
$ANGDIR
 70
     0
  9
$PDMODE
 70
     0
  9
$PDSIZE
 40
0.0
  9
$PLINEWID
 40
0.0
  9
$SPLFRAME
 70
     0
  9
$SPLINETYPE
 70
     6
  9
$SPLINESEGS
 70
     8
  9
$HANDSEED
  5
829
  9
$SURFTAB1
 70
     6
  9
$SURFTAB2
 70
     6
  9
$SURFTYPE
 70
     6
  9
$SURFU
 70
     6
  9
$SURFV
 70
     6
  9
$UCSBASE
  2

  9
$UCSNAME
  2

  9
$UCSORG
 10
0.0
 20
0.0
 30
0.0
  9
$UCSXDIR
 10
1.0
 20
0.0
 30
0.0
  9
$UCSYDIR
 10
0.0
 20
1.0
 30
0.0
  9
$UCSORTHOREF
  2

  9
$UCSORTHOVIEW
 70
     0
  9
$UCSORGTOP
 10
0.0
 20
0.0
 30
0.0
  9
$UCSORGBOTTOM
 10
0.0
 20
0.0
 30
0.0
  9
$UCSORGLEFT
 10
0.0
 20
0.0
 30
0.0
  9
$UCSORGRIGHT
 10
0.0
 20
0.0
 30
0.0
  9
$UCSORGFRONT
 10
0.0
 20
0.0
 30
0.0
  9
$UCSORGBACK
 10
0.0
 20
0.0
 30
0.0
  9
$PUCSBASE
  2

  9
$PUCSNAME
  2

  9
$PUCSORG
 10
0.0
 20
0.0
 30
0.0
  9
$PUCSXDIR
 10
1.0
 20
0.0
 30
0.0
  9
$PUCSYDIR
 10
0.0
 20
1.0
 30
0.0
  9
$PUCSORTHOREF
  2

  9
$PUCSORTHOVIEW
 70
     0
  9
$PUCSORGTOP
 10
0.0
 20
0.0
 30
0.0
  9
$PUCSORGBOTTOM
 10
0.0
 20
0.0
 30
0.0
  9
$PUCSORGLEFT
 10
0.0
 20
0.0
 30
0.0
  9
$PUCSORGRIGHT
 10
0.0
 20
0.0
 30
0.0
  9
$PUCSORGFRONT
 10
0.0
 20
0.0
 30
0.0
  9
$PUCSORGBACK
 10
0.0
 20
0.0
 30
0.0
  9
$USERI1
 70
     0
  9
$USERI2
 70
     0
  9
$USERI3
 70
     0
  9
$USERI4
 70
     0
  9
$USERI5
 70
     0
  9
$USERR1
 40
0.0
  9
$USERR2
 40
0.0
  9
$USERR3
 40
0.0
  9
$USERR4
 40
0.0
  9
$USERR5
 40
0.0
  9
$WORLDVIEW
 70
     1
  9
$SHADEDGE
 70
     3
  9
$SHADEDIF
 70
    70
  9
$TILEMODE
 70
     1
  9
$MAXACTVP
 70
    64
  9
$PINSBASE
 10
0.0
 20
0.0
 30
0.0
  9
$PLIMCHECK
 70
     0
  9
$PEXTMIN
 10
1.000000000000000E+20
 20
1.000000000000000E+20
 30
1.000000000000000E+20
  9
$PEXTMAX
 10
-1.000000000000000E+20
 20
-1.000000000000000E+20
 30
-1.000000000000000E+20
  9
$PLIMMIN
 10
0.0
 20
0.0
  9
$PLIMMAX
 10
12.0
 20
9.0
  9
$UNITMODE
 70
     0
  9
$VISRETAIN
 70
     1
  9
$PLINEGEN
 70
     0
  9
$PSLTSCALE
 70
     1
  9
$TREEDEPTH
 70
  3020
  9
$CMLSTYLE
  2
Standard
  9
$CMLJUST
 70
     0
  9
$CMLSCALE
 40
1.0
  9
$PROXYGRAPHICS
 70
     1
  9
$MEASUREMENT
 70
     0
  9
$CELWEIGHT
370
    15
  9
$ENDCAPS
280
     0
  9
$JOINSTYLE
280
     0
  9
$LWDISPLAY
290
     1
  9
$INSUNITS
 70
     0
  9
$HYPERLINKBASE
  1

  9
$STYLESHEET
  1

  9
$XEDIT
290
     1
  9
$CEPSNTYPE
380
     0
  9
$PSTYLEMODE
290
     1
  9
$FINGERPRINTGUID
  2
{91A4D6E4-54B5-11D4-A43B-BCC82654BB33}
  9
$VERSIONGUID
  2
{D223B36D-A5AC-11D4-85D5-F924C85BFA33}
  9
$EXTNAMES
290
     1
  9
$PSVPSCALE
 40
0.0
  9
$OLESTARTUP
290
     0
  0
ENDSEC
  0
SECTION
  2
CLASSES
  0
CLASS
  1
ACDBDICTIONARYWDFLT
  2
AcDbDictionaryWithDefault
  3
AutoCAD 2000
 90
        0
280
     0
281
     0
  0
CLASS
  1
ACDBPLACEHOLDER
  2
AcDbPlaceHolder
  3
AutoCAD 2000
 90
        0
280
     0
281
     0
  0
CLASS
  1
LAYOUT
  2
AcDbLayout
  3
AutoCAD 2000
 90
        0
280
     0
281
     0
  0
CLASS
  1
DICTIONARYVAR
  2
AcDbDictionaryVar
  3
AutoCAD 2000
 90
        0
280
     0
281
     0
  0
CLASS
  1
SORTENTSTABLE
  2
AcDbSortentsTable
  3
AutoCAD 2000
 90
        0
280
     0
281
     0
  0
ENDSEC
  0
SECTION
  2
TABLES
  0
TABLE
  2
VPORT
  5
8
330
0
100
AcDbSymbolTable
 70
     2
  0
VPORT
  5
828
330
8
100
AcDbSymbolTableRecord
100
AcDbViewportTableRecord
  2
*Active
 70
     0
 10
0.0
 20
0.0
 11
1.0
 21
1.0
 12
52.90264683457317
 22
-3.000823810976626
 13
0.0
 23
0.0
 14
1.0
 24
1.0
 15
0.0
 25
0.0
 16
0.0
 26
0.0
 36
1.0
 17
0.0
 27
0.0
 37
0.0
 40
81.00258946829674
 41
1.448317307692307
 42
50.0
 43
0.0
 44
0.0
 50
0.0
 51
0.0
 71
     0
 72
   100
 73
     1
 74
     2
 75
     0
 76
     0
 77
     0
 78
     0
281
     0
 65
     1
110
0.0
120
0.0
130
0.0
111
1.0
121
0.0
131
0.0
112
0.0
122
1.0
132
0.0
 79
     0
146
0.0
  0
ENDTAB
  0
TABLE
  2
LTYPE
  5
5
330
0
100
AcDbSymbolTable
 70
     1
  0
LTYPE
  5
13
330
5
100
AcDbSymbolTableRecord
100
AcDbLinetypeTableRecord
  2
ByBlock
 70
     0
  3

 72
    65
 73
     0
 40
0.0
  0
LTYPE
  5
14
330
5
100
AcDbSymbolTableRecord
100
AcDbLinetypeTableRecord
  2
ByLayer
 70
     0
  3

 72
    65
 73
     0
 40
0.0
  0
LTYPE
  5
15
330
5
100
AcDbSymbolTableRecord
100
AcDbLinetypeTableRecord
  2
Continuous
 70
     0
  3
Solid line
 72
    65
 73
     0
 40
0.0
  0
ENDTAB
  0
TABLE
  2
LAYER
  5
2
330
0
100
AcDbSymbolTable
 70
     6
  0
LAYER
  5
10
330
2
100
AcDbSymbolTableRecord
100
AcDbLayerTableRecord
  2
0
 70
     4
 62
     7
  6
Continuous
370
    -3
390
F
  0
LAYER
  5
22
330
2
100
AcDbSymbolTableRecord
100
AcDbLayerTableRecord
  2
METAL1
 70
     0
 62
     7
  6
Continuous
370
    -3
390
F
  0
LAYER
  5
24
330
2
100
AcDbSymbolTableRecord
100
AcDbLayerTableRecord
  2
CONSTR
 70
     0
 62
    -3
  6
Continuous
370
    -3
390
F
  0
LAYER
  5
7C
330
2
100
AcDbSymbolTableRecord
100
AcDbLayerTableRecord
  2
GND
 70
     0
 62
   254
  6
Continuous
370
    -3
390
F
  0
LAYER
  5
1FF
330
2
100
AcDbSymbolTableRecord
100
AcDbLayerTableRecord
  2
Defpoints
 70
     4
 62
     7
  6
Continuous
290
     0
370
    -3
390
F
  0
LAYER
  5
287
330
2
100
AcDbSymbolTableRecord
100
AcDbLayerTableRecord
  2
ASHADE
 70
     4
 62
     7
  6
Continuous
370
    -3
390
F
  0
ENDTAB
  0
TABLE
  2
STYLE
  5
3
330
0
100
AcDbSymbolTable
 70
     2
  0
STYLE
  5
11
330
3
100
AcDbSymbolTableRecord
100
AcDbTextStyleTableRecord
  2
Standard
 70
     0
 40
0.0
 41
1.0
 50
0.0
 71
     0
 42
0.2
  3
txt
  4

  0
STYLE
  5
284
330
3
100
AcDbSymbolTableRecord
100
AcDbTextStyleTableRecord
  2
ASHADE
 70
     0
 40
0.2
 41
1.0
 50
0.0
 71
     0
 42
0.2
  3
simplex.shx
  4

  0
ENDTAB
  0
TABLE
  2
VIEW
  5
6
330
0
100
AcDbSymbolTable
 70
     0
  0
ENDTAB
  0
TABLE
  2
UCS
  5
7
330
0
100
AcDbSymbolTable
 70
     0
  0
ENDTAB
  0
TABLE
  2
APPID
  5
9
330
0
100
AcDbSymbolTable
 70
     6
  0
APPID
  5
12
330
9
100
AcDbSymbolTableRecord
100
AcDbRegAppTableRecord
  2
ACAD
 70
     0
  0
APPID
  5
285
330
9
100
AcDbSymbolTableRecord
100
AcDbRegAppTableRecord
  2
AVE_RENDER
 70
     0
  0
APPID
  5
286
330
9
100
AcDbSymbolTableRecord
100
AcDbRegAppTableRecord
  2
AVE_ENTITY_MATERIAL
 70
     0
  0
APPID
  5
293
330
9
100
AcDbSymbolTableRecord
100
AcDbRegAppTableRecord
  2
AVE_FINISH
 70
     0
  0
APPID
  5
294
330
9
100
AcDbSymbolTableRecord
100
AcDbRegAppTableRecord
  2
AVE_MATERIAL
 70
     0
  0
APPID
  5
295
330
9
100
AcDbSymbolTableRecord
100
AcDbRegAppTableRecord
  2
AVE_GLOBAL
 70
     0
  0
ENDTAB
  0
TABLE
  2
DIMSTYLE
  5
A
330
0
100
AcDbSymbolTable
 70
     1
100
AcDbDimStyleTable
 71
     1
340
DF
  0
DIMSTYLE
105
DF
102
{ACAD_REACTORS
330
3DA
330
3E8
102
}
330
A
100
AcDbSymbolTableRecord
100
AcDbDimStyleTableRecord
  2
Standard
 70
     0
340
11
  0
ENDTAB
  0
TABLE
  2
BLOCK_RECORD
  5
1
330
0
100
AcDbSymbolTable
 70
    10
  0
BLOCK_RECORD
  5
1E
102
{ACAD_XDICTIONARY
360
E5
102
}
330
1
100
AcDbSymbolTableRecord
100
AcDbBlockTableRecord
  2
*Model_Space
340
21
  0
BLOCK_RECORD
  5
1A
330
1
100
AcDbSymbolTableRecord
100
AcDbBlockTableRecord
  2
*Paper_Space
340
1D
  0
BLOCK_RECORD
  5
12D
330
1
100
AcDbSymbolTableRecord
100
AcDbBlockTableRecord
  2
elkon
340
0
310
28000000200000002000000001000800000000000004000000000000000000000000000000000000000000004000000080000000FF000000002000004020000080200000FF200000004000004040000080400000FF400000006000004060000080600000FF600000008000004080000080800000FF80000000A0000040A000
310
0080A00000FFA0000000C0000040C0000080C00000FFC0000000FF000040FF000080FF0000FFFF0000000020004000200080002000FF002000002020004020200080202000FF202000004020004040200080402000FF402000006020004060200080602000FF602000008020004080200080802000FF80200000A0200040A0
310
200080A02000FFA0200000C0200040C0200080C02000FFC0200000FF200040FF200080FF2000FFFF2000000040004000400080004000FF004000002040004020400080204000FF204000004040004040400080404000FF404000006040004060400080604000FF604000008040004080400080804000FF80400000A0400040
310
A0400080A04000FFA0400000C0400040C0400080C04000FFC0400000FF400040FF400080FF4000FFFF4000000060004000600080006000FF006000002060004020600080206000FF206000004060004040600080406000FF406000006060004060600080606000FF606000008060004080600080806000FF80600000A06000
310
40A0600080A06000FFA0600000C0600040C0600080C06000FFC0600000FF600040FF600080FF6000FFFF6000000080004000800080008000FF008000002080004020800080208000FF208000004080004040800080408000FF408000006080004060800080608000FF608000008080004080800080808000FF80800000A080
310
0040A0800080A08000FFA0800000C0800040C0800080C08000FFC0800000FF800040FF800080FF8000FFFF80000000A0004000A0008000A000FF00A0000020A0004020A0008020A000FF20A0000040A0004040A0008040A000FF40A0000060A0004060A0008060A000FF60A0000080A0004080A0008080A000FF80A00000A0
310
A00040A0A00080A0A000FFA0A00000C0A00040C0A00080C0A000FFC0A00000FFA00040FFA00080FFA000FFFFA0000000C0004000C0008000C000FF00C0000020C0004020C0008020C000FF20C0000040C0004040C0008040C000FF40C0000060C0004060C0008060C000FF60C0000080C0004080C0008080C000FF80C00000
310
A0C00040A0C00080A0C000FFA0C00000C0C00040C0C00080C0C000FFC0C00000FFC00040FFC00080FFC000FFFFC0000000FF004000FF008000FF00FF00FF000020FF004020FF008020FF00FF20FF000040FF004040FF008040FF00FF40FF000060FF004060FF008060FF00FF60FF000080FF004080FF008080FF00FF80FF00
310
00A0FF0040A0FF0080A0FF00FFA0FF0000C0FF0040C0FF0080C0FF00FFC0FF0000FFFF0040FFFF0080FFFF00FFFFFF000000000000000000000000000000000000000000000000000000000000000000000000000000000000000000000000FF00000000000000000000000000000000000000000000000000000000000000
310
FF00000000000000000000000000000000000000000000000000000000000000FF00000000000000000000000000000000000000000000000000000000000000FF00000000000000000000000000000000000000000000000000000000000000FF000000000000000000000000000000000000000000000000000000000000
310
00FF00000000000000000000000000000000000000000000000000000000000000FF00000000000000000000000000000000000000000000000000000000000000FF00000000000000000000000000000000000000000000000000000000000000FF0000000000000000000000000000000000000000000000000000000000
310
0000FF00000000000000000000000000000000000000000000000000000000000000FF0000000000000000000000000000000000000000FFFFFFFFFFFFFFFFFFFFFFFFFFFFFFFFFFFFFFFFFFFFFFFF0000000000000000FF00000000000000000000000000000000000000000000FF0000000000000000FF00000000000000
310
000000000000000000000000000000FF0000000000000000FFFFFFFFFFFFFFFFFFFFFFFFFFFFFFFFFFFFFFFFFFFFFFFF00000000000000000000000000000000000000000000000000000000000000000000000000000000FFFFFFFFFFFFFFFFFFFFFFFFFFFFFFFFFFFFFFFFFFFFFFFF0000000000000000FF0000FFFFFFFF
310
FFFF000000000000FFFFFFFFFFFF0000FF0000000000000000FF0000000000FFFFFFFFFFFFFFFFFFFFFF000000000000FF0000000000000000FFFFFFFFFFFFFFFFFFFFFFFFFFFFFFFFFFFFFFFFFFFFFFFF00000000000000000000000000000000000000FF0000000000000000000000000000000000000000000000000000
310
0000000000FF00000000000000000000000000000000000000000000000000000000000000FF00000000000000000000000000000000000000000000000000000000000000FF00000000000000000000000000000000000000000000000000000000000000FF00000000000000000000000000000000000000000000000000
310
000000000000FF00000000000000000000000000000000000000000000000000000000000000FF00000000000000000000000000000000000000000000000000000000000000FF00000000000000000000000000000000000000000000000000000000000000FF000000000000000000000000000000000000000000000000
310
00000000000000FF000000000000000000000000000000000000000000000000000000000000000000000000000000000000000000000000
102
{BLKREFS
331
1A0
331
1A1
102
}
  0
BLOCK_RECORD
  5
135
330
1
100
AcDbSymbolTableRecord
100
AcDbBlockTableRecord
  2
Inductor
340
0
310
280000002000000020000000010004000000000000020000000000000000000000000000000000000000000000008000008000000080800080000000800080008080000080808000C0C0C0000000FF0000FF000000FFFF00FF000000FF00FF00FFFF0000FFFFFF00FFFFFFFFFFFFFFFFFFFFFFFFFFFFFFFFFFFFFFFFFFFFFF
310
FFFFFFFFFFFFFFFFFFFFFFFFFFFFFFFFFFFFFFFFFFFFFFFFFFFFFFFFFFFFFFFFFFFFFFFFFFFFFFFFFFFFFFFFFFFFFFFFFFFFFFFFFFFFFFFFFFFFFFFFFFFFFFFFFFFFFFFFFFFFFFFFFFFFFFFFFFFFFFFFFFFFFFFFFFFFFFFFFFFFFFFFFFFFFFFFFFFFFFFFFFFFFFFFFFFFFFFFFFFFFFFFFFFFFFFFFFFFFFFFFFFFFFFFFFFFFF
310
FFFFFFFFFFFFFFFFFFFFFFFFFFFFFFFFFFFFFFFFFFFFFFFFFFFFFFFFFFFFFFFFFFFFFFFFFFFFFFFFFFFF0000FFFFFFFF0FFFFFF0FFFFFFF0000FFFF0FFFFFFF00FFFFFF0FFFFFFF0FFFFFFF0FFFFFFF00FFFFFF00FFFFFFF0FFFFFF0FFFFFFF00FFFFF0F0FFFFFFF0FFFFFF0FFFFFFF0F0FFFF0F0FFFFFFF0FFFFFFF0FFFFF
310
F00FFFFFF00FFFFFF0FFFFFFFF0FFFFFF00FFFFFF0FFFFFF0FFFFFFFFFF0FFFFF0F0FFFF0F0FFFFF0FFFFFFFFFFF00000FFF0000FFF00000FFFFFFFFFFFFFFFFFFFFFFFFFFFFFFFFFFFFFFFFFFFFFFFFFFFFFFFFFFFFFFFFFFFFFFFFFFFFFFFFFFFFFFFFFFFFFFFFFFFFFFFFFFFFFFFFFFFFFFFFFFFFFFFFFFFFFFFFFFFFFF
310
FFFFFFFFFFFFFFFFFFFFFFFFFFFFFFFFFFFFFFFFFFFFFFFFFFFFFFFFFFFFFFFFFFFFFFFFFFFFFFFFFFFFFFFFFFFFFFFFFFFFFFFFFFFFFFFFFFFFFFFFFFFFFFFFFFFFFFFFFFFFFFFFFFFFFFFFFFFFFFFFFFFFFFFFFFFFFFFFFFFFFFFFFFFFFFFFFFFFFFFFFFFFFFFFFFFFFFFF
102
{BLKREFS
331
143
102
}
1001
ACAD
1000
DesignCenter Data
1002
{
1070
     1
1070
     1
1002
}
  0
BLOCK_RECORD
  5
13D
330
1
100
AcDbSymbolTableRecord
100
AcDbBlockTableRecord
  2
conpoint
340
0
310
28000000200000002000000001000800000000000004000000000000000000000000000000000000000000004000000080000000FF000000002000004020000080200000FF200000004000004040000080400000FF400000006000004060000080600000FF600000008000004080000080800000FF80000000A0000040A000
310
0080A00000FFA0000000C0000040C0000080C00000FFC0000000FF000040FF000080FF0000FFFF0000000020004000200080002000FF002000002020004020200080202000FF202000004020004040200080402000FF402000006020004060200080602000FF602000008020004080200080802000FF80200000A0200040A0
310
200080A02000FFA0200000C0200040C0200080C02000FFC0200000FF200040FF200080FF2000FFFF2000000040004000400080004000FF004000002040004020400080204000FF204000004040004040400080404000FF404000006040004060400080604000FF604000008040004080400080804000FF80400000A0400040
310
A0400080A04000FFA0400000C0400040C0400080C04000FFC0400000FF400040FF400080FF4000FFFF4000000060004000600080006000FF006000002060004020600080206000FF206000004060004040600080406000FF406000006060004060600080606000FF606000008060004080600080806000FF80600000A06000
310
40A0600080A06000FFA0600000C0600040C0600080C06000FFC0600000FF600040FF600080FF6000FFFF6000000080004000800080008000FF008000002080004020800080208000FF208000004080004040800080408000FF408000006080004060800080608000FF608000008080004080800080808000FF80800000A080
310
0040A0800080A08000FFA0800000C0800040C0800080C08000FFC0800000FF800040FF800080FF8000FFFF80000000A0004000A0008000A000FF00A0000020A0004020A0008020A000FF20A0000040A0004040A0008040A000FF40A0000060A0004060A0008060A000FF60A0000080A0004080A0008080A000FF80A00000A0
310
A00040A0A00080A0A000FFA0A00000C0A00040C0A00080C0A000FFC0A00000FFA00040FFA00080FFA000FFFFA0000000C0004000C0008000C000FF00C0000020C0004020C0008020C000FF20C0000040C0004040C0008040C000FF40C0000060C0004060C0008060C000FF60C0000080C0004080C0008080C000FF80C00000
310
A0C00040A0C00080A0C000FFA0C00000C0C00040C0C00080C0C000FFC0C00000FFC00040FFC00080FFC000FFFFC0000000FF004000FF008000FF00FF00FF000020FF004020FF008020FF00FF20FF000040FF004040FF008040FF00FF40FF000060FF004060FF008060FF00FF60FF000080FF004080FF008080FF00FF80FF00
310
00A0FF0040A0FF0080A0FF00FFA0FF0000C0FF0040C0FF0080C0FF00FFC0FF0000FFFF0040FFFF0080FFFF00FFFFFF000000000000000000000000000000000000000000000000000000000000000000000000000000000000000000000000FFFFFF000000000000000000000000000000000000000000000000FFFFFFFFFF
310
FF00FFFFFF0000000000000000000000000000000000000000FFFF0000FFFF0000000000FFFFFFFF00000000000000000000000000000000FF0000FFFF000000000000000000FFFFFFFF00000000000000000000000000FF00FFFF00000000000000000000000000FFFFFF0000000000000000000000FFFFFF000000000000
310
0000000000000000000000FFFF000000000000000000FF00FF00000000000000000000000000000000000000FFFF0000000000000000FFFF0000000000000000000000000000000000000000FFFF00000000000000FF00FF000000000000000000000000000000000000000000FFFF000000000000FFFF0000000000000000
310
0000000000000000000000000000FF00FF00000000FF00FF0000000000000000000000000000000000000000000000FFFF00000000FFFF000000000000000000000000000000000000000000000000FFFF00000000FFFF00000000000000000000000000000000000000000000000000FF000000FFFF000000000000000000
310
0000000000000000000000000000000000FF000000FFFF000000000000000000000000000000000000000000000000000000FF0000FF00000000000000000000000000000000000000000000000000000000FF0000FFFF0000000000000000000000000000000000000000000000000000FFFF000000FF0000000000000000
310
000000000000000000000000000000000000FF00000000FFFF000000000000000000000000000000000000000000000000FFFF00000000FFFF000000000000000000000000000000000000000000000000FFFF0000000000FFFF00000000000000000000000000000000000000000000FF00FF0000000000FFFF0000000000
310
0000000000000000000000000000000000FFFF00000000000000FFFF0000000000000000000000000000000000000000FFFF0000000000000000FFFF0000000000000000000000000000000000000000FFFF000000000000000000FFFF000000000000000000000000000000000000FFFF0000000000000000000000FFFFFF
310
0000000000000000000000000000FFFFFF00000000000000000000000000FF00FFFF00000000000000000000FFFFFFFF000000000000000000000000000000FFFF00FFFF000000000000FFFFFFFF00000000000000000000000000000000000000FFFFFFFFFF0000FFFFFFFF00000000000000000000000000000000000000
310
00000000000000FFFFFF00000000000000000000000000000000000000000000000000000000000000000000000000000000000000000000
102
{BLKREFS
331
144
331
145
102
}
1001
ACAD
1000
DesignCenter Data
1002
{
1070
     1
1070
     1
1002
}
  0
BLOCK_RECORD
  5
142
330
1
100
AcDbSymbolTableRecord
100
AcDbBlockTableRecord
  2
ind
340
0
310
28000000200000002000000001000800000000000004000000000000000000000000000000000000000000004000000080000000FF000000002000004020000080200000FF200000004000004040000080400000FF400000006000004060000080600000FF600000008000004080000080800000FF80000000A0000040A000
310
0080A00000FFA0000000C0000040C0000080C00000FFC0000000FF000040FF000080FF0000FFFF0000000020004000200080002000FF002000002020004020200080202000FF202000004020004040200080402000FF402000006020004060200080602000FF602000008020004080200080802000FF80200000A0200040A0
310
200080A02000FFA0200000C0200040C0200080C02000FFC0200000FF200040FF200080FF2000FFFF2000000040004000400080004000FF004000002040004020400080204000FF204000004040004040400080404000FF404000006040004060400080604000FF604000008040004080400080804000FF80400000A0400040
310
A0400080A04000FFA0400000C0400040C0400080C04000FFC0400000FF400040FF400080FF4000FFFF4000000060004000600080006000FF006000002060004020600080206000FF206000004060004040600080406000FF406000006060004060600080606000FF606000008060004080600080806000FF80600000A06000
310
40A0600080A06000FFA0600000C0600040C0600080C06000FFC0600000FF600040FF600080FF6000FFFF6000000080004000800080008000FF008000002080004020800080208000FF208000004080004040800080408000FF408000006080004060800080608000FF608000008080004080800080808000FF80800000A080
310
0040A0800080A08000FFA0800000C0800040C0800080C08000FFC0800000FF800040FF800080FF8000FFFF80000000A0004000A0008000A000FF00A0000020A0004020A0008020A000FF20A0000040A0004040A0008040A000FF40A0000060A0004060A0008060A000FF60A0000080A0004080A0008080A000FF80A00000A0
310
A00040A0A00080A0A000FFA0A00000C0A00040C0A00080C0A000FFC0A00000FFA00040FFA00080FFA000FFFFA0000000C0004000C0008000C000FF00C0000020C0004020C0008020C000FF20C0000040C0004040C0008040C000FF40C0000060C0004060C0008060C000FF60C0000080C0004080C0008080C000FF80C00000
310
A0C00040A0C00080A0C000FFA0C00000C0C00040C0C00080C0C000FFC0C00000FFC00040FFC00080FFC000FFFFC0000000FF004000FF008000FF00FF00FF000020FF004020FF008020FF00FF20FF000040FF004040FF008040FF00FF40FF000060FF004060FF008060FF00FF60FF000080FF004080FF008080FF00FF80FF00
310
00A0FF0040A0FF0080A0FF00FFA0FF0000C0FF0040C0FF0080C0FF00FFC0FF0000FFFF0040FFFF0080FFFF00FFFFFF0000000000000000000000000000000000000000000000000000000000000000000000000000000000000000000000000000FFFF00000000000000000000000000000000000000000000000000000000
310
00FFFFFFFF00000000000000000000000000000000000000000000000000000000FF0000FF00000000000000000000000000000000000000000000000000000000FFFFFFFF000000000000000000000000000000000000000000000000000000000000FF000000000000000000000000000000000000000000000000000000
310
FFFFFFFFFF0000000000000000000000000000000000000000000000000000FF00000000FF00000000000000000000000000000000000000000000000000FF00000000000000000000000000000000000000000000000000000000000000FF00000000000000000000000000000000000000000000000000000000000000FF
310
00000000000000000000000000000000000000000000000000000000000000FF0000000000000000000000000000000000000000000000000000000000000000FFFFFFFFFF000000000000000000000000000000000000000000000000000000FFFFFFFFFFFF00000000000000000000000000000000000000000000000000
310
FF00000000000000000000000000000000000000000000000000000000000000FF00000000000000000000000000000000000000000000000000000000000000FF00000000000000000000000000000000000000000000000000000000000000FF000000000000000000000000000000000000000000000000000000000000
310
0000FFFFFFFFFFFF0000000000000000000000000000000000000000000000000000FFFFFFFFFF0000000000000000000000000000000000000000000000000000FF00000000000000000000000000000000000000000000000000000000000000FF0000000000000000000000000000000000000000000000000000000000
310
0000FF00000000000000000000000000000000000000000000000000000000000000FF0000000000000000000000000000000000000000000000000000000000000000FF00000000FF000000000000000000000000000000000000000000000000000000FFFFFFFFFF00000000000000000000000000000000000000000000
310
000000000000000000FF0000000000000000000000000000000000000000000000000000000000FFFFFFFF00000000000000000000000000000000000000000000000000000000FF0000FF00000000000000000000000000000000000000000000000000000000FFFFFFFF0000000000000000000000000000000000000000
310
000000000000000000FFFF000000000000000000000000000000000000000000000000000000000000000000000000000000000000000000
102
{BLKREFS
331
149
102
}
1001
ACAD
1000
DesignCenter Data
1002
{
1070
     1
1070
     1
1002
}
  0
BLOCK_RECORD
  5
148
330
1
100
AcDbSymbolTableRecord
100
AcDbBlockTableRecord
  2
rfc
340
0
310
28000000200000002000000001000800000000000004000000000000000000000000000000000000000000004000000080000000FF000000002000004020000080200000FF200000004000004040000080400000FF400000006000004060000080600000FF600000008000004080000080800000FF80000000A0000040A000
310
0080A00000FFA0000000C0000040C0000080C00000FFC0000000FF000040FF000080FF0000FFFF0000000020004000200080002000FF002000002020004020200080202000FF202000004020004040200080402000FF402000006020004060200080602000FF602000008020004080200080802000FF80200000A0200040A0
310
200080A02000FFA0200000C0200040C0200080C02000FFC0200000FF200040FF200080FF2000FFFF2000000040004000400080004000FF004000002040004020400080204000FF204000004040004040400080404000FF404000006040004060400080604000FF604000008040004080400080804000FF80400000A0400040
310
A0400080A04000FFA0400000C0400040C0400080C04000FFC0400000FF400040FF400080FF4000FFFF4000000060004000600080006000FF006000002060004020600080206000FF206000004060004040600080406000FF406000006060004060600080606000FF606000008060004080600080806000FF80600000A06000
310
40A0600080A06000FFA0600000C0600040C0600080C06000FFC0600000FF600040FF600080FF6000FFFF6000000080004000800080008000FF008000002080004020800080208000FF208000004080004040800080408000FF408000006080004060800080608000FF608000008080004080800080808000FF80800000A080
310
0040A0800080A08000FFA0800000C0800040C0800080C08000FFC0800000FF800040FF800080FF8000FFFF80000000A0004000A0008000A000FF00A0000020A0004020A0008020A000FF20A0000040A0004040A0008040A000FF40A0000060A0004060A0008060A000FF60A0000080A0004080A0008080A000FF80A00000A0
310
A00040A0A00080A0A000FFA0A00000C0A00040C0A00080C0A000FFC0A00000FFA00040FFA00080FFA000FFFFA0000000C0004000C0008000C000FF00C0000020C0004020C0008020C000FF20C0000040C0004040C0008040C000FF40C0000060C0004060C0008060C000FF60C0000080C0004080C0008080C000FF80C00000
310
A0C00040A0C00080A0C000FFA0C00000C0C00040C0C00080C0C000FFC0C00000FFC00040FFC00080FFC000FFFFC0000000FF004000FF008000FF00FF00FF000020FF004020FF008020FF00FF20FF000040FF004040FF008040FF00FF40FF000060FF004060FF008060FF00FF60FF000080FF004080FF008080FF00FF80FF00
310
00A0FF0040A0FF0080A0FF00FFA0FF0000C0FF0040C0FF0080C0FF00FFC0FF0000FFFF0040FFFF0080FFFF00FFFFFF00000000000000000000000000000000000000000000000000000000000000000000000000000000000000000000000000000000FFFF0000000000000000000000000000000000000000000000000000
310
000000FFFFFFFF00000000000000000000000000000000000000000000000000000000FF0000FF00000000000000000000000000000000000000000000000000000000FFFFFFFF0000000000000000000000000000000000000000000000000000000000FF0000000000000000000000000000000000000000000000000000
310
00FFFFFFFFFF00000000000000000000000000000000000000000000FFFFFF00FFFF000000FF00000000000000000000000000000000000000000000FF00FF00FF000000000000000000000000000000000000000000000000000000FF00FFFF00000000000000000000000000000000000000000000000000000000FF00FF
310
FF00000000000000000000000000000000000000000000000000000000FFFFFFFFFF000000000000000000000000000000000000000000000000000000FFFFFF00FFFFFFFFFFFF00000000000000000000000000000000000000000000FFFFFF00FFFFFFFFFFFF00000000000000000000000000000000000000000000FFFF
310
FFFFFF000000000000000000000000000000000000000000000000000000FFFFFFFF00000000000000000000000000000000000000000000000000000000FFFFFFFF00000000000000000000000000000000000000000000000000000000FFFFFFFFFF000000000000000000000000000000000000000000000000000000FF
310
FFFF00FFFFFFFFFFFF00000000000000000000000000000000000000000000FFFFFF00FFFFFFFFFFFF00000000000000000000000000000000000000000000FF00FFFFFF000000000000000000000000000000000000000000000000000000FF00FFFF00000000000000000000000000000000000000000000000000000000
310
FF00FFFF00000000000000000000000000000000000000000000000000000000FF00FF00FF000000000000000000000000000000000000000000000000000000FFFFFF00FFFF000000FF000000000000000000000000000000000000000000000000000000FFFFFFFFFF000000000000000000000000000000000000000000
310
00000000000000000000FF000000000000000000000000000000000000000000000000000000000000FFFFFF0000000000000000000000000000000000000000000000000000000000FF00FFFF00000000000000000000000000000000000000000000000000000000FF00FF00000000000000000000000000000000000000
310
0000000000000000000000FF0000000000000000000000000000000000000000000000000000000000000000000000000000000000000000
102
{BLKREFS
331
17A
102
}
1001
ACAD
1000
DesignCenter Data
1002
{
1070
     1
1070
     1
1002
}
  0
BLOCK_RECORD
  5
14E
330
1
100
AcDbSymbolTableRecord
100
AcDbBlockTableRecord
  2
tri
340
0
310
28000000200000002000000001000800000000000004000000000000000000000000000000000000000000004000000080000000FF000000002000004020000080200000FF200000004000004040000080400000FF400000006000004060000080600000FF600000008000004080000080800000FF80000000A0000040A000
310
0080A00000FFA0000000C0000040C0000080C00000FFC0000000FF000040FF000080FF0000FFFF0000000020004000200080002000FF002000002020004020200080202000FF202000004020004040200080402000FF402000006020004060200080602000FF602000008020004080200080802000FF80200000A0200040A0
310
200080A02000FFA0200000C0200040C0200080C02000FFC0200000FF200040FF200080FF2000FFFF2000000040004000400080004000FF004000002040004020400080204000FF204000004040004040400080404000FF404000006040004060400080604000FF604000008040004080400080804000FF80400000A0400040
310
A0400080A04000FFA0400000C0400040C0400080C04000FFC0400000FF400040FF400080FF4000FFFF4000000060004000600080006000FF006000002060004020600080206000FF206000004060004040600080406000FF406000006060004060600080606000FF606000008060004080600080806000FF80600000A06000
310
40A0600080A06000FFA0600000C0600040C0600080C06000FFC0600000FF600040FF600080FF6000FFFF6000000080004000800080008000FF008000002080004020800080208000FF208000004080004040800080408000FF408000006080004060800080608000FF608000008080004080800080808000FF80800000A080
310
0040A0800080A08000FFA0800000C0800040C0800080C08000FFC0800000FF800040FF800080FF8000FFFF80000000A0004000A0008000A000FF00A0000020A0004020A0008020A000FF20A0000040A0004040A0008040A000FF40A0000060A0004060A0008060A000FF60A0000080A0004080A0008080A000FF80A00000A0
310
A00040A0A00080A0A000FFA0A00000C0A00040C0A00080C0A000FFC0A00000FFA00040FFA00080FFA000FFFFA0000000C0004000C0008000C000FF00C0000020C0004020C0008020C000FF20C0000040C0004040C0008040C000FF40C0000060C0004060C0008060C000FF60C0000080C0004080C0008080C000FF80C00000
310
A0C00040A0C00080A0C000FFA0C00000C0C00040C0C00080C0C000FFC0C00000FFC00040FFC00080FFC000FFFFC0000000FF004000FF008000FF00FF00FF000020FF004020FF008020FF00FF20FF000040FF004040FF008040FF00FF40FF000060FF004060FF008060FF00FF60FF000080FF004080FF008080FF00FF80FF00
310
00A0FF0040A0FF0080A0FF00FFA0FF0000C0FF0040C0FF0080C0FF00FFC0FF0000FFFF0040FFFF0080FFFF00FFFFFF0000000000000000000000000000000000000000000000000000000000000000000000000000000000000000FF00000000000000000000000000000000000000000000000000000000000000FFFF0000
310
0000000000000000000000000000000000000000000000000000FFFF0000FF00000000000000000000000000000000000000000000000000FFFF0000000000FF0000000000000000000000000000000000000000000000FF0000000000000000FF000000000000000000000000000000000000000000FF0000000000000000
310
0000FF00000000000000000000000000000000000000FF000000000000000000000000FF000000000000000000000000000000000000FF00000000000000000000000000FF00000000000000000000000000000000FF000000000000000000000000000000FF000000000000000000000000000000FF000000000000000000
310
00000000000000FF00000000000000000000000000FF000000000000000000000000000000000000FF000000000000000000000000FF00000000000000000000000000000000000000FF00000000000000000000FF000000000000000000000000000000000000000000FF000000000000000000FF00000000000000000000
310
000000000000000000000000FF0000000000000000FF0000000000000000000000000000000000000000000000FF00000000000000FF000000000000000000000000000000000000000000000000FF000000000000FF00000000000000000000000000000000000000000000000000FF000000000000FF0000000000000000
310
0000000000000000000000000000000000FF0000000000FF0000000000000000000000000000000000000000000000000000FF00000000FF0000000000000000000000000000000000000000000000000000FFFF00000000FF00000000000000000000000000000000000000000000000000FF0000000000FF000000000000
310
000000000000000000000000000000000000FF00000000000000FF0000000000000000000000000000000000000000000000FF0000000000000000FF000000000000000000000000000000000000000000FF00000000000000000000FF00000000000000000000000000000000000000FF000000000000000000000000FF00
310
00000000000000000000000000000000FF0000000000000000000000000000FF0000000000000000000000000000FFFF00000000000000000000000000000000FFFF0000000000000000000000FF0000000000000000000000000000000000000000FFFFFFFFFFFFFFFFFFFFFF000000000000000000000000000000000000
310
0000000000000000000000000000000000000000000000000000000000000000000000000000000000000000000000000000000000000000
102
{BLKREFS
331
1A7
102
}
  0
BLOCK_RECORD
  5
288
330
1
100
AcDbSymbolTableRecord
100
AcDbBlockTableRecord
  2
AVE_RENDER
340
0
102
{BLKREFS
331
28B
331
28C
331
28D
331
28E
331
28F
331
290
331
291
331
292
102
}
  0
BLOCK_RECORD
  5
296
330
1
100
AcDbSymbolTableRecord
100
AcDbBlockTableRecord
  2
AVE_GLOBAL
340
0
102
{BLKREFS
331
299
102
}
  0
BLOCK_RECORD
  5
3DB
330
1
100
AcDbSymbolTableRecord
100
AcDbBlockTableRecord
  2
*D8
340
0
  0
BLOCK_RECORD
  5
3E9
330
1
100
AcDbSymbolTableRecord
100
AcDbBlockTableRecord
  2
*D9
340
0
  0
ENDTAB
  0
ENDSEC
  0
SECTION
  2
BLOCKS
  0
BLOCK
  5
1F
330
1E
100
AcDbEntity
  8
0
100
AcDbBlockBegin
  2
*Model_Space
 70
     0
 10
0.0
 20
0.0
 30
0.0
  3
*Model_Space
  1

  0
ENDBLK
  5
20
330
1E
100
AcDbEntity
  8
0
100
AcDbBlockEnd
  0
BLOCK
  5
1B
330
1A
100
AcDbEntity
 67
     1
  8
0
100
AcDbBlockBegin
  2
*Paper_Space
 70
     0
 10
0.0
 20
0.0
 30
0.0
  3
*Paper_Space
  1

  0
ENDBLK
  5
1C
330
1A
100
AcDbEntity
 67
     1
  8
0
100
AcDbBlockEnd
  0
BLOCK
  5
133
330
12D
100
AcDbEntity
  8
0
100
AcDbBlockBegin
  2
elkon
 70
     0
 10
0.0
 20
0.0
 30
0.0
  3
elkon
  1

  0
LWPOLYLINE
  5
12E
102
{ACAD_REACTORS
330
132
102
}
330
12D
100
AcDbEntity
  8
0
100
AcDbPolyline
 90
        4
 70
     1
 43
0.0
 10
5.277469087657244
 20
7.736467907658294
 10
6.725437308244949
 20
7.736467907658294
 10
6.725437308244949
 20
7.545307269129267
 10
5.277469087657244
 20
7.545307269129267
  0
LWPOLYLINE
  5
12F
330
12D
100
AcDbEntity
  8
0
100
AcDbPolyline
 90
        4
 70
     1
 43
0.0
 10
5.277469087657244
 20
7.381455311208465
 10
6.725437308244949
 20
7.381455311208465
 10
6.725437308244949
 20
7.190294672679439
 10
5.277469087657244
 20
7.190294672679439
  0
LWPOLYLINE
  5
130
330
12D
100
AcDbEntity
  8
0
100
AcDbPolyline
 90
        2
 70
     0
 43
0.0
 10
5.987793119210273
 20
7.736467907658294
 10
5.987793119210273
 20
8.337258440989323
  0
LWPOLYLINE
  5
131
330
12D
100
AcDbEntity
  8
0
100
AcDbPolyline
 90
        2
 70
     0
 43
0.0
 10
5.987793119210273
 20
7.190294672679439
 10
5.987793119210273
 20
6.507578139433253
  0
HATCH
  5
132
330
12D
100
AcDbEntity
  8
0
100
AcDbHatch
 10
0.0
 20
0.0
 30
0.0
210
0.0
220
0.0
230
1.0
  2
SOLID
 70
     1
 71
     1
 91
        1
 92
        1
 93
        4
 72
     1
 10
5.277469087657244
 20
7.736467907658294
 11
6.725437308244949
 21
7.736467907658294
 72
     1
 10
6.725437308244949
 20
7.736467907658294
 11
6.725437308244949
 21
7.545307269129267
 72
     1
 10
6.725437308244949
 20
7.545307269129267
 11
5.277469087657244
 21
7.545307269129267
 72
     1
 10
5.277469087657244
 20
7.545307269129267
 11
5.277469087657244
 21
7.736467907658294
 97
        1
330
12E
 75
     0
 76
     1
 98
        1
 10
0.0
 20
0.0
  0
ENDBLK
  5
134
330
12D
100
AcDbEntity
  8
0
100
AcDbBlockEnd
  0
BLOCK
  5
13B
330
135
100
AcDbEntity
  8
0
100
AcDbBlockBegin
  2
Inductor
 70
     2
 10
0.0
 20
0.0
 30
0.0
  3
Inductor
  1
INDUCTOR
  4
DesignCenter Basic Electronics example
  0
LINE
  5
136
330
135
100
AcDbEntity
  8
0
 62
     7
100
AcDbLine
 10
0.3500000000000001
 20
0.0
 30
0.0
 11
0.3999999999999999
 21
0.0
 31
0.0
  0
ARC
  5
137
330
135
100
AcDbEntity
  8
0
 62
     7
100
AcDbCircle
 10
0.2999999999999998
 20
0.0374999999999997
 30
0.0
 40
0.0625
100
AcDbArc
 50
323.1301
 51
216.8699
  0
LINE
  5
138
330
135
100
AcDbEntity
  8
0
 62
     7
100
AcDbLine
 10
0.0
 20
0.0
 30
0.0
 11
0.0499999999999998
 21
0.0
 31
0.0
  0
ARC
  5
139
330
135
100
AcDbEntity
  8
0
 62
     7
100
AcDbCircle
 10
0.1000000000000001
 20
0.0374999999999997
 30
0.0
 40
0.0625
100
AcDbArc
 50
323.1301
 51
216.8699
  0
ARC
  5
13A
330
135
100
AcDbEntity
  8
0
 62
     7
100
AcDbCircle
 10
0.2000000000000002
 20
0.0374999999999997
 30
0.0
 40
0.0625
100
AcDbArc
 50
323.1301
 51
216.8699
  0
ENDBLK
  5
13C
330
135
100
AcDbEntity
  8
0
100
AcDbBlockEnd
  0
BLOCK
  5
140
330
13D
100
AcDbEntity
  8
0
100
AcDbBlockBegin
  2
conpoint
 70
     0
 10
0.0
 20
0.0
 30
0.0
  3
conpoint
  1

  0
HATCH
  5
13E
330
13D
100
AcDbEntity
  8
0
100
AcDbHatch
 10
0.0
 20
0.0
 30
0.0
210
0.0
220
0.0
230
1.0
  2
SOLID
 70
     1
 71
     1
 91
        1
 92
        1
 93
        1
 72
     2
 10
3.932944225599126
 20
4.517912367231916
 40
0.0251551376970127
 50
0.0
 51
360.0
 73
     1
 97
        1
330
13F
 75
     0
 76
     1
 98
        1
 10
0.0
 20
0.0
  0
CIRCLE
  5
13F
102
{ACAD_REACTORS
330
13E
102
}
330
13D
100
AcDbEntity
  8
0
100
AcDbCircle
 10
3.932944225599126
 20
4.517912367231916
 30
0.0
 40
0.0251551376970127
  0
ENDBLK
  5
141
330
13D
100
AcDbEntity
  8
0
100
AcDbBlockEnd
  0
BLOCK
  5
146
330
142
100
AcDbEntity
  8
0
100
AcDbBlockBegin
  2
ind
 70
     0
 10
0.0
 20
0.0
 30
0.0
  3
ind
  1

  0
INSERT
  5
143
330
142
100
AcDbEntity
  8
0
100
AcDbBlockReference
  2
Inductor
 10
5.142686818928233
 20
4.506130839892044
 30
0.0
 50
90.0
  0
INSERT
  5
144
330
142
100
AcDbEntity
  8
0
100
AcDbBlockReference
  2
conpoint
 10
1.213283901823427
 20
-0.0258025784579612
 30
0.0
  0
INSERT
  5
145
330
142
100
AcDbEntity
  8
0
100
AcDbBlockReference
  2
conpoint
 10
1.20936500961606
 20
0.4012205201373665
 30
0.0
  0
ENDBLK
  5
147
330
142
100
AcDbEntity
  8
0
100
AcDbBlockEnd
  0
BLOCK
  5
14C
330
148
100
AcDbEntity
  8
0
100
AcDbBlockBegin
  2
rfc
 70
     0
 10
0.0
 20
0.0
 30
0.0
  3
rfc
  1

  0
INSERT
  5
149
330
148
100
AcDbEntity
  8
0
100
AcDbBlockReference
  2
ind
 10
0.0
 20
0.0
 30
0.0
  0
HATCH
  5
14A
330
148
100
AcDbEntity
  8
0
100
AcDbHatch
 10
0.0
 20
0.0
 30
0.0
210
0.0
220
0.0
230
1.0
  2
SOLID
 70
     1
 71
     1
 91
        1
 92
        1
 93
        4
 72
     1
 10
5.019171584733157
 20
4.850883942041264
 11
4.991736945333968
 21
4.850883942041264
 72
     1
 10
4.991736945333968
 20
4.850883942041264
 11
4.991736945333968
 21
4.557060643284785
 72
     1
 10
4.991736945333968
 20
4.557060643284785
 11
5.019171584733157
 21
4.557060643284785
 72
     1
 10
5.019171584733157
 20
4.557060643284785
 11
5.019171584733157
 21
4.850883942041264
 97
        1
330
14B
 75
     0
 76
     1
 98
        1
 10
0.0
 20
0.0
  0
LWPOLYLINE
  5
14B
102
{ACAD_REACTORS
330
14A
102
}
330
148
100
AcDbEntity
  8
0
100
AcDbPolyline
 90
        4
 70
     1
 43
0.0
 10
5.019171584733157
 20
4.850883942041264
 10
4.991736945333968
 20
4.850883942041264
 10
4.991736945333968
 20
4.557060643284785
 10
5.019171584733157
 20
4.557060643284785
  0
ENDBLK
  5
14D
330
148
100
AcDbEntity
  8
0
100
AcDbBlockEnd
  0
BLOCK
  5
151
330
14E
100
AcDbEntity
  8
0
100
AcDbBlockBegin
  2
tri
 70
     0
 10
0.0
 20
0.0
 30
0.0
  3
tri
  1

  0
ARC
  5
14F
330
14E
100
AcDbEntity
  8
CONSTR
370
    50
100
AcDbCircle
 10
8.146085339866083
 20
7.572615928782735
 30
0.0
 40
0.8498249588931228
100
AcDbArc
 50
17.41576346451058
 51
252.8164832811067
  0
LWPOLYLINE
  5
150
330
14E
100
AcDbEntity
  8
CONSTR
370
    50
100
AcDbPolyline
 90
        2
 70
     0
 43
0.0
 10
7.888244942516251
 20
6.7539228815622
 10
8.968782859461427
 20
7.838849627961277
  0
ENDBLK
  5
152
330
14E
100
AcDbEntity
  8
0
100
AcDbBlockEnd
  0
BLOCK
  5
289
330
288
100
AcDbEntity
  8
ASHADE
100
AcDbBlockBegin
  2
AVE_RENDER
 70
     0
 10
0.0
 20
0.0
 30
0.0
  3
AVE_RENDER
  1
AVE_RENDER
  0
ENDBLK
  5
28A
330
288
100
AcDbEntity
  8
0
100
AcDbBlockEnd
  0
BLOCK
  5
297
330
296
100
AcDbEntity
  8
ASHADE
100
AcDbBlockBegin
  2
AVE_GLOBAL
 70
     0
 10
0.0
 20
0.0
 30
0.0
  3
AVE_GLOBAL
  1
AVE_GLOBAL
  0
ENDBLK
  5
298
330
296
100
AcDbEntity
  8
0
100
AcDbBlockEnd
  0
BLOCK
  5
3E6
330
3DB
100
AcDbEntity
  8
0
370
    15
100
AcDbBlockBegin
  2
*D8
 70
     1
 10
0.0
 20
0.0
 30
0.0
  3
*D8
  1

  0
LINE
  5
43C
330
3DB
100
AcDbEntity
  8
METAL1
 62
     0
370
    -2
100
AcDbLine
 10
-5.415075114941259
 20
11.86776727683042
 30
0.0
 11
-5.415075114941259
 21
13.27517201753266
 31
0.0
  0
LINE
  5
43D
330
3DB
100
AcDbEntity
  8
METAL1
 62
     0
370
    -2
100
AcDbLine
 10
104.0847680013027
 20
12.05312508743164
 30
0.0
 11
104.0847680013027
 21
13.27517201753266
 31
0.0
  0
LINE
  5
43E
330
3DB
100
AcDbEntity
  8
METAL1
 62
     0
370
    -2
100
AcDbLine
 10
-3.61507511494126
 20
13.09517201753266
 30
0.0
 11
45.28484644318075
 21
13.09517201753266
 31
0.0
  0
LINE
  5
43F
330
3DB
100
AcDbEntity
  8
METAL1
 62
     0
370
    -2
100
AcDbLine
 10
102.2847680013027
 20
13.09517201753266
 30
0.0
 11
53.38484644318075
 21
13.09517201753266
 31
0.0
  0
SOLID
  5
440
330
3DB
100
AcDbEntity
  8
METAL1
 62
     0
370
    15
100
AcDbTrace
 10
-3.61507511494126
 20
13.39517201753266
 30
0.0
 11
-3.61507511494126
 21
12.79517201753266
 31
0.0
 12
-5.415075114941259
 22
13.09517201753266
 32
0.0
 13
-5.415075114941259
 23
13.09517201753266
 33
0.0
  0
SOLID
  5
441
330
3DB
100
AcDbEntity
  8
METAL1
 62
     0
370
    15
100
AcDbTrace
 10
102.2847680013027
 20
13.39517201753266
 30
0.0
 11
102.2847680013027
 21
12.79517201753266
 31
0.0
 12
104.0847680013027
 22
13.09517201753266
 32
0.0
 13
104.0847680013027
 23
13.09517201753266
 33
0.0
  0
MTEXT
  5
442
330
3DB
100
AcDbEntity
  8
METAL1
 62
     0
370
    15
100
AcDbMText
 10
49.33484644318075
 20
13.09517201753266
 30
0.0
 40
1.8
 41
0.0
 71
     5
 72
     1
  1
\A1;109.5
 73
     1
 44
1.0
  0
POINT
  5
443
330
3DB
100
AcDbEntity
  8
Defpoints
 62
     0
370
    15
100
AcDbPoint
 10
-5.415075114941259
 20
11.80526727683042
 30
0.0
  0
POINT
  5
444
330
3DB
100
AcDbEntity
  8
Defpoints
 62
     0
370
    15
100
AcDbPoint
 10
104.0847680013027
 20
11.99062508743164
 30
0.0
  0
POINT
  5
445
330
3DB
100
AcDbEntity
  8
Defpoints
 62
     0
370
    15
100
AcDbPoint
 10
104.0847680013027
 20
13.09517201753266
 30
0.0
  0
ENDBLK
  5
3E7
330
3DB
100
AcDbEntity
  8
0
370
    15
100
AcDbBlockEnd
  0
BLOCK
  5
3F4
330
3E9
100
AcDbEntity
  8
0
370
    15
100
AcDbBlockBegin
  2
*D9
 70
     1
 10
0.0
 20
0.0
 30
0.0
  3
*D9
  1

  0
LINE
  5
446
330
3E9
100
AcDbEntity
  8
METAL1
 62
     0
370
    -2
100
AcDbLine
 10
106.7836148222741
 20
9.501866124695879
 30
0.0
 11
108.7446108703192
 21
9.501866124695878
 31
0.0
  0
LINE
  5
447
330
3E9
100
AcDbEntity
  8
METAL1
 62
     0
370
    -2
100
AcDbLine
 10
107.0620213033403
 20
-19.99682011437755
 30
0.0
 11
108.7446108703192
 21
-19.99682011437755
 31
0.0
  0
LINE
  5
448
330
3E9
100
AcDbEntity
  8
METAL1
 62
     0
370
    -2
100
AcDbLine
 10
108.5646108703192
 20
7.701866124695879
 30
0.0
 11
108.5646108703192
 21
-3.447476994840835
 31
0.0
  0
LINE
  5
449
330
3E9
100
AcDbEntity
  8
METAL1
 62
     0
370
    -2
100
AcDbLine
 10
108.5646108703192
 20
-18.19682011437755
 30
0.0
 11
108.5646108703192
 21
-7.047476994840835
 31
0.0
  0
SOLID
  5
44A
330
3E9
100
AcDbEntity
  8
METAL1
 62
     0
370
    15
100
AcDbTrace
 10
108.2646108703191
 20
7.701866124695879
 30
0.0
 11
108.8646108703192
 21
7.701866124695879
 31
0.0
 12
108.5646108703192
 22
9.501866124695878
 32
0.0
 13
108.5646108703192
 23
9.501866124695878
 33
0.0
  0
SOLID
  5
44B
330
3E9
100
AcDbEntity
  8
METAL1
 62
     0
370
    15
100
AcDbTrace
 10
108.2646108703191
 20
-18.19682011437755
 30
0.0
 11
108.8646108703192
 21
-18.19682011437755
 31
0.0
 12
108.5646108703192
 22
-19.99682011437755
 32
0.0
 13
108.5646108703192
 23
-19.99682011437755
 33
0.0
  0
MTEXT
  5
44C
330
3E9
100
AcDbEntity
  8
METAL1
 62
     0
370
    15
100
AcDbMText
 10
108.5646108703192
 20
-5.247476994840817
 30
0.0
 40
1.8
 41
0.0
 71
     5
 72
     1
  1
\A1;29.5
 73
     1
 44
1.0
  0
POINT
  5
44D
330
3E9
100
AcDbEntity
  8
Defpoints
 62
     0
370
    15
100
AcDbPoint
 10
106.7211148222741
 20
9.501866124695879
 30
0.0
  0
POINT
  5
44E
330
3E9
100
AcDbEntity
  8
Defpoints
 62
     0
370
    15
100
AcDbPoint
 10
106.9995213033402
 20
-19.99682011437755
 30
0.0
  0
POINT
  5
44F
330
3E9
100
AcDbEntity
  8
Defpoints
 62
     0
370
    15
100
AcDbPoint
 10
108.5646108703192
 20
-19.99682011437755
 30
0.0
  0
ENDBLK
  5
3F5
330
3E9
100
AcDbEntity
  8
0
370
    15
100
AcDbBlockEnd
  0
ENDSEC
  0
SECTION
  2
ENTITIES
  0
LWPOLYLINE
  5
26
330
1E
100
AcDbEntity
  8
GND
100
AcDbPolyline
 90
        2
 70
     0
 43
0.2
 10
9.296562933889708
 20
0.9102729208954677
 42
1.0
 10
9.296562933889708
 20
1.710272920895467
  0
LWPOLYLINE
  5
2A
330
1E
100
AcDbEntity
  8
GND
100
AcDbPolyline
 90
        2
 70
     0
 43
0.2
 10
9.296562933889708
 20
1.710272920895467
 42
1.0
 10
9.296562933889708
 20
0.9102729208954677
  0
SOLID
  5
3B
330
1E
100
AcDbEntity
  8
CONSTR
100
AcDbTrace
 10
10.46294620196367
 20
1.051255307997228
 30
0.0
 11
9.262946201963671
 21
1.051255307997228
 31
0.0
 12
10.46294620196367
 22
1.601255307997229
 32
0.0
 13
9.262946201963671
 23
1.601255307997229
 33
0.0
  0
SOLID
  5
3D
330
1E
100
AcDbEntity
  8
CONSTR
100
AcDbTrace
 10
11.65852771087132
 20
0.4373962612035829
 30
0.0
 11
11.65852771087132
 21
-0.7626037387964173
 31
0.0
 12
11.10852771087132
 22
0.4373962612035829
 32
0.0
 13
11.10852771087132
 23
-0.7626037387964173
 33
0.0
  0
SOLID
  5
3F
330
1E
100
AcDbEntity
  8
CONSTR
100
AcDbTrace
 10
11.08320489693433
 20
2.169393057323338
 30
0.0
 11
11.08320489693433
 21
3.369393057323339
 31
0.0
 12
11.63320489693434
 22
2.169393057323338
 32
0.0
 13
11.63320489693434
 23
3.369393057323339
 33
0.0
  0
SOLID
  5
41
330
1E
100
AcDbEntity
  8
CONSTR
100
AcDbTrace
 10
13.44993010648023
 20
1.028885380122096
 30
0.0
 11
12.24993010648022
 21
1.028885380122096
 31
0.0
 12
13.44993010648023
 22
1.578885380122097
 32
0.0
 13
12.24993010648022
 23
1.578885380122097
 33
0.0
  0
SOLID
  5
58
330
1E
100
AcDbEntity
  8
CONSTR
100
AcDbTrace
 10
15.66074935974288
 20
1.729080035550442
 30
0.0
 11
17.26074935974288
 21
1.729080035550442
 31
0.0
 12
15.66074935974288
 22
1.679080035550441
 32
0.0
 13
17.26074935974288
 23
1.679080035550441
 33
0.0
  0
SOLID
  5
5B
330
1E
100
AcDbEntity
  8
CONSTR
100
AcDbTrace
 10
15.66074935974288
 20
4.929080035550441
 30
0.0
 11
17.26074935974288
 21
4.929080035550441
 31
0.0
 12
15.66074935974288
 22
4.87908003555044
 32
0.0
 13
17.26074935974288
 23
4.87908003555044
 33
0.0
  0
SOLID
  5
9F
330
1E
100
AcDbEntity
  8
CONSTR
100
AcDbTrace
 10
15.66074935974288
 20
0.9290800355504416
 30
0.0
 11
17.26074935974288
 21
0.9290800355504416
 31
0.0
 12
15.66074935974288
 22
0.8790800355504417
 32
0.0
 13
17.26074935974288
 23
0.8790800355504417
 33
0.0
  0
SOLID
  5
BA
330
1E
100
AcDbEntity
  8
CONSTR
100
AcDbTrace
 10
12.23024739482091
 20
6.002236374402162
 30
0.0
 11
10.63024739482091
 21
6.002236374402162
 31
0.0
 12
12.23024739482091
 22
6.052236374402161
 32
0.0
 13
10.63024739482091
 23
6.052236374402161
 33
0.0
  0
SOLID
  5
BD
330
1E
100
AcDbEntity
  8
CONSTR
100
AcDbTrace
 10
12.23024739482091
 20
2.802236374402161
 30
0.0
 11
10.63024739482091
 21
2.802236374402161
 31
0.0
 12
12.23024739482091
 22
2.852236374402162
 32
0.0
 13
10.63024739482091
 23
2.852236374402162
 33
0.0
  0
SOLID
  5
D2
330
1E
100
AcDbEntity
  8
CONSTR
100
AcDbTrace
 10
12.23024739482091
 20
6.002236374402162
 30
0.0
 11
10.63024739482091
 21
6.002236374402162
 31
0.0
 12
12.23024739482091
 22
6.052236374402161
 32
0.0
 13
10.63024739482091
 23
6.052236374402161
 33
0.0
  0
SOLID
  5
D5
330
1E
100
AcDbEntity
  8
CONSTR
100
AcDbTrace
 10
12.23024739482091
 20
2.802236374402161
 30
0.0
 11
10.63024739482091
 21
2.802236374402161
 31
0.0
 12
12.23024739482091
 22
2.852236374402162
 32
0.0
 13
10.63024739482091
 23
2.852236374402162
 33
0.0
  0
SOLID
  5
118
330
1E
100
AcDbEntity
  8
CONSTR
100
AcDbTrace
 10
10.64023881877242
 20
-0.1595488287341737
 30
0.0
 11
12.24023881877242
 21
-0.1595488287341737
 31
0.0
 12
10.64023881877242
 22
-0.2095488287341736
 32
0.0
 13
12.24023881877242
 23
-0.2095488287341745
 33
0.0
  0
INSERT
  5
17A
330
1E
100
AcDbEntity
  8
CONSTR
100
AcDbBlockReference
  2
rfc
 10
46.87694151365504
 20
-22.70713026633086
 30
0.0
 41
5.747672421525731
 42
5.747672421525731
 43
5.747672421525731
 50
89.99999999999998
  0
MTEXT
  5
181
330
1E
100
AcDbEntity
  8
CONSTR
100
AcDbMText
 10
18.84576892105052
 20
5.540391544451718
 30
0.0
 40
0.6
 41
2.423099999999999
 71
     1
 72
     5
  1
10uH
 73
     1
 44
1.0
  0
MTEXT
  5
183
330
1E
100
AcDbEntity
  8
CONSTR
100
AcDbMText
 10
15.57538912969778
 20
9.250804944555248
 30
0.0
 40
0.8
 41
2.640499999999999
 71
     1
 72
     5
  1
OUT
 73
     1
 44
1.0
  0
INSERT
  5
1A0
330
1E
100
AcDbEntity
  8
CONSTR
100
AcDbBlockReference
  2
elkon
 10
17.23888969293884
 20
12.856152465889
 30
0.0
 50
270.0
  0
INSERT
  5
1A1
330
1E
100
AcDbEntity
  8
CONSTR
100
AcDbBlockReference
  2
elkon
 10
35.93803017782346
 20
0.7166824159601397
 30
0.0
 50
90.0
  0
MTEXT
  5
1A5
330
1E
100
AcDbEntity
  8
CONSTR
100
AcDbMText
 10
27.72403772048145
 20
5.795077637600194
 30
0.0
 40
0.6
 41
1.6775
 71
     1
 72
     5
  1
1uF
 73
     1
 44
1.0
  0
INSERT
  5
1A7
330
1E
100
AcDbEntity
  8
CONSTR
100
AcDbBlockReference
  2
tri
 10
15.47719021210257
 20
8.593310261739073
 30
0.0
 50
314.6137258095578
  0
MTEXT
  5
1A8
330
1E
100
AcDbEntity
  8
CONSTR
100
AcDbMText
 10
24.07347773282649
 20
5.795654278421174
 30
0.0
 40
0.6
 41
1.6775
 71
     1
 72
     5
  1
1uF
 73
     1
 44
1.0
  0
LWPOLYLINE
  5
1A9
330
1E
100
AcDbEntity
  8
METAL1
100
AcDbPolyline
 90
        4
 70
     1
 43
0.0
 10
-5.459318831886747
 20
9.510057771442248
 10
104.0406811681132
 20
9.510057771442248
 10
104.0406811681132
 20
-19.98994222855775
 10
-5.459318831886747
 20
-19.98994222855775
  0
LWPOLYLINE
  5
1BB
330
1E
100
AcDbEntity
  8
CONSTR
100
AcDbPolyline
 90
        2
 70
     0
 43
0.0
 10
18.58942307221715
 20
6.808926586150334
 10
17.81470350424356
 20
6.808926586150334
  0
MTEXT
  5
1BE
330
1E
100
AcDbEntity
  8
CONSTR
100
AcDbMText
 10
27.7444961668709
 20
9.3623497548501
 30
0.0
 40
0.6
 41
3.516
 71
     1
 72
     5
  1
78L06
 73
     1
 44
1.0
  0
MTEXT
  5
1C8
330
1E
100
AcDbEntity
  8
METAL1
370
    30
100
AcDbMText
 10
35.43592759663411
 20
-18.99145618240197
 30
0.0
 40
1.5
 41
27.42551525782124
 71
     1
 72
     5
  1
     YU1AW\PMGF1302 432 MHz LNA
 11
0.0000000000000001
 21
1.0
 31
0.0
 73
     1
 44
1.0
  0
LWPOLYLINE
  5
1CF
330
1E
100
AcDbEntity
  8
CONSTR
100
AcDbPolyline
 90
        2
 70
     0
 43
0.0
 10
25.77599358249404
 20
8.290007616283958
 10
24.22678664820682
 20
7.804186400049161
  0
LWPOLYLINE
  5
1D0
330
1E
100
AcDbEntity
  8
CONSTR
100
AcDbPolyline
 90
        2
 70
     0
 43
0.0
 10
27.41633026108004
 20
8.320371474275106
 10
29.02629027281929
 20
7.864913945490201
  0
LWPOLYLINE
  5
1D1
330
1E
100
AcDbEntity
  8
CONSTR
100
AcDbPolyline
 90
        2
 70
     0
 43
0.0
 10
26.56578512681949
 20
7.743458684066837
 10
26.59616179366628
 20
7.40945658724658
  0
LWPOLYLINE
  5
1D2
330
1E
100
AcDbEntity
  8
CONSTR
100
AcDbPolyline
 90
        2
 70
     0
 43
0.0
 10
21.11056521205992
 20
6.828852194668286
 10
21.71809726778778
 20
6.828852194668286
  0
MTEXT
  5
1E5
330
1E
100
AcDbEntity
  8
CONSTR
100
AcDbMText
 10
10.76661821359243
 20
3.528221194972751
 30
0.0
 40
0.5
 41
1.397899999999999
 71
     1
 72
     5
  1
120+\P1nF
 11
0.0000000000000001
 21
1.0
 31
0.0
 73
     1
 44
1.0
  0
MTEXT
  5
1E6
330
1E
100
AcDbEntity
  8
CONSTR
100
AcDbMText
 10
12.38095376740366
 20
-1.021424737192923
 30
0.0
 40
0.6
 41
1.1805
 71
     1
 72
     5
  1
S
 73
     1
 44
1.0
  0
MTEXT
  5
1E7
330
1E
100
AcDbEntity
  8
CONSTR
100
AcDbMText
 10
8.952671702273121
 20
3.079942724486947
 30
0.0
 40
0.6
 41
1.429
 71
     1
 72
     5
  1
G1
 73
     1
 44
1.0
  0
MTEXT
  5
1E8
330
1E
100
AcDbEntity
  8
CONSTR
100
AcDbMText
 10
13.50219297164947
 20
2.906206840270158
 30
0.0
 40
0.6
 41
1.584299999999999
 71
     1
 72
     5
  1
D
 73
     1
 44
1.0
  0
MTEXT
  5
1E9
330
1E
100
AcDbEntity
  8
CONSTR
100
AcDbMText
 10
6.206366512982484
 20
1.827356775153091
 30
0.0
 40
0.8
 41
1.615399999999999
 71
     1
 72
     5
  1
IN
 73
     1
 44
1.0
  0
MTEXT
  5
1EA
330
1E
100
AcDbEntity
  8
CONSTR
100
AcDbMText
 10
13.81315516172466
 20
1.611784120874546
 30
0.0
 40
0.6
 41
2.9085
 71
     1
 72
     5
  1
150
 73
     1
 44
1.0
  0
MTEXT
  5
1EB
330
1E
100
AcDbEntity
  8
CONSTR
100
AcDbMText
 10
16.27725368465948
 20
-4.284520759478297
 30
0.0
 40
0.6
 41
1.599699999999999
 71
     1
 72
     5
  1
82pF
 11
0.0000000000000001
 21
1.0
 31
0.0
 73
     1
 44
1.0
  0
MTEXT
  5
1EC
330
1E
100
AcDbEntity
  8
CONSTR
100
AcDbMText
 10
16.47149901328168
 20
-0.9162553437043072
 30
0.0
 40
0.6
 41
2.302599999999999
 71
     1
 72
     5
  1
120
 11
0.0000000000000001
 21
1.0
 31
0.0
 73
     1
 44
1.0
  0
MTEXT
  5
1EE
330
1E
100
AcDbEntity
  8
CONSTR
100
AcDbMText
 10
16.29783674227637
 20
1.80507303072305
 30
0.0
 40
0.6
 41
2.132899999999999
 71
     1
 72
     5
  1
8.2pF
 11
0.0000000000000001
 21
1.0
 31
0.0
 73
     1
 44
1.0
  0
MTEXT
  5
1EF
330
1E
100
AcDbEntity
  8
CONSTR
100
AcDbMText
 10
29.99119599586427
 20
4.502201939644592
 30
0.0
 40
0.6
 41
2.1814
 71
     1
 72
     5
  1
12
 73
     1
 44
1.0
  0
MTEXT
  5
1F0
330
1E
100
AcDbEntity
  8
CONSTR
100
AcDbMText
 10
31.71613021606904
 20
6.712521306113359
 30
0.0
 40
0.6
 41
2.811599999999999
 71
     1
 72
     5
  1
10nF
 73
     1
 44
1.0
  0
MTEXT
  5
1F1
330
1E
100
AcDbEntity
  8
CONSTR
100
AcDbMText
 10
12.44170966351271
 20
4.201396912964888
 30
0.0
 40
0.6
 41
1.1805
 71
     1
 72
     5
  1
S
 73
     1
 44
1.0
  0
MTEXT
  5
1F8
330
1E
100
AcDbEntity
  8
CONSTR
100
AcDbMText
 10
31.7829143538851
 20
2.378898146996149
 30
0.0
 40
0.6
 41
1.5134
 71
     1
 72
     5
  1
56pF
 73
     1
 44
1.0
  0
MTEXT
  5
1F9
330
1E
100
AcDbEntity
  8
CONSTR
100
AcDbMText
 10
10.70301683487525
 20
-2.345843630343161
 30
0.0
 40
0.5
 41
1.397899999999999
 71
     1
 72
     5
  1
120+\P1nF
 11
0.0000000000000001
 21
1.0
 31
0.0
 73
     1
 44
1.0
  0
MTEXT
  5
1FB
330
1E
100
AcDbEntity
  8
CONSTR
100
AcDbMText
 10
6.479207233148429
 20
-0.8462838984695792
 30
0.0
 40
0.6
 41
3.7974
 71
     1
 72
     5
  1
MGF1302
 73
     1
 44
1.0
  0
INSERT
  5
28B
330
1E
100
AcDbEntity
  8
ASHADE
 62
     1
100
AcDbBlockReference
  2
AVE_RENDER
 10
0.0
 20
0.0
 30
0.0
1001
AVE_RENDER
1002
{
1070
     7
1000
Pref
1070
    30
1070
    20
1070
     1
1070
     0
1000

1070
    10
1070
     1
1070
    10
1040
1.0
1070
     1
1040
0.3
1040
0.7
1040
0.0
1040
10.0
1010
-1.0
1020
-1.0
1030
-1.0
1040
0.3
1070
    49
1070
     0
1070
     0
1010
1.0
1020
1.0
1030
1.0
1040
45.0
1070
     1
1070
     0
1000
WCS
1040
0.0
1070
     0
1040
10.0
1002
}
  0
INSERT
  5
28C
330
1E
100
AcDbEntity
  8
ASHADE
 62
     3
100
AcDbBlockReference
  2
AVE_RENDER
 10
0.0
 20
0.0
 30
0.0
1001
AVE_RENDER
1002
{
1070
     0
1000
Full Opt
1070
     0
1070
     1
1070
     1
1070
     1
1070
     0
1070
     0
1070
     0
1070
     1
1070
     1
1040
0.0001
1040
0.0001
1002
}
  0
INSERT
  5
28D
330
1E
100
AcDbEntity
  8
ASHADE
 62
     4
100
AcDbBlockReference
  2
AVE_RENDER
 10
0.0
 20
0.0
 30
0.0
1001
AVE_RENDER
1002
{
1070
     0
1000
Quick Opt
1070
     0
1070
     1
1070
     1
1070
     1
1070
     0
1070
     0
1070
     1
1002
}
  0
INSERT
  5
28E
330
1E
100
AcDbEntity
  8
ASHADE
 62
     5
100
AcDbBlockReference
  2
AVE_RENDER
 10
0.0
 20
0.0
 30
0.0
1001
AVE_RENDER
1002
{
1070
     1
1000
Scanl Opt
1070
     2
1070
     0
1070
     2
1040
2.0
1040
4.0
1070
     0
1070
     1
1070
     0
1040
0.03
1002
}
  0
INSERT
  5
28F
330
1E
100
AcDbEntity
  8
ASHADE
 62
     6
100
AcDbBlockReference
  2
AVE_RENDER
 10
0.0
 20
0.0
 30
0.0
1001
AVE_RENDER
1002
{
1070
     2
1000
Raytr Opt
1070
     2
1070
     0
1070
     2
1040
2.0
1040
4.0
1070
     0
1070
     1
1070
     1
1040
0.03
1070
     3
1040
0.03
1002
}
  0
INSERT
  5
290
330
1E
100
AcDbEntity
  8
ASHADE
 62
     7
100
AcDbBlockReference
  2
AVE_RENDER
 10
0.0
 20
0.0
 30
0.0
1001
AVE_RENDER
1002
{
1070
     0
1000
RFile Opt
1070
     1
1070
   640
1070
   480
1070
 10000
1070
     1
1070
     8
1070
     8
1070
     0
1070
     0
1070
     0
1070
     0
1070
     0
1070
     0
1070
     0
1002
}
  0
INSERT
  5
291
330
1E
100
AcDbEntity
  8
ASHADE
 62
     8
100
AcDbBlockReference
  2
AVE_RENDER
 10
0.0
 20
0.0
 30
0.0
1001
AVE_RENDER
1002
{
1070
     0
1000
Fog Opt
1070
     0
1070
     0
1040
0.0
1040
1.0
1040
0.0
1040
1.0
1010
0.5
1020
0.5
1030
0.5
1002
}
  0
INSERT
  5
292
330
1E
100
AcDbEntity
  8
ASHADE
 62
     9
100
AcDbBlockReference
  2
AVE_RENDER
 10
0.0
 20
0.0
 30
0.0
1001
AVE_RENDER
1002
{
1070
     0
1000
BG Opt
1070
     0
1070
     1
1010
0.0
1020
0.0
1030
0.0
1010
1.0
1020
0.0
1030
0.0
1010
0.0
1020
1.0
1030
0.0
1010
0.0
1020
0.0
1030
1.0
1040
0.5
1040
0.33
1040
0.0
1000

1070
     1
1000

1070
     1
1070
     1
1040
1.0
1040
1.0
1040
0.0
1040
0.0
1070
     0
1002
}
  0
INSERT
  5
299
330
1E
100
AcDbEntity
  8
ASHADE
 62
     1
100
AcDbBlockReference
  2
AVE_GLOBAL
 10
0.0
 20
0.0
 30
0.0
1001
AVE_MATERIAL
1002
{
1000
*GLOBAL*
1000
2
1000
Global finish.
1002
{
1002
}
1002
{
1070
    63
1002
{
1002
{
1010
-1.0
1020
-1.0
1030
-1.0
1002
}
1040
0.1000000014901161
1000

1040
0.0
1002
{
1002
}
1040
0.0
1002
{
1002
}
1040
0.0
1002
}
1002
{
1002
{
1010
-1.0
1020
-1.0
1030
-1.0
1002
}
1040
0.6999999880790711
1000

1040
0.0
1002
{
1002
}
1040
0.0
1002
{
1002
}
1040
0.0
1002
}
1002
{
1002
{
1010
-1.0
1020
-1.0
1030
-1.0
1002
}
1040
0.2000000029802322
1000

1040
0.0
1002
{
1002
}
1040
0.0
1002
{
1002
}
1040
0.0
1002
}
1002
{
1070
     0
1002
{
1070
     1
1002
{
1040
1.0
1040
1.0
1000

1040
0.0
1002
{
1002
}
1040
0.0
1002
{
1002
}
1040
0.0
1002
}
1002
}
1040
1.0
1040
0.0
1040
0.0
1002
}
1002
{
1040
1.0
1040
1.0
1000

1040
0.0
1002
{
1002
}
1040
0.0
1002
{
1002
}
1040
0.0
1002
}
1002
{
1040
0.5
1040
1.0
1000

1040
0.0
1002
{
1002
}
1040
0.0
1002
{
1002
}
1040
0.0
1002
}
1002
{
1070
     0
1040
0.0
1002
{
1002
}
1040
1.0
1002
{
1002
}
1040
0.0
1002
}
1002
{
1040
0.0
1002
{
1002
{
1010
0.0
1020
0.0
1030
0.0
1002
}
1040
1.0
1000

1040
0.0
1002
{
1002
}
1040
0.0
1002
{
1002
}
1040
0.0
1002
}
1002
}
1002
{
1002
{
1070
     1
1002
{
1040
0.0
1040
1.0
1000

1040
0.0
1002
{
1002
}
1040
0.0
1002
{
1002
}
1040
0.0
1002
}
1002
}
1040
0.0
1002
{
1002
}
1010
1.0
1020
0.0
1030
0.0
1010
0.0
1020
1.0
1030
0.0
1010
0.0
1020
0.0
1030
1.0
1070
     0
1002
}
1002
{
1002
{
1040
1.0
1040
1.0
1002
{
1070
     1
1002
{
1040
1.0
1040
1.0
1000

1040
0.0
1002
{
1002
}
1040
0.0
1002
{
1002
}
1040
0.0
1002
}
1002
}
1002
}
1070
     0
1040
0.0
1002
{
1002
}
1002
}
1002
{
1002
}
1002
}
1002
{
1071
        3
1070
     3
1070
     0
1002
{
1070
     2
1070
     0
1070
     0
1040
0.0
1002
}
1070
     0
1070
     2
1002
{
1002
}
1002
}
1002
{
1040
8030.0
1040
190.3000030517578
1040
0.3050000071525574
1040
228.0
1040
545.0
1040
14.0
1040
17.39999961853027
1040
0.4560000002384186
1002
}
1002
}
  0
LWPOLYLINE
  5
348
330
1E
100
AcDbEntity
  8
GND
100
AcDbPolyline
 90
        2
 70
     0
 43
0.2
 10
16.46192422811675
 20
-5.142902709093444
 42
1.0
 10
16.46192422811675
 20
-5.942902709093444
  0
LWPOLYLINE
  5
349
330
1E
100
AcDbEntity
  8
GND
100
AcDbPolyline
 90
        2
 70
     0
 43
0.2
 10
16.46192422811675
 20
-5.942902709093444
 42
1.0
 10
16.46192422811675
 20
-5.142902709093444
  0
DIMENSION
  5
3DA
330
1E
100
AcDbEntity
  8
METAL1
370
    15
100
AcDbDimension
  2
*D8
 10
104.0847680013027
 20
13.09517201753266
 30
0.0
 11
49.33484644318075
 21
13.09517201753266
 31
0.0
 70
    32
 71
     5
 42
109.499843116244
  3
Standard
100
AcDbAlignedDimension
 13
-5.415075114941259
 23
11.80526727683042
 33
0.0
 14
104.0847680013027
 24
11.99062508743164
 34
0.0
100
AcDbRotatedDimension
1001
ACAD
1000
DSTYLE
1002
{
1070
    41
1040
1.8
1070
   140
1040
1.8
1070
   147
1040
0.9
1070
   271
1070
     1
1002
}
  0
DIMENSION
  5
3E8
330
1E
100
AcDbEntity
  8
METAL1
370
    15
100
AcDbDimension
  2
*D9
 10
108.5646108703192
 20
-19.99682011437755
 30
0.0
 11
108.5646108703192
 21
-5.247476994840817
 31
0.0
 70
    32
 71
     5
 42
29.49868623907343
  3
Standard
100
AcDbAlignedDimension
 13
106.7211148222741
 23
9.501866124695879
 33
0.0
 14
106.9995213033402
 24
-19.99682011437755
 34
0.0
 50
90.0
100
AcDbRotatedDimension
1001
ACAD
1000
DSTYLE
1002
{
1070
    41
1040
1.8
1070
   140
1040
1.8
1070
   147
1040
0.9
1070
   271
1070
     1
1002
}
  0
SOLID
  5
769
330
1E
100
AcDbEntity
  8
METAL1
100
AcDbTrace
 10
10.56500267211209
 20
-2.48522627683941
 30
0.0
 11
12.16500267211209
 21
-2.48522627683941
 31
0.0
 12
10.56500267211209
 22
-4.08522627683941
 32
0.0
 13
12.16500267211209
 23
-4.08522627683941
 33
0.0
  0
SOLID
  5
76A
330
1E
100
AcDbEntity
  8
METAL1
100
AcDbTrace
 10
10.55503222688634
 20
-0.6931690856388038
 30
0.0
 11
10.55503222688634
 21
0.4244309143611958
 31
0.0
 12
12.23143222688634
 22
-0.6931690856388038
 32
0.0
 13
12.23143222688634
 23
0.4244309143611958
 33
0.0
  0
LWPOLYLINE
  5
76B
330
1E
100
AcDbEntity
  8
GND
100
AcDbPolyline
 90
        2
 70
     0
 43
0.2
 10
11.36500267211209
 20
-3.193833760157824
 42
1.0
 10
11.36500267211209
 20
-3.993833760157823
  0
LWPOLYLINE
  5
76C
330
1E
100
AcDbEntity
  8
GND
100
AcDbPolyline
 90
        2
 70
     0
 43
0.2
 10
11.36500267211209
 20
-3.993833760157823
 42
1.0
 10
11.36500267211209
 20
-3.193833760157824
  0
SOLID
  5
770
330
1E
100
AcDbEntity
  8
METAL1
100
AcDbTrace
 10
8.354332152673471
 20
2.272763937908917
 30
0.0
 11
10.35433215267347
 21
2.272763937908917
 31
0.0
 12
8.354332152673471
 22
0.2727639379089179
 32
0.0
 13
10.35433215267347
 23
0.2727639379089179
 33
0.0
  0
SOLID
  5
771
330
1E
100
AcDbEntity
  8
CONSTR
100
AcDbTrace
 10
11.76588656717122
 20
0.3759829979762097
 30
0.0
 11
11.02088656717122
 21
0.3759829979762097
 31
0.0
 12
11.76588656717122
 22
0.4259829979762096
 32
0.0
 13
11.02088656717122
 23
0.4259829979762096
 33
0.0
  0
LWPOLYLINE
  5
772
330
1E
100
AcDbEntity
  8
CONSTR
100
AcDbPolyline
 90
        2
 70
     0
 43
0.05
 10
11.39387656717122
 20
0.4009829979762092
 42
2291.83103
 10
11.39229656717122
 20
0.4009829979762092
  0
SOLID
  5
773
330
1E
100
AcDbEntity
  8
CONSTR
100
AcDbTrace
 10
10.46808656717122
 20
0.9281829979762097
 30
0.0
 11
10.46808656717122
 21
1.673182997976208
 31
0.0
 12
10.51808656717122
 22
0.9281829979762097
 32
0.0
 13
10.51808656717122
 23
1.673182997976208
 33
0.0
  0
SOLID
  5
774
330
1E
100
AcDbEntity
  8
CONSTR
100
AcDbTrace
 10
11.02028656717122
 20
2.22598299797621
 30
0.0
 11
11.76528656717122
 21
2.22598299797621
 31
0.0
 12
11.02028656717122
 22
2.175982997976209
 32
0.0
 13
11.76528656717122
 23
2.175982997976209
 33
0.0
  0
SOLID
  5
775
330
1E
100
AcDbEntity
  8
CONSTR
100
AcDbTrace
 10
12.31808656717122
 20
1.673782997976209
 30
0.0
 11
12.31808656717122
 21
0.9287829979762092
 31
0.0
 12
12.26808656717122
 22
1.673782997976209
 32
0.0
 13
12.26808656717122
 23
0.9287829979762092
 33
0.0
  0
SOLID
  5
776
330
1E
100
AcDbEntity
  8
CONSTR
100
AcDbTrace
 10
9.259966269798955
 20
1.580809818684603
 30
0.0
 11
9.260356269798954
 21
1.081199818684603
 31
0.0
 12
9.259966269798955
 22
1.580809818684603
 32
0.0
 13
8.760356269798954
 23
1.581199818684602
 33
0.0
  0
SOLID
  5
777
330
1E
100
AcDbEntity
  8
METAL1
100
AcDbTrace
 10
12.44308656717122
 20
2.13918299797621
 30
0.0
 11
13.56068656717122
 21
2.13918299797621
 31
0.0
 12
12.44308656717122
 22
0.46278299797621
 32
0.0
 13
13.56068656717122
 23
0.46278299797621
 33
0.0
  0
SOLID
  5
778
330
1E
100
AcDbEntity
  8
METAL1
100
AcDbTrace
 10
15.39308656717122
 20
2.13918299797621
 30
0.0
 11
16.51068656717121
 21
2.13918299797621
 31
0.0
 12
15.39308656717122
 22
0.46278299797621
 32
0.0
 13
16.51068656717121
 23
0.46278299797621
 33
0.0
  0
SOLID
  5
779
330
1E
100
AcDbEntity
  8
CONSTR
100
AcDbTrace
 10
12.6357912318728
 20
2.157421097156035
 30
0.0
 11
12.6357912318728
 21
0.557421097156035
 31
0.0
 12
12.5857912318728
 22
2.157421097156035
 32
0.0
 13
12.5857912318728
 23
0.557421097156035
 33
0.0
  0
SOLID
  5
77A
330
1E
100
AcDbEntity
  8
CONSTR
100
AcDbTrace
 10
12.6107912318728
 20
2.182421097156034
 30
0.0
 11
15.8107912318728
 21
2.182421097156034
 31
0.0
 12
12.6107912318728
 22
2.132421097156035
 32
0.0
 13
15.8107912318728
 23
2.132421097156035
 33
0.0
  0
SOLID
  5
77B
330
1E
100
AcDbEntity
  8
CONSTR
100
AcDbTrace
 10
12.6107912318728
 20
0.5824210971560344
 30
0.0
 11
15.8107912318728
 21
0.5824210971560344
 31
0.0
 12
12.6107912318728
 22
0.5324210971560346
 32
0.0
 13
15.8107912318728
 23
0.5324210971560346
 33
0.0
  0
SOLID
  5
77C
330
1E
100
AcDbEntity
  8
CONSTR
100
AcDbTrace
 10
15.8357912318728
 20
2.157421097156035
 30
0.0
 11
15.8357912318728
 21
0.557421097156035
 31
0.0
 12
15.7857912318728
 22
2.157421097156035
 32
0.0
 13
15.7857912318728
 23
0.557421097156035
 33
0.0
  0
SOLID
  5
77D
330
1E
100
AcDbEntity
  8
METAL1
100
AcDbTrace
 10
15.89308656717122
 20
1.050982997976209
 30
0.0
 11
15.89308656717122
 21
1.550982997976209
 31
0.0
 12
17.49308656717122
 22
1.050982997976209
 32
0.0
 13
17.49308656717122
 23
1.550982997976209
 33
0.0
  0
SOLID
  5
77E
330
1E
100
AcDbEntity
  8
METAL1
100
AcDbTrace
 10
15.85488656717122
 20
0.9009829979762091
 30
0.0
 11
15.85488656717122
 21
2.01858299797621
 31
0.0
 12
17.53128656717122
 22
0.9009829979762091
 32
0.0
 13
17.53128656717122
 23
2.01858299797621
 33
0.0
  0
SOLID
  5
77F
330
1E
100
AcDbEntity
  8
METAL1
100
AcDbTrace
 10
15.85488656717122
 20
3.85098299797621
 30
0.0
 11
15.85488656717122
 21
4.968582997976209
 31
0.0
 12
17.53128656717122
 22
3.85098299797621
 32
0.0
 13
17.53128656717122
 23
4.968582997976209
 33
0.0
  0
SOLID
  5
780
330
1E
100
AcDbEntity
  8
METAL1
100
AcDbTrace
 10
15.34308656717122
 20
4.35098299797621
 30
0.0
 11
15.34308656717122
 21
8.35098299797621
 31
0.0
 12
18.04308656717122
 22
4.35098299797621
 32
0.0
 13
18.04308656717122
 23
8.35098299797621
 33
0.0
  0
SOLID
  5
781
330
1E
100
AcDbEntity
  8
METAL1
100
AcDbTrace
 10
20.49308656717122
 20
1.175982997976209
 30
0.0
 11
17.49308656717122
 21
1.175982997976209
 31
0.0
 12
20.49308656717122
 22
1.425982997976209
 32
0.0
 13
17.49308656717122
 23
1.425982997976209
 33
0.0
  0
SOLID
  5
782
330
1E
100
AcDbEntity
  8
METAL1
100
AcDbTrace
 10
20.49308656717122
 20
1.175982997976209
 30
0.0
 11
20.49308656717122
 21
1.425982997976209
 31
0.0
 12
20.49308656717122
 22
1.175982997976209
 32
0.0
 13
20.74308656717122
 23
1.175982997976209
 33
0.0
  0
SOLID
  5
783
330
1E
100
AcDbEntity
  8
METAL1
100
AcDbTrace
 10
20.49308656717122
 20
-2.580617002023791
 30
0.0
 11
20.49308656717122
 21
1.175982997976209
 31
0.0
 12
20.74308656717122
 22
-2.580617002023791
 32
0.0
 13
20.74308656717122
 23
1.175982997976209
 33
0.0
  0
SOLID
  5
784
330
1E
100
AcDbEntity
  8
METAL1
100
AcDbTrace
 10
23.74308656717122
 20
-2.580617002023791
 30
0.0
 11
23.74308656717122
 21
1.175982997976209
 31
0.0
 12
23.99308656717122
 22
-2.580617002023791
 32
0.0
 13
23.99308656717122
 23
1.175982997976209
 33
0.0
  0
SOLID
  5
785
330
1E
100
AcDbEntity
  8
METAL1
100
AcDbTrace
 10
26.99308656717122
 20
-2.580617002023791
 30
0.0
 11
26.99308656717122
 21
1.175982997976209
 31
0.0
 12
27.24308656717122
 22
-2.580617002023791
 32
0.0
 13
27.24308656717122
 23
1.175982997976209
 33
0.0
  0
SOLID
  5
786
330
1E
100
AcDbEntity
  8
METAL1
100
AcDbTrace
 10
30.24308656717122
 20
-2.580617002023791
 30
0.0
 11
30.24308656717122
 21
1.175982997976209
 31
0.0
 12
30.49308656717122
 22
-2.580617002023791
 32
0.0
 13
30.49308656717122
 23
1.175982997976209
 33
0.0
  0
SOLID
  5
787
330
1E
100
AcDbEntity
  8
METAL1
100
AcDbTrace
 10
20.49308656717122
 20
-6.33721700202379
 30
0.0
 11
20.49308656717122
 21
-2.580617002023791
 31
0.0
 12
20.74308656717122
 22
-6.33721700202379
 32
0.0
 13
20.74308656717122
 23
-2.580617002023791
 33
0.0
  0
SOLID
  5
788
330
1E
100
AcDbEntity
  8
METAL1
100
AcDbTrace
 10
23.74308656717122
 20
-6.33721700202379
 30
0.0
 11
23.74308656717122
 21
-2.580617002023791
 31
0.0
 12
23.99308656717122
 22
-6.33721700202379
 32
0.0
 13
23.99308656717122
 23
-2.580617002023791
 33
0.0
  0
SOLID
  5
789
330
1E
100
AcDbEntity
  8
METAL1
100
AcDbTrace
 10
26.99308656717122
 20
-6.33721700202379
 30
0.0
 11
26.99308656717122
 21
-2.580617002023791
 31
0.0
 12
27.24308656717122
 22
-6.33721700202379
 32
0.0
 13
27.24308656717122
 23
-2.580617002023791
 33
0.0
  0
SOLID
  5
78A
330
1E
100
AcDbEntity
  8
METAL1
100
AcDbTrace
 10
30.24308656717122
 20
-6.33721700202379
 30
0.0
 11
30.24308656717122
 21
-2.580617002023791
 31
0.0
 12
30.49308656717122
 22
-6.33721700202379
 32
0.0
 13
30.49308656717122
 23
-2.580617002023791
 33
0.0
  0
SOLID
  5
78B
330
1E
100
AcDbEntity
  8
METAL1
100
AcDbTrace
 10
20.74308656717122
 20
-6.33721700202379
 30
0.0
 11
20.74308656717122
 21
-6.58721700202379
 31
0.0
 12
20.74308656717122
 22
-6.33721700202379
 32
0.0
 13
20.49308656717122
 23
-6.33721700202379
 33
0.0
  0
SOLID
  5
78C
330
1E
100
AcDbEntity
  8
METAL1
100
AcDbTrace
 10
23.74308656717122
 20
-6.58721700202379
 30
0.0
 11
20.74308656717122
 21
-6.58721700202379
 31
0.0
 12
23.74308656717122
 22
-6.33721700202379
 32
0.0
 13
20.74308656717122
 23
-6.33721700202379
 33
0.0
  0
SOLID
  5
78D
330
1E
100
AcDbEntity
  8
METAL1
100
AcDbTrace
 10
23.74308656717122
 20
-6.33721700202379
 30
0.0
 11
23.99308656717122
 21
-6.33721700202379
 31
0.0
 12
23.74308656717122
 22
-6.33721700202379
 32
0.0
 13
23.74308656717122
 23
-6.58721700202379
 33
0.0
  0
SOLID
  5
78E
330
1E
100
AcDbEntity
  8
METAL1
100
AcDbTrace
 10
27.24308656717122
 20
-6.33721700202379
 30
0.0
 11
27.24308656717122
 21
-6.58721700202379
 31
0.0
 12
27.24308656717122
 22
-6.33721700202379
 32
0.0
 13
26.99308656717122
 23
-6.33721700202379
 33
0.0
  0
SOLID
  5
78F
330
1E
100
AcDbEntity
  8
METAL1
100
AcDbTrace
 10
30.24308656717122
 20
-6.58721700202379
 30
0.0
 11
27.24308656717122
 21
-6.58721700202379
 31
0.0
 12
30.24308656717122
 22
-6.33721700202379
 32
0.0
 13
27.24308656717122
 23
-6.33721700202379
 33
0.0
  0
SOLID
  5
790
330
1E
100
AcDbEntity
  8
METAL1
100
AcDbTrace
 10
30.24308656717122
 20
-6.33721700202379
 30
0.0
 11
30.49308656717122
 21
-6.33721700202379
 31
0.0
 12
30.24308656717122
 22
-6.33721700202379
 32
0.0
 13
30.24308656717122
 23
-6.58721700202379
 33
0.0
  0
SOLID
  5
791
330
1E
100
AcDbEntity
  8
METAL1
100
AcDbTrace
 10
23.99308656717122
 20
1.175982997976209
 30
0.0
 11
23.74308656717122
 21
1.175982997976209
 31
0.0
 12
23.99308656717122
 22
1.175982997976209
 32
0.0
 13
23.99308656717122
 23
1.425982997976209
 33
0.0
  0
SOLID
  5
792
330
1E
100
AcDbEntity
  8
METAL1
100
AcDbTrace
 10
23.99308656717122
 20
1.425982997976209
 30
0.0
 11
26.99308656717122
 21
1.425982997976209
 31
0.0
 12
23.99308656717122
 22
1.175982997976209
 32
0.0
 13
26.99308656717122
 23
1.175982997976209
 33
0.0
  0
SOLID
  5
793
330
1E
100
AcDbEntity
  8
METAL1
100
AcDbTrace
 10
26.99308656717122
 20
1.175982997976209
 30
0.0
 11
26.99308656717122
 21
1.425982997976209
 31
0.0
 12
26.99308656717122
 22
1.175982997976209
 32
0.0
 13
27.24308656717122
 23
1.175982997976209
 33
0.0
  0
SOLID
  5
794
330
1E
100
AcDbEntity
  8
METAL1
100
AcDbTrace
 10
30.49308656717122
 20
1.97598299797621
 30
0.0
 11
30.49308656717122
 21
1.175982997976209
 31
0.0
 12
30.24308656717122
 22
1.97598299797621
 32
0.0
 13
30.24308656717122
 23
1.175982997976209
 33
0.0
  0
SOLID
  5
795
330
1E
100
AcDbEntity
  8
METAL1
100
AcDbTrace
 10
29.56808656717122
 20
1.97598299797621
 30
0.0
 11
29.56808656717122
 21
2.775982997976209
 31
0.0
 12
31.16808656717122
 22
1.97598299797621
 32
0.0
 13
31.16808656717122
 23
2.775982997976209
 33
0.0
  0
SOLID
  5
796
330
1E
100
AcDbEntity
  8
METAL1
100
AcDbTrace
 10
30.36808656717122
 20
2.775982997976209
 30
0.0
 11
31.16808656717122
 21
2.775982997976209
 31
0.0
 12
30.36808656717122
 22
1.175982997976209
 32
0.0
 13
31.16808656717122
 23
1.175982997976209
 33
0.0
  0
SOLID
  5
797
330
1E
100
AcDbEntity
  8
METAL1
100
AcDbTrace
 10
31.20628656717122
 20
6.22598299797621
 30
0.0
 11
31.20628656717122
 21
5.108382997976208
 31
0.0
 12
29.52988656717122
 22
6.22598299797621
 32
0.0
 13
29.52988656717122
 23
5.108382997976208
 33
0.0
  0
SOLID
  5
798
330
1E
100
AcDbEntity
  8
METAL1
100
AcDbTrace
 10
31.20628656717122
 20
3.275982997976209
 30
0.0
 11
31.20628656717122
 21
2.158382997976209
 31
0.0
 12
29.52988656717122
 22
3.275982997976209
 32
0.0
 13
29.52988656717122
 23
2.158382997976209
 33
0.0
  0
SOLID
  5
799
330
1E
100
AcDbEntity
  8
METAL1
100
AcDbTrace
 10
31.16808656717122
 20
6.375982997976208
 30
0.0
 11
31.16808656717122
 21
5.575982997976209
 31
0.0
 12
29.56808656717122
 22
6.375982997976208
 32
0.0
 13
29.56808656717122
 23
5.575982997976209
 33
0.0
  0
SOLID
  5
79A
330
1E
100
AcDbEntity
  8
METAL1
100
AcDbTrace
 10
30.24308656717122
 20
6.375982997976208
 30
0.0
 11
30.24308656717122
 21
7.175982997976209
 31
0.0
 12
30.49308656717122
 22
6.375982997976208
 32
0.0
 13
30.49308656717122
 23
7.175982997976209
 33
0.0
  0
SOLID
  5
79B
330
1E
100
AcDbEntity
  8
METAL1
100
AcDbTrace
 10
30.36808656717122
 20
7.175982997976209
 30
0.0
 11
31.16808656717122
 21
7.175982997976209
 31
0.0
 12
30.36808656717122
 22
5.575982997976209
 32
0.0
 13
31.16808656717122
 23
5.575982997976209
 33
0.0
  0
SOLID
  5
79C
330
1E
100
AcDbEntity
  8
METAL1
100
AcDbTrace
 10
30.51808656717122
 20
7.214182997976209
 30
0.0
 11
31.63568656717122
 21
7.214182997976209
 31
0.0
 12
30.51808656717122
 22
5.537782997976208
 32
0.0
 13
31.63568656717122
 23
5.537782997976208
 33
0.0
  0
SOLID
  5
79D
330
1E
100
AcDbEntity
  8
METAL1
100
AcDbTrace
 10
33.46808656717122
 20
7.214182997976209
 30
0.0
 11
34.58568656717122
 21
7.214182997976209
 31
0.0
 12
33.46808656717122
 22
5.537782997976208
 32
0.0
 13
34.58568656717122
 23
5.537782997976208
 33
0.0
  0
SOLID
  5
79E
330
1E
100
AcDbEntity
  8
METAL1
100
AcDbTrace
 10
33.96808656717122
 20
7.175982997976209
 30
0.0
 11
35.56808656717122
 21
7.175982997976209
 31
0.0
 12
33.96808656717122
 22
5.575982997976209
 32
0.0
 13
35.56808656717122
 23
5.575982997976209
 33
0.0
  0
LWPOLYLINE
  5
79F
330
1E
100
AcDbEntity
  8
GND
100
AcDbPolyline
 90
        2
 70
     0
 43
0.2
 10
34.76808656717122
 20
5.97598299797621
 42
1.0
 10
34.76808656717122
 20
6.775982997976209
  0
LWPOLYLINE
  5
7A0
330
1E
100
AcDbEntity
  8
GND
100
AcDbPolyline
 90
        2
 70
     0
 43
0.2
 10
34.76808656717122
 20
6.775982997976209
 42
1.0
 10
34.76808656717122
 20
5.97598299797621
  0
SOLID
  5
7A1
330
1E
100
AcDbEntity
  8
METAL1
100
AcDbTrace
 10
30.51808656717122
 20
2.814182997976208
 30
0.0
 11
31.63568656717122
 21
2.814182997976208
 31
0.0
 12
30.51808656717122
 22
1.137782997976209
 32
0.0
 13
31.63568656717122
 23
1.137782997976209
 33
0.0
  0
SOLID
  5
7A2
330
1E
100
AcDbEntity
  8
METAL1
100
AcDbTrace
 10
33.46808656717122
 20
2.814182997976208
 30
0.0
 11
34.58568656717122
 21
2.814182997976208
 31
0.0
 12
33.46808656717122
 22
1.137782997976209
 32
0.0
 13
34.58568656717122
 23
1.137782997976209
 33
0.0
  0
SOLID
  5
7A3
330
1E
100
AcDbEntity
  8
CONSTR
100
AcDbTrace
 10
30.99308656717122
 20
2.775982997976209
 30
0.0
 11
30.99308656717122
 21
1.175982997976209
 31
0.0
 12
30.94308656717122
 22
2.775982997976209
 32
0.0
 13
30.94308656717122
 23
1.175982997976209
 33
0.0
  0
SOLID
  5
7A4
330
1E
100
AcDbEntity
  8
METAL1
100
AcDbTrace
 10
33.96808656717122
 20
2.775982997976209
 30
0.0
 11
35.56808656717122
 21
2.775982997976209
 31
0.0
 12
33.96808656717122
 22
1.175982997976209
 32
0.0
 13
35.56808656717122
 23
1.175982997976209
 33
0.0
  0
LWPOLYLINE
  5
7A5
330
1E
100
AcDbEntity
  8
GND
100
AcDbPolyline
 90
        2
 70
     0
 43
0.2
 10
34.76808656717122
 20
1.575982997976209
 42
1.0
 10
34.76808656717122
 20
2.375982997976208
  0
LWPOLYLINE
  5
7A6
330
1E
100
AcDbEntity
  8
GND
100
AcDbPolyline
 90
        2
 70
     0
 43
0.2
 10
34.76808656717122
 20
2.375982997976208
 42
1.0
 10
34.76808656717122
 20
1.575982997976209
  0
SOLID
  5
7A7
330
1E
100
AcDbEntity
  8
METAL1
100
AcDbTrace
 10
15.85488656717122
 20
-2.749932619451876
 30
0.0
 11
15.85488656717122
 21
-1.632332619451876
 31
0.0
 12
17.53128656717122
 22
-2.749932619451876
 32
0.0
 13
17.53128656717122
 23
-1.632332619451876
 33
0.0
  0
SOLID
  5
7A8
330
1E
100
AcDbEntity
  8
METAL1
100
AcDbTrace
 10
15.85488656717122
 20
0.5509829979762096
 30
0.0
 11
15.85488656717122
 21
1.668582997976209
 31
0.0
 12
17.53128656717122
 22
0.5509829979762096
 32
0.0
 13
17.53128656717122
 23
1.668582997976209
 33
0.0
  0
SOLID
  5
7A9
330
1E
100
AcDbEntity
  8
CONSTR
100
AcDbTrace
 10
15.89308656717122
 20
1.275982997976209
 30
0.0
 11
17.49308656717122
 21
1.275982997976209
 31
0.0
 12
15.89308656717122
 22
1.225982997976209
 32
0.0
 13
17.49308656717122
 23
1.225982997976209
 33
0.0
  0
SOLID
  5
7AA
330
1E
100
AcDbEntity
  8
METAL1
100
AcDbTrace
 10
17.53128656717122
 20
-1.09901700202379
 30
0.0
 11
17.53128656717122
 21
-2.21661700202379
 31
0.0
 12
15.85488656717122
 22
-1.09901700202379
 32
0.0
 13
15.85488656717122
 23
-2.21661700202379
 33
0.0
  0
SOLID
  5
7AB
330
1E
100
AcDbEntity
  8
METAL1
100
AcDbTrace
 10
17.53128656717122
 20
-4.04901700202379
 30
0.0
 11
17.53128656717122
 21
-5.16661700202379
 31
0.0
 12
15.85488656717122
 22
-4.04901700202379
 32
0.0
 13
15.85488656717122
 23
-5.16661700202379
 33
0.0
  0
SOLID
  5
7AC
330
1E
100
AcDbEntity
  8
CONSTR
100
AcDbTrace
 10
17.49308656717122
 20
-1.57401700202379
 30
0.0
 11
15.89308656717122
 21
-1.57401700202379
 31
0.0
 12
17.49308656717122
 22
-1.52401700202379
 32
0.0
 13
15.89308656717122
 23
-1.52401700202379
 33
0.0
  0
SOLID
  5
7AD
330
1E
100
AcDbEntity
  8
METAL1
100
AcDbTrace
 10
17.49308656717122
 20
-4.54901700202379
 30
0.0
 11
17.49308656717122
 21
-6.14901700202379
 31
0.0
 12
15.89308656717122
 22
-4.54901700202379
 32
0.0
 13
15.89308656717122
 23
-6.14901700202379
 33
0.0
  0
LWPOLYLINE
  5
7AE
330
1E
100
AcDbEntity
  8
GND
100
AcDbPolyline
 90
        2
 70
     0
 43
0.2
 10
16.69308656717122
 20
-6.041446526046413
 42
1.0
 10
16.69308656717122
 20
-5.241446526046413
  0
LWPOLYLINE
  5
7AF
330
1E
100
AcDbEntity
  8
GND
100
AcDbPolyline
 90
        2
 70
     0
 43
0.2
 10
16.69308656717122
 20
-5.241446526046413
 42
1.0
 10
16.69308656717122
 20
-6.041446526046413
  0
SOLID
  5
7B0
330
1E
100
AcDbEntity
  8
METAL1
100
AcDbTrace
 10
12.23128656717122
 20
3.303449682278955
 30
0.0
 11
12.23128656717122
 21
2.185849682278956
 31
0.0
 12
10.55488656717122
 22
3.303449682278955
 32
0.0
 13
10.55488656717122
 23
2.185849682278956
 33
0.0
  0
SOLID
  5
7B1
330
1E
100
AcDbEntity
  8
CONSTR
100
AcDbTrace
 10
12.19308656717122
 20
5.97598299797621
 30
0.0
 11
10.59308656717122
 21
5.97598299797621
 31
0.0
 12
12.19308656717122
 22
6.025982997976209
 32
0.0
 13
10.59308656717122
 23
6.025982997976209
 33
0.0
  0
SOLID
  5
7B2
330
1E
100
AcDbEntity
  8
CONSTR
100
AcDbTrace
 10
12.21808656717122
 20
6.000982997976208
 30
0.0
 11
12.21808656717122
 21
2.800982997976209
 31
0.0
 12
12.16808656717122
 22
6.000982997976208
 32
0.0
 13
12.16808656717122
 23
2.800982997976209
 33
0.0
  0
SOLID
  5
7B3
330
1E
100
AcDbEntity
  8
CONSTR
100
AcDbTrace
 10
10.61808656717122
 20
6.000982997976208
 30
0.0
 11
10.61808656717122
 21
2.800982997976209
 31
0.0
 12
10.56808656717122
 22
6.000982997976208
 32
0.0
 13
10.56808656717122
 23
2.800982997976209
 33
0.0
  0
SOLID
  5
7B4
330
1E
100
AcDbEntity
  8
CONSTR
100
AcDbTrace
 10
12.19308656717122
 20
2.775982997976209
 30
0.0
 11
10.59308656717122
 21
2.775982997976209
 31
0.0
 12
12.19308656717122
 22
2.825982997976209
 32
0.0
 13
10.59308656717122
 23
2.825982997976209
 33
0.0
  0
SOLID
  5
7B5
330
1E
100
AcDbEntity
  8
METAL1
100
AcDbTrace
 10
12.19308656717122
 20
6.723725912592096
 30
0.0
 11
12.19308656717122
 21
5.123725912592096
 31
0.0
 12
10.59308656717122
 22
6.723725912592096
 32
0.0
 13
10.59308656717122
 23
5.123725912592096
 33
0.0
  0
LWPOLYLINE
  5
7B6
330
1E
100
AcDbEntity
  8
GND
100
AcDbPolyline
 90
        2
 70
     0
 43
0.2
 10
11.41238170377129
 20
5.832333395910536
 42
1.0
 10
11.41238170377129
 20
6.632333395910535
  0
LWPOLYLINE
  5
7B7
330
1E
100
AcDbEntity
  8
GND
100
AcDbPolyline
 90
        2
 70
     0
 43
0.2
 10
11.41238170377129
 20
6.632333395910535
 42
1.0
 10
11.41238170377129
 20
5.832333395910536
  0
SOLID
  5
7B8
330
1E
100
AcDbEntity
  8
CONSTR
100
AcDbTrace
 10
12.19308656717122
 20
5.97598299797621
 30
0.0
 11
10.59308656717122
 21
5.97598299797621
 31
0.0
 12
12.19308656717122
 22
6.025982997976209
 32
0.0
 13
10.59308656717122
 23
6.025982997976209
 33
0.0
  0
SOLID
  5
7B9
330
1E
100
AcDbEntity
  8
CONSTR
100
AcDbTrace
 10
12.21808656717122
 20
6.000982997976208
 30
0.0
 11
12.21808656717122
 21
2.800982997976209
 31
0.0
 12
12.16808656717122
 22
6.000982997976208
 32
0.0
 13
12.16808656717122
 23
2.800982997976209
 33
0.0
  0
SOLID
  5
7BA
330
1E
100
AcDbEntity
  8
CONSTR
100
AcDbTrace
 10
10.61808656717122
 20
6.000982997976208
 30
0.0
 11
10.61808656717122
 21
2.800982997976209
 31
0.0
 12
10.56808656717122
 22
6.000982997976208
 32
0.0
 13
10.56808656717122
 23
2.800982997976209
 33
0.0
  0
SOLID
  5
7BB
330
1E
100
AcDbEntity
  8
CONSTR
100
AcDbTrace
 10
12.19308656717122
 20
2.775982997976209
 30
0.0
 11
10.59308656717122
 21
2.775982997976209
 31
0.0
 12
12.19308656717122
 22
2.825982997976209
 32
0.0
 13
10.59308656717122
 23
2.825982997976209
 33
0.0
  0
SOLID
  5
7BC
330
1E
100
AcDbEntity
  8
METAL1
100
AcDbTrace
 10
29.51652089333445
 20
7.56621606555322
 30
0.0
 11
31.51652089333445
 21
7.56621606555322
 31
0.0
 12
29.51652089333445
 22
5.56621606555322
 32
0.0
 13
31.51652089333445
 23
5.56621606555322
 33
0.0
  0
SOLID
  5
7BD
330
1E
100
AcDbEntity
  8
METAL1
100
AcDbTrace
 10
25.58062623922646
 20
7.650873203845577
 30
0.0
 11
27.58062623922646
 21
7.650873203845577
 31
0.0
 12
25.58062623922646
 22
5.650873203845577
 32
0.0
 13
27.58062623922646
 23
5.650873203845577
 33
0.0
  0
SOLID
  5
7BE
330
1E
100
AcDbEntity
  8
METAL1
100
AcDbTrace
 10
21.61845710990206
 20
7.650873182890823
 30
0.0
 11
23.61845710990206
 21
7.650873182890823
 31
0.0
 12
21.61845710990206
 22
5.650873182890823
 32
0.0
 13
23.61845710990206
 23
5.650873182890823
 33
0.0
  0
LWPOLYLINE
  5
7C0
330
1E
100
AcDbEntity
  8
GND
100
AcDbPolyline
 90
        2
 70
     0
 43
0.2
 10
26.5782329921776
 20
7.133063643585934
 42
1.0
 10
26.5782329921776
 20
6.333063643585935
  0
LWPOLYLINE
  5
7C1
330
1E
100
AcDbEntity
  8
GND
100
AcDbPolyline
 90
        2
 70
     0
 43
0.2
 10
26.5782329921776
 20
6.333063643585935
 42
1.0
 10
26.5782329921776
 20
7.133063643585934
  0
LWPOLYLINE
  5
7C2
330
1E
100
AcDbEntity
  8
GND
100
AcDbPolyline
 90
        2
 70
     0
 43
0.2
 10
9.313746851561166
 20
1.715007023377316
 42
1.0
 10
9.313746851561166
 20
0.915007023377317
  0
LWPOLYLINE
  5
7C3
330
1E
100
AcDbEntity
  8
GND
100
AcDbPolyline
 90
        2
 70
     0
 43
0.2
 10
9.313746851561166
 20
0.915007023377317
 42
1.0
 10
9.313746851561166
 20
1.715007023377316
  0
SOLID
  5
7C4
330
1E
100
AcDbEntity
  8
CONSTR
100
AcDbTrace
 10
12.17127336658471
 20
-0.0381259495151865
 30
0.0
 11
10.57127336658471
 21
-0.0381259495151865
 31
0.0
 12
12.17127336658471
 22
0.0118740504848134
 32
0.0
 13
10.57127336658471
 23
0.0118740504848134
 33
0.0
  0
SOLID
  5
7C5
330
1E
100
AcDbEntity
  8
CONSTR
100
AcDbTrace
 10
12.19627336658471
 20
-0.0131259495151861
 30
0.0
 11
12.19627336658471
 21
-3.213125949515186
 31
0.0
 12
12.14627336658471
 22
-0.0131259495151861
 32
0.0
 13
12.14627336658471
 23
-3.213125949515186
 33
0.0
  0
SOLID
  5
7C6
330
1E
100
AcDbEntity
  8
CONSTR
100
AcDbTrace
 10
10.59627336658471
 20
-0.0131259495151861
 30
0.0
 11
10.59627336658471
 21
-3.213125949515186
 31
0.0
 12
10.54627336658471
 22
-0.0131259495151861
 32
0.0
 13
10.54627336658471
 23
-3.213125949515186
 33
0.0
  0
SOLID
  5
7C7
330
1E
100
AcDbEntity
  8
CONSTR
100
AcDbTrace
 10
12.17127336658471
 20
-3.238125949515186
 30
0.0
 11
10.57127336658471
 21
-3.238125949515186
 31
0.0
 12
12.17127336658471
 22
-3.188125949515185
 32
0.0
 13
10.57127336658471
 23
-3.188125949515185
 33
0.0
  0
SOLID
  5
7C8
330
1E
100
AcDbEntity
  8
CONSTR
100
AcDbTrace
 10
11.00260656717122
 20
0.3833029979762097
 30
0.0
 11
10.47581656717122
 21
0.9101029979762094
 31
0.0
 12
11.03796656717122
 22
0.4186629979762096
 32
0.0
 13
10.51116656717122
 23
0.9454529979762096
 33
0.0
  0
SOLID
  5
7C9
330
1E
100
AcDbEntity
  8
CONSTR
100
AcDbTrace
 10
10.47540656717122
 20
1.691462997976209
 30
0.0
 11
11.00220656717122
 21
2.218252997976209
 31
0.0
 12
10.51076656717122
 22
1.656102997976208
 32
0.0
 13
11.03755656717122
 23
2.18290299797621
 33
0.0
  0
SOLID
  5
7CA
330
1E
100
AcDbEntity
  8
CONSTR
100
AcDbTrace
 10
11.78356656717122
 20
2.21866299797621
 30
0.0
 11
12.31035656717122
 21
1.691862997976208
 31
0.0
 12
11.74820656717122
 22
2.183302997976209
 32
0.0
 13
12.27500656717122
 23
1.656512997976209
 33
0.0
  0
SOLID
  5
7CB
330
1E
100
AcDbEntity
  8
CONSTR
100
AcDbTrace
 10
12.31076656717122
 20
0.9105029979762093
 30
0.0
 11
11.78396656717122
 21
0.3837129979762093
 31
0.0
 12
12.27540656717122
 22
0.9458629979762092
 32
0.0
 13
11.74861656717122
 23
0.4190629979762095
 33
0.0
  0
TEXT
  5
7CD
330
1E
100
AcDbEntity
  8
CONSTR
100
AcDbText
 10
12.09308656717122
 20
1.350982997976209
 30
0.0
 40
0.3
  1
D
 50
90.0
100
AcDbText
  0
TEXT
  5
7CE
330
1E
100
AcDbEntity
  8
CONSTR
100
AcDbText
 10
10.89308656717122
 20
1.350982997976209
 30
0.0
 40
0.3
  1
G
 50
90.0
100
AcDbText
  0
TEXT
  5
7CF
330
1E
100
AcDbEntity
  8
CONSTR
100
AcDbText
 10
11.49308656717122
 20
1.85098299797621
 30
0.0
 40
0.3
  1
S
 50
90.0
100
AcDbText
  0
TEXT
  5
7D0
330
1E
100
AcDbEntity
  8
CONSTR
100
AcDbText
 10
11.49308656717122
 20
0.7509829979762097
 30
0.0
 40
0.3
  1
S
 50
90.0
100
AcDbText
  0
SOLID
  5
7D3
330
1E
100
AcDbEntity
  8
CONSTR
100
AcDbTrace
 10
30.96808656717122
 20
2.800982997976209
 30
0.0
 11
34.16808656717122
 21
2.800982997976209
 31
0.0
 12
30.96808656717122
 22
2.750982997976208
 32
0.0
 13
34.16808656717122
 23
2.750982997976208
 33
0.0
  0
SOLID
  5
7D4
330
1E
100
AcDbEntity
  8
CONSTR
100
AcDbTrace
 10
34.19308656717122
 20
2.775982997976209
 30
0.0
 11
34.19308656717122
 21
1.175982997976209
 31
0.0
 12
34.14308656717122
 22
2.775982997976209
 32
0.0
 13
34.14308656717122
 23
1.175982997976209
 33
0.0
  0
SOLID
  5
7D5
330
1E
100
AcDbEntity
  8
CONSTR
100
AcDbTrace
 10
30.96808656717122
 20
1.200982997976209
 30
0.0
 11
34.16808656717122
 21
1.200982997976209
 31
0.0
 12
30.96808656717122
 22
1.150982997976209
 32
0.0
 13
34.16808656717122
 23
1.150982997976209
 33
0.0
  0
SOLID
  5
7D6
330
1E
100
AcDbEntity
  8
CONSTR
100
AcDbTrace
 10
31.16808656717122
 20
2.550982997976209
 30
0.0
 11
29.56808656717122
 21
2.550982997976209
 31
0.0
 12
31.16808656717122
 22
2.60098299797621
 32
0.0
 13
29.56808656717122
 23
2.60098299797621
 33
0.0
  0
SOLID
  5
7D7
330
1E
100
AcDbEntity
  8
CONSTR
100
AcDbTrace
 10
31.19308656717122
 20
5.775982997976209
 30
0.0
 11
31.19308656717122
 21
2.575982997976209
 31
0.0
 12
31.14308656717122
 22
5.775982997976209
 32
0.0
 13
31.14308656717122
 23
2.575982997976209
 33
0.0
  0
SOLID
  5
7D8
330
1E
100
AcDbEntity
  8
CONSTR
100
AcDbTrace
 10
15.89308656717122
 20
1.375982997976209
 30
0.0
 11
17.49308656717122
 21
1.375982997976209
 31
0.0
 12
15.89308656717122
 22
1.325982997976209
 32
0.0
 13
17.49308656717122
 23
1.325982997976209
 33
0.0
  0
SOLID
  5
7D9
330
1E
100
AcDbEntity
  8
CONSTR
100
AcDbTrace
 10
15.86808656717122
 20
1.350982997976209
 30
0.0
 11
15.86808656717122
 21
4.550982997976209
 31
0.0
 12
15.91808656717122
 22
1.350982997976209
 32
0.0
 13
15.91808656717122
 23
4.550982997976209
 33
0.0
  0
SOLID
  5
7DA
330
1E
100
AcDbEntity
  8
CONSTR
100
AcDbTrace
 10
17.46808656717122
 20
1.350982997976209
 30
0.0
 11
17.46808656717122
 21
4.550982997976209
 31
0.0
 12
17.51808656717122
 22
1.350982997976209
 32
0.0
 13
17.51808656717122
 23
4.550982997976209
 33
0.0
  0
SOLID
  5
7DB
330
1E
100
AcDbEntity
  8
CONSTR
100
AcDbTrace
 10
15.89308656717122
 20
4.575982997976209
 30
0.0
 11
17.49308656717122
 21
4.575982997976209
 31
0.0
 12
15.89308656717122
 22
4.525982997976209
 32
0.0
 13
17.49308656717122
 23
4.525982997976209
 33
0.0
  0
SOLID
  5
7DC
330
1E
100
AcDbEntity
  8
CONSTR
100
AcDbTrace
 10
31.16808656717122
 20
5.750982997976208
 30
0.0
 11
29.56808656717122
 21
5.750982997976208
 31
0.0
 12
31.16808656717122
 22
5.800982997976209
 32
0.0
 13
29.56808656717122
 23
5.800982997976209
 33
0.0
  0
SOLID
  5
7DD
330
1E
100
AcDbEntity
  8
CONSTR
100
AcDbTrace
 10
29.59308656717121
 20
5.775982997976209
 30
0.0
 11
29.59308656717121
 21
2.575982997976209
 31
0.0
 12
29.54308656717122
 22
5.775982997976209
 32
0.0
 13
29.54308656717122
 23
2.575982997976209
 33
0.0
  0
SOLID
  5
7DE
330
1E
100
AcDbEntity
  8
CONSTR
100
AcDbTrace
 10
30.99308656717122
 20
7.175982997976209
 30
0.0
 11
30.99308656717122
 21
5.575982997976209
 31
0.0
 12
30.94308656717122
 22
7.175982997976209
 32
0.0
 13
30.94308656717122
 23
5.575982997976209
 33
0.0
  0
SOLID
  5
7DF
330
1E
100
AcDbEntity
  8
CONSTR
100
AcDbTrace
 10
30.96808656717122
 20
7.200982997976209
 30
0.0
 11
34.16808656717122
 21
7.200982997976209
 31
0.0
 12
30.96808656717122
 22
7.150982997976209
 32
0.0
 13
34.16808656717122
 23
7.150982997976209
 33
0.0
  0
SOLID
  5
7E0
330
1E
100
AcDbEntity
  8
CONSTR
100
AcDbTrace
 10
30.96808656717122
 20
5.60098299797621
 30
0.0
 11
34.16808656717122
 21
5.60098299797621
 31
0.0
 12
30.96808656717122
 22
5.550982997976209
 32
0.0
 13
34.16808656717122
 23
5.550982997976209
 33
0.0
  0
SOLID
  5
7E1
330
1E
100
AcDbEntity
  8
CONSTR
100
AcDbTrace
 10
34.19308656717122
 20
7.175982997976209
 30
0.0
 11
34.19308656717122
 21
5.575982997976209
 31
0.0
 12
34.14308656717122
 22
7.175982997976209
 32
0.0
 13
34.14308656717122
 23
5.575982997976209
 33
0.0
  0
SOLID
  5
7E2
330
1E
100
AcDbEntity
  8
CONSTR
100
AcDbTrace
 10
15.89308656717122
 20
-1.92401700202379
 30
0.0
 11
17.49308656717122
 21
-1.92401700202379
 31
0.0
 12
15.89308656717122
 22
-1.97401700202379
 32
0.0
 13
17.49308656717122
 23
-1.97401700202379
 33
0.0
  0
SOLID
  5
7E3
330
1E
100
AcDbEntity
  8
CONSTR
100
AcDbTrace
 10
15.86808656717122
 20
-1.94901700202379
 30
0.0
 11
15.86808656717122
 21
1.250982997976209
 31
0.0
 12
15.91808656717122
 22
-1.94901700202379
 32
0.0
 13
15.91808656717122
 23
1.250982997976209
 33
0.0
  0
SOLID
  5
7E4
330
1E
100
AcDbEntity
  8
CONSTR
100
AcDbTrace
 10
17.46808656717122
 20
-1.94901700202379
 30
0.0
 11
17.46808656717122
 21
1.250982997976209
 31
0.0
 12
17.51808656717122
 22
-1.94901700202379
 32
0.0
 13
17.51808656717122
 23
1.250982997976209
 33
0.0
  0
SOLID
  5
7E5
330
1E
100
AcDbEntity
  8
CONSTR
100
AcDbTrace
 10
17.51808656717122
 20
-1.54901700202379
 30
0.0
 11
17.51808656717122
 21
-4.74901700202379
 31
0.0
 12
17.46808656717122
 22
-1.54901700202379
 32
0.0
 13
17.46808656717122
 23
-4.74901700202379
 33
0.0
  0
SOLID
  5
7E6
330
1E
100
AcDbEntity
  8
CONSTR
100
AcDbTrace
 10
15.91808656717122
 20
-1.54901700202379
 30
0.0
 11
15.91808656717122
 21
-4.74901700202379
 31
0.0
 12
15.86808656717122
 22
-1.54901700202379
 32
0.0
 13
15.86808656717122
 23
-4.74901700202379
 33
0.0
  0
SOLID
  5
7E7
330
1E
100
AcDbEntity
  8
CONSTR
100
AcDbTrace
 10
17.49308656717122
 20
-4.77401700202379
 30
0.0
 11
15.89308656717122
 21
-4.77401700202379
 31
0.0
 12
17.49308656717122
 22
-4.72401700202379
 32
0.0
 13
15.89308656717122
 23
-4.72401700202379
 33
0.0
  0
LWPOLYLINE
  5
7FC
330
1E
100
AcDbEntity
  8
CONSTR
100
AcDbPolyline
 90
        2
 70
     0
 43
0.0
 10
24.57214480103033
 20
7.915289603174642
 10
23.02293786674312
 20
7.429468386939845
  0
LWPOLYLINE
  5
803
330
1E
100
AcDbEntity
  8
CONSTR
100
AcDbPolyline
 90
        2
 70
     0
 43
0.0
 10
28.41315691221754
 20
8.043870443479931
 10
30.02311692395679
 20
7.588412914695027
  0
ENDSEC
  0
SECTION
  2
OBJECTS
  0
DICTIONARY
  5
C
330
0
100
AcDbDictionary
281
     1
  3
ACAD_GROUP
350
D
  3
ACAD_LAYOUT
350
19
  3
ACAD_MLINESTYLE
350
16
  3
ACAD_PLOTSETTINGS
350
18
  3
ACAD_PLOTSTYLENAME
350
E
  3
AcDbVariableDictionary
350
E3
  3
AVE_ACITABLE
350
29A
  0
DICTIONARY
  5
E5
330
1E
100
AcDbDictionary
280
     1
281
     1
  3
ACAD_SORTENTS
360
E6
  0
DICTIONARY
  5
D
102
{ACAD_REACTORS
330
C
102
}
330
C
100
AcDbDictionary
281
     1
  0
DICTIONARY
  5
19
102
{ACAD_REACTORS
330
C
102
}
330
C
100
AcDbDictionary
281
     1
  3
Layout1
350
1D
  3
Model
350
21
  0
DICTIONARY
  5
16
102
{ACAD_REACTORS
330
C
102
}
330
C
100
AcDbDictionary
281
     1
  3
Standard
350
17
  0
DICTIONARY
  5
18
102
{ACAD_REACTORS
330
C
102
}
330
C
100
AcDbDictionary
281
     1
  0
ACDBDICTIONARYWDFLT
  5
E
102
{ACAD_REACTORS
330
C
102
}
330
C
100
AcDbDictionary
281
     1
  3
Normal
350
F
100
AcDbDictionaryWithDefault
340
F
  0
DICTIONARY
  5
E3
102
{ACAD_REACTORS
330
C
102
}
330
C
100
AcDbDictionary
281
     1
  3
DIMASSOC
350
827
  3
SORTENTS
350
E4
  0
DICTIONARY
  5
29A
102
{ACAD_REACTORS
330
C
102
}
330
C
100
AcDbDictionary
281
     1
  0
SORTENTSTABLE
  5
E6
102
{ACAD_REACTORS
330
E5
102
}
330
E5
100
AcDbSortentsTable
330
1E
331
1C8
  5
1D1
331
78D
  5
783
331
28F
  5
336
331
1D0
  5
1E5
331
7D4
  5
7C6
331
795
  5
78B
331
7DC
  5
7CF
331
79D
  5
793
331
7A5
  5
79B
331
3D
  5
7E4
331
1E8
  5
1EA
331
181
  5
1A9
331
7E4
  5
7D9
331
7AD
  5
7A3
331
1F0
  5
1F1
331
1A1
  5
1BB
331
7FC
  5
7DD
331
7B5
  5
7AB
331
1F8
  5
7DF
331
1A9
  5
1BE
331
776
  5
7E5
331
7BD
  5
26
331
77E
  5
774
331
786
  5
77C
331
7C5
  5
7B9
331
BD
  5
11B
331
7CD
  5
7C1
331
78E
  5
784
331
290
  5
339
331
1D1
  5
1E6
331
7D5
  5
7C7
331
796
  5
78C
331
7DD
  5
7D0
331
79E
  5
794
331
17A
  5
1A8
331
348
  5
341
331
7A6
  5
79C
331
D5
  5
121
331
26
  5
64
331
1E9
  5
1EB
331
7AE
  5
7A4
331
1F1
  5
1F8
331
7E5
  5
7DA
331
7B6
  5
7AC
331
777
  5
76A
331
3E8
  5
3A2
331
7BE
  5
7B3
331
77F
  5
775
331
7C6
  5
7BA
331
787
  5
77D
331
78F
  5
785
331
291
  5
33A
331
1D2
  5
7E7
331
7CE
  5
7C2
331
7D6
  5
7C8
331
797
  5
78D
331
299
  5
33D
331
79F
  5
795
331
349
  5
342
331
7DE
  5
7D3
331
7A7
  5
79D
331
3F
  5
7E2
331
183
  5
1AB
331
1EA
  5
1EF
331
7E6
  5
7DB
331
770
  5
3CB
331
7AF
  5
7A5
331
7B7
  5
7AD
331
778
  5
76B
331
780
  5
776
331
1BB
  5
7E6
331
7C7
  5
7BB
331
9F
  5
CE
331
788
  5
77E
331
7CF
  5
7C3
331
292
  5
33C
331
790
  5
786
331
7D7
  5
7C9
331
798
  5
78E
331
7DF
  5
7D4
331
7A0
  5
796
331
7A8
  5
79E
331
769
  5
3A3
331
3DA
  5
3A1
331
1EB
  5
7FC
331
7E7
  5
7DC
331
7B0
  5
7A6
331
771
  5
3CC
331
7B8
  5
7AE
331
779
  5
76C
331
7C0
  5
7B4
331
781
  5
777
331
58
  5
6E
331
789
  5
77F
331
28B
  5
291
331
7C8
  5
7BC
331
7D0
  5
7C4
331
791
  5
787
331
7D8
  5
7CA
331
799
  5
78F
331
7A1
  5
797
331
41
  5
7E3
331
7E0
  5
7D5
331
76A
  5
3A4
331
1EC
  5
803
331
7A9
  5
79F
331
7B1
  5
7A7
331
1A5
  5
1BC
331
772
  5
3D9
331
7B9
  5
7AF
331
77A
  5
770
331
7C1
  5
7B5
331
782
  5
778
331
7C9
  5
7BD
331
28C
  5
292
331
78A
  5
780
331
792
  5
788
331
79A
  5
790
331
1E5
  5
1E7
331
7D9
  5
7CB
331
7A2
  5
798
331
2A
  5
65
331
7E1
  5
7D6
331
7AA
  5
7A0
331
76B
  5
3A5
331
7B2
  5
7A8
331
773
  5
3DA
331
77B
  5
771
331
7BA
  5
7B0
331
7C2
  5
7B6
331
1BE
  5
1C0
331
783
  5
779
331
BA
  5
114
331
7CA
  5
7BE
331
28D
  5
299
331
78B
  5
781
331
793
  5
789
331
7DA
  5
7CD
331
1E6
  5
1E8
331
79B
  5
791
331
7A3
  5
799
331
D2
  5
28C
331
3B
  5
7E1
331
118
  5
19A
331
7E2
  5
7D7
331
7AB
  5
7A1
331
1EE
  5
7E0
331
76C
  5
3BA
331
7B3
  5
7A9
331
774
  5
3E8
331
1A7
  5
3A0
331
7BB
  5
7B1
331
77C
  5
772
331
7C3
  5
7B7
331
784
  5
77A
331
5B
  5
B1
331
7CB
  5
7C0
331
78C
  5
782
331
1CF
  5
1D2
331
28E
  5
335
331
794
  5
78A
331
7D3
  5
7C5
331
7DB
  5
7CE
331
1E7
  5
1E9
331
79C
  5
792
331
7A4
  5
79A
331
7E3
  5
7D8
331
7AC
  5
7A2
331
1A0
  5
1BA
331
1EF
  5
1F0
331
775
  5
769
331
1A8
  5
1BD
331
7B4
  5
7AA
331
803
  5
7DE
331
7BC
  5
7B2
331
77D
  5
773
331
7C4
  5
7B8
331
785
  5
77B
  0
LAYOUT
  5
1D
102
{ACAD_REACTORS
330
19
102
}
330
19
100
AcDbPlotSettings
  1

  2
HP LaserJet 5L PCL
  4

  6

 40
0.0
 41
0.0
 42
0.0
 43
0.0
 44
0.0
 45
0.0
 46
0.0
 47
0.0
 48
0.0
 49
0.0
140
0.0
141
0.0
142
1.0
143
1.0
 70
   688
 72
     0
 73
     0
 74
     5
  7

 75
    16
147
1.0
148
0.0
149
0.0
100
AcDbLayout
  1
Layout1
 70
     1
 71
     1
 10
0.0
 20
0.0
 11
12.0
 21
9.0
 12
0.0
 22
0.0
 32
0.0
 14
1.000000000000000E+20
 24
1.000000000000000E+20
 34
1.000000000000000E+20
 15
-1.000000000000000E+20
 25
-1.000000000000000E+20
 35
-1.000000000000000E+20
146
0.0
 13
0.0
 23
0.0
 33
0.0
 16
1.0
 26
0.0
 36
0.0
 17
0.0
 27
1.0
 37
0.0
 76
     0
330
1A
  0
LAYOUT
  5
21
102
{ACAD_REACTORS
330
19
102
}
330
19
100
AcDbPlotSettings
  1

  2
HP LaserJet 5L PCL
  4
A4
  6

 40
6.297083377838134
 41
7.143756389617919
 42
7.397750854492187
 43
7.14373779296875
 44
210.0579986572265
 45
296.9259948730469
 46
64.19
 47
24.59
 48
0.0
 49
0.0
140
0.0
141
0.0
142
1.0
143
0.5
 70
 11956
 72
     1
 73
     1
 74
     1
  7

 75
    27
147
2.0
148
5.462660251745774
149
19.99847995510724
100
AcDbLayout
  1
Model
 70
     1
 71
     0
 10
0.0
 20
0.0
 11
12.0
 21
9.0
 12
0.0
 22
0.0
 32
0.0
 14
0.0
 24
0.0
 34
0.0
 15
0.0
 25
0.0
 35
0.0
146
0.0
 13
0.0
 23
0.0
 33
0.0
 16
1.0
 26
0.0
 36
0.0
 17
0.0
 27
1.0
 37
0.0
 76
     0
330
1E
  0
MLINESTYLE
  5
17
102
{ACAD_REACTORS
330
16
102
}
330
16
100
AcDbMlineStyle
  2
STANDARD
 70
     0
  3

 62
   256
 51
90.0
 52
90.0
 71
     2
 49
0.5
 62
   256
  6
BYLAYER
 49
-0.5
 62
   256
  6
BYLAYER
  0
ACDBPLACEHOLDER
  5
F
102
{ACAD_REACTORS
330
E
102
}
330
E
  0
DICTIONARYVAR
  5
827
102
{ACAD_REACTORS
330
E3
102
}
330
E3
100
DictionaryVariables
280
     0
  1
1
  0
DICTIONARYVAR
  5
E4
102
{ACAD_REACTORS
330
E3
102
}
330
E3
100
DictionaryVariables
280
     0
  1
127
  0
ENDSEC
  0
EOF
