  0
SECTION
  2
HEADER
  9
$ACADVER
  1
AC1015
  9
$ACADMAINTVER
 70
    13
  9
$DWGCODEPAGE
  3
ANSI_1252
  9
$INSBASE
 10
0.0
 20
0.0
 30
0.0
  9
$EXTMIN
 10
-4.309950051657295
 20
-18.77740733483269
 30
0.0
  9
$EXTMAX
 10
92.62284123265887
 20
17.12633770394728
 30
0.0
  9
$LIMMIN
 10
0.0
 20
0.0
  9
$LIMMAX
 10
12.0
 20
9.0
  9
$ORTHOMODE
 70
     0
  9
$REGENMODE
 70
     1
  9
$FILLMODE
 70
     1
  9
$QTEXTMODE
 70
     0
  9
$MIRRTEXT
 70
     1
  9
$LTSCALE
 40
1.0
  9
$ATTMODE
 70
     1
  9
$TEXTSIZE
 40
0.2
  9
$TRACEWID
 40
0.05
  9
$TEXTSTYLE
  7
Standard
  9
$CLAYER
  8
METAL1
  9
$CELTYPE
  6
ByLayer
  9
$CECOLOR
 62
   256
  9
$CELTSCALE
 40
1.0
  9
$DISPSILH
 70
     0
  9
$DIMSCALE
 40
1.0
  9
$DIMASZ
 40
0.18
  9
$DIMEXO
 40
0.0625
  9
$DIMDLI
 40
0.38
  9
$DIMRND
 40
0.0
  9
$DIMDLE
 40
0.0
  9
$DIMEXE
 40
0.18
  9
$DIMTP
 40
0.0
  9
$DIMTM
 40
0.0
  9
$DIMTXT
 40
0.18
  9
$DIMCEN
 40
0.09
  9
$DIMTSZ
 40
0.0
  9
$DIMTOL
 70
     0
  9
$DIMLIM
 70
     0
  9
$DIMTIH
 70
     1
  9
$DIMTOH
 70
     1
  9
$DIMSE1
 70
     0
  9
$DIMSE2
 70
     0
  9
$DIMTAD
 70
     0
  9
$DIMZIN
 70
     0
  9
$DIMBLK
  1

  9
$DIMASO
 70
     1
  9
$DIMSHO
 70
     1
  9
$DIMPOST
  1

  9
$DIMAPOST
  1

  9
$DIMALT
 70
     0
  9
$DIMALTD
 70
     2
  9
$DIMALTF
 40
25.4
  9
$DIMLFAC
 40
1.0
  9
$DIMTOFL
 70
     0
  9
$DIMTVP
 40
0.0
  9
$DIMTIX
 70
     0
  9
$DIMSOXD
 70
     0
  9
$DIMSAH
 70
     0
  9
$DIMBLK1
  1

  9
$DIMBLK2
  1

  9
$DIMSTYLE
  2
Standard
  9
$DIMCLRD
 70
     0
  9
$DIMCLRE
 70
     0
  9
$DIMCLRT
 70
     0
  9
$DIMTFAC
 40
1.0
  9
$DIMGAP
 40
0.09
  9
$DIMJUST
 70
     0
  9
$DIMSD1
 70
     0
  9
$DIMSD2
 70
     0
  9
$DIMTOLJ
 70
     1
  9
$DIMTZIN
 70
     0
  9
$DIMALTZ
 70
     0
  9
$DIMALTTZ
 70
     0
  9
$DIMUPT
 70
     0
  9
$DIMDEC
 70
     4
  9
$DIMTDEC
 70
     4
  9
$DIMALTU
 70
     2
  9
$DIMALTTD
 70
     2
  9
$DIMTXSTY
  7
Standard
  9
$DIMAUNIT
 70
     0
  9
$DIMADEC
 70
     0
  9
$DIMALTRND
 40
0.0
  9
$DIMAZIN
 70
     0
  9
$DIMDSEP
 70
    46
  9
$DIMATFIT
 70
     3
  9
$DIMFRAC
 70
     0
  9
$DIMLDRBLK
  1

  9
$DIMLUNIT
 70
     2
  9
$DIMLWD
 70
    -2
  9
$DIMLWE
 70
    -2
  9
$DIMTMOVE
 70
     0
  9
$LUNITS
 70
     2
  9
$LUPREC
 70
     4
  9
$SKETCHINC
 40
0.1
  9
$FILLETRAD
 40
0.0
  9
$AUNITS
 70
     0
  9
$AUPREC
 70
     0
  9
$MENU
  1
.
  9
$ELEVATION
 40
0.0
  9
$PELEVATION
 40
0.0
  9
$THICKNESS
 40
0.0
  9
$LIMCHECK
 70
     0
  9
$CHAMFERA
 40
0.0
  9
$CHAMFERB
 40
0.0
  9
$CHAMFERC
 40
0.0
  9
$CHAMFERD
 40
0.0
  9
$SKPOLY
 70
     0
  9
$TDCREATE
 40
2451733.521901504
  9
$TDUCREATE
 40
2451733.438568171
  9
$TDUPDATE
 40
2452548.484951018
  9
$TDUUPDATE
 40
2452548.401617685
  9
$TDINDWG
 40
0.1353438889
  9
$TDUSRTIMER
 40
0.1353438889
  9
$USRTIMER
 70
     1
  9
$ANGBASE
 50
0.0
  9
$ANGDIR
 70
     0
  9
$PDMODE
 70
     0
  9
$PDSIZE
 40
0.0
  9
$PLINEWID
 40
0.0
  9
$SPLFRAME
 70
     0
  9
$SPLINETYPE
 70
     6
  9
$SPLINESEGS
 70
     8
  9
$HANDSEED
  5
5A9
  9
$SURFTAB1
 70
     6
  9
$SURFTAB2
 70
     6
  9
$SURFTYPE
 70
     6
  9
$SURFU
 70
     6
  9
$SURFV
 70
     6
  9
$UCSBASE
  2

  9
$UCSNAME
  2

  9
$UCSORG
 10
0.0
 20
0.0
 30
0.0
  9
$UCSXDIR
 10
1.0
 20
0.0
 30
0.0
  9
$UCSYDIR
 10
0.0
 20
1.0
 30
0.0
  9
$UCSORTHOREF
  2

  9
$UCSORTHOVIEW
 70
     0
  9
$UCSORGTOP
 10
0.0
 20
0.0
 30
0.0
  9
$UCSORGBOTTOM
 10
0.0
 20
0.0
 30
0.0
  9
$UCSORGLEFT
 10
0.0
 20
0.0
 30
0.0
  9
$UCSORGRIGHT
 10
0.0
 20
0.0
 30
0.0
  9
$UCSORGFRONT
 10
0.0
 20
0.0
 30
0.0
  9
$UCSORGBACK
 10
0.0
 20
0.0
 30
0.0
  9
$PUCSBASE
  2

  9
$PUCSNAME
  2

  9
$PUCSORG
 10
0.0
 20
0.0
 30
0.0
  9
$PUCSXDIR
 10
1.0
 20
0.0
 30
0.0
  9
$PUCSYDIR
 10
0.0
 20
1.0
 30
0.0
  9
$PUCSORTHOREF
  2

  9
$PUCSORTHOVIEW
 70
     0
  9
$PUCSORGTOP
 10
0.0
 20
0.0
 30
0.0
  9
$PUCSORGBOTTOM
 10
0.0
 20
0.0
 30
0.0
  9
$PUCSORGLEFT
 10
0.0
 20
0.0
 30
0.0
  9
$PUCSORGRIGHT
 10
0.0
 20
0.0
 30
0.0
  9
$PUCSORGFRONT
 10
0.0
 20
0.0
 30
0.0
  9
$PUCSORGBACK
 10
0.0
 20
0.0
 30
0.0
  9
$USERI1
 70
     0
  9
$USERI2
 70
     0
  9
$USERI3
 70
     0
  9
$USERI4
 70
     0
  9
$USERI5
 70
     0
  9
$USERR1
 40
0.0
  9
$USERR2
 40
0.0
  9
$USERR3
 40
0.0
  9
$USERR4
 40
0.0
  9
$USERR5
 40
0.0
  9
$WORLDVIEW
 70
     1
  9
$SHADEDGE
 70
     3
  9
$SHADEDIF
 70
    70
  9
$TILEMODE
 70
     1
  9
$MAXACTVP
 70
    64
  9
$PINSBASE
 10
0.0
 20
0.0
 30
0.0
  9
$PLIMCHECK
 70
     0
  9
$PEXTMIN
 10
1.000000000000000E+20
 20
1.000000000000000E+20
 30
1.000000000000000E+20
  9
$PEXTMAX
 10
-1.000000000000000E+20
 20
-1.000000000000000E+20
 30
-1.000000000000000E+20
  9
$PLIMMIN
 10
0.0
 20
0.0
  9
$PLIMMAX
 10
12.0
 20
9.0
  9
$UNITMODE
 70
     0
  9
$VISRETAIN
 70
     1
  9
$PLINEGEN
 70
     0
  9
$PSLTSCALE
 70
     1
  9
$TREEDEPTH
 70
  3020
  9
$CMLSTYLE
  2
Standard
  9
$CMLJUST
 70
     0
  9
$CMLSCALE
 40
1.0
  9
$PROXYGRAPHICS
 70
     1
  9
$MEASUREMENT
 70
     0
  9
$CELWEIGHT
370
    -1
  9
$ENDCAPS
280
     0
  9
$JOINSTYLE
280
     0
  9
$LWDISPLAY
290
     1
  9
$INSUNITS
 70
     0
  9
$HYPERLINKBASE
  1

  9
$STYLESHEET
  1

  9
$XEDIT
290
     1
  9
$CEPSNTYPE
380
     0
  9
$PSTYLEMODE
290
     1
  9
$FINGERPRINTGUID
  2
{A66B420F-53FF-11D4-A43B-BCC82654BB33}
  9
$VERSIONGUID
  2
{2D92739E-BC0E-4B13-A1FB-634E36EA99BE}
  9
$EXTNAMES
290
     1
  9
$PSVPSCALE
 40
0.0
  9
$OLESTARTUP
290
     0
  0
ENDSEC
  0
SECTION
  2
CLASSES
  0
CLASS
  1
ACDBDICTIONARYWDFLT
  2
AcDbDictionaryWithDefault
  3
AutoCAD 2000
 90
        0
280
     0
281
     0
  0
CLASS
  1
ACDBPLACEHOLDER
  2
AcDbPlaceHolder
  3
AutoCAD 2000
 90
        0
280
     0
281
     0
  0
CLASS
  1
LAYOUT
  2
AcDbLayout
  3
AutoCAD 2000
 90
        0
280
     0
281
     0
  0
CLASS
  1
DICTIONARYVAR
  2
AcDbDictionaryVar
  3
AutoCAD 2000
 90
        0
280
     0
281
     0
  0
CLASS
  1
SORTENTSTABLE
  2
AcDbSortentsTable
  3
AutoCAD 2000
 90
        0
280
     0
281
     0
  0
ENDSEC
  0
SECTION
  2
TABLES
  0
TABLE
  2
VPORT
  5
8
330
0
100
AcDbSymbolTable
 70
     2
  0
VPORT
  5
5A8
330
8
100
AcDbSymbolTableRecord
100
AcDbViewportTableRecord
  2
*Active
 70
     0
 10
0.0
 20
0.0
 11
1.0
 21
1.0
 12
44.15644604189303
 22
-0.8255346482477605
 13
0.0
 23
0.0
 14
1.0
 24
1.0
 15
0.0
 25
0.0
 16
0.0
 26
0.0
 36
1.0
 17
0.0
 27
0.0
 37
0.0
 40
67.27172640162901
 41
1.448317307692307
 42
50.0
 43
0.0
 44
0.0
 50
0.0
 51
0.0
 71
     0
 72
   100
 73
     1
 74
     2
 75
     0
 76
     0
 77
     0
 78
     0
281
     0
 65
     1
110
0.0
120
0.0
130
0.0
111
1.0
121
0.0
131
0.0
112
0.0
122
1.0
132
0.0
 79
     0
146
0.0
  0
ENDTAB
  0
TABLE
  2
LTYPE
  5
5
330
0
100
AcDbSymbolTable
 70
     1
  0
LTYPE
  5
13
330
5
100
AcDbSymbolTableRecord
100
AcDbLinetypeTableRecord
  2
ByBlock
 70
     0
  3

 72
    65
 73
     0
 40
0.0
  0
LTYPE
  5
14
330
5
100
AcDbSymbolTableRecord
100
AcDbLinetypeTableRecord
  2
ByLayer
 70
     0
  3

 72
    65
 73
     0
 40
0.0
  0
LTYPE
  5
15
330
5
100
AcDbSymbolTableRecord
100
AcDbLinetypeTableRecord
  2
Continuous
 70
     0
  3
Solid line
 72
    65
 73
     0
 40
0.0
  0
ENDTAB
  0
TABLE
  2
LAYER
  5
2
330
0
100
AcDbSymbolTable
 70
     5
  0
LAYER
  5
10
330
2
100
AcDbSymbolTableRecord
100
AcDbLayerTableRecord
  2
0
 70
     0
 62
     7
  6
Continuous
370
    -3
390
F
  0
LAYER
  5
22
330
2
100
AcDbSymbolTableRecord
100
AcDbLayerTableRecord
  2
METAL1
 70
     0
 62
     7
  6
Continuous
370
    -3
390
F
  0
LAYER
  5
24
330
2
100
AcDbSymbolTableRecord
100
AcDbLayerTableRecord
  2
CONSTR
 70
     0
 62
    -7
  6
Continuous
370
    -3
390
F
  0
LAYER
  5
82
330
2
100
AcDbSymbolTableRecord
100
AcDbLayerTableRecord
  2
GND
 70
     0
 62
   254
  6
Continuous
370
    -3
390
F
  0
LAYER
  5
169
330
2
100
AcDbSymbolTableRecord
100
AcDbLayerTableRecord
  2
Defpoints
 70
     0
 62
     7
  6
Continuous
290
     0
370
    -3
390
F
  0
ENDTAB
  0
TABLE
  2
STYLE
  5
3
330
0
100
AcDbSymbolTable
 70
     1
  0
STYLE
  5
11
330
3
100
AcDbSymbolTableRecord
100
AcDbTextStyleTableRecord
  2
Standard
 70
     0
 40
0.0
 41
1.0
 50
0.0
 71
     0
 42
0.2
  3
txt
  4

  0
ENDTAB
  0
TABLE
  2
VIEW
  5
6
330
0
100
AcDbSymbolTable
 70
     0
  0
ENDTAB
  0
TABLE
  2
UCS
  5
7
330
0
100
AcDbSymbolTable
 70
     0
  0
ENDTAB
  0
TABLE
  2
APPID
  5
9
330
0
100
AcDbSymbolTable
 70
     1
  0
APPID
  5
12
330
9
100
AcDbSymbolTableRecord
100
AcDbRegAppTableRecord
  2
ACAD
 70
     0
  0
ENDTAB
  0
TABLE
  2
DIMSTYLE
  5
A
330
0
100
AcDbSymbolTable
 70
     2
100
AcDbDimStyleTable
 71
     1
340
C1
  0
DIMSTYLE
105
C1
102
{ACAD_REACTORS
330
4B2
330
4C0
102
}
330
A
100
AcDbSymbolTableRecord
100
AcDbDimStyleTableRecord
  2
Standard
 70
     0
340
11
  0
DIMSTYLE
105
412
330
A
100
AcDbSymbolTableRecord
100
AcDbDimStyleTableRecord
  2
ISO-25
 70
     0
 41
2.5
 42
0.625
 43
3.75
 44
1.25
 73
     0
 74
     0
 77
     1
 78
     8
140
2.5
141
2.5
143
0.03937007874016
147
0.625
171
     3
172
     1
271
     2
272
     2
274
     3
278
    44
283
     0
284
     8
340
11
  0
ENDTAB
  0
TABLE
  2
BLOCK_RECORD
  5
1
330
0
100
AcDbSymbolTable
 70
     9
  0
BLOCK_RECORD
  5
1E
102
{ACAD_XDICTIONARY
360
C6
102
}
330
1
100
AcDbSymbolTableRecord
100
AcDbBlockTableRecord
  2
*Model_Space
340
21
  0
BLOCK_RECORD
  5
1A
330
1
100
AcDbSymbolTableRecord
100
AcDbBlockTableRecord
  2
*Paper_Space
340
1D
  0
BLOCK_RECORD
  5
129
330
1
100
AcDbSymbolTableRecord
100
AcDbBlockTableRecord
  2
elkon
340
0
310
28000000200000002000000001000800000000000004000000000000000000000000000000000000000000004000000080000000FF000000002000004020000080200000FF200000004000004040000080400000FF400000006000004060000080600000FF600000008000004080000080800000FF80000000A0000040A000
310
0080A00000FFA0000000C0000040C0000080C00000FFC0000000FF000040FF000080FF0000FFFF0000000020004000200080002000FF002000002020004020200080202000FF202000004020004040200080402000FF402000006020004060200080602000FF602000008020004080200080802000FF80200000A0200040A0
310
200080A02000FFA0200000C0200040C0200080C02000FFC0200000FF200040FF200080FF2000FFFF2000000040004000400080004000FF004000002040004020400080204000FF204000004040004040400080404000FF404000006040004060400080604000FF604000008040004080400080804000FF80400000A0400040
310
A0400080A04000FFA0400000C0400040C0400080C04000FFC0400000FF400040FF400080FF4000FFFF4000000060004000600080006000FF006000002060004020600080206000FF206000004060004040600080406000FF406000006060004060600080606000FF606000008060004080600080806000FF80600000A06000
310
40A0600080A06000FFA0600000C0600040C0600080C06000FFC0600000FF600040FF600080FF6000FFFF6000000080004000800080008000FF008000002080004020800080208000FF208000004080004040800080408000FF408000006080004060800080608000FF608000008080004080800080808000FF80800000A080
310
0040A0800080A08000FFA0800000C0800040C0800080C08000FFC0800000FF800040FF800080FF8000FFFF80000000A0004000A0008000A000FF00A0000020A0004020A0008020A000FF20A0000040A0004040A0008040A000FF40A0000060A0004060A0008060A000FF60A0000080A0004080A0008080A000FF80A00000A0
310
A00040A0A00080A0A000FFA0A00000C0A00040C0A00080C0A000FFC0A00000FFA00040FFA00080FFA000FFFFA0000000C0004000C0008000C000FF00C0000020C0004020C0008020C000FF20C0000040C0004040C0008040C000FF40C0000060C0004060C0008060C000FF60C0000080C0004080C0008080C000FF80C00000
310
A0C00040A0C00080A0C000FFA0C00000C0C00040C0C00080C0C000FFC0C00000FFC00040FFC00080FFC000FFFFC0000000FF004000FF008000FF00FF00FF000020FF004020FF008020FF00FF20FF000040FF004040FF008040FF00FF40FF000060FF004060FF008060FF00FF60FF000080FF004080FF008080FF00FF80FF00
310
00A0FF0040A0FF0080A0FF00FFA0FF0000C0FF0040C0FF0080C0FF00FFC0FF0000FFFF0040FFFF0080FFFF00FFFFFF000000000000000000000000000000000000000000000000000000000000000000000000000000000000000000000000FF00000000000000000000000000000000000000000000000000000000000000
310
FF00000000000000000000000000000000000000000000000000000000000000FF00000000000000000000000000000000000000000000000000000000000000FF00000000000000000000000000000000000000000000000000000000000000FF000000000000000000000000000000000000000000000000000000000000
310
00FF00000000000000000000000000000000000000000000000000000000000000FF00000000000000000000000000000000000000000000000000000000000000FF00000000000000000000000000000000000000000000000000000000000000FF0000000000000000000000000000000000000000000000000000000000
310
0000FF00000000000000000000000000000000000000000000000000000000000000FF0000000000000000000000000000000000000000FFFFFFFFFFFFFFFFFFFFFFFFFFFFFFFFFFFFFFFFFFFFFFFF0000000000000000FF00000000000000000000000000000000000000000000FF0000000000000000FF00000000000000
310
000000000000000000000000000000FF0000000000000000FFFFFFFFFFFFFFFFFFFFFFFFFFFFFFFFFFFFFFFFFFFFFFFF00000000000000000000000000000000000000000000000000000000000000000000000000000000FFFFFFFFFFFFFFFFFFFFFFFFFFFFFFFFFFFFFFFFFFFFFFFF0000000000000000FF0000FFFFFFFF
310
FFFF000000000000FFFFFFFFFFFF0000FF0000000000000000FF0000000000FFFFFFFFFFFFFFFFFFFFFF000000000000FF0000000000000000FFFFFFFFFFFFFFFFFFFFFFFFFFFFFFFFFFFFFFFFFFFFFFFF00000000000000000000000000000000000000FF0000000000000000000000000000000000000000000000000000
310
0000000000FF00000000000000000000000000000000000000000000000000000000000000FF00000000000000000000000000000000000000000000000000000000000000FF00000000000000000000000000000000000000000000000000000000000000FF00000000000000000000000000000000000000000000000000
310
000000000000FF00000000000000000000000000000000000000000000000000000000000000FF00000000000000000000000000000000000000000000000000000000000000FF00000000000000000000000000000000000000000000000000000000000000FF000000000000000000000000000000000000000000000000
310
00000000000000FF000000000000000000000000000000000000000000000000000000000000000000000000000000000000000000000000
102
{BLKREFS
331
2E7
331
2E8
331
3B8
331
3B9
102
}
  0
BLOCK_RECORD
  5
131
330
1
100
AcDbSymbolTableRecord
100
AcDbBlockTableRecord
  2
Inductor
340
0
310
280000002000000020000000010004000000000000020000000000000000000000000000000000000000000000008000008000000080800080000000800080008080000080808000C0C0C0000000FF0000FF000000FFFF00FF000000FF00FF00FFFF0000FFFFFF00FFFFFFFFFFFFFFFFFFFFFFFFFFFFFFFFFFFFFFFFFFFFFF
310
FFFFFFFFFFFFFFFFFFFFFFFFFFFFFFFFFFFFFFFFFFFFFFFFFFFFFFFFFFFFFFFFFFFFFFFFFFFFFFFFFFFFFFFFFFFFFFFFFFFFFFFFFFFFFFFFFFFFFFFFFFFFFFFFFFFFFFFFFFFFFFFFFFFFFFFFFFFFFFFFFFFFFFFFFFFFFFFFFFFFFFFFFFFFFFFFFFFFFFFFFFFFFFFFFFFFFFFFFFFFFFFFFFFFFFFFFFFFFFFFFFFFFFFFFFFFFF
310
FFFFFFFFFFFFFFFFFFFFFFFFFFFFFFFFFFFFFFFFFFFFFFFFFFFFFFFFFFFFFFFFFFFFFFFFFFFFFFFFFFFF0000FFFFFFFF0FFFFFF0FFFFFFF0000FFFF0FFFFFFF00FFFFFF0FFFFFFF0FFFFFFF0FFFFFFF00FFFFFF00FFFFFFF0FFFFFF0FFFFFFF00FFFFF0F0FFFFFFF0FFFFFF0FFFFFFF0F0FFFF0F0FFFFFFF0FFFFFFF0FFFFF
310
F00FFFFFF00FFFFFF0FFFFFFFF0FFFFFF00FFFFFF0FFFFFF0FFFFFFFFFF0FFFFF0F0FFFF0F0FFFFF0FFFFFFFFFFF00000FFF0000FFF00000FFFFFFFFFFFFFFFFFFFFFFFFFFFFFFFFFFFFFFFFFFFFFFFFFFFFFFFFFFFFFFFFFFFFFFFFFFFFFFFFFFFFFFFFFFFFFFFFFFFFFFFFFFFFFFFFFFFFFFFFFFFFFFFFFFFFFFFFFFFFFF
310
FFFFFFFFFFFFFFFFFFFFFFFFFFFFFFFFFFFFFFFFFFFFFFFFFFFFFFFFFFFFFFFFFFFFFFFFFFFFFFFFFFFFFFFFFFFFFFFFFFFFFFFFFFFFFFFFFFFFFFFFFFFFFFFFFFFFFFFFFFFFFFFFFFFFFFFFFFFFFFFFFFFFFFFFFFFFFFFFFFFFFFFFFFFFFFFFFFFFFFFFFFFFFFFFFFFFFFFF
102
{BLKREFS
331
13F
102
}
1001
ACAD
1000
DesignCenter Data
1002
{
1070
     1
1070
     1
1002
}
  0
BLOCK_RECORD
  5
139
330
1
100
AcDbSymbolTableRecord
100
AcDbBlockTableRecord
  2
conpoint
340
0
310
28000000200000002000000001000800000000000004000000000000000000000000000000000000000000004000000080000000FF000000002000004020000080200000FF200000004000004040000080400000FF400000006000004060000080600000FF600000008000004080000080800000FF80000000A0000040A000
310
0080A00000FFA0000000C0000040C0000080C00000FFC0000000FF000040FF000080FF0000FFFF0000000020004000200080002000FF002000002020004020200080202000FF202000004020004040200080402000FF402000006020004060200080602000FF602000008020004080200080802000FF80200000A0200040A0
310
200080A02000FFA0200000C0200040C0200080C02000FFC0200000FF200040FF200080FF2000FFFF2000000040004000400080004000FF004000002040004020400080204000FF204000004040004040400080404000FF404000006040004060400080604000FF604000008040004080400080804000FF80400000A0400040
310
A0400080A04000FFA0400000C0400040C0400080C04000FFC0400000FF400040FF400080FF4000FFFF4000000060004000600080006000FF006000002060004020600080206000FF206000004060004040600080406000FF406000006060004060600080606000FF606000008060004080600080806000FF80600000A06000
310
40A0600080A06000FFA0600000C0600040C0600080C06000FFC0600000FF600040FF600080FF6000FFFF6000000080004000800080008000FF008000002080004020800080208000FF208000004080004040800080408000FF408000006080004060800080608000FF608000008080004080800080808000FF80800000A080
310
0040A0800080A08000FFA0800000C0800040C0800080C08000FFC0800000FF800040FF800080FF8000FFFF80000000A0004000A0008000A000FF00A0000020A0004020A0008020A000FF20A0000040A0004040A0008040A000FF40A0000060A0004060A0008060A000FF60A0000080A0004080A0008080A000FF80A00000A0
310
A00040A0A00080A0A000FFA0A00000C0A00040C0A00080C0A000FFC0A00000FFA00040FFA00080FFA000FFFFA0000000C0004000C0008000C000FF00C0000020C0004020C0008020C000FF20C0000040C0004040C0008040C000FF40C0000060C0004060C0008060C000FF60C0000080C0004080C0008080C000FF80C00000
310
A0C00040A0C00080A0C000FFA0C00000C0C00040C0C00080C0C000FFC0C00000FFC00040FFC00080FFC000FFFFC0000000FF004000FF008000FF00FF00FF000020FF004020FF008020FF00FF20FF000040FF004040FF008040FF00FF40FF000060FF004060FF008060FF00FF60FF000080FF004080FF008080FF00FF80FF00
310
00A0FF0040A0FF0080A0FF00FFA0FF0000C0FF0040C0FF0080C0FF00FFC0FF0000FFFF0040FFFF0080FFFF00FFFFFF000000000000000000000000000000000000000000000000000000000000000000000000000000000000000000000000FFFFFF000000000000000000000000000000000000000000000000FFFFFFFFFF
310
FF00FFFFFF0000000000000000000000000000000000000000FFFF0000FFFF0000000000FFFFFFFF00000000000000000000000000000000FF0000FFFF000000000000000000FFFFFFFF00000000000000000000000000FF00FFFF00000000000000000000000000FFFFFF0000000000000000000000FFFFFF000000000000
310
0000000000000000000000FFFF000000000000000000FF00FF00000000000000000000000000000000000000FFFF0000000000000000FFFF0000000000000000000000000000000000000000FFFF00000000000000FF00FF000000000000000000000000000000000000000000FFFF000000000000FFFF0000000000000000
310
0000000000000000000000000000FF00FF00000000FF00FF0000000000000000000000000000000000000000000000FFFF00000000FFFF000000000000000000000000000000000000000000000000FFFF00000000FFFF00000000000000000000000000000000000000000000000000FF000000FFFF000000000000000000
310
0000000000000000000000000000000000FF000000FFFF000000000000000000000000000000000000000000000000000000FF0000FF00000000000000000000000000000000000000000000000000000000FF0000FFFF0000000000000000000000000000000000000000000000000000FFFF000000FF0000000000000000
310
000000000000000000000000000000000000FF00000000FFFF000000000000000000000000000000000000000000000000FFFF00000000FFFF000000000000000000000000000000000000000000000000FFFF0000000000FFFF00000000000000000000000000000000000000000000FF00FF0000000000FFFF0000000000
310
0000000000000000000000000000000000FFFF00000000000000FFFF0000000000000000000000000000000000000000FFFF0000000000000000FFFF0000000000000000000000000000000000000000FFFF000000000000000000FFFF000000000000000000000000000000000000FFFF0000000000000000000000FFFFFF
310
0000000000000000000000000000FFFFFF00000000000000000000000000FF00FFFF00000000000000000000FFFFFFFF000000000000000000000000000000FFFF00FFFF000000000000FFFFFFFF00000000000000000000000000000000000000FFFFFFFFFF0000FFFFFFFF00000000000000000000000000000000000000
310
00000000000000FFFFFF00000000000000000000000000000000000000000000000000000000000000000000000000000000000000000000
102
{BLKREFS
331
140
331
141
102
}
1001
ACAD
1000
DesignCenter Data
1002
{
1070
     1
1070
     1
1002
}
  0
BLOCK_RECORD
  5
13E
330
1
100
AcDbSymbolTableRecord
100
AcDbBlockTableRecord
  2
ind
340
0
310
28000000200000002000000001000800000000000004000000000000000000000000000000000000000000004000000080000000FF000000002000004020000080200000FF200000004000004040000080400000FF400000006000004060000080600000FF600000008000004080000080800000FF80000000A0000040A000
310
0080A00000FFA0000000C0000040C0000080C00000FFC0000000FF000040FF000080FF0000FFFF0000000020004000200080002000FF002000002020004020200080202000FF202000004020004040200080402000FF402000006020004060200080602000FF602000008020004080200080802000FF80200000A0200040A0
310
200080A02000FFA0200000C0200040C0200080C02000FFC0200000FF200040FF200080FF2000FFFF2000000040004000400080004000FF004000002040004020400080204000FF204000004040004040400080404000FF404000006040004060400080604000FF604000008040004080400080804000FF80400000A0400040
310
A0400080A04000FFA0400000C0400040C0400080C04000FFC0400000FF400040FF400080FF4000FFFF4000000060004000600080006000FF006000002060004020600080206000FF206000004060004040600080406000FF406000006060004060600080606000FF606000008060004080600080806000FF80600000A06000
310
40A0600080A06000FFA0600000C0600040C0600080C06000FFC0600000FF600040FF600080FF6000FFFF6000000080004000800080008000FF008000002080004020800080208000FF208000004080004040800080408000FF408000006080004060800080608000FF608000008080004080800080808000FF80800000A080
310
0040A0800080A08000FFA0800000C0800040C0800080C08000FFC0800000FF800040FF800080FF8000FFFF80000000A0004000A0008000A000FF00A0000020A0004020A0008020A000FF20A0000040A0004040A0008040A000FF40A0000060A0004060A0008060A000FF60A0000080A0004080A0008080A000FF80A00000A0
310
A00040A0A00080A0A000FFA0A00000C0A00040C0A00080C0A000FFC0A00000FFA00040FFA00080FFA000FFFFA0000000C0004000C0008000C000FF00C0000020C0004020C0008020C000FF20C0000040C0004040C0008040C000FF40C0000060C0004060C0008060C000FF60C0000080C0004080C0008080C000FF80C00000
310
A0C00040A0C00080A0C000FFA0C00000C0C00040C0C00080C0C000FFC0C00000FFC00040FFC00080FFC000FFFFC0000000FF004000FF008000FF00FF00FF000020FF004020FF008020FF00FF20FF000040FF004040FF008040FF00FF40FF000060FF004060FF008060FF00FF60FF000080FF004080FF008080FF00FF80FF00
310
00A0FF0040A0FF0080A0FF00FFA0FF0000C0FF0040C0FF0080C0FF00FFC0FF0000FFFF0040FFFF0080FFFF00FFFFFF0000000000000000000000000000000000000000000000000000000000000000000000000000000000000000000000000000FFFF00000000000000000000000000000000000000000000000000000000
310
00FFFFFFFF00000000000000000000000000000000000000000000000000000000FF0000FF00000000000000000000000000000000000000000000000000000000FFFFFFFF000000000000000000000000000000000000000000000000000000000000FF000000000000000000000000000000000000000000000000000000
310
FFFFFFFFFF0000000000000000000000000000000000000000000000000000FF00000000FF00000000000000000000000000000000000000000000000000FF00000000000000000000000000000000000000000000000000000000000000FF00000000000000000000000000000000000000000000000000000000000000FF
310
00000000000000000000000000000000000000000000000000000000000000FF0000000000000000000000000000000000000000000000000000000000000000FFFFFFFFFF000000000000000000000000000000000000000000000000000000FFFFFFFFFFFF00000000000000000000000000000000000000000000000000
310
FF00000000000000000000000000000000000000000000000000000000000000FF00000000000000000000000000000000000000000000000000000000000000FF00000000000000000000000000000000000000000000000000000000000000FF000000000000000000000000000000000000000000000000000000000000
310
0000FFFFFFFFFFFF0000000000000000000000000000000000000000000000000000FFFFFFFFFF0000000000000000000000000000000000000000000000000000FF00000000000000000000000000000000000000000000000000000000000000FF0000000000000000000000000000000000000000000000000000000000
310
0000FF00000000000000000000000000000000000000000000000000000000000000FF0000000000000000000000000000000000000000000000000000000000000000FF00000000FF000000000000000000000000000000000000000000000000000000FFFFFFFFFF00000000000000000000000000000000000000000000
310
000000000000000000FF0000000000000000000000000000000000000000000000000000000000FFFFFFFF00000000000000000000000000000000000000000000000000000000FF0000FF00000000000000000000000000000000000000000000000000000000FFFFFFFF0000000000000000000000000000000000000000
310
000000000000000000FFFF000000000000000000000000000000000000000000000000000000000000000000000000000000000000000000
102
{BLKREFS
331
145
102
}
1001
ACAD
1000
DesignCenter Data
1002
{
1070
     1
1070
     1
1002
}
  0
BLOCK_RECORD
  5
144
330
1
100
AcDbSymbolTableRecord
100
AcDbBlockTableRecord
  2
rfc
340
0
310
28000000200000002000000001000800000000000004000000000000000000000000000000000000000000004000000080000000FF000000002000004020000080200000FF200000004000004040000080400000FF400000006000004060000080600000FF600000008000004080000080800000FF80000000A0000040A000
310
0080A00000FFA0000000C0000040C0000080C00000FFC0000000FF000040FF000080FF0000FFFF0000000020004000200080002000FF002000002020004020200080202000FF202000004020004040200080402000FF402000006020004060200080602000FF602000008020004080200080802000FF80200000A0200040A0
310
200080A02000FFA0200000C0200040C0200080C02000FFC0200000FF200040FF200080FF2000FFFF2000000040004000400080004000FF004000002040004020400080204000FF204000004040004040400080404000FF404000006040004060400080604000FF604000008040004080400080804000FF80400000A0400040
310
A0400080A04000FFA0400000C0400040C0400080C04000FFC0400000FF400040FF400080FF4000FFFF4000000060004000600080006000FF006000002060004020600080206000FF206000004060004040600080406000FF406000006060004060600080606000FF606000008060004080600080806000FF80600000A06000
310
40A0600080A06000FFA0600000C0600040C0600080C06000FFC0600000FF600040FF600080FF6000FFFF6000000080004000800080008000FF008000002080004020800080208000FF208000004080004040800080408000FF408000006080004060800080608000FF608000008080004080800080808000FF80800000A080
310
0040A0800080A08000FFA0800000C0800040C0800080C08000FFC0800000FF800040FF800080FF8000FFFF80000000A0004000A0008000A000FF00A0000020A0004020A0008020A000FF20A0000040A0004040A0008040A000FF40A0000060A0004060A0008060A000FF60A0000080A0004080A0008080A000FF80A00000A0
310
A00040A0A00080A0A000FFA0A00000C0A00040C0A00080C0A000FFC0A00000FFA00040FFA00080FFA000FFFFA0000000C0004000C0008000C000FF00C0000020C0004020C0008020C000FF20C0000040C0004040C0008040C000FF40C0000060C0004060C0008060C000FF60C0000080C0004080C0008080C000FF80C00000
310
A0C00040A0C00080A0C000FFA0C00000C0C00040C0C00080C0C000FFC0C00000FFC00040FFC00080FFC000FFFFC0000000FF004000FF008000FF00FF00FF000020FF004020FF008020FF00FF20FF000040FF004040FF008040FF00FF40FF000060FF004060FF008060FF00FF60FF000080FF004080FF008080FF00FF80FF00
310
00A0FF0040A0FF0080A0FF00FFA0FF0000C0FF0040C0FF0080C0FF00FFC0FF0000FFFF0040FFFF0080FFFF00FFFFFF00000000000000000000000000000000000000000000000000000000000000000000000000000000000000000000000000000000FFFF0000000000000000000000000000000000000000000000000000
310
000000FFFFFFFF00000000000000000000000000000000000000000000000000000000FF0000FF00000000000000000000000000000000000000000000000000000000FFFFFFFF0000000000000000000000000000000000000000000000000000000000FF0000000000000000000000000000000000000000000000000000
310
00FFFFFFFFFF00000000000000000000000000000000000000000000FFFFFF00FFFF000000FF00000000000000000000000000000000000000000000FF00FF00FF000000000000000000000000000000000000000000000000000000FF00FFFF00000000000000000000000000000000000000000000000000000000FF00FF
310
FF00000000000000000000000000000000000000000000000000000000FFFFFFFFFF000000000000000000000000000000000000000000000000000000FFFFFF00FFFFFFFFFFFF00000000000000000000000000000000000000000000FFFFFF00FFFFFFFFFFFF00000000000000000000000000000000000000000000FFFF
310
FFFFFF000000000000000000000000000000000000000000000000000000FFFFFFFF00000000000000000000000000000000000000000000000000000000FFFFFFFF00000000000000000000000000000000000000000000000000000000FFFFFFFFFF000000000000000000000000000000000000000000000000000000FF
310
FFFF00FFFFFFFFFFFF00000000000000000000000000000000000000000000FFFFFF00FFFFFFFFFFFF00000000000000000000000000000000000000000000FF00FFFFFF000000000000000000000000000000000000000000000000000000FF00FFFF00000000000000000000000000000000000000000000000000000000
310
FF00FFFF00000000000000000000000000000000000000000000000000000000FF00FF00FF000000000000000000000000000000000000000000000000000000FFFFFF00FFFF000000FF000000000000000000000000000000000000000000000000000000FFFFFFFFFF000000000000000000000000000000000000000000
310
00000000000000000000FF000000000000000000000000000000000000000000000000000000000000FFFFFF0000000000000000000000000000000000000000000000000000000000FF00FFFF00000000000000000000000000000000000000000000000000000000FF00FF00000000000000000000000000000000000000
310
0000000000000000000000FF0000000000000000000000000000000000000000000000000000000000000000000000000000000000000000
102
{BLKREFS
331
2E9
331
3BA
102
}
1001
ACAD
1000
DesignCenter Data
1002
{
1070
     1
1070
     1
1002
}
  0
BLOCK_RECORD
  5
14A
330
1
100
AcDbSymbolTableRecord
100
AcDbBlockTableRecord
  2
tri
340
0
310
28000000200000002000000001000800000000000004000000000000000000000000000000000000000000004000000080000000FF000000002000004020000080200000FF200000004000004040000080400000FF400000006000004060000080600000FF600000008000004080000080800000FF80000000A0000040A000
310
0080A00000FFA0000000C0000040C0000080C00000FFC0000000FF000040FF000080FF0000FFFF0000000020004000200080002000FF002000002020004020200080202000FF202000004020004040200080402000FF402000006020004060200080602000FF602000008020004080200080802000FF80200000A0200040A0
310
200080A02000FFA0200000C0200040C0200080C02000FFC0200000FF200040FF200080FF2000FFFF2000000040004000400080004000FF004000002040004020400080204000FF204000004040004040400080404000FF404000006040004060400080604000FF604000008040004080400080804000FF80400000A0400040
310
A0400080A04000FFA0400000C0400040C0400080C04000FFC0400000FF400040FF400080FF4000FFFF4000000060004000600080006000FF006000002060004020600080206000FF206000004060004040600080406000FF406000006060004060600080606000FF606000008060004080600080806000FF80600000A06000
310
40A0600080A06000FFA0600000C0600040C0600080C06000FFC0600000FF600040FF600080FF6000FFFF6000000080004000800080008000FF008000002080004020800080208000FF208000004080004040800080408000FF408000006080004060800080608000FF608000008080004080800080808000FF80800000A080
310
0040A0800080A08000FFA0800000C0800040C0800080C08000FFC0800000FF800040FF800080FF8000FFFF80000000A0004000A0008000A000FF00A0000020A0004020A0008020A000FF20A0000040A0004040A0008040A000FF40A0000060A0004060A0008060A000FF60A0000080A0004080A0008080A000FF80A00000A0
310
A00040A0A00080A0A000FFA0A00000C0A00040C0A00080C0A000FFC0A00000FFA00040FFA00080FFA000FFFFA0000000C0004000C0008000C000FF00C0000020C0004020C0008020C000FF20C0000040C0004040C0008040C000FF40C0000060C0004060C0008060C000FF60C0000080C0004080C0008080C000FF80C00000
310
A0C00040A0C00080A0C000FFA0C00000C0C00040C0C00080C0C000FFC0C00000FFC00040FFC00080FFC000FFFFC0000000FF004000FF008000FF00FF00FF000020FF004020FF008020FF00FF20FF000040FF004040FF008040FF00FF40FF000060FF004060FF008060FF00FF60FF000080FF004080FF008080FF00FF80FF00
310
00A0FF0040A0FF0080A0FF00FFA0FF0000C0FF0040C0FF0080C0FF00FFC0FF0000FFFF0040FFFF0080FFFF00FFFFFF0000000000000000000000000000000000000000000000000000000000000000000000000000000000000000FF00000000000000000000000000000000000000000000000000000000000000FFFF0000
310
0000000000000000000000000000000000000000000000000000FFFF0000FF00000000000000000000000000000000000000000000000000FFFF0000000000FF0000000000000000000000000000000000000000000000FF0000000000000000FF000000000000000000000000000000000000000000FF0000000000000000
310
0000FF00000000000000000000000000000000000000FF000000000000000000000000FF000000000000000000000000000000000000FF00000000000000000000000000FF00000000000000000000000000000000FF000000000000000000000000000000FF000000000000000000000000000000FF000000000000000000
310
00000000000000FF00000000000000000000000000FF000000000000000000000000000000000000FF000000000000000000000000FF00000000000000000000000000000000000000FF00000000000000000000FF000000000000000000000000000000000000000000FF000000000000000000FF00000000000000000000
310
000000000000000000000000FF0000000000000000FF0000000000000000000000000000000000000000000000FF00000000000000FF000000000000000000000000000000000000000000000000FF000000000000FF00000000000000000000000000000000000000000000000000FF000000000000FF0000000000000000
310
0000000000000000000000000000000000FF0000000000FF0000000000000000000000000000000000000000000000000000FF00000000FF0000000000000000000000000000000000000000000000000000FFFF00000000FF00000000000000000000000000000000000000000000000000FF0000000000FF000000000000
310
000000000000000000000000000000000000FF00000000000000FF0000000000000000000000000000000000000000000000FF0000000000000000FF000000000000000000000000000000000000000000FF00000000000000000000FF00000000000000000000000000000000000000FF000000000000000000000000FF00
310
00000000000000000000000000000000FF0000000000000000000000000000FF0000000000000000000000000000FFFF00000000000000000000000000000000FFFF0000000000000000000000FF0000000000000000000000000000000000000000FFFFFFFFFFFFFFFFFFFFFF000000000000000000000000000000000000
310
0000000000000000000000000000000000000000000000000000000000000000000000000000000000000000000000000000000000000000
102
{BLKREFS
331
2FC
331
3D0
102
}
  0
BLOCK_RECORD
  5
2CF
330
1
100
AcDbSymbolTableRecord
100
AcDbBlockTableRecord
  2
A$C563066BC
340
0
  0
BLOCK_RECORD
  5
4B3
330
1
100
AcDbSymbolTableRecord
100
AcDbBlockTableRecord
  2
*D7
340
0
  0
BLOCK_RECORD
  5
4C1
330
1
100
AcDbSymbolTableRecord
100
AcDbBlockTableRecord
  2
*D8
340
0
  0
ENDTAB
  0
ENDSEC
  0
SECTION
  2
BLOCKS
  0
BLOCK
  5
1F
330
1E
100
AcDbEntity
  8
0
100
AcDbBlockBegin
  2
*Model_Space
 70
     0
 10
0.0
 20
0.0
 30
0.0
  3
*Model_Space
  1

  0
ENDBLK
  5
20
330
1E
100
AcDbEntity
  8
0
100
AcDbBlockEnd
  0
BLOCK
  5
1B
330
1A
100
AcDbEntity
 67
     1
  8
0
100
AcDbBlockBegin
  2
*Paper_Space
 70
     0
 10
0.0
 20
0.0
 30
0.0
  3
*Paper_Space
  1

  0
ENDBLK
  5
1C
330
1A
100
AcDbEntity
 67
     1
  8
0
100
AcDbBlockEnd
  0
BLOCK
  5
12F
330
129
100
AcDbEntity
  8
0
100
AcDbBlockBegin
  2
elkon
 70
     0
 10
0.0
 20
0.0
 30
0.0
  3
elkon
  1

  0
LWPOLYLINE
  5
12A
102
{ACAD_REACTORS
330
12E
102
}
330
129
100
AcDbEntity
  8
0
100
AcDbPolyline
 90
        4
 70
     1
 43
0.0
 10
5.277469087657244
 20
7.736467907658294
 10
6.725437308244949
 20
7.736467907658294
 10
6.725437308244949
 20
7.545307269129267
 10
5.277469087657244
 20
7.545307269129267
  0
LWPOLYLINE
  5
12B
330
129
100
AcDbEntity
  8
0
100
AcDbPolyline
 90
        4
 70
     1
 43
0.0
 10
5.277469087657244
 20
7.381455311208465
 10
6.725437308244949
 20
7.381455311208465
 10
6.725437308244949
 20
7.190294672679439
 10
5.277469087657244
 20
7.190294672679439
  0
LWPOLYLINE
  5
12C
330
129
100
AcDbEntity
  8
0
100
AcDbPolyline
 90
        2
 70
     0
 43
0.0
 10
5.987793119210273
 20
7.736467907658294
 10
5.987793119210273
 20
8.337258440989323
  0
LWPOLYLINE
  5
12D
330
129
100
AcDbEntity
  8
0
100
AcDbPolyline
 90
        2
 70
     0
 43
0.0
 10
5.987793119210273
 20
7.190294672679439
 10
5.987793119210273
 20
6.507578139433253
  0
HATCH
  5
12E
330
129
100
AcDbEntity
  8
0
100
AcDbHatch
 10
0.0
 20
0.0
 30
0.0
210
0.0
220
0.0
230
1.0
  2
SOLID
 70
     1
 71
     1
 91
        1
 92
        1
 93
        4
 72
     1
 10
5.277469087657244
 20
7.736467907658294
 11
6.725437308244949
 21
7.736467907658294
 72
     1
 10
6.725437308244949
 20
7.736467907658294
 11
6.725437308244949
 21
7.545307269129267
 72
     1
 10
6.725437308244949
 20
7.545307269129267
 11
5.277469087657244
 21
7.545307269129267
 72
     1
 10
5.277469087657244
 20
7.545307269129267
 11
5.277469087657244
 21
7.736467907658294
 97
        1
330
12A
 75
     0
 76
     1
 98
        1
 10
0.0
 20
0.0
  0
ENDBLK
  5
130
330
129
100
AcDbEntity
  8
0
100
AcDbBlockEnd
  0
BLOCK
  5
137
330
131
100
AcDbEntity
  8
0
100
AcDbBlockBegin
  2
Inductor
 70
     2
 10
0.0
 20
0.0
 30
0.0
  3
Inductor
  1
INDUCTOR
  4
DesignCenter Basic Electronics example
  0
LINE
  5
132
330
131
100
AcDbEntity
  8
0
 62
     7
100
AcDbLine
 10
0.3500000000000001
 20
0.0
 30
0.0
 11
0.3999999999999999
 21
0.0
 31
0.0
  0
ARC
  5
133
330
131
100
AcDbEntity
  8
0
 62
     7
100
AcDbCircle
 10
0.2999999999999998
 20
0.0374999999999997
 30
0.0
 40
0.0625
100
AcDbArc
 50
323.1301
 51
216.8699
  0
LINE
  5
134
330
131
100
AcDbEntity
  8
0
 62
     7
100
AcDbLine
 10
0.0
 20
0.0
 30
0.0
 11
0.0499999999999998
 21
0.0
 31
0.0
  0
ARC
  5
135
330
131
100
AcDbEntity
  8
0
 62
     7
100
AcDbCircle
 10
0.1000000000000001
 20
0.0374999999999997
 30
0.0
 40
0.0625
100
AcDbArc
 50
323.1301
 51
216.8699
  0
ARC
  5
136
330
131
100
AcDbEntity
  8
0
 62
     7
100
AcDbCircle
 10
0.2000000000000002
 20
0.0374999999999997
 30
0.0
 40
0.0625
100
AcDbArc
 50
323.1301
 51
216.8699
  0
ENDBLK
  5
138
330
131
100
AcDbEntity
  8
0
100
AcDbBlockEnd
  0
BLOCK
  5
13C
330
139
100
AcDbEntity
  8
0
100
AcDbBlockBegin
  2
conpoint
 70
     0
 10
0.0
 20
0.0
 30
0.0
  3
conpoint
  1

  0
HATCH
  5
13A
330
139
100
AcDbEntity
  8
0
100
AcDbHatch
 10
0.0
 20
0.0
 30
0.0
210
0.0
220
0.0
230
1.0
  2
SOLID
 70
     1
 71
     1
 91
        1
 92
        1
 93
        1
 72
     2
 10
3.932944225599126
 20
4.517912367231916
 40
0.0251551376970127
 50
0.0
 51
360.0
 73
     1
 97
        1
330
13B
 75
     0
 76
     1
 98
        1
 10
0.0
 20
0.0
  0
CIRCLE
  5
13B
102
{ACAD_REACTORS
330
13A
102
}
330
139
100
AcDbEntity
  8
0
100
AcDbCircle
 10
3.932944225599126
 20
4.517912367231916
 30
0.0
 40
0.0251551376970127
  0
ENDBLK
  5
13D
330
139
100
AcDbEntity
  8
0
100
AcDbBlockEnd
  0
BLOCK
  5
142
330
13E
100
AcDbEntity
  8
0
100
AcDbBlockBegin
  2
ind
 70
     0
 10
0.0
 20
0.0
 30
0.0
  3
ind
  1

  0
INSERT
  5
13F
330
13E
100
AcDbEntity
  8
0
100
AcDbBlockReference
  2
Inductor
 10
5.142686818928233
 20
4.506130839892044
 30
0.0
 50
90.0
  0
INSERT
  5
140
330
13E
100
AcDbEntity
  8
0
100
AcDbBlockReference
  2
conpoint
 10
1.213283901823427
 20
-0.0258025784579612
 30
0.0
  0
INSERT
  5
141
330
13E
100
AcDbEntity
  8
0
100
AcDbBlockReference
  2
conpoint
 10
1.20936500961606
 20
0.4012205201373665
 30
0.0
  0
ENDBLK
  5
143
330
13E
100
AcDbEntity
  8
0
100
AcDbBlockEnd
  0
BLOCK
  5
148
330
144
100
AcDbEntity
  8
0
100
AcDbBlockBegin
  2
rfc
 70
     0
 10
0.0
 20
0.0
 30
0.0
  3
rfc
  1

  0
INSERT
  5
145
330
144
100
AcDbEntity
  8
0
100
AcDbBlockReference
  2
ind
 10
0.0
 20
0.0
 30
0.0
  0
HATCH
  5
146
330
144
100
AcDbEntity
  8
0
100
AcDbHatch
 10
0.0
 20
0.0
 30
0.0
210
0.0
220
0.0
230
1.0
  2
SOLID
 70
     1
 71
     1
 91
        1
 92
        1
 93
        4
 72
     1
 10
5.019171584733157
 20
4.850883942041264
 11
4.991736945333968
 21
4.850883942041264
 72
     1
 10
4.991736945333968
 20
4.850883942041264
 11
4.991736945333968
 21
4.557060643284785
 72
     1
 10
4.991736945333968
 20
4.557060643284785
 11
5.019171584733157
 21
4.557060643284785
 72
     1
 10
5.019171584733157
 20
4.557060643284785
 11
5.019171584733157
 21
4.850883942041264
 97
        1
330
147
 75
     0
 76
     1
 98
        1
 10
0.0
 20
0.0
  0
LWPOLYLINE
  5
147
102
{ACAD_REACTORS
330
146
102
}
330
144
100
AcDbEntity
  8
0
100
AcDbPolyline
 90
        4
 70
     1
 43
0.0
 10
5.019171584733157
 20
4.850883942041264
 10
4.991736945333968
 20
4.850883942041264
 10
4.991736945333968
 20
4.557060643284785
 10
5.019171584733157
 20
4.557060643284785
  0
ENDBLK
  5
149
330
144
100
AcDbEntity
  8
0
100
AcDbBlockEnd
  0
BLOCK
  5
14D
330
14A
100
AcDbEntity
  8
0
100
AcDbBlockBegin
  2
tri
 70
     0
 10
0.0
 20
0.0
 30
0.0
  3
tri
  1

  0
ARC
  5
14B
330
14A
100
AcDbEntity
  8
CONSTR
370
    50
100
AcDbCircle
 10
8.146085339866083
 20
7.572615928782735
 30
0.0
 40
0.8498249588931228
100
AcDbArc
 50
17.41576346451058
 51
252.8164832811067
  0
LWPOLYLINE
  5
14C
330
14A
100
AcDbEntity
  8
CONSTR
370
    50
100
AcDbPolyline
 90
        2
 70
     0
 43
0.0
 10
7.888244942516251
 20
6.7539228815622
 10
8.968782859461427
 20
7.838849627961277
  0
ENDBLK
  5
14E
330
14A
100
AcDbEntity
  8
0
100
AcDbBlockEnd
  0
BLOCK
  5
2FD
330
2CF
100
AcDbEntity
  8
0
100
AcDbBlockBegin
  2
A$C563066BC
 70
     0
 10
0.0
 20
0.0
 30
0.0
  3
A$C563066BC
  1

  0
SOLID
  5
2D0
330
2CF
100
AcDbEntity
  8
CONSTR
100
AcDbTrace
 10
5.21797228694983
 20
1.212805812209399
 30
0.0
 11
4.709972286949831
 21
1.212805812209399
 31
0.0
 12
5.21797228694983
 22
1.619205812209397
 32
0.0
 13
4.709972286949831
 23
1.619205812209397
 33
0.0
  0
SOLID
  5
2D1
330
2CF
100
AcDbEntity
  8
CONSTR
100
AcDbTrace
 10
5.21797228694983
 20
3.112805812209398
 30
0.0
 11
4.709972286949831
 21
3.112805812209398
 31
0.0
 12
5.21797228694983
 22
3.519205812209399
 32
0.0
 13
4.709972286949831
 23
3.519205812209399
 33
0.0
  0
SOLID
  5
2D2
330
2CF
100
AcDbEntity
  8
CONSTR
100
AcDbTrace
 10
6.517972286949831
 20
2.022405812209399
 30
0.0
 11
7.02597228694983
 21
2.022405812209399
 31
0.0
 12
6.517972286949831
 22
1.209605812209399
 32
0.0
 13
7.02597228694983
 23
1.209605812209399
 33
0.0
  0
SOLID
  5
2D3
330
2CF
100
AcDbEntity
  8
CONSTR
100
AcDbTrace
 10
6.517972286949831
 20
3.519205812209399
 30
0.0
 11
7.02597228694983
 21
3.519205812209399
 31
0.0
 12
6.517972286949831
 22
3.112805812209398
 32
0.0
 13
7.02597228694983
 23
3.112805812209398
 33
0.0
  0
SOLID
  5
2D4
330
2CF
100
AcDbEntity
  8
CONSTR
100
AcDbTrace
 10
5.267972286949831
 20
3.816005812209397
 30
0.0
 11
5.267972286949831
 21
0.9160058122093985
 31
0.0
 12
5.167972286949829
 22
3.816005812209397
 32
0.0
 13
5.167972286949829
 23
0.9160058122093985
 33
0.0
  0
SOLID
  5
2D5
330
2CF
100
AcDbEntity
  8
CONSTR
100
AcDbTrace
 10
5.21797228694983
 20
3.866005812209397
 30
0.0
 11
6.517972286949831
 21
3.866005812209397
 31
0.0
 12
5.21797228694983
 22
3.7660058122094
 32
0.0
 13
6.517972286949831
 23
3.7660058122094
 33
0.0
  0
SOLID
  5
2D6
330
2CF
100
AcDbEntity
  8
CONSTR
100
AcDbTrace
 10
6.56797228694983
 20
3.816005812209397
 30
0.0
 11
6.56797228694983
 21
0.9160058122093985
 31
0.0
 12
6.46797228694983
 22
3.816005812209397
 32
0.0
 13
6.46797228694983
 23
0.9160058122093985
 33
0.0
  0
SOLID
  5
2D7
330
2CF
100
AcDbEntity
  8
CONSTR
100
AcDbTrace
 10
5.21797228694983
 20
0.9660058122093992
 30
0.0
 11
6.517972286949831
 21
0.9660058122093992
 31
0.0
 12
5.21797228694983
 22
0.8660058122093978
 32
0.0
 13
6.517972286949831
 23
0.8660058122093978
 33
0.0
  0
SOLID
  5
2D8
330
2CF
100
AcDbEntity
  8
CONSTR
100
AcDbTrace
 10
7.042972286949829
 20
4.116005812209397
 30
0.0
 11
7.042972286949829
 21
2.5160058122094
 31
0.0
 12
6.99297228694983
 22
4.116005812209397
 32
0.0
 13
6.99297228694983
 23
2.5160058122094
 33
0.0
  0
SOLID
  5
2D9
330
2CF
100
AcDbEntity
  8
CONSTR
100
AcDbTrace
 10
4.152530848718548
 20
10.35394934889242
 30
0.0
 11
4.152530848718548
 21
11.35394934889242
 31
0.0
 12
4.752530848718548
 22
10.35394934889242
 32
0.0
 13
4.752530848718548
 23
11.35394934889242
 33
0.0
  0
SOLID
  5
2DA
330
2CF
100
AcDbEntity
  8
CONSTR
100
AcDbTrace
 10
4.497530848718549
 20
2.908949348892424
 30
0.0
 11
4.497530848718549
 21
4.508949348892425
 31
0.0
 12
4.547530848718547
 22
2.908949348892424
 32
0.0
 13
4.547530848718547
 23
4.508949348892425
 33
0.0
  0
SOLID
  5
2DB
330
2CF
100
AcDbEntity
  8
CONSTR
100
AcDbTrace
 10
4.522530848718549
 20
2.883949348892425
 30
0.0
 11
1.322530848718548
 21
2.883949348892425
 31
0.0
 12
4.522530848718549
 22
2.933949348892426
 32
0.0
 13
1.322530848718548
 23
2.933949348892426
 33
0.0
  0
SOLID
  5
2DC
330
2CF
100
AcDbEntity
  8
CONSTR
100
AcDbTrace
 10
4.522530848718549
 20
4.483949348892426
 30
0.0
 11
1.322530848718548
 21
4.483949348892426
 31
0.0
 12
4.522530848718549
 22
4.533949348892424
 32
0.0
 13
1.322530848718548
 23
4.533949348892424
 33
0.0
  0
SOLID
  5
2DD
330
2CF
100
AcDbEntity
  8
CONSTR
100
AcDbTrace
 10
1.297530848718548
 20
2.908949348892424
 30
0.0
 11
1.297530848718548
 21
4.508949348892425
 31
0.0
 12
1.347530848718548
 22
2.908949348892424
 32
0.0
 13
1.347530848718548
 23
4.508949348892425
 33
0.0
  0
SOLID
  5
2DE
330
2CF
100
AcDbEntity
  8
CONSTR
100
AcDbTrace
 10
5.722530848718548
 20
7.283949348892427
 30
0.0
 11
4.122530848718549
 21
7.283949348892427
 31
0.0
 12
5.722530848718548
 22
7.333949348892424
 32
0.0
 13
4.122530848718549
 23
7.333949348892424
 33
0.0
  0
SOLID
  5
2DF
330
2CF
100
AcDbEntity
  8
CONSTR
100
AcDbTrace
 10
5.747530848718549
 20
7.308949348892426
 30
0.0
 11
5.747530848718549
 21
4.108949348892426
 31
0.0
 12
5.697530848718548
 22
7.308949348892426
 32
0.0
 13
5.697530848718548
 23
4.108949348892426
 33
0.0
  0
SOLID
  5
2E0
330
2CF
100
AcDbEntity
  8
CONSTR
100
AcDbTrace
 10
4.147530848718549
 20
7.308949348892426
 30
0.0
 11
4.147530848718549
 21
4.108949348892426
 31
0.0
 12
4.097530848718548
 22
7.308949348892426
 32
0.0
 13
4.097530848718548
 23
4.108949348892426
 33
0.0
  0
SOLID
  5
2E1
330
2CF
100
AcDbEntity
  8
CONSTR
100
AcDbTrace
 10
5.722530848718548
 20
4.083949348892424
 30
0.0
 11
4.122530848718549
 21
4.083949348892424
 31
0.0
 12
5.722530848718548
 22
4.133949348892425
 32
0.0
 13
4.122530848718549
 23
4.133949348892425
 33
0.0
  0
SOLID
  5
2E2
330
2CF
100
AcDbEntity
  8
CONSTR
100
AcDbTrace
 10
9.792972286949829
 20
3.716005812209399
 30
0.0
 11
9.792972286949829
 21
6.916005812209398
 31
0.0
 12
9.84297228694983
 22
3.716005812209399
 32
0.0
 13
9.84297228694983
 23
6.916005812209398
 33
0.0
  0
LINE
  5
2E3
330
2CF
100
AcDbEntity
  8
CONSTR
100
AcDbLine
 10
6.527972286949831
 20
1.116005812209397
 30
0.0
 11
6.517972286949831
 21
1.116005812209397
 31
0.0
  0
LINE
  5
2E4
330
2CF
100
AcDbEntity
  8
CONSTR
100
AcDbLine
 10
6.527972286949831
 20
1.116005812209397
 30
0.0
 11
6.527972286949831
 21
2.116005812209397
 31
0.0
  0
LINE
  5
2E5
330
2CF
100
AcDbEntity
  8
CONSTR
100
AcDbLine
 10
6.517972286949831
 20
2.116005812209397
 30
0.0
 11
6.527972286949831
 21
2.116005812209397
 31
0.0
  0
LINE
  5
2E6
330
2CF
100
AcDbEntity
  8
CONSTR
100
AcDbLine
 10
6.517972286949831
 20
2.116005812209397
 30
0.0
 11
6.517972286949831
 21
1.116005812209397
 31
0.0
  0
INSERT
  5
2E7
330
2CF
100
AcDbEntity
  8
CONSTR
100
AcDbBlockReference
  2
elkon
 10
-5.277469151281451
 20
1.402249348892425
 30
0.0
  0
INSERT
  5
2E8
330
2CF
100
AcDbEntity
  8
CONSTR
100
AcDbBlockReference
  2
elkon
 10
10.44128960650827
 20
4.925987151074512
 30
0.0
 50
90.0
  0
INSERT
  5
2E9
330
2CF
100
AcDbEntity
  8
CONSTR
100
AcDbBlockReference
  2
rfc
 10
34.40343408477405
 20
-18.84914180663233
 30
0.0
 41
5.747672421525731
 42
5.747672421525731
 43
5.747672421525731
 50
90.0
  0
LWPOLYLINE
  5
2EA
330
2CF
100
AcDbEntity
  8
CONSTR
100
AcDbPolyline
 90
        2
 70
     0
 43
0.0
 10
8.598513493837991
 20
10.70937317576234
 10
9.855299205489693
 20
10.70937317576234
  0
LWPOLYLINE
  5
2EB
330
2CF
100
AcDbEntity
  8
CONSTR
100
AcDbPolyline
 90
        2
 70
     0
 43
0.0
 10
6.112263518897933
 20
10.70937317576234
 10
5.046727819850033
 20
10.70937317576234
  0
LWPOLYLINE
  5
2EC
330
2CF
100
AcDbEntity
  8
CONSTR
100
AcDbPolyline
 90
        2
 70
     0
 43
0.0
 10
2.314584967064369
 20
8.306098955437949
 10
1.959406421705018
 20
7.787210198321886
  0
LWPOLYLINE
  5
2ED
330
2CF
100
AcDbEntity
  8
CONSTR
100
AcDbPolyline
 90
        2
 70
     0
 43
0.0
 10
3.434763531354057
 20
9.644285723636517
 10
4.035834954559014
 20
9.972004936451426
  0
LWPOLYLINE
  5
2EE
330
2CF
100
AcDbEntity
  8
CONSTR
100
AcDbPolyline
 90
        2
 70
     0
 43
0.0
 10
2.232620684944144
 20
9.535045993016471
 10
1.932084973341666
 20
9.890075143725077
  0
MTEXT
  5
2EF
330
2CF
100
AcDbEntity
  8
CONSTR
100
AcDbMText
 10
7.807676579813332
 20
3.674128545604141
 30
0.0
 40
0.6
 41
1.584299999999999
 71
     1
 72
     5
  1
100
 73
     1
 44
1.0
  0
MTEXT
  5
2F0
330
2CF
100
AcDbEntity
  8
CONSTR
100
AcDbMText
 10
2.060675285364368
 20
4.015698315465236
 30
0.0
 40
0.6
 41
1.615399999999999
 71
     1
 72
     5
  1
120k
 73
     1
 44
1.0
  0
MTEXT
  5
2F1
330
2CF
100
AcDbEntity
  8
CONSTR
100
AcDbMText
 10
4.297594336135233
 20
4.884900473597859
 30
0.0
 40
0.5
 41
1.397899999999999
 71
     1
 72
     5
  1
82k+\P1nF
 11
0.0000000000000001
 21
1.0
 31
0.0
 73
     1
 44
1.0
  0
MTEXT
  5
2F2
330
2CF
100
AcDbEntity
  8
CONSTR
100
AcDbMText
 10
2.340259168999537
 20
12.55494405639448
 30
0.0
 40
0.6
 41
1.6775
 71
     1
 72
     5
  1
1uF
 73
     1
 44
1.0
  0
MTEXT
  5
2F3
330
2CF
100
AcDbEntity
  8
CONSTR
100
AcDbMText
 10
6.130173450723006
 20
12.12021878502428
 30
0.0
 40
0.6
 41
2.423099999999999
 71
     1
 72
     5
  1
10uH
 73
     1
 44
1.0
  0
MTEXT
  5
2F4
330
2CF
100
AcDbEntity
  8
CONSTR
100
AcDbMText
 10
6.59614656132814
 20
0.600000042084325
 30
0.0
 40
0.6
 41
1.1805
 71
     1
 72
     5
  1
S
 73
     1
 44
1.0
  0
MTEXT
  5
2F5
330
2CF
100
AcDbEntity
  8
CONSTR
100
AcDbMText
 10
4.048827039711127
 20
0.6931554286394359
 30
0.0
 40
0.6
 41
1.429
 71
     1
 72
     5
  1
G1
 73
     1
 44
1.0
  0
MTEXT
  5
2F6
330
2CF
100
AcDbEntity
  8
CONSTR
100
AcDbMText
 10
6.471887076681483
 20
5.195666851707358
 30
0.0
 40
0.6
 41
1.584299999999999
 71
     1
 72
     5
  1
D
 73
     1
 44
1.0
  0
MTEXT
  5
2F7
330
2CF
100
AcDbEntity
  8
CONSTR
100
AcDbMText
 10
2.899426849909545
 20
5.381977624817572
 30
0.0
 40
0.6
 41
1.1183
 71
     1
 72
     5
  1
G2
 73
     1
 44
1.0
  0
MTEXT
  5
2F8
330
2CF
100
AcDbEntity
  8
CONSTR
100
AcDbMText
 10
2.419828049275554
 20
7.346405215643571
 30
0.0
 40
0.5999999999999999
 41
3.075399999999999
 71
     1
 72
     5
  1
78L10
 11
0.7122849630676669
 21
0.7018903984153741
 31
0.0
 73
     1
 44
1.0
  0
MTEXT
  5
2F9
330
2CF
100
AcDbEntity
  8
CONSTR
100
AcDbMText
 10
5.602345057052858
 20
1.096815814551128
 30
0.0
 40
0.5
 41
2.454099999999999
 71
     1
 72
     5
  1
BF998
 11
0.0000000000000001
 21
1.0
 31
0.0
 73
     1
 44
1.0
  0
MTEXT
  5
2FA
330
2CF
100
AcDbEntity
  8
CONSTR
100
AcDbMText
 10
9.609439193550329
 20
13.79701620283236
 30
0.0
 40
0.8
 41
2.640499999999999
 71
     1
 72
     5
  1
OUT
 73
     1
 44
1.0
  0
MTEXT
  5
2FB
330
2CF
100
AcDbEntity
  8
CONSTR
100
AcDbMText
 10
2.122805114048006
 20
1.717864968130712
 30
0.0
 40
0.8
 41
1.615399999999999
 71
     1
 72
     5
  1
IN
 73
     1
 44
1.0
  0
INSERT
  5
2FC
330
2CF
100
AcDbEntity
  8
CONSTR
100
AcDbBlockReference
  2
tri
 10
10.76567422584415
 20
16.81413866441599
 30
0.0
 50
180.0
  0
ENDBLK
  5
2FE
330
2CF
100
AcDbEntity
  8
0
100
AcDbBlockEnd
  0
BLOCK
  5
4BE
330
4B3
100
AcDbEntity
  8
0
100
AcDbBlockBegin
  2
*D7
 70
     1
 10
0.0
 20
0.0
 30
0.0
  3
*D7
  1

  0
LINE
  5
575
330
4B3
100
AcDbEntity
  8
METAL1
 62
     0
370
    -2
100
AcDbLine
 10
-4.249228192264837
 20
13.2940821596849
 30
0.0
 11
-4.249228192264837
 21
16.40633770394727
 31
0.0
  0
LINE
  5
576
330
4B3
100
AcDbEntity
  8
METAL1
 62
     0
370
    -2
100
AcDbLine
 10
85.24335237965138
 20
14.44648077955668
 30
0.0
 11
85.24335237965138
 21
16.40633770394727
 31
0.0
  0
LINE
  5
577
330
4B3
100
AcDbEntity
  8
METAL1
 62
     0
370
    -2
100
AcDbLine
 10
-2.449228192264837
 20
16.22633770394728
 30
0.0
 11
36.89706209369327
 21
16.22633770394728
 31
0.0
  0
LINE
  5
578
330
4B3
100
AcDbEntity
  8
METAL1
 62
     0
370
    -2
100
AcDbLine
 10
83.44335237965138
 20
16.22633770394728
 30
0.0
 11
44.09706209369328
 21
16.22633770394728
 31
0.0
  0
SOLID
  5
579
330
4B3
100
AcDbEntity
  8
METAL1
 62
     0
100
AcDbTrace
 10
-2.449228192264837
 20
16.52633770394728
 30
0.0
 11
-2.449228192264837
 21
15.92633770394727
 31
0.0
 12
-4.249228192264837
 22
16.22633770394728
 32
0.0
 13
-4.249228192264837
 23
16.22633770394728
 33
0.0
  0
SOLID
  5
57A
330
4B3
100
AcDbEntity
  8
METAL1
 62
     0
100
AcDbTrace
 10
83.44335237965138
 20
16.52633770394728
 30
0.0
 11
83.44335237965138
 21
15.92633770394727
 31
0.0
 12
85.24335237965138
 22
16.22633770394728
 32
0.0
 13
85.24335237965138
 23
16.22633770394728
 33
0.0
  0
MTEXT
  5
57B
330
4B3
100
AcDbEntity
  8
METAL1
 62
     0
370
    15
100
AcDbMText
 10
40.49706209369327
 20
16.22633770394728
 30
0.0
 40
1.8
 41
0.0
 71
     5
 72
     1
  1
\A1;89.5
 73
     1
 44
1.0
  0
POINT
  5
57C
330
4B3
100
AcDbEntity
  8
Defpoints
 62
     0
100
AcDbPoint
 10
-4.249228192264837
 20
13.2315821596849
 30
0.0
  0
POINT
  5
57D
330
4B3
100
AcDbEntity
  8
Defpoints
 62
     0
100
AcDbPoint
 10
85.24335237965138
 20
14.38398077955668
 30
0.0
  0
POINT
  5
57E
330
4B3
100
AcDbEntity
  8
Defpoints
 62
     0
100
AcDbPoint
 10
85.24335237965138
 20
16.22633770394728
 30
0.0
  0
ENDBLK
  5
4BF
330
4B3
100
AcDbEntity
  8
0
100
AcDbBlockEnd
  0
BLOCK
  5
4CC
330
4C1
100
AcDbEntity
  8
0
100
AcDbBlockBegin
  2
*D8
 70
     1
 10
0.0
 20
0.0
 30
0.0
  3
*D8
  1

  0
LINE
  5
57F
330
4C1
100
AcDbEntity
  8
METAL1
 62
     0
370
    -2
100
AcDbLine
 10
87.63711250021064
 20
10.72246267978167
 30
0.0
 11
90.1028412326589
 21
10.72246267978167
 31
0.0
  0
LINE
  5
580
330
4C1
100
AcDbEntity
  8
METAL1
 62
     0
370
    -2
100
AcDbLine
 10
87.54953898334246
 20
-18.77740733483268
 30
0.0
 11
90.1028412326589
 21
-18.77740733483269
 31
0.0
  0
LINE
  5
581
330
4C1
100
AcDbEntity
  8
METAL1
 62
     0
370
    -2
100
AcDbLine
 10
89.92284123265889
 20
8.92246267978167
 30
0.0
 11
89.92284123265889
 21
-2.227472327525509
 31
0.0
  0
LINE
  5
582
330
4C1
100
AcDbEntity
  8
METAL1
 62
     0
370
    -2
100
AcDbLine
 10
89.92284123265889
 20
-16.97740733483269
 30
0.0
 11
89.92284123265889
 21
-5.827472327525509
 31
0.0
  0
SOLID
  5
583
330
4C1
100
AcDbEntity
  8
METAL1
 62
     0
100
AcDbTrace
 10
89.6228412326589
 20
8.92246267978167
 30
0.0
 11
90.22284123265889
 21
8.92246267978167
 31
0.0
 12
89.92284123265889
 22
10.72246267978167
 32
0.0
 13
89.92284123265889
 23
10.72246267978167
 33
0.0
  0
SOLID
  5
584
330
4C1
100
AcDbEntity
  8
METAL1
 62
     0
100
AcDbTrace
 10
89.6228412326589
 20
-16.97740733483269
 30
0.0
 11
90.22284123265889
 21
-16.97740733483269
 31
0.0
 12
89.92284123265889
 22
-18.77740733483269
 32
0.0
 13
89.92284123265889
 23
-18.77740733483269
 33
0.0
  0
MTEXT
  5
585
330
4C1
100
AcDbEntity
  8
METAL1
 62
     0
370
    15
100
AcDbMText
 10
89.92284123265889
 20
-4.027472327525495
 30
0.0
 40
1.8
 41
0.0
 71
     5
 72
     1
  1
\A1;29.5
 73
     1
 44
1.0
  0
POINT
  5
586
330
4C1
100
AcDbEntity
  8
Defpoints
 62
     0
100
AcDbPoint
 10
87.57461250021064
 20
10.72246267978167
 30
0.0
  0
POINT
  5
587
330
4C1
100
AcDbEntity
  8
Defpoints
 62
     0
100
AcDbPoint
 10
87.48703898334246
 20
-18.77740733483268
 30
0.0
  0
POINT
  5
588
330
4C1
100
AcDbEntity
  8
Defpoints
 62
     0
100
AcDbPoint
 10
89.92284123265889
 20
-18.77740733483269
 30
0.0
  0
ENDBLK
  5
4CD
330
4C1
100
AcDbEntity
  8
0
100
AcDbBlockEnd
  0
ENDSEC
  0
SECTION
  2
ENTITIES
  0
LINE
  5
38
330
1E
100
AcDbEntity
  8
CONSTR
100
AcDbLine
 10
11.4
 20
-0.5
 30
0.0
 11
11.4
 21
0.5
 31
0.0
  0
SOLID
  5
3A
330
1E
100
AcDbEntity
  8
CONSTR
100
AcDbTrace
 10
11.4
 20
-0.2032
 30
0.0
 11
10.89199999999999
 21
-0.2032
 31
0.0
 12
11.4
 22
0.2032
 32
0.0
 13
10.89199999999999
 23
0.2032
 33
0.0
  0
SOLID
  5
3B
330
1E
100
AcDbEntity
  8
CONSTR
100
AcDbTrace
 10
11.4
 20
1.6968
 30
0.0
 11
10.89199999999999
 21
1.6968
 31
0.0
 12
11.4
 22
2.1032
 32
0.0
 13
10.89199999999999
 23
2.1032
 33
0.0
  0
SOLID
  5
3C
330
1E
100
AcDbEntity
  8
CONSTR
100
AcDbTrace
 10
12.7
 20
0.6064
 30
0.0
 11
13.208
 21
0.6064
 31
0.0
 12
12.7
 22
-0.2064
 32
0.0
 13
13.208
 23
-0.2064
 33
0.0
  0
SOLID
  5
3D
330
1E
100
AcDbEntity
  8
CONSTR
100
AcDbTrace
 10
12.7
 20
2.1032
 30
0.0
 11
13.208
 21
2.1032
 31
0.0
 12
12.7
 22
1.6968
 32
0.0
 13
13.208
 23
1.6968
 33
0.0
  0
SOLID
  5
3F
330
1E
100
AcDbEntity
  8
METAL1
100
AcDbTrace
 10
11.65399999999999
 20
1.391999999999999
 30
0.0
 11
10.638
 21
1.391999999999999
 31
0.0
 12
11.65399999999999
 22
2.407999999999999
 32
0.0
 13
10.638
 23
2.407999999999999
 33
0.0
  0
SOLID
  5
40
330
1E
100
AcDbEntity
  8
METAL1
100
AcDbTrace
 10
12.43527030671041
 20
0.7469900313381732
 30
0.0
 11
13.45127030671041
 21
0.7469900313381732
 31
0.0
 12
12.43527030671041
 22
-0.6500099686618271
 32
0.0
 13
13.45127030671041
 23
-0.6500099686618271
 33
0.0
  0
SOLID
  5
41
330
1E
100
AcDbEntity
  8
METAL1
100
AcDbTrace
 10
12.446
 20
2.407999999999999
 30
0.0
 11
13.462
 21
2.407999999999999
 31
0.0
 12
12.446
 22
1.391999999999999
 32
0.0
 13
13.462
 23
1.391999999999999
 33
0.0
  0
SOLID
  5
42
330
1E
100
AcDbEntity
  8
CONSTR
100
AcDbTrace
 10
11.45
 20
2.399999999999999
 30
0.0
 11
11.45
 21
-0.5
 31
0.0
 12
11.35
 22
2.399999999999999
 32
0.0
 13
11.35
 23
-0.5
 33
0.0
  0
SOLID
  5
43
330
1E
100
AcDbEntity
  8
CONSTR
100
AcDbTrace
 10
11.4
 20
2.45
 30
0.0
 11
12.7
 21
2.45
 31
0.0
 12
11.4
 22
2.35
 32
0.0
 13
12.7
 23
2.35
 33
0.0
  0
SOLID
  5
44
330
1E
100
AcDbEntity
  8
CONSTR
100
AcDbTrace
 10
12.75
 20
2.399999999999999
 30
0.0
 11
12.75
 21
-0.5
 31
0.0
 12
12.65
 22
2.399999999999999
 32
0.0
 13
12.65
 23
-0.5
 33
0.0
  0
SOLID
  5
45
330
1E
100
AcDbEntity
  8
CONSTR
100
AcDbTrace
 10
11.4
 20
-0.45
 30
0.0
 11
12.7
 21
-0.45
 31
0.0
 12
11.4
 22
-0.55
 32
0.0
 13
12.7
 23
-0.55
 33
0.0
  0
LINE
  5
48
330
1E
100
AcDbEntity
  8
CONSTR
100
AcDbLine
 10
12.7
 20
2.399999999999999
 30
0.0
 11
12.7
 21
1.399999999999999
 31
0.0
  0
SOLID
  5
4F
330
1E
100
AcDbEntity
  8
METAL1
100
AcDbTrace
 10
12.85
 20
2.738199999999999
 30
0.0
 11
13.9676
 21
2.738199999999999
 31
0.0
 12
12.85
 22
1.0618
 32
0.0
 13
13.9676
 23
1.0618
 33
0.0
  0
SOLID
  5
50
330
1E
100
AcDbEntity
  8
METAL1
100
AcDbTrace
 10
15.8
 20
2.738199999999999
 30
0.0
 11
16.9176
 21
2.738199999999999
 31
0.0
 12
15.8
 22
1.0618
 32
0.0
 13
16.9176
 23
1.0618
 33
0.0
  0
SOLID
  5
51
330
1E
100
AcDbEntity
  8
CONSTR
100
AcDbTrace
 10
13.325
 20
2.7
 30
0.0
 11
13.325
 21
1.1
 31
0.0
 12
13.275
 22
2.7
 32
0.0
 13
13.275
 23
1.1
 33
0.0
  0
SOLID
  5
52
330
1E
100
AcDbEntity
  8
CONSTR
100
AcDbTrace
 10
13.3
 20
2.725
 30
0.0
 11
16.5
 21
2.725
 31
0.0
 12
13.3
 22
2.674999999999999
 32
0.0
 13
16.5
 23
2.674999999999999
 33
0.0
  0
SOLID
  5
53
330
1E
100
AcDbEntity
  8
CONSTR
100
AcDbTrace
 10
13.3
 20
1.125
 30
0.0
 11
16.5
 21
1.125
 31
0.0
 12
13.3
 22
1.074999999999999
 32
0.0
 13
16.5
 23
1.074999999999999
 33
0.0
  0
SOLID
  5
54
330
1E
100
AcDbEntity
  8
CONSTR
100
AcDbTrace
 10
16.52499999999999
 20
2.7
 30
0.0
 11
16.52499999999999
 21
1.1
 31
0.0
 12
16.475
 22
2.7
 32
0.0
 13
16.475
 23
1.1
 33
0.0
  0
SOLID
  5
55
330
1E
100
AcDbEntity
  8
METAL1
100
AcDbTrace
 10
16.3
 20
2.5
 30
0.0
 11
17.5
 21
2.5
 31
0.0
 12
16.3
 22
1.3
 32
0.0
 13
17.5
 23
1.3
 33
0.0
  0
SOLID
  5
56
330
1E
100
AcDbEntity
  8
METAL1
100
AcDbTrace
 10
16.0618
 20
1.85
 30
0.0
 11
16.0618
 21
2.9676
 31
0.0
 12
17.73819999999999
 22
1.85
 32
0.0
 13
17.73819999999999
 23
2.9676
 33
0.0
  0
SOLID
  5
57
330
1E
100
AcDbEntity
  8
METAL1
100
AcDbTrace
 10
16.0618
 20
4.799999999999999
 30
0.0
 11
16.0618
 21
5.9176
 31
0.0
 12
17.73819999999999
 22
4.799999999999999
 32
0.0
 13
17.73819999999999
 23
5.9176
 33
0.0
  0
SOLID
  5
58
330
1E
100
AcDbEntity
  8
CONSTR
100
AcDbTrace
 10
16.1
 20
2.325
 30
0.0
 11
17.7
 21
2.325
 31
0.0
 12
16.1
 22
2.274999999999999
 32
0.0
 13
17.7
 23
2.274999999999999
 33
0.0
  0
SOLID
  5
59
330
1E
100
AcDbEntity
  8
CONSTR
100
AcDbTrace
 10
16.07499999999999
 20
2.299999999999999
 30
0.0
 11
16.07499999999999
 21
5.5
 31
0.0
 12
16.125
 22
2.299999999999999
 32
0.0
 13
16.125
 23
5.5
 33
0.0
  0
SOLID
  5
5A
330
1E
100
AcDbEntity
  8
CONSTR
100
AcDbTrace
 10
17.675
 20
2.299999999999999
 30
0.0
 11
17.675
 21
5.5
 31
0.0
 12
17.725
 22
2.299999999999999
 32
0.0
 13
17.725
 23
5.5
 33
0.0
  0
SOLID
  5
5B
330
1E
100
AcDbEntity
  8
CONSTR
100
AcDbTrace
 10
16.1
 20
5.525
 30
0.0
 11
17.7
 21
5.525
 31
0.0
 12
16.1
 22
5.474999999999999
 32
0.0
 13
17.7
 23
5.474999999999999
 33
0.0
  0
SOLID
  5
5D
330
1E
100
AcDbEntity
  8
METAL1
100
AcDbTrace
 10
19.5
 20
2.139990981043388
 30
0.0
 11
17.5
 21
2.139990981043388
 31
0.0
 12
19.5
 22
1.889990981043388
 32
0.0
 13
17.5
 23
1.889990981043388
 33
0.0
  0
SOLID
  5
5E
330
1E
100
AcDbEntity
  8
METAL1
100
AcDbTrace
 10
19.5
 20
2.139990981043388
 30
0.0
 11
19.5
 21
1.889990981043388
 31
0.0
 12
19.5
 22
2.139990981043388
 32
0.0
 13
19.75
 23
2.139990981043388
 33
0.0
  0
SOLID
  5
5F
330
1E
100
AcDbEntity
  8
METAL1
100
AcDbTrace
 10
19.5
 20
7.338690981043388
 30
0.0
 11
19.5
 21
2.139990981043388
 31
0.0
 12
19.75
 22
7.338690981043388
 32
0.0
 13
19.75
 23
2.139990981043388
 33
0.0
  0
SOLID
  5
60
330
1E
100
AcDbEntity
  8
METAL1
100
AcDbTrace
 10
22.25
 20
7.338690981043388
 30
0.0
 11
22.25
 21
2.139990981043388
 31
0.0
 12
22.5
 22
7.338690981043388
 32
0.0
 13
22.5
 23
2.139990981043388
 33
0.0
  0
SOLID
  5
61
330
1E
100
AcDbEntity
  8
METAL1
100
AcDbTrace
 10
25.0
 20
7.338690981043388
 30
0.0
 11
25.0
 21
2.139990981043388
 31
0.0
 12
25.25
 22
7.338690981043388
 32
0.0
 13
25.25
 23
2.139990981043388
 33
0.0
  0
SOLID
  5
62
330
1E
100
AcDbEntity
  8
METAL1
100
AcDbTrace
 10
27.75
 20
7.338690981043388
 30
0.0
 11
27.75
 21
2.139990981043388
 31
0.0
 12
28.0
 22
7.338690981043388
 32
0.0
 13
28.0
 23
2.139990981043388
 33
0.0
  0
SOLID
  5
63
330
1E
100
AcDbEntity
  8
METAL1
100
AcDbTrace
 10
19.75
 20
7.338690981043388
 30
0.0
 11
19.75
 21
7.588690981043388
 31
0.0
 12
19.75
 22
7.338690981043388
 32
0.0
 13
19.5
 23
7.338690981043388
 33
0.0
  0
SOLID
  5
64
330
1E
100
AcDbEntity
  8
METAL1
100
AcDbTrace
 10
22.25
 20
7.588690981043388
 30
0.0
 11
19.75
 21
7.588690981043388
 31
0.0
 12
22.25
 22
7.338690981043388
 32
0.0
 13
19.75
 23
7.338690981043388
 33
0.0
  0
SOLID
  5
65
330
1E
100
AcDbEntity
  8
METAL1
100
AcDbTrace
 10
22.25
 20
7.338690981043388
 30
0.0
 11
22.5
 21
7.338690981043388
 31
0.0
 12
22.25
 22
7.338690981043388
 32
0.0
 13
22.25
 23
7.588690981043388
 33
0.0
  0
SOLID
  5
66
330
1E
100
AcDbEntity
  8
METAL1
100
AcDbTrace
 10
25.25
 20
7.338690981043388
 30
0.0
 11
25.25
 21
7.588690981043388
 31
0.0
 12
25.25
 22
7.338690981043388
 32
0.0
 13
25.0
 23
7.338690981043388
 33
0.0
  0
SOLID
  5
67
330
1E
100
AcDbEntity
  8
METAL1
100
AcDbTrace
 10
27.75
 20
7.588690981043388
 30
0.0
 11
25.25
 21
7.588690981043388
 31
0.0
 12
27.75
 22
7.338690981043388
 32
0.0
 13
25.25
 23
7.338690981043388
 33
0.0
  0
SOLID
  5
68
330
1E
100
AcDbEntity
  8
METAL1
100
AcDbTrace
 10
27.75
 20
7.338690981043388
 30
0.0
 11
28.0
 21
7.338690981043388
 31
0.0
 12
27.75
 22
7.338690981043388
 32
0.0
 13
27.75
 23
7.588690981043388
 33
0.0
  0
SOLID
  5
69
330
1E
100
AcDbEntity
  8
METAL1
100
AcDbTrace
 10
22.25
 20
2.139990981043388
 30
0.0
 11
22.25
 21
-3.058709018956611
 31
0.0
 12
22.5
 22
2.139990981043388
 32
0.0
 13
22.5
 23
-3.058709018956611
 33
0.0
  0
SOLID
  5
6A
330
1E
100
AcDbEntity
  8
METAL1
100
AcDbTrace
 10
25.0
 20
2.139990981043388
 30
0.0
 11
25.0
 21
-3.058709018956611
 31
0.0
 12
25.25
 22
2.139990981043388
 32
0.0
 13
25.25
 23
-3.058709018956611
 33
0.0
  0
SOLID
  5
6B
330
1E
100
AcDbEntity
  8
METAL1
100
AcDbTrace
 10
27.75
 20
2.139990981043388
 30
0.0
 11
27.75
 21
-3.058709018956611
 31
0.0
 12
28.0
 22
2.139990981043388
 32
0.0
 13
28.0
 23
-3.058709018956611
 33
0.0
  0
SOLID
  5
6C
330
1E
100
AcDbEntity
  8
METAL1
100
AcDbTrace
 10
22.5
 20
-3.058709018956611
 30
0.0
 11
22.25
 21
-3.058709018956611
 31
0.0
 12
22.5
 22
-3.058709018956611
 32
0.0
 13
22.5
 23
-3.308709018956611
 33
0.0
  0
SOLID
  5
6D
330
1E
100
AcDbEntity
  8
METAL1
100
AcDbTrace
 10
22.5
 20
-3.308709018956611
 30
0.0
 11
25.0
 21
-3.308709018956611
 31
0.0
 12
22.5
 22
-3.058709018956611
 32
0.0
 13
25.0
 23
-3.058709018956611
 33
0.0
  0
SOLID
  5
6E
330
1E
100
AcDbEntity
  8
METAL1
100
AcDbTrace
 10
25.0
 20
-3.058709018956611
 30
0.0
 11
25.0
 21
-3.308709018956611
 31
0.0
 12
25.0
 22
-3.058709018956611
 32
0.0
 13
25.25
 23
-3.058709018956611
 33
0.0
  0
SOLID
  5
6F
330
1E
100
AcDbEntity
  8
METAL1
100
AcDbTrace
 10
28.0
 20
-3.658709018956611
 30
0.0
 11
28.0
 21
-3.058709018956611
 31
0.0
 12
27.75
 22
-3.658709018956611
 32
0.0
 13
27.75
 23
-3.058709018956611
 33
0.0
  0
SOLID
  5
70
330
1E
100
AcDbEntity
  8
METAL1
100
AcDbTrace
 10
27.275
 20
-3.658709018956611
 30
0.0
 11
27.275
 21
-4.258709018956611
 31
0.0
 12
28.475
 22
-3.658709018956611
 32
0.0
 13
28.475
 23
-4.258709018956611
 33
0.0
  0
SOLID
  5
71
330
1E
100
AcDbEntity
  8
METAL1
100
AcDbTrace
 10
27.875
 20
-4.258709018956611
 30
0.0
 11
28.475
 21
-4.258709018956611
 31
0.0
 12
27.875
 22
-3.058709018956611
 32
0.0
 13
28.475
 23
-3.058709018956611
 33
0.0
  0
SOLID
  5
72
330
1E
100
AcDbEntity
  8
METAL1
100
AcDbTrace
 10
28.7132
 20
-7.708709018956611
 30
0.0
 11
28.7132
 21
-6.591109018956611
 31
0.0
 12
27.0368
 22
-7.708709018956611
 32
0.0
 13
27.0368
 23
-6.591109018956611
 33
0.0
  0
SOLID
  5
73
330
1E
100
AcDbEntity
  8
METAL1
100
AcDbTrace
 10
28.7132
 20
-4.758709018956611
 30
0.0
 11
28.7132
 21
-3.641109018956611
 31
0.0
 12
27.0368
 22
-4.758709018956611
 32
0.0
 13
27.0368
 23
-3.641109018956611
 33
0.0
  0
SOLID
  5
74
330
1E
100
AcDbEntity
  8
CONSTR
100
AcDbTrace
 10
28.675
 20
-7.233709018956611
 30
0.0
 11
27.075
 21
-7.233709018956611
 31
0.0
 12
28.675
 22
-7.283709018956612
 32
0.0
 13
27.075
 23
-7.283709018956612
 33
0.0
  0
SOLID
  5
75
330
1E
100
AcDbEntity
  8
CONSTR
100
AcDbTrace
 10
28.7
 20
-7.258709018956611
 30
0.0
 11
28.7
 21
-4.058709018956611
 31
0.0
 12
28.65
 22
-7.258709018956611
 32
0.0
 13
28.65
 23
-4.058709018956611
 33
0.0
  0
SOLID
  5
76
330
1E
100
AcDbEntity
  8
CONSTR
100
AcDbTrace
 10
27.1
 20
-7.258709018956611
 30
0.0
 11
27.1
 21
-4.058709018956611
 31
0.0
 12
27.05
 22
-7.258709018956611
 32
0.0
 13
27.05
 23
-4.058709018956611
 33
0.0
  0
SOLID
  5
77
330
1E
100
AcDbEntity
  8
CONSTR
100
AcDbTrace
 10
28.675
 20
-4.033709018956611
 30
0.0
 11
27.075
 21
-4.033709018956611
 31
0.0
 12
28.675
 22
-4.083709018956612
 32
0.0
 13
27.075
 23
-4.083709018956612
 33
0.0
  0
SOLID
  5
78
330
1E
100
AcDbEntity
  8
METAL1
100
AcDbTrace
 10
28.475
 20
-7.658709018956612
 30
0.0
 11
28.475
 21
-7.05870901895661
 31
0.0
 12
27.275
 22
-7.658709018956612
 32
0.0
 13
27.275
 23
-7.05870901895661
 33
0.0
  0
SOLID
  5
79
330
1E
100
AcDbEntity
  8
METAL1
100
AcDbTrace
 10
27.75
 20
-7.658709018956612
 30
0.0
 11
27.75
 21
-8.258709018956611
 31
0.0
 12
28.0
 22
-7.658709018956612
 32
0.0
 13
28.0
 23
-8.258709018956611
 33
0.0
  0
SOLID
  5
7A
330
1E
100
AcDbEntity
  8
METAL1
100
AcDbTrace
 10
27.875
 20
-8.258709018956611
 30
0.0
 11
28.475
 21
-8.258709018956611
 31
0.0
 12
27.875
 22
-7.05870901895661
 32
0.0
 13
28.475
 23
-7.05870901895661
 33
0.0
  0
SOLID
  5
7B
330
1E
100
AcDbEntity
  8
METAL1
100
AcDbTrace
 10
27.825
 20
-8.49690901895661
 30
0.0
 11
28.9426
 21
-8.49690901895661
 31
0.0
 12
27.825
 22
-6.820509018956611
 32
0.0
 13
28.9426
 23
-6.820509018956611
 33
0.0
  0
SOLID
  5
7C
330
1E
100
AcDbEntity
  8
METAL1
100
AcDbTrace
 10
30.775
 20
-8.49690901895661
 30
0.0
 11
31.8926
 21
-8.49690901895661
 31
0.0
 12
30.775
 22
-6.820509018956611
 32
0.0
 13
31.8926
 23
-6.820509018956611
 33
0.0
  0
SOLID
  5
7D
330
1E
100
AcDbEntity
  8
CONSTR
100
AcDbTrace
 10
28.3
 20
-8.458709018956611
 30
0.0
 11
28.3
 21
-6.858709018956611
 31
0.0
 12
28.25
 22
-8.458709018956611
 32
0.0
 13
28.25
 23
-6.858709018956611
 33
0.0
  0
SOLID
  5
7E
330
1E
100
AcDbEntity
  8
CONSTR
100
AcDbTrace
 10
28.275
 20
-8.483709018956611
 30
0.0
 11
31.475
 21
-8.483709018956611
 31
0.0
 12
28.275
 22
-8.43370901895661
 32
0.0
 13
31.475
 23
-8.43370901895661
 33
0.0
  0
SOLID
  5
7F
330
1E
100
AcDbEntity
  8
CONSTR
100
AcDbTrace
 10
28.275
 20
-6.883709018956611
 30
0.0
 11
31.475
 21
-6.883709018956611
 31
0.0
 12
28.275
 22
-6.833709018956611
 32
0.0
 13
31.475
 23
-6.833709018956611
 33
0.0
  0
SOLID
  5
80
330
1E
100
AcDbEntity
  8
CONSTR
100
AcDbTrace
 10
31.5
 20
-8.458709018956611
 30
0.0
 11
31.5
 21
-6.858709018956611
 31
0.0
 12
31.45
 22
-8.458709018956611
 32
0.0
 13
31.45
 23
-6.858709018956611
 33
0.0
  0
SOLID
  5
81
330
1E
100
AcDbEntity
  8
METAL1
100
AcDbTrace
 10
31.27499999999999
 20
-8.258709018956611
 30
0.0
 11
32.475
 21
-8.258709018956611
 31
0.0
 12
31.27499999999999
 22
-7.05870901895661
 32
0.0
 13
32.475
 23
-7.05870901895661
 33
0.0
  0
LWPOLYLINE
  5
83
330
1E
100
AcDbEntity
  8
GND
100
AcDbPolyline
 90
        2
 70
     0
 43
0.2
 10
31.875
 20
-7.258709018956611
 42
-1.0
 10
31.875
 20
-8.05870901895661
  0
LWPOLYLINE
  5
87
330
1E
100
AcDbEntity
  8
GND
100
AcDbPolyline
 90
        2
 70
     0
 43
0.2
 10
31.875
 20
-8.05870901895661
 42
-1.0
 10
31.875
 20
-7.258709018956611
  0
SOLID
  5
8B
330
1E
100
AcDbEntity
  8
METAL1
100
AcDbTrace
 10
27.825
 20
-4.49690901895661
 30
0.0
 11
28.9426
 21
-4.49690901895661
 31
0.0
 12
27.825
 22
-2.820509018956611
 32
0.0
 13
28.9426
 23
-2.820509018956611
 33
0.0
  0
SOLID
  5
8C
330
1E
100
AcDbEntity
  8
METAL1
100
AcDbTrace
 10
30.775
 20
-4.49690901895661
 30
0.0
 11
31.8926
 21
-4.49690901895661
 31
0.0
 12
30.775
 22
-2.820509018956611
 32
0.0
 13
31.8926
 23
-2.820509018956611
 33
0.0
  0
SOLID
  5
8D
330
1E
100
AcDbEntity
  8
CONSTR
100
AcDbTrace
 10
28.3
 20
-4.458709018956611
 30
0.0
 11
28.3
 21
-2.858709018956611
 31
0.0
 12
28.25
 22
-4.458709018956611
 32
0.0
 13
28.25
 23
-2.858709018956611
 33
0.0
  0
SOLID
  5
8E
330
1E
100
AcDbEntity
  8
CONSTR
100
AcDbTrace
 10
28.275
 20
-4.483709018956611
 30
0.0
 11
31.475
 21
-4.483709018956611
 31
0.0
 12
28.275
 22
-4.43370901895661
 32
0.0
 13
31.475
 23
-4.43370901895661
 33
0.0
  0
SOLID
  5
8F
330
1E
100
AcDbEntity
  8
CONSTR
100
AcDbTrace
 10
28.275
 20
-2.883709018956611
 30
0.0
 11
31.475
 21
-2.883709018956611
 31
0.0
 12
28.275
 22
-2.833709018956612
 32
0.0
 13
31.475
 23
-2.833709018956612
 33
0.0
  0
SOLID
  5
90
330
1E
100
AcDbEntity
  8
CONSTR
100
AcDbTrace
 10
31.5
 20
-4.458709018956611
 30
0.0
 11
31.5
 21
-2.858709018956611
 31
0.0
 12
31.45
 22
-4.458709018956611
 32
0.0
 13
31.45
 23
-2.858709018956611
 33
0.0
  0
SOLID
  5
91
330
1E
100
AcDbEntity
  8
METAL1
100
AcDbTrace
 10
31.27499999999999
 20
-4.258709018956611
 30
0.0
 11
32.475
 21
-4.258709018956611
 31
0.0
 12
31.27499999999999
 22
-3.058709018956611
 32
0.0
 13
32.475
 23
-3.058709018956611
 33
0.0
  0
LWPOLYLINE
  5
92
330
1E
100
AcDbEntity
  8
GND
100
AcDbPolyline
 90
        2
 70
     0
 43
0.2
 10
31.875
 20
-3.258709018956611
 42
-1.0
 10
31.875
 20
-4.058709018956611
  0
LWPOLYLINE
  5
96
330
1E
100
AcDbEntity
  8
GND
100
AcDbPolyline
 90
        2
 70
     0
 43
0.2
 10
31.875
 20
-4.058709018956611
 42
-1.0
 10
31.875
 20
-3.258709018956611
  0
SOLID
  5
9A
330
1E
100
AcDbEntity
  8
METAL1
100
AcDbTrace
 10
16.0618
 20
-2.149999999999999
 30
0.0
 11
16.0618
 21
-1.032399999999999
 31
0.0
 12
17.73819999999999
 22
-2.149999999999999
 32
0.0
 13
17.73819999999999
 23
-1.032399999999999
 33
0.0
  0
SOLID
  5
9B
330
1E
100
AcDbEntity
  8
METAL1
100
AcDbTrace
 10
16.0618
 20
0.8
 30
0.0
 11
16.0618
 21
1.9176
 31
0.0
 12
17.73819999999999
 22
0.8
 32
0.0
 13
17.73819999999999
 23
1.9176
 33
0.0
  0
SOLID
  5
9C
330
1E
100
AcDbEntity
  8
CONSTR
100
AcDbTrace
 10
16.1
 20
-1.675
 30
0.0
 11
17.7
 21
-1.675
 31
0.0
 12
16.1
 22
-1.725
 32
0.0
 13
17.7
 23
-1.725
 33
0.0
  0
SOLID
  5
9D
330
1E
100
AcDbEntity
  8
CONSTR
100
AcDbTrace
 10
16.07499999999999
 20
-1.7
 30
0.0
 11
16.07499999999999
 21
1.5
 31
0.0
 12
16.125
 22
-1.7
 32
0.0
 13
16.125
 23
1.5
 33
0.0
  0
SOLID
  5
9E
330
1E
100
AcDbEntity
  8
CONSTR
100
AcDbTrace
 10
17.675
 20
-1.7
 30
0.0
 11
17.675
 21
1.5
 31
0.0
 12
17.725
 22
-1.7
 32
0.0
 13
17.725
 23
1.5
 33
0.0
  0
SOLID
  5
9F
330
1E
100
AcDbEntity
  8
CONSTR
100
AcDbTrace
 10
16.1
 20
1.524999999999999
 30
0.0
 11
17.7
 21
1.524999999999999
 31
0.0
 12
16.1
 22
1.475
 32
0.0
 13
17.7
 23
1.475
 33
0.0
  0
SOLID
  5
A0
330
1E
100
AcDbEntity
  8
METAL1
100
AcDbTrace
 10
17.73819999999999
 20
-0.85
 30
0.0
 11
17.73819999999999
 21
-1.9676
 31
0.0
 12
16.0618
 22
-0.85
 32
0.0
 13
16.0618
 23
-1.9676
 33
0.0
  0
SOLID
  5
A1
330
1E
100
AcDbEntity
  8
METAL1
100
AcDbTrace
 10
17.73819999999999
 20
-3.799999999999999
 30
0.0
 11
17.73819999999999
 21
-4.9176
 31
0.0
 12
16.0618
 22
-3.799999999999999
 32
0.0
 13
16.0618
 23
-4.9176
 33
0.0
  0
SOLID
  5
A2
330
1E
100
AcDbEntity
  8
CONSTR
100
AcDbTrace
 10
17.7
 20
-1.324999999999999
 30
0.0
 11
16.1
 21
-1.324999999999999
 31
0.0
 12
17.7
 22
-1.274999999999999
 32
0.0
 13
16.1
 23
-1.274999999999999
 33
0.0
  0
SOLID
  5
A3
330
1E
100
AcDbEntity
  8
CONSTR
100
AcDbTrace
 10
17.725
 20
-1.3
 30
0.0
 11
17.725
 21
-4.5
 31
0.0
 12
17.675
 22
-1.3
 32
0.0
 13
17.675
 23
-4.5
 33
0.0
  0
SOLID
  5
A4
330
1E
100
AcDbEntity
  8
CONSTR
100
AcDbTrace
 10
16.125
 20
-1.3
 30
0.0
 11
16.125
 21
-4.5
 31
0.0
 12
16.07499999999999
 22
-1.3
 32
0.0
 13
16.07499999999999
 23
-4.5
 33
0.0
  0
SOLID
  5
A5
330
1E
100
AcDbEntity
  8
CONSTR
100
AcDbTrace
 10
17.7
 20
-4.525
 30
0.0
 11
16.1
 21
-4.525
 31
0.0
 12
17.7
 22
-4.474999999999999
 32
0.0
 13
16.1
 23
-4.474999999999999
 33
0.0
  0
SOLID
  5
A6
330
1E
100
AcDbEntity
  8
METAL1
100
AcDbTrace
 10
17.5
 20
-4.299999999999999
 30
0.0
 11
17.5
 21
-5.5
 31
0.0
 12
16.3
 22
-4.299999999999999
 32
0.0
 13
16.3
 23
-5.5
 33
0.0
  0
LWPOLYLINE
  5
A7
330
1E
100
AcDbEntity
  8
GND
100
AcDbPolyline
 90
        2
 70
     0
 43
0.2
 10
16.89999999999999
 20
-5.299999999999999
 42
1.0
 10
16.89999999999999
 20
-4.5
  0
LWPOLYLINE
  5
AB
330
1E
100
AcDbEntity
  8
GND
100
AcDbPolyline
 90
        2
 70
     0
 43
0.2
 10
16.89999999999999
 20
-4.5
 42
1.0
 10
16.89999999999999
 20
-5.299999999999999
  0
LINE
  5
B0
330
1E
100
AcDbEntity
  8
CONSTR
100
AcDbLine
 10
12.71
 20
-0.3
 30
0.0
 11
12.7
 21
-0.3
 31
0.0
  0
LINE
  5
B1
330
1E
100
AcDbEntity
  8
CONSTR
100
AcDbLine
 10
12.71
 20
-0.3
 30
0.0
 11
12.71
 21
0.7
 31
0.0
  0
LINE
  5
B6
330
1E
100
AcDbEntity
  8
CONSTR
100
AcDbLine
 10
12.7
 20
0.7
 30
0.0
 11
12.71
 21
0.7
 31
0.0
  0
LINE
  5
B7
330
1E
100
AcDbEntity
  8
CONSTR
100
AcDbLine
 10
12.7
 20
0.7
 30
0.0
 11
12.7
 21
-0.3
 31
0.0
  0
SOLID
  5
B8
330
1E
100
AcDbEntity
  8
METAL1
100
AcDbTrace
 10
13.64114693301141
 20
-0.4581058689279246
 30
0.0
 11
12.44114693301141
 21
-0.4581058689279246
 31
0.0
 12
13.64114693301141
 22
0.7418941310720755
 32
0.0
 13
12.44114693301141
 23
0.7418941310720755
 33
0.0
  0
LWPOLYLINE
  5
B9
330
1E
100
AcDbEntity
  8
GND
100
AcDbPolyline
 90
        2
 70
     0
 43
0.2
 10
13.04114693301141
 20
-0.2581058689279246
 42
1.0
 10
13.04114693301141
 20
0.5418941310720755
  0
LWPOLYLINE
  5
BD
330
1E
100
AcDbEntity
  8
GND
100
AcDbPolyline
 90
        2
 70
     0
 43
0.2
 10
13.04114693301141
 20
0.5418941310720755
 42
1.0
 10
13.04114693301141
 20
-0.2581058689279246
  0
SOLID
  5
CE
330
1E
100
AcDbEntity
  8
METAL1
100
AcDbTrace
 10
11.6386706461856
 20
-0.4971408929610664
 30
0.0
 11
10.6226706461856
 21
-0.4971408929610664
 31
0.0
 12
11.6386706461856
 22
0.5188591070389337
 32
0.0
 13
10.6226706461856
 23
0.5188591070389337
 33
0.0
  0
SOLID
  5
D5
330
1E
100
AcDbEntity
  8
METAL1
100
AcDbTrace
 10
10.97685960436519
 20
-0.5690945247115679
 30
0.0
 11
9.776859604365192
 21
-0.5690945247115679
 31
0.0
 12
10.97685960436519
 22
0.6309054752884322
 32
0.0
 13
9.776859604365192
 23
0.6309054752884322
 33
0.0
  0
SOLID
  5
107
330
1E
100
AcDbEntity
  8
METAL1
100
AcDbTrace
 10
11.9600210466355
 20
3.365606014355975
 30
0.0
 11
11.9600210466355
 21
2.248006014355974
 31
0.0
 12
10.2836210466355
 22
3.365606014355975
 32
0.0
 13
10.2836210466355
 23
2.248006014355974
 33
0.0
  0
SOLID
  5
10B
330
1E
100
AcDbEntity
  8
METAL1
100
AcDbTrace
 10
11.1718210466355
 20
1.427406014355975
 30
0.0
 11
10.0542210466355
 21
1.427406014355975
 31
0.0
 12
11.1718210466355
 22
3.103806014355974
 32
0.0
 13
10.0542210466355
 23
3.103806014355974
 33
0.0
  0
SOLID
  5
10C
330
1E
100
AcDbEntity
  8
METAL1
100
AcDbTrace
 10
11.65750020607664
 20
1.350906014355974
 30
0.0
 11
10.64150020607665
 21
1.350906014355974
 31
0.0
 12
11.65750020607664
 22
2.366906014355974
 32
0.0
 13
10.64150020607665
 23
2.366906014355974
 33
0.0
  0
SOLID
  5
375
330
1E
100
AcDbEntity
  8
METAL1
100
AcDbTrace
 10
11.63112426005149
 20
1.432178484016663
 30
0.0
 11
10.61512426005149
 21
1.432178484016663
 31
0.0
 12
11.63112426005149
 22
2.448178484016665
 32
0.0
 13
10.61512426005149
 23
2.448178484016665
 33
0.0
  0
SOLID
  5
392
330
1E
100
AcDbEntity
  8
METAL1
100
AcDbTrace
 10
7.445445100610345
 20
-5.453121515983333
 30
0.0
 11
7.445445100610345
 21
1.746878484016665
 31
0.0
 12
7.695445100610345
 22
-5.453121515983333
 32
0.0
 13
7.695445100610345
 23
1.746878484016665
 33
0.0
  0
SOLID
  5
393
330
1E
100
AcDbEntity
  8
METAL1
100
AcDbTrace
 10
7.695445100610345
 20
2.346878484016663
 30
0.0
 11
7.695445100610345
 21
1.746878484016665
 31
0.0
 12
7.445445100610345
 22
2.346878484016663
 32
0.0
 13
7.445445100610345
 23
1.746878484016665
 33
0.0
  0
SOLID
  5
394
330
1E
100
AcDbEntity
  8
METAL1
100
AcDbTrace
 10
7.445445100610345
 20
2.346878484016663
 30
0.0
 11
7.445445100610345
 21
2.946878484016664
 31
0.0
 12
7.695445100610345
 22
2.346878484016663
 32
0.0
 13
7.695445100610345
 23
2.946878484016664
 33
0.0
  0
SOLID
  5
395
330
1E
100
AcDbEntity
  8
METAL1
100
AcDbTrace
 10
7.570445100610345
 20
2.946878484016664
 30
0.0
 11
7.695445100610345
 21
2.946878484016664
 31
0.0
 12
7.570445100610345
 22
1.746878484016665
 32
0.0
 13
7.695445100610345
 23
1.746878484016665
 33
0.0
  0
SOLID
  5
396
330
1E
100
AcDbEntity
  8
METAL1
100
AcDbTrace
 10
7.445445100610345
 20
2.946878484016664
 30
0.0
 11
7.445445100610345
 21
5.946878484016664
 31
0.0
 12
7.695445100610345
 22
2.946878484016664
 32
0.0
 13
7.695445100610345
 23
5.946878484016664
 33
0.0
  0
SOLID
  5
397
330
1E
100
AcDbEntity
  8
METAL1
100
AcDbTrace
 10
6.570445100610345
 20
4.946878484016664
 30
0.0
 11
6.570445100610345
 21
6.946878484016664
 31
0.0
 12
8.570445100610346
 22
4.946878484016664
 32
0.0
 13
8.570445100610346
 23
6.946878484016664
 33
0.0
  0
SOLID
  5
398
330
1E
100
AcDbEntity
  8
METAL1
100
AcDbTrace
 10
8.570445100610346
 20
9.946878484016664
 30
0.0
 11
8.570445100610346
 21
7.946878484016664
 31
0.0
 12
6.570445100610345
 22
9.946878484016664
 32
0.0
 13
6.570445100610345
 23
7.946878484016664
 33
0.0
  0
SOLID
  5
39A
330
1E
100
AcDbEntity
  8
CONSTR
100
AcDbTrace
 10
10.32544510061034
 20
8.991878484016664
 30
0.0
 11
10.32544510061034
 21
9.991878484016666
 31
0.0
 12
10.92544510061034
 22
8.991878484016664
 32
0.0
 13
10.92544510061034
 23
9.991878484016666
 33
0.0
  0
SOLID
  5
39B
330
1E
100
AcDbEntity
  8
METAL1
100
AcDbTrace
 10
11.62544510061034
 20
9.991878484016666
 30
0.0
 11
11.62544510061034
 21
7.991878484016663
 31
0.0
 12
9.625445100610345
 22
9.991878484016666
 32
0.0
 13
9.625445100610345
 23
7.991878484016663
 33
0.0
  0
SOLID
  5
39C
330
1E
100
AcDbEntity
  8
METAL1
100
AcDbTrace
 10
11.14544510061034
 20
1.508678484016662
 30
0.0
 11
10.02784510061034
 21
1.508678484016662
 31
0.0
 12
11.14544510061034
 22
3.185078484016663
 32
0.0
 13
10.02784510061034
 23
3.185078484016663
 33
0.0
  0
SOLID
  5
39D
330
1E
100
AcDbEntity
  8
METAL1
100
AcDbTrace
 10
8.195445100610346
 20
1.508678484016662
 30
0.0
 11
7.077845100610345
 21
1.508678484016662
 31
0.0
 12
8.195445100610346
 22
3.185078484016663
 32
0.0
 13
7.077845100610345
 23
3.185078484016663
 33
0.0
  0
SOLID
  5
39E
330
1E
100
AcDbEntity
  8
CONSTR
100
AcDbTrace
 10
10.67044510061034
 20
1.546878484016662
 30
0.0
 11
10.67044510061034
 21
3.146878484016664
 31
0.0
 12
10.72044510061034
 22
1.546878484016662
 32
0.0
 13
10.72044510061034
 23
3.146878484016664
 33
0.0
  0
SOLID
  5
39F
330
1E
100
AcDbEntity
  8
CONSTR
100
AcDbTrace
 10
10.69544510061034
 20
1.521878484016664
 30
0.0
 11
7.495445100610345
 21
1.521878484016664
 31
0.0
 12
10.69544510061034
 22
1.571878484016664
 32
0.0
 13
7.495445100610345
 23
1.571878484016664
 33
0.0
  0
SOLID
  5
3A0
330
1E
100
AcDbEntity
  8
CONSTR
100
AcDbTrace
 10
10.69544510061034
 20
3.121878484016665
 30
0.0
 11
7.495445100610345
 21
3.121878484016665
 31
0.0
 12
10.69544510061034
 22
3.171878484016662
 32
0.0
 13
7.495445100610345
 23
3.171878484016662
 33
0.0
  0
SOLID
  5
3A1
330
1E
100
AcDbEntity
  8
CONSTR
100
AcDbTrace
 10
7.470445100610345
 20
1.546878484016662
 30
0.0
 11
7.470445100610345
 21
3.146878484016664
 31
0.0
 12
7.520445100610345
 22
1.546878484016662
 32
0.0
 13
7.520445100610345
 23
3.146878484016664
 33
0.0
  0
SOLID
  5
3A2
330
1E
100
AcDbEntity
  8
METAL1
100
AcDbTrace
 10
11.93364510061034
 20
6.396878484016664
 30
0.0
 11
11.93364510061034
 21
5.279278484016664
 31
0.0
 12
10.25724510061034
 22
6.396878484016664
 32
0.0
 13
10.25724510061034
 23
5.279278484016664
 33
0.0
  0
SOLID
  5
3A3
330
1E
100
AcDbEntity
  8
METAL1
100
AcDbTrace
 10
11.93364510061034
 20
3.446878484016664
 30
0.0
 11
11.93364510061034
 21
2.329278484016665
 31
0.0
 12
10.25724510061034
 22
3.446878484016664
 32
0.0
 13
10.25724510061034
 23
2.329278484016665
 33
0.0
  0
SOLID
  5
3A4
330
1E
100
AcDbEntity
  8
CONSTR
100
AcDbTrace
 10
11.89544510061034
 20
5.921878484016666
 30
0.0
 11
10.29544510061034
 21
5.921878484016666
 31
0.0
 12
11.89544510061034
 22
5.971878484016663
 32
0.0
 13
10.29544510061034
 23
5.971878484016663
 33
0.0
  0
SOLID
  5
3A5
330
1E
100
AcDbEntity
  8
CONSTR
100
AcDbTrace
 10
11.92044510061034
 20
5.946878484016664
 30
0.0
 11
11.92044510061034
 21
2.746878484016665
 31
0.0
 12
11.87044510061034
 22
5.946878484016664
 32
0.0
 13
11.87044510061034
 23
2.746878484016665
 33
0.0
  0
SOLID
  5
3A6
330
1E
100
AcDbEntity
  8
CONSTR
100
AcDbTrace
 10
10.32044510061034
 20
5.946878484016664
 30
0.0
 11
10.32044510061034
 21
2.746878484016665
 31
0.0
 12
10.27044510061034
 22
5.946878484016664
 32
0.0
 13
10.27044510061034
 23
2.746878484016665
 33
0.0
  0
SOLID
  5
3A7
330
1E
100
AcDbEntity
  8
CONSTR
100
AcDbTrace
 10
11.89544510061034
 20
2.721878484016663
 30
0.0
 11
10.29544510061034
 21
2.721878484016663
 31
0.0
 12
11.89544510061034
 22
2.771878484016664
 32
0.0
 13
10.29544510061034
 23
2.771878484016664
 33
0.0
  0
SOLID
  5
3A8
330
1E
100
AcDbEntity
  8
METAL1
100
AcDbTrace
 10
11.69544510061034
 20
6.946878484016664
 30
0.0
 11
11.69544510061034
 21
5.746878484016662
 31
0.0
 12
10.49544510061034
 22
6.946878484016664
 32
0.0
 13
10.49544510061034
 23
5.746878484016662
 33
0.0
  0
LINE
  5
3B2
330
1E
100
AcDbEntity
  8
CONSTR
100
AcDbLine
 10
12.70088653884162
 20
-0.2460650526663635
 30
0.0
 11
12.69088653884162
 21
-0.2460650526663635
 31
0.0
  0
LINE
  5
3B3
330
1E
100
AcDbEntity
  8
CONSTR
100
AcDbLine
 10
12.70088653884162
 20
-0.2460650526663635
 30
0.0
 11
12.70088653884162
 21
0.7539349473336366
 31
0.0
  0
LINE
  5
3B4
330
1E
100
AcDbEntity
  8
CONSTR
100
AcDbLine
 10
12.69088653884162
 20
0.7539349473336366
 30
0.0
 11
12.70088653884162
 21
0.7539349473336366
 31
0.0
  0
LINE
  5
3B5
330
1E
100
AcDbEntity
  8
CONSTR
100
AcDbLine
 10
12.69088653884162
 20
0.7539349473336366
 30
0.0
 11
12.69088653884162
 21
-0.2460650526663635
 31
0.0
  0
INSERT
  5
3B8
330
1E
100
AcDbEntity
  8
CONSTR
100
AcDbBlockReference
  2
elkon
 10
0.8954451006103454
 20
0.0401784840166641
 30
0.0
  0
INSERT
  5
3B9
330
1E
100
AcDbEntity
  8
CONSTR
100
AcDbBlockReference
  2
elkon
 10
16.61420385840007
 20
3.56391628619875
 30
0.0
 50
90.0
  0
INSERT
  5
3BA
330
1E
100
AcDbEntity
  8
CONSTR
100
AcDbBlockReference
  2
rfc
 10
40.54316615016139
 20
-21.50476858313627
 30
0.0
 41
5.747672421525734
 42
5.747672421525734
 43
5.747672421525731
 50
90.0
  0
LWPOLYLINE
  5
3BB
330
1E
100
AcDbEntity
  8
CONSTR
100
AcDbPolyline
 90
        2
 70
     0
 43
0.0
 10
14.73824555922532
 20
8.053746399258407
 10
15.99503127087702
 20
8.053746399258407
  0
LWPOLYLINE
  5
3BC
330
1E
100
AcDbEntity
  8
CONSTR
100
AcDbPolyline
 90
        2
 70
     0
 43
0.0
 10
12.25199558428526
 20
8.053746399258407
 10
11.18645988523736
 20
8.053746399258407
  0
LWPOLYLINE
  5
3BD
330
1E
100
AcDbEntity
  8
CONSTR
100
AcDbPolyline
 90
        2
 70
     0
 43
0.0
 10
8.487499218956166
 20
6.944028090562188
 10
8.132320673596815
 20
6.425139333446125
  0
LWPOLYLINE
  5
3BE
330
1E
100
AcDbEntity
  8
CONSTR
100
AcDbPolyline
 90
        2
 70
     0
 43
0.0
 10
9.607677783245854
 20
8.282214858760756
 10
10.20874920645081
 20
8.609934071575665
  0
LWPOLYLINE
  5
3BF
330
1E
100
AcDbEntity
  8
CONSTR
100
AcDbPolyline
 90
        2
 70
     0
 43
0.0
 10
8.405534936835941
 20
8.172975128140709
 10
8.104999225233463
 20
8.528004278849316
  0
MTEXT
  5
3C2
330
1E
100
AcDbEntity
  8
CONSTR
100
AcDbMText
 10
8.233589537256165
 20
2.653627450589475
 30
0.0
 40
0.6
 41
1.615399999999999
 71
     1
 72
     5
  1
120k
 73
     1
 44
1.0
  0
MTEXT
  5
3C3
330
1E
100
AcDbEntity
  8
CONSTR
100
AcDbMText
 10
10.47050858802702
 20
3.522829608722098
 30
0.0
 40
0.5
 41
1.397899999999999
 71
     1
 72
     5
  1
82k+\P1nF
 11
0.0000000000000001
 21
1.0
 31
0.0
 73
     1
 44
1.0
  0
MTEXT
  5
3C4
330
1E
100
AcDbEntity
  8
CONSTR
100
AcDbMText
 10
6.920434787976276
 20
10.52951122792172
 30
0.0
 40
0.6
 41
1.6775
 71
     1
 72
     5
  1
1uF
 73
     1
 44
1.0
  0
MTEXT
  5
3C5
330
1E
100
AcDbEntity
  8
CONSTR
100
AcDbMText
 10
12.26990551611034
 20
9.464592008520348
 30
0.0
 40
0.6
 41
2.423099999999999
 71
     1
 72
     5
  1
10uH
 73
     1
 44
1.0
  0
MTEXT
  5
3C7
330
1E
100
AcDbEntity
  8
CONSTR
100
AcDbMText
 10
5.03390776442427
 20
8.73243402244811
 30
0.0
 40
0.6
 41
1.6775
 71
     1
 72
     5
  1
1uF
 73
     1
 44
1.0
  0
MTEXT
  5
3C8
330
1E
100
AcDbEntity
  8
CONSTR
100
AcDbMText
 10
12.76906081321993
 20
-0.7620708227914364
 30
0.0
 40
0.6
 41
1.1805
 71
     1
 72
     5
  1
S
 73
     1
 44
1.0
  0
MTEXT
  5
3C9
330
1E
100
AcDbEntity
  8
CONSTR
100
AcDbMText
 10
10.22174129160292
 20
-0.6689154362363255
 30
0.0
 40
0.6
 41
1.429
 71
     1
 72
     5
  1
G1
 73
     1
 44
1.0
  0
MTEXT
  5
3CA
330
1E
100
AcDbEntity
  8
CONSTR
100
AcDbMText
 10
12.64480132857328
 20
3.833595986831596
 30
0.0
 40
0.6
 41
1.584299999999999
 71
     1
 72
     5
  1
D
 73
     1
 44
1.0
  0
MTEXT
  5
3CB
330
1E
100
AcDbEntity
  8
CONSTR
100
AcDbMText
 10
9.072341101801342
 20
4.019906759941811
 30
0.0
 40
0.6
 41
1.1183
 71
     1
 72
     5
  1
G2
 73
     1
 44
1.0
  0
MTEXT
  5
3CC
330
1E
100
AcDbEntity
  8
CONSTR
100
AcDbMText
 10
8.592742301167351
 20
5.984334350767809
 30
0.0
 40
0.5999999999999999
 41
3.075399999999999
 71
     1
 72
     5
  1
78L10
 11
0.7122849630676669
 21
0.7018903984153741
 31
0.0
 73
     1
 44
1.0
  0
MTEXT
  5
3CD
330
1E
100
AcDbEntity
  8
CONSTR
100
AcDbMText
 10
11.77525930894465
 20
-0.2652550503246331
 30
0.0
 40
0.5
 41
2.454099999999999
 71
     1
 72
     5
  1
BF998
 11
0.0000000000000001
 21
1.0
 31
0.0
 73
     1
 44
1.0
  0
MTEXT
  5
3CE
330
1E
100
AcDbEntity
  8
CONSTR
100
AcDbMText
 10
15.70321323161105
 20
10.60391973223082
 30
0.0
 40
0.8
 41
2.640499999999999
 71
     1
 72
     5
  1
OUT
 73
     1
 44
1.0
  0
MTEXT
  5
3CF
330
1E
100
AcDbEntity
  8
CONSTR
100
AcDbMText
 10
8.295719365939802
 20
0.3557941032549507
 30
0.0
 40
0.8
 41
1.615399999999999
 71
     1
 72
     5
  1
IN
 73
     1
 44
1.0
  0
INSERT
  5
3D0
330
1E
100
AcDbEntity
  8
CONSTR
100
AcDbBlockReference
  2
tri
 10
16.93858847773594
 20
15.45206779954023
 30
0.0
 50
180.0
  0
SOLID
  5
3E2
330
1E
100
AcDbEntity
  8
METAL1
100
AcDbTrace
 10
27.78608466545078
 20
-7.948950309362883
 30
0.0
 11
20.58608466545078
 21
-7.948950309362883
 31
0.0
 12
27.78608466545078
 22
-7.698950309362883
 32
0.0
 13
20.58608466545078
 23
-7.698950309362883
 33
0.0
  0
SOLID
  5
3E8
330
1E
100
AcDbEntity
  8
METAL1
100
AcDbTrace
 10
20.71913677372314
 20
-7.951255916516172
 30
0.0
 11
13.51913677372314
 21
-7.951255916516172
 31
0.0
 12
20.71913677372314
 22
-7.701255916516172
 32
0.0
 13
13.51913677372314
 23
-7.701255916516172
 33
0.0
  0
SOLID
  5
3EE
330
1E
100
AcDbEntity
  8
METAL1
100
AcDbTrace
 10
14.6519984927688
 20
-7.950230908105778
 30
0.0
 11
7.451998492768808
 21
-7.950230908105778
 31
0.0
 12
14.6519984927688
 22
-7.700230908105778
 32
0.0
 13
7.451998492768808
 23
-7.700230908105778
 33
0.0
  0
SOLID
  5
3F5
330
1E
100
AcDbEntity
  8
METAL1
100
AcDbTrace
 10
7.446938056876791
 20
-7.875616295030788
 30
0.0
 11
7.446938056876791
 21
-0.6756162950307889
 31
0.0
 12
7.696938056876791
 22
-7.875616295030788
 32
0.0
 13
7.696938056876791
 23
-0.6756162950307889
 33
0.0
  0
MTEXT
  5
3FC
330
1E
100
AcDbEntity
  8
CONSTR
100
AcDbMText
 10
14.08848102342216
 20
2.289043799181627
 30
0.0
 40
0.6
 41
2.9085
 71
     1
 72
     5
  1
100
 73
     1
 44
1.0
  0
MTEXT
  5
3FD
330
1E
100
AcDbEntity
  8
CONSTR
100
AcDbMText
 10
16.58537674780961
 20
-4.034596447146199
 30
0.0
 40
0.6
 41
1.599699999999999
 71
     1
 72
     5
  1
82pF
 11
0.0000000000000001
 21
1.0
 31
0.0
 73
     1
 44
1.0
  0
MTEXT
  5
3FE
330
1E
100
AcDbEntity
  8
CONSTR
100
AcDbMText
 10
16.60908408265046
 20
-0.7854929218168252
 30
0.0
 40
0.6
 41
2.302599999999999
 71
     1
 72
     5
  1
820
 11
0.0000000000000001
 21
1.0
 31
0.0
 73
     1
 44
1.0
  0
MTEXT
  5
3FF
330
1E
100
AcDbEntity
  8
CONSTR
100
AcDbMText
 10
28.77649529560329
 20
-3.259042508364288
 30
0.0
 40
0.6
 41
1.6482
 71
     1
 72
     5
  1
180pF
 73
     1
 44
1.0
  0
MTEXT
  5
400
330
1E
100
AcDbEntity
  8
CONSTR
100
AcDbMText
 10
16.5125209810986
 20
2.918988072197109
 30
0.0
 40
0.6
 41
2.132899999999999
 71
     1
 72
     5
  1
2.7pF
 11
0.0000000000000001
 21
1.0
 31
0.0
 73
     1
 44
1.0
  0
MTEXT
  5
401
330
1E
100
AcDbEntity
  8
CONSTR
100
AcDbMText
 10
27.20480947006632
 20
-5.415285690995872
 30
0.0
 40
0.6
 41
2.1814
 71
     1
 72
     5
  1
100
 73
     1
 44
1.0
  0
MTEXT
  5
402
330
1E
100
AcDbEntity
  8
CONSTR
100
AcDbMText
 10
29.01887184749978
 20
-7.37770934212034
 30
0.0
 40
0.6
 41
2.811599999999999
 71
     1
 72
     5
  1
10nF
 73
     1
 44
1.0
  0
LWPOLYLINE
  5
40C
330
1E
100
AcDbEntity
  8
GND
100
AcDbPolyline
 90
        2
 70
     0
 43
0.2
 10
11.0886866421435
 20
5.983185120494217
 42
1.0
 10
11.0886866421435
 20
6.783185120494218
  0
LWPOLYLINE
  5
40D
330
1E
100
AcDbEntity
  8
GND
100
AcDbPolyline
 90
        2
 70
     0
 43
0.2
 10
11.0886866421435
 20
6.783185120494218
 42
1.0
 10
11.0886866421435
 20
5.983185120494217
  0
MTEXT
  5
418
330
1E
100
AcDbEntity
  8
METAL1
370
    50
100
AcDbMText
 10
36.86185298016843
 20
-17.0636030647243
 30
0.0
 40
1.5
 41
27.0239413418885
 71
     1
 72
     5
  1
      YU1AW\PBF998 432 MHz LNA
 11
0.0000000000000001
 21
1.0
 31
0.0
 73
     1
 44
1.0
  0
LWPOLYLINE
  5
423
330
1E
100
AcDbEntity
  8
GND
100
AcDbPolyline
 90
        2
 70
     0
 43
0.2
 10
7.577383976791344
 20
8.581559450270011
 42
1.0
 10
7.577383976791344
 20
9.381559450270012
  0
LWPOLYLINE
  5
424
330
1E
100
AcDbEntity
  8
GND
100
AcDbPolyline
 90
        2
 70
     0
 43
0.2
 10
7.577383976791344
 20
9.381559450270012
 42
1.0
 10
7.577383976791344
 20
8.581559450270011
  0
LWPOLYLINE
  5
4B0
330
1E
100
AcDbEntity
  8
METAL1
100
AcDbPolyline
 90
        4
 70
     1
 43
0.0
 10
-4.309950051657295
 20
10.7479387427474
 10
85.1900499483427
 20
10.7479387427474
 10
85.1900499483427
 20
-18.75206125725259
 10
-4.309950051657295
 20
-18.75206125725259
  0
DIMENSION
  5
4B2
330
1E
100
AcDbEntity
  8
METAL1
370
    15
100
AcDbDimension
  2
*D7
 10
85.24335237965138
 20
16.22633770394728
 30
0.0
 11
40.49706209369327
 21
16.22633770394728
 31
0.0
 70
    32
 71
     5
 42
89.49258057191622
  3
Standard
100
AcDbAlignedDimension
 13
-4.249228192264837
 23
13.2315821596849
 33
0.0
 14
85.24335237965138
 24
14.38398077955668
 34
0.0
100
AcDbRotatedDimension
1001
ACAD
1000
DSTYLE
1002
{
1070
    41
1040
1.8
1070
   140
1040
1.8
1070
   147
1040
0.9
1070
   271
1070
     1
1002
}
  0
DIMENSION
  5
4C0
330
1E
100
AcDbEntity
  8
METAL1
370
    15
100
AcDbDimension
  2
*D8
 10
89.92284123265889
 20
-18.77740733483269
 30
0.0
 11
89.92284123265889
 21
-4.027472327525495
 31
0.0
 70
    32
 71
     5
 42
29.49987001461435
  3
Standard
100
AcDbAlignedDimension
 13
87.57461250021064
 23
10.72246267978167
 33
0.0
 14
87.48703898334246
 24
-18.77740733483268
 34
0.0
 50
90.0
100
AcDbRotatedDimension
1001
ACAD
1000
DSTYLE
1002
{
1070
    41
1040
1.8
1070
   140
1040
1.8
1070
   147
1040
0.9
1070
   271
1070
     1
1002
}
  0
LWPOLYLINE
  5
58A
102
{ACAD_REACTORS
330
58B
102
}
330
1E
100
AcDbEntity
  8
METAL1
100
AcDbPolyline
 90
        4
 70
     1
 43
0.0
 10
15.56675609740446
 20
5.280549496912385
 10
18.25450282256019
 20
5.280549496912385
 10
18.25450282256019
 20
9.559234169623522
 10
15.56675609740446
 20
9.559234169623522
  0
HATCH
  5
58B
330
1E
100
AcDbEntity
  8
METAL1
100
AcDbHatch
 10
0.0
 20
0.0
 30
0.0
210
0.0
220
0.0
230
1.0
  2
SOLID
 70
     1
 71
     1
 91
        1
 92
        1
 93
        4
 72
     1
 10
15.56675609740446
 20
5.280549496912385
 11
18.25450282256019
 21
5.280549496912385
 72
     1
 10
18.25450282256019
 20
5.280549496912385
 11
18.25450282256019
 21
9.559234169623522
 72
     1
 10
18.25450282256019
 20
9.559234169623522
 11
15.56675609740446
 21
9.559234169623522
 72
     1
 10
15.56675609740446
 20
9.559234169623522
 11
15.56675609740446
 21
5.280549496912385
 97
        1
330
58A
 75
     0
 76
     1
 98
        1
 10
0.0
 20
0.0
  0
LWPOLYLINE
  5
5A0
330
1E
100
AcDbEntity
  8
GND
100
AcDbPolyline
 90
        2
 70
     0
 43
0.2
 10
10.37973627627709
 20
-0.3586700975408064
 42
1.0
 10
10.37973627627709
 20
0.4413299024591936
  0
LWPOLYLINE
  5
5A1
330
1E
100
AcDbEntity
  8
GND
100
AcDbPolyline
 90
        2
 70
     0
 43
0.2
 10
10.37973627627709
 20
0.4413299024591936
 42
1.0
 10
10.37973627627709
 20
-0.3586700975408064
  0
ENDSEC
  0
SECTION
  2
OBJECTS
  0
DICTIONARY
  5
C
330
0
100
AcDbDictionary
281
     1
  3
ACAD_GROUP
350
D
  3
ACAD_LAYOUT
350
19
  3
ACAD_MLINESTYLE
350
16
  3
ACAD_PLOTSETTINGS
350
18
  3
ACAD_PLOTSTYLENAME
350
E
  3
AcDbVariableDictionary
350
C4
  0
DICTIONARY
  5
C6
330
1E
100
AcDbDictionary
280
     1
281
     1
  3
ACAD_SORTENTS
360
C7
  0
DICTIONARY
  5
D
102
{ACAD_REACTORS
330
C
102
}
330
C
100
AcDbDictionary
281
     1
  0
DICTIONARY
  5
19
102
{ACAD_REACTORS
330
C
102
}
330
C
100
AcDbDictionary
281
     1
  3
Layout1
350
1D
  3
Model
350
21
  0
DICTIONARY
  5
16
102
{ACAD_REACTORS
330
C
102
}
330
C
100
AcDbDictionary
281
     1
  3
Standard
350
17
  0
DICTIONARY
  5
18
102
{ACAD_REACTORS
330
C
102
}
330
C
100
AcDbDictionary
281
     1
  0
ACDBDICTIONARYWDFLT
  5
E
102
{ACAD_REACTORS
330
C
102
}
330
C
100
AcDbDictionary
281
     1
  3
Normal
350
F
100
AcDbDictionaryWithDefault
340
F
  0
DICTIONARY
  5
C4
102
{ACAD_REACTORS
330
C
102
}
330
C
100
AcDbDictionary
281
     1
  3
DIMASSOC
350
5A7
  3
SORTENTS
350
C5
  0
SORTENTSTABLE
  5
C7
102
{ACAD_REACTORS
330
C6
102
}
330
C6
100
AcDbSortentsTable
330
1E
331
70
  5
76
331
78
  5
7B
331
80
  5
D5
331
41
  5
47
331
39C
  5
39A
331
B7
  5
B1
331
3A4
  5
40D
331
4B2
  5
4B2
331
5A1
  5
5A1
331
51
  5
5A
331
59
  5
60
331
90
  5
107
331
61
  5
67
331
3B4
  5
3A5
331
69
  5
6F
331
3BC
  5
3B4
331
3C4
  5
3BC
331
107
  5
39
331
A0
  5
3D
331
375
  5
308
331
395
  5
393
331
3CC
  5
3C5
331
71
  5
77
331
3A
  5
4F
331
79
  5
7C
331
B0
  5
A7
331
81
  5
87
331
42
  5
3CC
331
39D
  5
39B
331
B8
  5
42
331
3A5
  5
3A0
331
423
  5
423
331
58A
  5
58A
331
52
  5
5B
331
5A
  5
61
331
91
  5
92
331
62
  5
68
331
3B5
  5
3A6
331
3FC
  5
3F6
331
6A
  5
70
331
3BD
  5
3B5
331
3C5
  5
3BD
331
A1
  5
A0
331
40C
  5
402
331
396
  5
394
331
3CD
  5
3C7
331
72
  5
78
331
3B
  5
3CB
331
7A
  5
7D
331
B1
  5
AB
331
43
  5
3CD
331
39E
  5
3CE
331
B9
  5
43
331
3A6
  5
3A1
331
424
  5
424
331
58B
  5
26
331
3F5
  5
3EE
331
53
  5
5C
331
5B
  5
62
331
92
  5
96
331
63
  5
69
331
3FD
  5
3FC
331
3BE
  5
3B8
331
6B
  5
71
331
9A
  5
9B
331
A2
  5
A1
331
40D
  5
40C
331
397
  5
395
331
3CE
  5
3C8
331
73
  5
79
331
3C
  5
B6
331
7B
  5
7E
331
83
  5
8B
331
44
  5
51
331
39F
  5
39C
331
3A7
  5
3A2
331
3EE
  5
3E8
331
54
  5
B7
331
8B
  5
8D
331
64
  5
6A
331
3FE
  5
3FD
331
3BF
  5
3B9
331
6C
  5
72
331
9B
  5
40
331
3C7
  5
3BE
331
A3
  5
A2
331
3CF
  5
3C9
331
74
  5
B9
331
AB
  5
A6
331
398
  5
396
331
3D
  5
50
331
7C
  5
7F
331
45
  5
52
331
3A0
  5
3CF
331
3A8
  5
2A
331
55
  5
5D
331
8C
  5
8E
331
5D
  5
63
331
65
  5
6B
331
3B8
  5
3A7
331
3FF
  5
3FE
331
6D
  5
73
331
9C
  5
9C
331
A4
  5
A3
331
10B
  5
3A
331
3C8
  5
3BF
331
75
  5
BD
331
7D
  5
80
331
3D0
  5
3CA
331
3A1
  5
39D
331
3E8
  5
3E2
331
56
  5
3F
331
8D
  5
8F
331
5E
  5
64
331
66
  5
6C
331
3B9
  5
3A8
331
400
  5
3FF
331
6E
  5
74
331
9D
  5
9D
331
392
  5
390
331
A5
  5
B8
331
10C
  5
3B
331
3C9
  5
3C2
331
76
  5
7A
331
418
  5
418
331
39A
  5
398
331
3F
  5
38
331
7E
  5
81
331
3A2
  5
39E
331
BD
  5
44
331
4B0
  5
4B0
331
4F
  5
45
331
57
  5
5E
331
8E
  5
90
331
5F
  5
65
331
3B2
  5
3A3
331
4C0
  5
4C0
331
D5
  5
58B
331
3BA
  5
3B2
331
401
  5
400
331
67
  5
6D
331
96
  5
9A
331
3C2
  5
3BA
331
6F
  5
75
331
9E
  5
9E
331
A6
  5
A4
331
393
  5
391
331
3CA
  5
3C3
331
38
  5
4D
331
77
  5
CE
331
39B
  5
399
331
40
  5
41
331
7F
  5
83
331
B6
  5
B0
331
87
  5
8C
331
3A3
  5
39F
331
3E2
  5
3D0
331
48
  5
54
331
50
  5
59
331
58
  5
5F
331
8F
  5
91
331
CE
  5
48
331
60
  5
66
331
3B3
  5
3A4
331
68
  5
6E
331
3BB
  5
3B3
331
402
  5
401
331
3C3
  5
3BB
331
9F
  5
9F
331
A7
  5
A5
331
394
  5
392
331
3CB
  5
3C4
  0
LAYOUT
  5
1D
102
{ACAD_REACTORS
330
19
102
}
330
19
100
AcDbPlotSettings
  1

  2
HP LaserJet 5L PCL
  4

  6

 40
0.0
 41
0.0
 42
0.0
 43
0.0
 44
0.0
 45
0.0
 46
0.0
 47
0.0
 48
0.0
 49
0.0
140
0.0
141
0.0
142
1.0
143
1.0
 70
   688
 72
     0
 73
     0
 74
     5
  7

 75
    16
147
1.0
148
0.0
149
0.0
100
AcDbLayout
  1
Layout1
 70
     1
 71
     1
 10
0.0
 20
0.0
 11
12.0
 21
9.0
 12
0.0
 22
0.0
 32
0.0
 14
1.000000000000000E+20
 24
1.000000000000000E+20
 34
1.000000000000000E+20
 15
-1.000000000000000E+20
 25
-1.000000000000000E+20
 35
-1.000000000000000E+20
146
0.0
 13
0.0
 23
0.0
 33
0.0
 16
1.0
 26
0.0
 36
0.0
 17
0.0
 27
1.0
 37
0.0
 76
     0
330
1A
  0
LAYOUT
  5
21
102
{ACAD_REACTORS
330
19
102
}
330
19
100
AcDbPlotSettings
  1

  2
HP LaserJet 5L PCL
  4
A4
  6

 40
6.297083377838134
 41
7.143756389617919
 42
7.397750854492187
 43
7.14373779296875
 44
210.0579986572265
 45
296.9259948730469
 46
4.129999999999999
 47
0.0
 48
0.0
 49
0.0
140
0.0
141
0.0
142
1.0
143
0.1401703230358871
 70
 11956
 72
     1
 73
     1
 74
     0
  7

 75
     0
147
7.134177751334534
148
-3.340091260243525
149
12.71252924356491
100
AcDbLayout
  1
Model
 70
     1
 71
     0
 10
0.0
 20
0.0
 11
12.0
 21
9.0
 12
0.0
 22
0.0
 32
0.0
 14
0.0
 24
0.0
 34
0.0
 15
0.0
 25
0.0
 35
0.0
146
0.0
 13
0.0
 23
0.0
 33
0.0
 16
1.0
 26
0.0
 36
0.0
 17
0.0
 27
1.0
 37
0.0
 76
     0
330
1E
  0
MLINESTYLE
  5
17
102
{ACAD_REACTORS
330
16
102
}
330
16
100
AcDbMlineStyle
  2
STANDARD
 70
     0
  3

 62
   256
 51
90.0
 52
90.0
 71
     2
 49
0.5
 62
   256
  6
BYLAYER
 49
-0.5
 62
   256
  6
BYLAYER
  0
ACDBPLACEHOLDER
  5
F
102
{ACAD_REACTORS
330
E
102
}
330
E
  0
DICTIONARYVAR
  5
5A7
102
{ACAD_REACTORS
330
C4
102
}
330
C4
100
DictionaryVariables
280
     0
  1
1
  0
DICTIONARYVAR
  5
C5
102
{ACAD_REACTORS
330
C4
102
}
330
C4
100
DictionaryVariables
280
     0
  1
127
  0
ENDSEC
  0
EOF
