  0
SECTION
  2
HEADER
  9
$ACADVER
  1
AC1015
  9
$ACADMAINTVER
 70
    13
  9
$DWGCODEPAGE
  3
ANSI_1252
  9
$INSBASE
 10
0.0
 20
0.0
 30
0.0
  9
$EXTMIN
 10
-7.774538215396347
 20
-20.03495367694404
 30
-0.0015258207003583
  9
$EXTMAX
 10
56.6682154340755
 20
23.35020737708732
 30
0.0000000349246037
  9
$LIMMIN
 10
0.0
 20
0.0
  9
$LIMMAX
 10
12.0
 20
9.0
  9
$ORTHOMODE
 70
     0
  9
$REGENMODE
 70
     1
  9
$FILLMODE
 70
     1
  9
$QTEXTMODE
 70
     0
  9
$MIRRTEXT
 70
     1
  9
$LTSCALE
 40
1.0
  9
$ATTMODE
 70
     1
  9
$TEXTSIZE
 40
0.2
  9
$TRACEWID
 40
0.05
  9
$TEXTSTYLE
  7
Standard
  9
$CLAYER
  8
0
  9
$CELTYPE
  6
ByLayer
  9
$CECOLOR
 62
   256
  9
$CELTSCALE
 40
1.0
  9
$DISPSILH
 70
     0
  9
$DIMSCALE
 40
1.0
  9
$DIMASZ
 40
1.8
  9
$DIMEXO
 40
0.0625
  9
$DIMDLI
 40
0.38
  9
$DIMRND
 40
0.0
  9
$DIMDLE
 40
0.0
  9
$DIMEXE
 40
0.18
  9
$DIMTP
 40
0.0
  9
$DIMTM
 40
0.0
  9
$DIMTXT
 40
1.8
  9
$DIMCEN
 40
0.09
  9
$DIMTSZ
 40
0.0
  9
$DIMTOL
 70
     0
  9
$DIMLIM
 70
     0
  9
$DIMTIH
 70
     1
  9
$DIMTOH
 70
     1
  9
$DIMSE1
 70
     0
  9
$DIMSE2
 70
     0
  9
$DIMTAD
 70
     0
  9
$DIMZIN
 70
     0
  9
$DIMBLK
  1

  9
$DIMASO
 70
     1
  9
$DIMSHO
 70
     1
  9
$DIMPOST
  1

  9
$DIMAPOST
  1

  9
$DIMALT
 70
     0
  9
$DIMALTD
 70
     2
  9
$DIMALTF
 40
25.4
  9
$DIMLFAC
 40
1.0
  9
$DIMTOFL
 70
     0
  9
$DIMTVP
 40
0.0
  9
$DIMTIX
 70
     0
  9
$DIMSOXD
 70
     0
  9
$DIMSAH
 70
     0
  9
$DIMBLK1
  1

  9
$DIMBLK2
  1

  9
$DIMSTYLE
  2
Standard
  9
$DIMCLRD
 70
     0
  9
$DIMCLRE
 70
     0
  9
$DIMCLRT
 70
     0
  9
$DIMTFAC
 40
1.0
  9
$DIMGAP
 40
0.09
  9
$DIMJUST
 70
     0
  9
$DIMSD1
 70
     0
  9
$DIMSD2
 70
     0
  9
$DIMTOLJ
 70
     1
  9
$DIMTZIN
 70
     0
  9
$DIMALTZ
 70
     0
  9
$DIMALTTZ
 70
     0
  9
$DIMUPT
 70
     0
  9
$DIMDEC
 70
     4
  9
$DIMTDEC
 70
     4
  9
$DIMALTU
 70
     2
  9
$DIMALTTD
 70
     2
  9
$DIMTXSTY
  7
Standard
  9
$DIMAUNIT
 70
     0
  9
$DIMADEC
 70
     0
  9
$DIMALTRND
 40
0.0
  9
$DIMAZIN
 70
     0
  9
$DIMDSEP
 70
    46
  9
$DIMATFIT
 70
     3
  9
$DIMFRAC
 70
     0
  9
$DIMLDRBLK
  1

  9
$DIMLUNIT
 70
     2
  9
$DIMLWD
 70
    -2
  9
$DIMLWE
 70
    -2
  9
$DIMTMOVE
 70
     0
  9
$LUNITS
 70
     2
  9
$LUPREC
 70
     4
  9
$SKETCHINC
 40
0.1
  9
$FILLETRAD
 40
0.0
  9
$AUNITS
 70
     0
  9
$AUPREC
 70
     0
  9
$MENU
  1
.
  9
$ELEVATION
 40
0.0
  9
$PELEVATION
 40
0.0
  9
$THICKNESS
 40
0.0
  9
$LIMCHECK
 70
     0
  9
$CHAMFERA
 40
0.0
  9
$CHAMFERB
 40
0.0
  9
$CHAMFERC
 40
0.0
  9
$CHAMFERD
 40
0.0
  9
$SKPOLY
 70
     0
  9
$TDCREATE
 40
2452721.426899768
  9
$TDUCREATE
 40
2452721.385233101
  9
$TDUPDATE
 40
2452721.607401250
  9
$TDUUPDATE
 40
2452721.565734583
  9
$TDINDWG
 40
0.1175488310
  9
$TDUSRTIMER
 40
0.1175488310
  9
$USRTIMER
 70
     1
  9
$ANGBASE
 50
0.0
  9
$ANGDIR
 70
     0
  9
$PDMODE
 70
     0
  9
$PDSIZE
 40
0.0
  9
$PLINEWID
 40
0.0
  9
$SPLFRAME
 70
     0
  9
$SPLINETYPE
 70
     6
  9
$SPLINESEGS
 70
     8
  9
$HANDSEED
  5
536
  9
$SURFTAB1
 70
     6
  9
$SURFTAB2
 70
     6
  9
$SURFTYPE
 70
     6
  9
$SURFU
 70
     6
  9
$SURFV
 70
     6
  9
$UCSBASE
  2

  9
$UCSNAME
  2

  9
$UCSORG
 10
0.0
 20
0.0
 30
0.0
  9
$UCSXDIR
 10
1.0
 20
0.0
 30
0.0
  9
$UCSYDIR
 10
0.0
 20
1.0
 30
0.0
  9
$UCSORTHOREF
  2

  9
$UCSORTHOVIEW
 70
     0
  9
$UCSORGTOP
 10
0.0
 20
0.0
 30
0.0
  9
$UCSORGBOTTOM
 10
0.0
 20
0.0
 30
0.0
  9
$UCSORGLEFT
 10
0.0
 20
0.0
 30
0.0
  9
$UCSORGRIGHT
 10
0.0
 20
0.0
 30
0.0
  9
$UCSORGFRONT
 10
0.0
 20
0.0
 30
0.0
  9
$UCSORGBACK
 10
0.0
 20
0.0
 30
0.0
  9
$PUCSBASE
  2

  9
$PUCSNAME
  2

  9
$PUCSORG
 10
0.0
 20
0.0
 30
0.0
  9
$PUCSXDIR
 10
1.0
 20
0.0
 30
0.0
  9
$PUCSYDIR
 10
0.0
 20
1.0
 30
0.0
  9
$PUCSORTHOREF
  2

  9
$PUCSORTHOVIEW
 70
     0
  9
$PUCSORGTOP
 10
0.0
 20
0.0
 30
0.0
  9
$PUCSORGBOTTOM
 10
0.0
 20
0.0
 30
0.0
  9
$PUCSORGLEFT
 10
0.0
 20
0.0
 30
0.0
  9
$PUCSORGRIGHT
 10
0.0
 20
0.0
 30
0.0
  9
$PUCSORGFRONT
 10
0.0
 20
0.0
 30
0.0
  9
$PUCSORGBACK
 10
0.0
 20
0.0
 30
0.0
  9
$USERI1
 70
     0
  9
$USERI2
 70
     0
  9
$USERI3
 70
     0
  9
$USERI4
 70
     0
  9
$USERI5
 70
     0
  9
$USERR1
 40
0.0
  9
$USERR2
 40
0.0
  9
$USERR3
 40
0.0
  9
$USERR4
 40
0.0
  9
$USERR5
 40
0.0
  9
$WORLDVIEW
 70
     1
  9
$SHADEDGE
 70
     3
  9
$SHADEDIF
 70
    70
  9
$TILEMODE
 70
     1
  9
$MAXACTVP
 70
    64
  9
$PINSBASE
 10
0.0
 20
0.0
 30
0.0
  9
$PLIMCHECK
 70
     0
  9
$PEXTMIN
 10
1.000000000000000E+20
 20
1.000000000000000E+20
 30
1.000000000000000E+20
  9
$PEXTMAX
 10
-1.000000000000000E+20
 20
-1.000000000000000E+20
 30
-1.000000000000000E+20
  9
$PLIMMIN
 10
0.0
 20
0.0
  9
$PLIMMAX
 10
12.0
 20
9.0
  9
$UNITMODE
 70
     0
  9
$VISRETAIN
 70
     1
  9
$PLINEGEN
 70
     0
  9
$PSLTSCALE
 70
     1
  9
$TREEDEPTH
 70
  3020
  9
$CMLSTYLE
  2
Standard
  9
$CMLJUST
 70
     0
  9
$CMLSCALE
 40
1.0
  9
$PROXYGRAPHICS
 70
     1
  9
$MEASUREMENT
 70
     0
  9
$CELWEIGHT
370
    -1
  9
$ENDCAPS
280
     0
  9
$JOINSTYLE
280
     0
  9
$LWDISPLAY
290
     1
  9
$INSUNITS
 70
     0
  9
$HYPERLINKBASE
  1

  9
$STYLESHEET
  1

  9
$XEDIT
290
     1
  9
$CEPSNTYPE
380
     0
  9
$PSTYLEMODE
290
     0
  9
$FINGERPRINTGUID
  2
{4054F6EB-5255-4873-8CA9-CCEE966E8E0A}
  9
$VERSIONGUID
  2
{58D7BF97-C23F-44CC-BC9E-32B7CA88B51F}
  9
$EXTNAMES
290
     1
  9
$PSVPSCALE
 40
0.0
  9
$OLESTARTUP
290
     0
  0
ENDSEC
  0
SECTION
  2
CLASSES
  0
CLASS
  1
ACDBDICTIONARYWDFLT
  2
AcDbDictionaryWithDefault
  3
AutoCAD 2000
 90
        0
280
     0
281
     0
  0
CLASS
  1
ACDBPLACEHOLDER
  2
AcDbPlaceHolder
  3
AutoCAD 2000
 90
        0
280
     0
281
     0
  0
CLASS
  1
LAYOUT
  2
AcDbLayout
  3
AutoCAD 2000
 90
        0
280
     0
281
     0
  0
CLASS
  1
SORTENTSTABLE
  2
AcDbSortentsTable
  3
AutoCAD 2000
 90
        0
280
     0
281
     0
  0
CLASS
  1
DICTIONARYVAR
  2
AcDbDictionaryVar
  3
AutoCAD 2000
 90
        0
280
     0
281
     0
  0
ENDSEC
  0
SECTION
  2
TABLES
  0
TABLE
  2
VPORT
  5
8
330
0
100
AcDbSymbolTable
 70
     6
  0
VPORT
  5
535
330
8
100
AcDbSymbolTableRecord
100
AcDbViewportTableRecord
  2
*Active
 70
     0
 10
0.0
 20
0.0
 11
1.0
 21
1.0
 12
24.44683860933958
 22
1.657626850071643
 13
0.0
 23
0.0
 14
1.0
 24
1.0
 15
0.0
 25
0.0
 16
0.0
 26
0.0
 36
1.0
 17
0.0
 27
0.0
 37
0.0
 40
44.71619919263392
 41
1.448317307692307
 42
50.0
 43
0.0
 44
0.0
 50
0.0
 51
0.0
 71
     0
 72
   100
 73
     1
 74
     2
 75
     0
 76
     0
 77
     0
 78
     0
281
     0
 65
     1
110
0.0
120
0.0
130
0.0
111
1.0
121
0.0
131
0.0
112
0.0
122
1.0
132
0.0
 79
     0
146
0.0
  0
ENDTAB
  0
TABLE
  2
LTYPE
  5
5
330
0
100
AcDbSymbolTable
 70
     2
  0
LTYPE
  5
13
330
5
100
AcDbSymbolTableRecord
100
AcDbLinetypeTableRecord
  2
ByBlock
 70
     0
  3

 72
    65
 73
     0
 40
0.0
  0
LTYPE
  5
14
330
5
100
AcDbSymbolTableRecord
100
AcDbLinetypeTableRecord
  2
ByLayer
 70
     0
  3

 72
    65
 73
     0
 40
0.0
  0
LTYPE
  5
15
330
5
100
AcDbSymbolTableRecord
100
AcDbLinetypeTableRecord
  2
Continuous
 70
     0
  3
Solid line
 72
    65
 73
     0
 40
0.0
  0
LTYPE
  5
328
330
5
100
AcDbSymbolTableRecord
100
AcDbLinetypeTableRecord
  2
DASHED
 70
     0
  3
Dashed __ __ __ __ __ __ __ __ __ __ __ __ __ _
 72
    65
 73
     2
 40
0.75
 49
0.5
 74
     0
 49
-0.25
 74
     0
  0
ENDTAB
  0
TABLE
  2
LAYER
  5
2
330
0
100
AcDbSymbolTable
 70
     6
  0
LAYER
  5
10
330
2
100
AcDbSymbolTableRecord
100
AcDbLayerTableRecord
  2
0
 70
     0
 62
     7
  6
Continuous
370
    -3
390
F
  0
LAYER
  5
22
330
2
100
AcDbSymbolTableRecord
100
AcDbLayerTableRecord
  2
METAL1
 70
     0
 62
     7
  6
Continuous
370
    -3
390
F
  0
LAYER
  5
24
330
2
100
AcDbSymbolTableRecord
100
AcDbLayerTableRecord
  2
CONSTR
 70
     0
 62
    -7
  6
Continuous
370
    -3
390
F
  0
LAYER
  5
CD
330
2
100
AcDbSymbolTableRecord
100
AcDbLayerTableRecord
  2
GND
 70
     0
 62
   254
  6
Continuous
370
    -3
390
F
  0
LAYER
  5
131
330
2
100
AcDbSymbolTableRecord
100
AcDbLayerTableRecord
  2
ERROR
 70
     0
 62
    -1
  6
Continuous
370
    -3
390
F
  0
LAYER
  5
401
330
2
100
AcDbSymbolTableRecord
100
AcDbLayerTableRecord
  2
Defpoints
 70
     0
 62
     7
  6
Continuous
290
     0
370
    -3
390
F
  0
ENDTAB
  0
TABLE
  2
STYLE
  5
3
330
0
100
AcDbSymbolTable
 70
     1
  0
STYLE
  5
11
330
3
100
AcDbSymbolTableRecord
100
AcDbTextStyleTableRecord
  2
Standard
 70
     0
 40
0.0
 41
1.0
 50
0.0
 71
     0
 42
0.2
  3
txt
  4

  0
ENDTAB
  0
TABLE
  2
VIEW
  5
6
330
0
100
AcDbSymbolTable
 70
     0
  0
ENDTAB
  0
TABLE
  2
UCS
  5
7
330
0
100
AcDbSymbolTable
 70
     0
  0
ENDTAB
  0
TABLE
  2
APPID
  5
9
330
0
100
AcDbSymbolTable
 70
     1
  0
APPID
  5
12
330
9
100
AcDbSymbolTableRecord
100
AcDbRegAppTableRecord
  2
ACAD
 70
     0
  0
ENDTAB
  0
TABLE
  2
DIMSTYLE
  5
A
330
0
100
AcDbSymbolTable
 70
     1
100
AcDbDimStyleTable
 71
     1
340
136
  0
DIMSTYLE
105
136
102
{ACAD_REACTORS
330
400
330
40F
102
}
330
A
100
AcDbSymbolTableRecord
100
AcDbDimStyleTableRecord
  2
Standard
 70
     0
 41
1.8
140
1.8
340
11
  0
ENDTAB
  0
TABLE
  2
BLOCK_RECORD
  5
1
330
0
100
AcDbSymbolTable
 70
    13
  0
BLOCK_RECORD
  5
1E
102
{ACAD_XDICTIONARY
360
139
102
}
330
1
100
AcDbSymbolTableRecord
100
AcDbBlockTableRecord
  2
*Model_Space
340
21
  0
BLOCK_RECORD
  5
1A
330
1
100
AcDbSymbolTableRecord
100
AcDbBlockTableRecord
  2
*Paper_Space
340
1D
  0
BLOCK_RECORD
  5
140
330
1
100
AcDbSymbolTableRecord
100
AcDbBlockTableRecord
  2
Inductor
340
0
310
280000002000000020000000010004000000000000020000000000000000000000000000000000000000000000008000008000000080800080000000800080008080000080808000C0C0C0000000FF0000FF000000FFFF00FF000000FF00FF00FFFF0000FFFFFF00FFFFFFFFFFFFFFFFFFFFFFFFFFFFFFFFFFFFFFFFFFFFFF
310
FFFFFFFFFFFFFFFFFFFFFFFFFFFFFFFFFFFFFFFFFFFFFFFFFFFFFFFFFFFFFFFFFFFFFFFFFFFFFFFFFFFFFFFFFFFFFFFFFFFFFFFFFFFFFFFFFFFFFFFFFFFFFFFFFFFFFFFFFFFFFFFFFFFFFFFFFFFFFFFFFFFFFFFFFFFFFFFFFFFFFFFFFFFFFFFFFFFFFFFFFFFFFFFFFFFFFFFFFFFFFFFFFFFFFFFFFFFFFFFFFFFFFFFFFFFFFF
310
FFFFFFFFFFFFFFFFFFFFFFFFFFFFFFFFFFFFFFFFFFFFFFFFFFFFFFFFFFFFFFFFFFFFFFFFFFFFFFFFFFFF0000FFFFFFFF0FFFFFF0FFFFFFF0000FFFF0FFFFFFF00FFFFFF0FFFFFFF0FFFFFFF0FFFFFFF00FFFFFF00FFFFFFF0FFFFFF0FFFFFFF00FFFFF0F0FFFFFFF0FFFFFF0FFFFFFF0F0FFFF0F0FFFFFFF0FFFFFFF0FFFFF
310
F00FFFFFF00FFFFFF0FFFFFFFF0FFFFFF00FFFFFF0FFFFFF0FFFFFFFFFF0FFFFF0F0FFFF0F0FFFFF0FFFFFFFFFFF00000FFF0000FFF00000FFFFFFFFFFFFFFFFFFFFFFFFFFFFFFFFFFFFFFFFFFFFFFFFFFFFFFFFFFFFFFFFFFFFFFFFFFFFFFFFFFFFFFFFFFFFFFFFFFFFFFFFFFFFFFFFFFFFFFFFFFFFFFFFFFFFFFFFFFFFFF
310
FFFFFFFFFFFFFFFFFFFFFFFFFFFFFFFFFFFFFFFFFFFFFFFFFFFFFFFFFFFFFFFFFFFFFFFFFFFFFFFFFFFFFFFFFFFFFFFFFFFFFFFFFFFFFFFFFFFFFFFFFFFFFFFFFFFFFFFFFFFFFFFFFFFFFFFFFFFFFFFFFFFFFFFFFFFFFFFFFFFFFFFFFFFFFFFFFFFFFFFFFFFFFFFFFFFFFFFF
102
{BLKREFS
331
14E
102
}
1001
ACAD
1000
DesignCenter Data
1002
{
1070
     1
1070
     1
1002
}
  0
BLOCK_RECORD
  5
148
330
1
100
AcDbSymbolTableRecord
100
AcDbBlockTableRecord
  2
conpoint
340
0
310
28000000200000002000000001000800000000000004000000000000000000000000000000000000000000004000000080000000FF000000002000004020000080200000FF200000004000004040000080400000FF400000006000004060000080600000FF600000008000004080000080800000FF80000000A0000040A000
310
0080A00000FFA0000000C0000040C0000080C00000FFC0000000FF000040FF000080FF0000FFFF0000000020004000200080002000FF002000002020004020200080202000FF202000004020004040200080402000FF402000006020004060200080602000FF602000008020004080200080802000FF80200000A0200040A0
310
200080A02000FFA0200000C0200040C0200080C02000FFC0200000FF200040FF200080FF2000FFFF2000000040004000400080004000FF004000002040004020400080204000FF204000004040004040400080404000FF404000006040004060400080604000FF604000008040004080400080804000FF80400000A0400040
310
A0400080A04000FFA0400000C0400040C0400080C04000FFC0400000FF400040FF400080FF4000FFFF4000000060004000600080006000FF006000002060004020600080206000FF206000004060004040600080406000FF406000006060004060600080606000FF606000008060004080600080806000FF80600000A06000
310
40A0600080A06000FFA0600000C0600040C0600080C06000FFC0600000FF600040FF600080FF6000FFFF6000000080004000800080008000FF008000002080004020800080208000FF208000004080004040800080408000FF408000006080004060800080608000FF608000008080004080800080808000FF80800000A080
310
0040A0800080A08000FFA0800000C0800040C0800080C08000FFC0800000FF800040FF800080FF8000FFFF80000000A0004000A0008000A000FF00A0000020A0004020A0008020A000FF20A0000040A0004040A0008040A000FF40A0000060A0004060A0008060A000FF60A0000080A0004080A0008080A000FF80A00000A0
310
A00040A0A00080A0A000FFA0A00000C0A00040C0A00080C0A000FFC0A00000FFA00040FFA00080FFA000FFFFA0000000C0004000C0008000C000FF00C0000020C0004020C0008020C000FF20C0000040C0004040C0008040C000FF40C0000060C0004060C0008060C000FF60C0000080C0004080C0008080C000FF80C00000
310
A0C00040A0C00080A0C000FFA0C00000C0C00040C0C00080C0C000FFC0C00000FFC00040FFC00080FFC000FFFFC0000000FF004000FF008000FF00FF00FF000020FF004020FF008020FF00FF20FF000040FF004040FF008040FF00FF40FF000060FF004060FF008060FF00FF60FF000080FF004080FF008080FF00FF80FF00
310
00A0FF0040A0FF0080A0FF00FFA0FF0000C0FF0040C0FF0080C0FF00FFC0FF0000FFFF0040FFFF0080FFFF00FFFFFF000000000000000000000000000000000000000000000000000000000000000000000000000000000000000000000000FFFFFF000000000000000000000000000000000000000000000000FFFFFFFFFF
310
FF00FFFFFF0000000000000000000000000000000000000000FFFF0000FFFF0000000000FFFFFFFF00000000000000000000000000000000FF0000FFFF000000000000000000FFFFFFFF00000000000000000000000000FF00FFFF00000000000000000000000000FFFFFF0000000000000000000000FFFFFF000000000000
310
0000000000000000000000FFFF000000000000000000FF00FF00000000000000000000000000000000000000FFFF0000000000000000FFFF0000000000000000000000000000000000000000FFFF00000000000000FF00FF000000000000000000000000000000000000000000FFFF000000000000FFFF0000000000000000
310
0000000000000000000000000000FF00FF00000000FF00FF0000000000000000000000000000000000000000000000FFFF00000000FFFF000000000000000000000000000000000000000000000000FFFF00000000FFFF00000000000000000000000000000000000000000000000000FF000000FFFF000000000000000000
310
0000000000000000000000000000000000FF000000FFFF000000000000000000000000000000000000000000000000000000FF0000FF00000000000000000000000000000000000000000000000000000000FF0000FFFF0000000000000000000000000000000000000000000000000000FFFF000000FF0000000000000000
310
000000000000000000000000000000000000FF00000000FFFF000000000000000000000000000000000000000000000000FFFF00000000FFFF000000000000000000000000000000000000000000000000FFFF0000000000FFFF00000000000000000000000000000000000000000000FF00FF0000000000FFFF0000000000
310
0000000000000000000000000000000000FFFF00000000000000FFFF0000000000000000000000000000000000000000FFFF0000000000000000FFFF0000000000000000000000000000000000000000FFFF000000000000000000FFFF000000000000000000000000000000000000FFFF0000000000000000000000FFFFFF
310
0000000000000000000000000000FFFFFF00000000000000000000000000FF00FFFF00000000000000000000FFFFFFFF000000000000000000000000000000FFFF00FFFF000000000000FFFFFFFF00000000000000000000000000000000000000FFFFFFFFFF0000FFFFFFFF00000000000000000000000000000000000000
310
00000000000000FFFFFF00000000000000000000000000000000000000000000000000000000000000000000000000000000000000000000
102
{BLKREFS
331
14F
331
150
102
}
1001
ACAD
1000
DesignCenter Data
1002
{
1070
     1
1070
     1
1002
}
  0
BLOCK_RECORD
  5
14D
330
1
100
AcDbSymbolTableRecord
100
AcDbBlockTableRecord
  2
ind
340
0
310
28000000200000002000000001000800000000000004000000000000000000000000000000000000000000004000000080000000FF000000002000004020000080200000FF200000004000004040000080400000FF400000006000004060000080600000FF600000008000004080000080800000FF80000000A0000040A000
310
0080A00000FFA0000000C0000040C0000080C00000FFC0000000FF000040FF000080FF0000FFFF0000000020004000200080002000FF002000002020004020200080202000FF202000004020004040200080402000FF402000006020004060200080602000FF602000008020004080200080802000FF80200000A0200040A0
310
200080A02000FFA0200000C0200040C0200080C02000FFC0200000FF200040FF200080FF2000FFFF2000000040004000400080004000FF004000002040004020400080204000FF204000004040004040400080404000FF404000006040004060400080604000FF604000008040004080400080804000FF80400000A0400040
310
A0400080A04000FFA0400000C0400040C0400080C04000FFC0400000FF400040FF400080FF4000FFFF4000000060004000600080006000FF006000002060004020600080206000FF206000004060004040600080406000FF406000006060004060600080606000FF606000008060004080600080806000FF80600000A06000
310
40A0600080A06000FFA0600000C0600040C0600080C06000FFC0600000FF600040FF600080FF6000FFFF6000000080004000800080008000FF008000002080004020800080208000FF208000004080004040800080408000FF408000006080004060800080608000FF608000008080004080800080808000FF80800000A080
310
0040A0800080A08000FFA0800000C0800040C0800080C08000FFC0800000FF800040FF800080FF8000FFFF80000000A0004000A0008000A000FF00A0000020A0004020A0008020A000FF20A0000040A0004040A0008040A000FF40A0000060A0004060A0008060A000FF60A0000080A0004080A0008080A000FF80A00000A0
310
A00040A0A00080A0A000FFA0A00000C0A00040C0A00080C0A000FFC0A00000FFA00040FFA00080FFA000FFFFA0000000C0004000C0008000C000FF00C0000020C0004020C0008020C000FF20C0000040C0004040C0008040C000FF40C0000060C0004060C0008060C000FF60C0000080C0004080C0008080C000FF80C00000
310
A0C00040A0C00080A0C000FFA0C00000C0C00040C0C00080C0C000FFC0C00000FFC00040FFC00080FFC000FFFFC0000000FF004000FF008000FF00FF00FF000020FF004020FF008020FF00FF20FF000040FF004040FF008040FF00FF40FF000060FF004060FF008060FF00FF60FF000080FF004080FF008080FF00FF80FF00
310
00A0FF0040A0FF0080A0FF00FFA0FF0000C0FF0040C0FF0080C0FF00FFC0FF0000FFFF0040FFFF0080FFFF00FFFFFF0000000000000000000000000000000000000000000000000000000000000000000000000000000000000000000000000000FFFF00000000000000000000000000000000000000000000000000000000
310
00FFFFFFFF00000000000000000000000000000000000000000000000000000000FF0000FF00000000000000000000000000000000000000000000000000000000FFFFFFFF000000000000000000000000000000000000000000000000000000000000FF000000000000000000000000000000000000000000000000000000
310
FFFFFFFFFF0000000000000000000000000000000000000000000000000000FF00000000FF00000000000000000000000000000000000000000000000000FF00000000000000000000000000000000000000000000000000000000000000FF00000000000000000000000000000000000000000000000000000000000000FF
310
00000000000000000000000000000000000000000000000000000000000000FF0000000000000000000000000000000000000000000000000000000000000000FFFFFFFFFF000000000000000000000000000000000000000000000000000000FFFFFFFFFFFF00000000000000000000000000000000000000000000000000
310
FF00000000000000000000000000000000000000000000000000000000000000FF00000000000000000000000000000000000000000000000000000000000000FF00000000000000000000000000000000000000000000000000000000000000FF000000000000000000000000000000000000000000000000000000000000
310
0000FFFFFFFFFFFF0000000000000000000000000000000000000000000000000000FFFFFFFFFF0000000000000000000000000000000000000000000000000000FF00000000000000000000000000000000000000000000000000000000000000FF0000000000000000000000000000000000000000000000000000000000
310
0000FF00000000000000000000000000000000000000000000000000000000000000FF0000000000000000000000000000000000000000000000000000000000000000FF00000000FF000000000000000000000000000000000000000000000000000000FFFFFFFFFF00000000000000000000000000000000000000000000
310
000000000000000000FF0000000000000000000000000000000000000000000000000000000000FFFFFFFF00000000000000000000000000000000000000000000000000000000FF0000FF00000000000000000000000000000000000000000000000000000000FFFFFFFF0000000000000000000000000000000000000000
310
000000000000000000FFFF000000000000000000000000000000000000000000000000000000000000000000000000000000000000000000
102
{BLKREFS
331
154
102
}
1001
ACAD
1000
DesignCenter Data
1002
{
1070
     1
1070
     1
1002
}
  0
BLOCK_RECORD
  5
153
330
1
100
AcDbSymbolTableRecord
100
AcDbBlockTableRecord
  2
rfc
340
0
310
28000000200000002000000001000800000000000004000000000000000000000000000000000000000000004000000080000000FF000000002000004020000080200000FF200000004000004040000080400000FF400000006000004060000080600000FF600000008000004080000080800000FF80000000A0000040A000
310
0080A00000FFA0000000C0000040C0000080C00000FFC0000000FF000040FF000080FF0000FFFF0000000020004000200080002000FF002000002020004020200080202000FF202000004020004040200080402000FF402000006020004060200080602000FF602000008020004080200080802000FF80200000A0200040A0
310
200080A02000FFA0200000C0200040C0200080C02000FFC0200000FF200040FF200080FF2000FFFF2000000040004000400080004000FF004000002040004020400080204000FF204000004040004040400080404000FF404000006040004060400080604000FF604000008040004080400080804000FF80400000A0400040
310
A0400080A04000FFA0400000C0400040C0400080C04000FFC0400000FF400040FF400080FF4000FFFF4000000060004000600080006000FF006000002060004020600080206000FF206000004060004040600080406000FF406000006060004060600080606000FF606000008060004080600080806000FF80600000A06000
310
40A0600080A06000FFA0600000C0600040C0600080C06000FFC0600000FF600040FF600080FF6000FFFF6000000080004000800080008000FF008000002080004020800080208000FF208000004080004040800080408000FF408000006080004060800080608000FF608000008080004080800080808000FF80800000A080
310
0040A0800080A08000FFA0800000C0800040C0800080C08000FFC0800000FF800040FF800080FF8000FFFF80000000A0004000A0008000A000FF00A0000020A0004020A0008020A000FF20A0000040A0004040A0008040A000FF40A0000060A0004060A0008060A000FF60A0000080A0004080A0008080A000FF80A00000A0
310
A00040A0A00080A0A000FFA0A00000C0A00040C0A00080C0A000FFC0A00000FFA00040FFA00080FFA000FFFFA0000000C0004000C0008000C000FF00C0000020C0004020C0008020C000FF20C0000040C0004040C0008040C000FF40C0000060C0004060C0008060C000FF60C0000080C0004080C0008080C000FF80C00000
310
A0C00040A0C00080A0C000FFA0C00000C0C00040C0C00080C0C000FFC0C00000FFC00040FFC00080FFC000FFFFC0000000FF004000FF008000FF00FF00FF000020FF004020FF008020FF00FF20FF000040FF004040FF008040FF00FF40FF000060FF004060FF008060FF00FF60FF000080FF004080FF008080FF00FF80FF00
310
00A0FF0040A0FF0080A0FF00FFA0FF0000C0FF0040C0FF0080C0FF00FFC0FF0000FFFF0040FFFF0080FFFF00FFFFFF00000000000000000000000000000000000000000000000000000000000000000000000000000000000000000000000000000000FFFF0000000000000000000000000000000000000000000000000000
310
000000FFFFFFFF00000000000000000000000000000000000000000000000000000000FF0000FF00000000000000000000000000000000000000000000000000000000FFFFFFFF0000000000000000000000000000000000000000000000000000000000FF0000000000000000000000000000000000000000000000000000
310
00FFFFFFFFFF00000000000000000000000000000000000000000000FFFFFF00FFFF000000FF00000000000000000000000000000000000000000000FF00FF00FF000000000000000000000000000000000000000000000000000000FF00FFFF00000000000000000000000000000000000000000000000000000000FF00FF
310
FF00000000000000000000000000000000000000000000000000000000FFFFFFFFFF000000000000000000000000000000000000000000000000000000FFFFFF00FFFFFFFFFFFF00000000000000000000000000000000000000000000FFFFFF00FFFFFFFFFFFF00000000000000000000000000000000000000000000FFFF
310
FFFFFF000000000000000000000000000000000000000000000000000000FFFFFFFF00000000000000000000000000000000000000000000000000000000FFFFFFFF00000000000000000000000000000000000000000000000000000000FFFFFFFFFF000000000000000000000000000000000000000000000000000000FF
310
FFFF00FFFFFFFFFFFF00000000000000000000000000000000000000000000FFFFFF00FFFFFFFFFFFF00000000000000000000000000000000000000000000FF00FFFFFF000000000000000000000000000000000000000000000000000000FF00FFFF00000000000000000000000000000000000000000000000000000000
310
FF00FFFF00000000000000000000000000000000000000000000000000000000FF00FF00FF000000000000000000000000000000000000000000000000000000FFFFFF00FFFF000000FF000000000000000000000000000000000000000000000000000000FFFFFFFFFF000000000000000000000000000000000000000000
310
00000000000000000000FF000000000000000000000000000000000000000000000000000000000000FFFFFF0000000000000000000000000000000000000000000000000000000000FF00FFFF00000000000000000000000000000000000000000000000000000000FF00FF00000000000000000000000000000000000000
310
0000000000000000000000FF0000000000000000000000000000000000000000000000000000000000000000000000000000000000000000
102
{BLKREFS
331
1D4
331
480
331
4FD
102
}
1001
ACAD
1000
DesignCenter Data
1002
{
1070
     1
1070
     1
1002
}
  0
BLOCK_RECORD
  5
159
330
1
100
AcDbSymbolTableRecord
100
AcDbBlockTableRecord
  2
elkon
340
0
310
28000000200000002000000001000800000000000004000000000000000000000000000000000000000000004000000080000000FF000000002000004020000080200000FF200000004000004040000080400000FF400000006000004060000080600000FF600000008000004080000080800000FF80000000A0000040A000
310
0080A00000FFA0000000C0000040C0000080C00000FFC0000000FF000040FF000080FF0000FFFF0000000020004000200080002000FF002000002020004020200080202000FF202000004020004040200080402000FF402000006020004060200080602000FF602000008020004080200080802000FF80200000A0200040A0
310
200080A02000FFA0200000C0200040C0200080C02000FFC0200000FF200040FF200080FF2000FFFF2000000040004000400080004000FF004000002040004020400080204000FF204000004040004040400080404000FF404000006040004060400080604000FF604000008040004080400080804000FF80400000A0400040
310
A0400080A04000FFA0400000C0400040C0400080C04000FFC0400000FF400040FF400080FF4000FFFF4000000060004000600080006000FF006000002060004020600080206000FF206000004060004040600080406000FF406000006060004060600080606000FF606000008060004080600080806000FF80600000A06000
310
40A0600080A06000FFA0600000C0600040C0600080C06000FFC0600000FF600040FF600080FF6000FFFF6000000080004000800080008000FF008000002080004020800080208000FF208000004080004040800080408000FF408000006080004060800080608000FF608000008080004080800080808000FF80800000A080
310
0040A0800080A08000FFA0800000C0800040C0800080C08000FFC0800000FF800040FF800080FF8000FFFF80000000A0004000A0008000A000FF00A0000020A0004020A0008020A000FF20A0000040A0004040A0008040A000FF40A0000060A0004060A0008060A000FF60A0000080A0004080A0008080A000FF80A00000A0
310
A00040A0A00080A0A000FFA0A00000C0A00040C0A00080C0A000FFC0A00000FFA00040FFA00080FFA000FFFFA0000000C0004000C0008000C000FF00C0000020C0004020C0008020C000FF20C0000040C0004040C0008040C000FF40C0000060C0004060C0008060C000FF60C0000080C0004080C0008080C000FF80C00000
310
A0C00040A0C00080A0C000FFA0C00000C0C00040C0C00080C0C000FFC0C00000FFC00040FFC00080FFC000FFFFC0000000FF004000FF008000FF00FF00FF000020FF004020FF008020FF00FF20FF000040FF004040FF008040FF00FF40FF000060FF004060FF008060FF00FF60FF000080FF004080FF008080FF00FF80FF00
310
00A0FF0040A0FF0080A0FF00FFA0FF0000C0FF0040C0FF0080C0FF00FFC0FF0000FFFF0040FFFF0080FFFF00FFFFFF000000000000000000000000000000000000000000000000000000000000000000000000000000000000000000000000FF00000000000000000000000000000000000000000000000000000000000000
310
FF00000000000000000000000000000000000000000000000000000000000000FF00000000000000000000000000000000000000000000000000000000000000FF00000000000000000000000000000000000000000000000000000000000000FF000000000000000000000000000000000000000000000000000000000000
310
00FF00000000000000000000000000000000000000000000000000000000000000FF00000000000000000000000000000000000000000000000000000000000000FF00000000000000000000000000000000000000000000000000000000000000FF0000000000000000000000000000000000000000000000000000000000
310
0000FF00000000000000000000000000000000000000000000000000000000000000FF0000000000000000000000000000000000000000FFFFFFFFFFFFFFFFFFFFFFFFFFFFFFFFFFFFFFFFFFFFFFFF0000000000000000FF00000000000000000000000000000000000000000000FF0000000000000000FF00000000000000
310
000000000000000000000000000000FF0000000000000000FFFFFFFFFFFFFFFFFFFFFFFFFFFFFFFFFFFFFFFFFFFFFFFF00000000000000000000000000000000000000000000000000000000000000000000000000000000FFFFFFFFFFFFFFFFFFFFFFFFFFFFFFFFFFFFFFFFFFFFFFFF0000000000000000FF0000FFFFFFFF
310
FFFF000000000000FFFFFFFFFFFF0000FF0000000000000000FF0000000000FFFFFFFFFFFFFFFFFFFFFF000000000000FF0000000000000000FFFFFFFFFFFFFFFFFFFFFFFFFFFFFFFFFFFFFFFFFFFFFFFF00000000000000000000000000000000000000FF0000000000000000000000000000000000000000000000000000
310
0000000000FF00000000000000000000000000000000000000000000000000000000000000FF00000000000000000000000000000000000000000000000000000000000000FF00000000000000000000000000000000000000000000000000000000000000FF00000000000000000000000000000000000000000000000000
310
000000000000FF00000000000000000000000000000000000000000000000000000000000000FF00000000000000000000000000000000000000000000000000000000000000FF00000000000000000000000000000000000000000000000000000000000000FF000000000000000000000000000000000000000000000000
310
00000000000000FF000000000000000000000000000000000000000000000000000000000000000000000000000000000000000000000000
102
{BLKREFS
331
1D2
331
1D3
331
47E
331
47F
331
4FB
331
4FC
102
}
  0
BLOCK_RECORD
  5
161
330
1
100
AcDbSymbolTableRecord
100
AcDbBlockTableRecord
  2
tri
340
0
310
28000000200000002000000001000800000000000004000000000000000000000000000000000000000000004000000080000000FF000000002000004020000080200000FF200000004000004040000080400000FF400000006000004060000080600000FF600000008000004080000080800000FF80000000A0000040A000
310
0080A00000FFA0000000C0000040C0000080C00000FFC0000000FF000040FF000080FF0000FFFF0000000020004000200080002000FF002000002020004020200080202000FF202000004020004040200080402000FF402000006020004060200080602000FF602000008020004080200080802000FF80200000A0200040A0
310
200080A02000FFA0200000C0200040C0200080C02000FFC0200000FF200040FF200080FF2000FFFF2000000040004000400080004000FF004000002040004020400080204000FF204000004040004040400080404000FF404000006040004060400080604000FF604000008040004080400080804000FF80400000A0400040
310
A0400080A04000FFA0400000C0400040C0400080C04000FFC0400000FF400040FF400080FF4000FFFF4000000060004000600080006000FF006000002060004020600080206000FF206000004060004040600080406000FF406000006060004060600080606000FF606000008060004080600080806000FF80600000A06000
310
40A0600080A06000FFA0600000C0600040C0600080C06000FFC0600000FF600040FF600080FF6000FFFF6000000080004000800080008000FF008000002080004020800080208000FF208000004080004040800080408000FF408000006080004060800080608000FF608000008080004080800080808000FF80800000A080
310
0040A0800080A08000FFA0800000C0800040C0800080C08000FFC0800000FF800040FF800080FF8000FFFF80000000A0004000A0008000A000FF00A0000020A0004020A0008020A000FF20A0000040A0004040A0008040A000FF40A0000060A0004060A0008060A000FF60A0000080A0004080A0008080A000FF80A00000A0
310
A00040A0A00080A0A000FFA0A00000C0A00040C0A00080C0A000FFC0A00000FFA00040FFA00080FFA000FFFFA0000000C0004000C0008000C000FF00C0000020C0004020C0008020C000FF20C0000040C0004040C0008040C000FF40C0000060C0004060C0008060C000FF60C0000080C0004080C0008080C000FF80C00000
310
A0C00040A0C00080A0C000FFA0C00000C0C00040C0C00080C0C000FFC0C00000FFC00040FFC00080FFC000FFFFC0000000FF004000FF008000FF00FF00FF000020FF004020FF008020FF00FF20FF000040FF004040FF008040FF00FF40FF000060FF004060FF008060FF00FF60FF000080FF004080FF008080FF00FF80FF00
310
00A0FF0040A0FF0080A0FF00FFA0FF0000C0FF0040C0FF0080C0FF00FFC0FF0000FFFF0040FFFF0080FFFF00FFFFFF0000000000000000000000000000000000000000000000000000000000000000000000000000000000000000FF00000000000000000000000000000000000000000000000000000000000000FFFF0000
310
0000000000000000000000000000000000000000000000000000FFFF0000FF00000000000000000000000000000000000000000000000000FFFF0000000000FF0000000000000000000000000000000000000000000000FF0000000000000000FF000000000000000000000000000000000000000000FF0000000000000000
310
0000FF00000000000000000000000000000000000000FF000000000000000000000000FF000000000000000000000000000000000000FF00000000000000000000000000FF00000000000000000000000000000000FF000000000000000000000000000000FF000000000000000000000000000000FF000000000000000000
310
00000000000000FF00000000000000000000000000FF000000000000000000000000000000000000FF000000000000000000000000FF00000000000000000000000000000000000000FF00000000000000000000FF000000000000000000000000000000000000000000FF000000000000000000FF00000000000000000000
310
000000000000000000000000FF0000000000000000FF0000000000000000000000000000000000000000000000FF00000000000000FF000000000000000000000000000000000000000000000000FF000000000000FF00000000000000000000000000000000000000000000000000FF000000000000FF0000000000000000
310
0000000000000000000000000000000000FF0000000000FF0000000000000000000000000000000000000000000000000000FF00000000FF0000000000000000000000000000000000000000000000000000FFFF00000000FF00000000000000000000000000000000000000000000000000FF0000000000FF000000000000
310
000000000000000000000000000000000000FF00000000000000FF0000000000000000000000000000000000000000000000FF0000000000000000FF000000000000000000000000000000000000000000FF00000000000000000000FF00000000000000000000000000000000000000FF000000000000000000000000FF00
310
00000000000000000000000000000000FF0000000000000000000000000000FF0000000000000000000000000000FFFF00000000000000000000000000000000FFFF0000000000000000000000FF0000000000000000000000000000000000000000FFFFFFFFFFFFFFFFFFFFFF000000000000000000000000000000000000
310
0000000000000000000000000000000000000000000000000000000000000000000000000000000000000000000000000000000000000000
102
{BLKREFS
331
1DE
331
486
331
503
102
}
  0
BLOCK_RECORD
  5
309
330
1
100
AcDbSymbolTableRecord
100
AcDbBlockTableRecord
  2
A$C7F5B3850
340
0
102
{BLKREFS
331
315
331
316
331
317
331
318
331
319
331
31E
331
31F
331
320
331
321
331
364
331
365
331
366
331
36D
331
36E
331
36F
331
370
331
371
331
376
331
377
331
378
331
3AB
331
3AC
331
3AD
331
3B4
331
3B5
331
3B6
331
3B7
331
3B8
331
3BD
331
3BE
331
3BF
331
49E
331
49F
331
4A0
331
4A5
331
4A6
331
4A7
331
4A8
331
4A9
331
4AE
331
4AF
331
4B0
331
51B
331
51C
331
51D
331
522
331
523
331
524
331
525
331
526
331
52B
331
52C
331
52D
102
}
  0
BLOCK_RECORD
  5
310
330
1
100
AcDbSymbolTableRecord
100
AcDbBlockTableRecord
  2
A$C06BE52D8
340
0
  0
BLOCK_RECORD
  5
361
330
1
100
AcDbSymbolTableRecord
100
AcDbBlockTableRecord
  2
A$C1AE07113
340
0
  0
BLOCK_RECORD
  5
392
330
1
100
AcDbSymbolTableRecord
100
AcDbBlockTableRecord
  2
A$C407A1FD1
340
0
  0
BLOCK_RECORD
  5
402
330
1
100
AcDbSymbolTableRecord
100
AcDbBlockTableRecord
  2
*D10
340
0
  0
BLOCK_RECORD
  5
410
330
1
100
AcDbSymbolTableRecord
100
AcDbBlockTableRecord
  2
*D11
340
0
  0
ENDTAB
  0
ENDSEC
  0
SECTION
  2
BLOCKS
  0
BLOCK
  5
1F
330
1E
100
AcDbEntity
  8
0
100
AcDbBlockBegin
  2
*Model_Space
 70
     0
 10
0.0
 20
0.0
 30
0.0
  3
*Model_Space
  1

  0
ENDBLK
  5
20
330
1E
100
AcDbEntity
  8
0
100
AcDbBlockEnd
  0
BLOCK
  5
1B
330
1A
100
AcDbEntity
 67
     1
  8
0
100
AcDbBlockBegin
  2
*Paper_Space
 70
     0
 10
0.0
 20
0.0
 30
0.0
  3
*Paper_Space
  1

  0
ENDBLK
  5
1C
330
1A
100
AcDbEntity
 67
     1
  8
0
100
AcDbBlockEnd
  0
BLOCK
  5
146
330
140
100
AcDbEntity
  8
0
100
AcDbBlockBegin
  2
Inductor
 70
     2
 10
0.0
 20
0.0
 30
0.0
  3
Inductor
  1
INDUCTOR
  4
DesignCenter Basic Electronics example
  0
LINE
  5
141
330
140
100
AcDbEntity
  8
0
 62
     7
100
AcDbLine
 10
0.3500000000000001
 20
0.0
 30
0.0
 11
0.3999999999999999
 21
0.0
 31
0.0
  0
ARC
  5
142
330
140
100
AcDbEntity
  8
0
 62
     7
100
AcDbCircle
 10
0.2999999999999998
 20
0.0374999999999997
 30
0.0
 40
0.0625
100
AcDbArc
 50
323.1301
 51
216.8699
  0
LINE
  5
143
330
140
100
AcDbEntity
  8
0
 62
     7
100
AcDbLine
 10
0.0
 20
0.0
 30
0.0
 11
0.0499999999999998
 21
0.0
 31
0.0
  0
ARC
  5
144
330
140
100
AcDbEntity
  8
0
 62
     7
100
AcDbCircle
 10
0.1000000000000001
 20
0.0374999999999997
 30
0.0
 40
0.0625
100
AcDbArc
 50
323.1301
 51
216.8699
  0
ARC
  5
145
330
140
100
AcDbEntity
  8
0
 62
     7
100
AcDbCircle
 10
0.2000000000000002
 20
0.0374999999999997
 30
0.0
 40
0.0625
100
AcDbArc
 50
323.1301
 51
216.8699
  0
ENDBLK
  5
147
330
140
100
AcDbEntity
  8
0
100
AcDbBlockEnd
  0
BLOCK
  5
14B
330
148
100
AcDbEntity
  8
0
100
AcDbBlockBegin
  2
conpoint
 70
     0
 10
0.0
 20
0.0
 30
0.0
  3
conpoint
  1

  0
HATCH
  5
149
330
148
100
AcDbEntity
  8
0
100
AcDbHatch
 10
0.0
 20
0.0
 30
0.0
210
0.0
220
0.0
230
1.0
  2
SOLID
 70
     1
 71
     1
 91
        1
 92
        1
 93
        1
 72
     2
 10
3.932944225599126
 20
4.517912367231916
 40
0.0251551376970127
 50
0.0
 51
360.0
 73
     1
 97
        1
330
14A
 75
     0
 76
     1
 98
        1
 10
0.0
 20
0.0
  0
CIRCLE
  5
14A
102
{ACAD_REACTORS
330
149
102
}
330
148
100
AcDbEntity
  8
0
100
AcDbCircle
 10
3.932944225599126
 20
4.517912367231916
 30
0.0
 40
0.0251551376970127
  0
ENDBLK
  5
14C
330
148
100
AcDbEntity
  8
0
100
AcDbBlockEnd
  0
BLOCK
  5
151
330
14D
100
AcDbEntity
  8
0
100
AcDbBlockBegin
  2
ind
 70
     0
 10
0.0
 20
0.0
 30
0.0
  3
ind
  1

  0
INSERT
  5
14E
330
14D
100
AcDbEntity
  8
0
100
AcDbBlockReference
  2
Inductor
 10
5.142686818928233
 20
4.506130839892044
 30
0.0
 50
90.0
  0
INSERT
  5
14F
330
14D
100
AcDbEntity
  8
0
100
AcDbBlockReference
  2
conpoint
 10
1.213283901823427
 20
-0.0258025784579612
 30
0.0
  0
INSERT
  5
150
330
14D
100
AcDbEntity
  8
0
100
AcDbBlockReference
  2
conpoint
 10
1.20936500961606
 20
0.4012205201373665
 30
0.0
  0
ENDBLK
  5
152
330
14D
100
AcDbEntity
  8
0
100
AcDbBlockEnd
  0
BLOCK
  5
157
330
153
100
AcDbEntity
  8
0
100
AcDbBlockBegin
  2
rfc
 70
     0
 10
0.0
 20
0.0
 30
0.0
  3
rfc
  1

  0
INSERT
  5
154
330
153
100
AcDbEntity
  8
0
100
AcDbBlockReference
  2
ind
 10
0.0
 20
0.0
 30
0.0
  0
HATCH
  5
155
330
153
100
AcDbEntity
  8
0
100
AcDbHatch
 10
0.0
 20
0.0
 30
0.0
210
0.0
220
0.0
230
1.0
  2
SOLID
 70
     1
 71
     1
 91
        1
 92
        1
 93
        4
 72
     1
 10
5.019171584733157
 20
4.850883942041264
 11
4.991736945333968
 21
4.850883942041264
 72
     1
 10
4.991736945333968
 20
4.850883942041264
 11
4.991736945333968
 21
4.557060643284785
 72
     1
 10
4.991736945333968
 20
4.557060643284785
 11
5.019171584733157
 21
4.557060643284785
 72
     1
 10
5.019171584733157
 20
4.557060643284785
 11
5.019171584733157
 21
4.850883942041264
 97
        1
330
156
 75
     0
 76
     1
 98
        1
 10
0.0
 20
0.0
  0
LWPOLYLINE
  5
156
102
{ACAD_REACTORS
330
155
102
}
330
153
100
AcDbEntity
  8
0
100
AcDbPolyline
 90
        4
 70
     1
 43
0.0
 10
5.019171584733157
 20
4.850883942041264
 10
4.991736945333968
 20
4.850883942041264
 10
4.991736945333968
 20
4.557060643284785
 10
5.019171584733157
 20
4.557060643284785
  0
ENDBLK
  5
158
330
153
100
AcDbEntity
  8
0
100
AcDbBlockEnd
  0
BLOCK
  5
15F
330
159
100
AcDbEntity
  8
0
100
AcDbBlockBegin
  2
elkon
 70
     0
 10
0.0
 20
0.0
 30
0.0
  3
elkon
  1

  0
LWPOLYLINE
  5
15A
102
{ACAD_REACTORS
330
15E
102
}
330
159
100
AcDbEntity
  8
0
100
AcDbPolyline
 90
        4
 70
     1
 43
0.0
 10
5.277469087657244
 20
7.736467907658294
 10
6.725437308244949
 20
7.736467907658294
 10
6.725437308244949
 20
7.545307269129267
 10
5.277469087657244
 20
7.545307269129267
  0
LWPOLYLINE
  5
15B
330
159
100
AcDbEntity
  8
0
100
AcDbPolyline
 90
        4
 70
     1
 43
0.0
 10
5.277469087657244
 20
7.381455311208465
 10
6.725437308244949
 20
7.381455311208465
 10
6.725437308244949
 20
7.190294672679439
 10
5.277469087657244
 20
7.190294672679439
  0
LWPOLYLINE
  5
15C
330
159
100
AcDbEntity
  8
0
100
AcDbPolyline
 90
        2
 70
     0
 43
0.0
 10
5.987793119210273
 20
7.736467907658294
 10
5.987793119210273
 20
8.337258440989323
  0
LWPOLYLINE
  5
15D
330
159
100
AcDbEntity
  8
0
100
AcDbPolyline
 90
        2
 70
     0
 43
0.0
 10
5.987793119210273
 20
7.190294672679439
 10
5.987793119210273
 20
6.507578139433253
  0
HATCH
  5
15E
330
159
100
AcDbEntity
  8
0
100
AcDbHatch
 10
0.0
 20
0.0
 30
0.0
210
0.0
220
0.0
230
1.0
  2
SOLID
 70
     1
 71
     1
 91
        1
 92
        1
 93
        4
 72
     1
 10
5.277469087657244
 20
7.736467907658294
 11
6.725437308244949
 21
7.736467907658294
 72
     1
 10
6.725437308244949
 20
7.736467907658294
 11
6.725437308244949
 21
7.545307269129267
 72
     1
 10
6.725437308244949
 20
7.545307269129267
 11
5.277469087657244
 21
7.545307269129267
 72
     1
 10
5.277469087657244
 20
7.545307269129267
 11
5.277469087657244
 21
7.736467907658294
 97
        1
330
15A
 75
     0
 76
     1
 98
        1
 10
0.0
 20
0.0
  0
ENDBLK
  5
160
330
159
100
AcDbEntity
  8
0
100
AcDbBlockEnd
  0
BLOCK
  5
164
330
161
100
AcDbEntity
  8
0
100
AcDbBlockBegin
  2
tri
 70
     0
 10
0.0
 20
0.0
 30
0.0
  3
tri
  1

  0
ARC
  5
162
330
161
100
AcDbEntity
  8
CONSTR
370
    50
100
AcDbCircle
 10
8.146085339866083
 20
7.572615928782735
 30
0.0
 40
0.8498249588931228
100
AcDbArc
 50
17.41576346451058
 51
252.8164832811067
  0
LWPOLYLINE
  5
163
330
161
100
AcDbEntity
  8
CONSTR
370
    50
100
AcDbPolyline
 90
        2
 70
     0
 43
0.0
 10
7.888244942516251
 20
6.7539228815622
 10
8.968782859461427
 20
7.838849627961277
  0
ENDBLK
  5
165
330
161
100
AcDbEntity
  8
0
100
AcDbBlockEnd
  0
BLOCK
  5
30E
330
309
100
AcDbEntity
  8
0
100
AcDbBlockBegin
  2
A$C7F5B3850
 70
     0
 10
0.0
 20
0.0
 30
0.0
  3
A$C7F5B3850
  1

  0
ARC
  5
30A
330
309
100
AcDbEntity
  8
CONSTR
  6
DASHED
100
AcDbCircle
 10
0.2989705366022122
 20
0.1443359241437809
 30
0.0
 40
0.1444277739574447
100
AcDbArc
 50
179.9551739112651
 51
4.134120587586902
  0
ARC
  5
30B
330
309
100
AcDbEntity
  8
CONSTR
  6
DASHED
100
AcDbCircle
 10
0.1444277297558756
 20
4.851212641492161
 30
0.0
 40
0.1444277739574447
100
AcDbArc
 50
355.8658794124129
 51
180.0448260887349
  0
LWPOLYLINE
  5
30C
330
309
100
AcDbEntity
  8
CONSTR
100
AcDbPolyline
 90
        2
 70
     0
 43
0.0
 10
0.0026085461590242
 20
4.832665928043525
 10
0.1545813162707645
 20
0.1628932215950272
  0
LWPOLYLINE
  5
30D
330
309
100
AcDbEntity
  8
CONSTR
100
AcDbPolyline
 90
        2
 70
     0
 43
0.0
 10
0.2867314536172216
 20
4.83927086197923
 10
0.4453113941061702
 20
0.1562880295128366
  0
ENDBLK
  5
30F
330
309
100
AcDbEntity
  8
0
100
AcDbBlockEnd
  0
BLOCK
  5
326
330
310
100
AcDbEntity
  8
0
100
AcDbBlockBegin
  2
A$C06BE52D8
 70
     0
 10
0.0
 20
0.0
 30
0.0
  3
A$C06BE52D8
  1

  0
ARC
  5
311
330
310
100
AcDbEntity
  8
CONSTR
  6
DASHED
100
AcDbCircle
 10
0.9571130510532839
 20
0.1597792747172724
 30
0.0
 40
0.1444277739574447
100
AcDbArc
 50
179.9551739112651
 51
4.134120587586902
  0
ARC
  5
312
330
310
100
AcDbEntity
  8
CONSTR
  6
DASHED
100
AcDbCircle
 10
0.8025702442069473
 20
4.866655992065653
 30
0.0
 40
0.1444277739574447
100
AcDbArc
 50
355.8658794124129
 51
180.0448260887349
  0
LWPOLYLINE
  5
313
330
310
100
AcDbEntity
  8
CONSTR
100
AcDbPolyline
 90
        2
 70
     0
 43
0.0
 10
0.660751060610096
 20
4.848109278617016
 10
0.8127238307218362
 20
0.1783365721685186
  0
LWPOLYLINE
  5
314
330
310
100
AcDbEntity
  8
CONSTR
100
AcDbPolyline
 90
        2
 70
     0
 43
0.0
 10
0.9448739680682933
 20
4.854714212552721
 10
1.103453908557241
 20
0.171731380086328
  0
INSERT
  5
315
330
310
100
AcDbEntity
  8
CONSTR
100
AcDbBlockReference
  2
A$C7F5B3850
 10
0.9514815123233688
 20
0.0198153181000862
 30
0.0
  0
INSERT
  5
316
330
310
100
AcDbEntity
  8
CONSTR
100
AcDbBlockReference
  2
A$C7F5B3850
 10
1.242211590158774
 20
0.0066051920821906
 30
0.0
  0
INSERT
  5
317
330
310
100
AcDbEntity
  8
CONSTR
100
AcDbBlockReference
  2
A$C7F5B3850
 10
1.532942041872104
 20
0.0066051920821906
 30
0.0
  0
INSERT
  5
318
330
310
100
AcDbEntity
  8
CONSTR
100
AcDbBlockReference
  2
A$C7F5B3850
 10
1.830280037840509
 20
0.0
 30
0.0
  0
INSERT
  5
319
330
310
100
AcDbEntity
  8
CONSTR
100
AcDbBlockReference
  2
A$C7F5B3850
 10
2.127618033808914
 20
0.0066051920821906
 30
0.0
  0
ARC
  5
31A
330
310
100
AcDbEntity
  8
CONSTR
  6
DASHED
100
AcDbCircle
 10
2.717318648246532
 20
0.1597792747172724
 30
0.0
 40
0.1444277739574447
100
AcDbArc
 50
179.9551739112651
 51
4.134120587586947
  0
ARC
  5
31B
330
310
100
AcDbEntity
  8
CONSTR
  6
DASHED
100
AcDbCircle
 10
2.562775841400195
 20
4.866655992065653
 30
0.0
 40
0.1444277739574447
100
AcDbArc
 50
355.8658794124128
 51
180.0448260887349
  0
LWPOLYLINE
  5
31C
330
310
100
AcDbEntity
  8
CONSTR
100
AcDbPolyline
 90
        2
 70
     0
 43
0.0
 10
2.420956657803344
 20
4.848109278617016
 10
2.572929427915084
 20
0.1783365721685186
  0
LWPOLYLINE
  5
31D
330
310
100
AcDbEntity
  8
CONSTR
100
AcDbPolyline
 90
        2
 70
     0
 43
0.0
 10
2.705079565261542
 20
4.854714212552721
 10
2.86365950575049
 20
0.171731380086328
  0
INSERT
  5
31E
330
310
100
AcDbEntity
  8
CONSTR
100
AcDbBlockReference
  2
A$C7F5B3850
 10
2.711687109516617
 20
0.0198153181000862
 30
0.0
  0
INSERT
  5
31F
330
310
100
AcDbEntity
  8
CONSTR
100
AcDbBlockReference
  2
A$C7F5B3850
 10
3.002417187352023
 20
0.0066051920821906
 30
0.0
  0
INSERT
  5
320
330
310
100
AcDbEntity
  8
CONSTR
100
AcDbBlockReference
  2
A$C7F5B3850
 10
3.293147639065352
 20
0.0066051920821906
 30
0.0
  0
INSERT
  5
321
330
310
100
AcDbEntity
  8
CONSTR
100
AcDbBlockReference
  2
A$C7F5B3850
 10
3.590485635033758
 20
0.0
 30
0.0
  0
LWPOLYLINE
  5
322
330
310
100
AcDbEntity
  8
CONSTR
100
AcDbPolyline
 90
        2
 70
     0
 43
0.0
 10
0.660751060610096
 20
4.854714212552721
 10
0.0
 20
1.994726189092716
  0
LWPOLYLINE
  5
323
330
310
100
AcDbEntity
  8
CONSTR
100
AcDbPolyline
 90
        3
 70
     0
 43
0.0
 10
0.6937884080077197
 20
3.771485427963227
 10
0.2709078189479896
 20
1.928675559003238
 10
0.0
 20
2.001331123028478
  0
LWPOLYLINE
  5
324
330
310
100
AcDbEntity
  8
CONSTR
100
AcDbPolyline
 90
        3
 70
     0
 43
0.0
 10
3.988835720719862
 20
1.289476404286631
 10
4.428817859135847
 20
3.205296014140515
 10
4.727110739279453
 20
3.108386820862278
  0
LWPOLYLINE
  5
325
330
310
100
AcDbEntity
  8
CONSTR
100
AcDbPolyline
 90
        2
 70
     0
 43
0.0
 10
4.033579559271913
 20
0.1712938219287139
 10
4.712196001802794
 20
3.123295808375985
  0
ENDBLK
  5
327
330
310
100
AcDbEntity
  8
0
100
AcDbBlockEnd
  0
BLOCK
  5
37B
330
361
100
AcDbEntity
  8
0
100
AcDbBlockBegin
  2
A$C1AE07113
 70
     0
 10
0.0
 20
0.0
 30
0.0
  3
A$C1AE07113
  1

  0
ARC
  5
362
330
361
100
AcDbEntity
  8
CONSTR
  6
DASHED
100
AcDbCircle
 10
4.880840551366382
 20
3.882329635857601
 30
0.0
 40
0.1444277739574447
100
AcDbArc
 50
269.9551739112651
 51
94.13412058758687
  0
ARC
  5
363
330
361
100
AcDbEntity
  8
CONSTR
  6
DASHED
100
AcDbCircle
 10
0.1739638340180019
 20
3.727786829011265
 30
0.0
 40
0.1444277739574447
100
AcDbArc
 50
85.86587941241297
 51
270.0448260887348
  0
INSERT
  5
364
330
361
100
AcDbEntity
  8
CONSTR
100
AcDbBlockReference
  2
A$C7F5B3850
 10
5.020804507983569
 20
3.876698097127686
 30
0.0
 50
90.0
  0
INSERT
  5
365
330
361
100
AcDbEntity
  8
CONSTR
100
AcDbBlockReference
  2
A$C7F5B3850
 10
5.034014634001464
 20
4.167428174963092
 30
0.0
 50
90.0
  0
INSERT
  5
366
330
361
100
AcDbEntity
  8
CONSTR
100
AcDbBlockReference
  2
A$C7F5B3850
 10
5.034014634001464
 20
4.458158626676421
 30
0.0
 50
90.0
  0
LWPOLYLINE
  5
367
330
361
100
AcDbEntity
  8
CONSTR
100
AcDbPolyline
 90
        3
 70
     0
 43
0.0
 10
3.727275562490532
 20
4.850247831774467
 10
1.811455952636648
 20
5.290229970190452
 10
1.908365145914885
 20
5.588522850334058
  0
LWPOLYLINE
  5
368
330
361
100
AcDbEntity
  8
CONSTR
100
AcDbPolyline
 90
        2
 70
     0
 43
0.0
 10
4.845458144848449
 20
4.894991670326518
 10
1.893456158401178
 20
5.573608112857399
  0
ARC
  5
369
330
361
100
AcDbEntity
  8
CONSTR
  6
DASHED
100
AcDbCircle
 10
4.855584516852651
 20
0.957113028466793
 30
0.0
 40
0.1444277739574447
100
AcDbArc
 50
269.9551739112651
 51
94.13412058758687
  0
ARC
  5
36A
330
361
100
AcDbEntity
  8
CONSTR
  6
DASHED
100
AcDbCircle
 10
0.1487077995042707
 20
0.8025702216204564
 30
0.0
 40
0.1444277739574447
100
AcDbArc
 50
85.86587941241297
 51
270.0448260887348
  0
LWPOLYLINE
  5
36B
330
361
100
AcDbEntity
  8
CONSTR
100
AcDbPolyline
 90
        2
 70
     0
 43
0.0
 10
0.1672545129529075
 20
0.6607510380236051
 10
4.837027219401405
 20
0.8127238081353453
  0
LWPOLYLINE
  5
36C
330
361
100
AcDbEntity
  8
CONSTR
100
AcDbPolyline
 90
        2
 70
     0
 43
0.0
 10
0.1606495790172024
 20
0.9448739454818024
 10
4.843632411483596
 20
1.103453885970751
  0
INSERT
  5
36D
330
361
100
AcDbEntity
  8
CONSTR
100
AcDbBlockReference
  2
A$C7F5B3850
 10
4.995548473469837
 20
0.9514814897368779
 30
0.0
 50
90.0
  0
INSERT
  5
36E
330
361
100
AcDbEntity
  8
CONSTR
100
AcDbBlockReference
  2
A$C7F5B3850
 10
5.008758599487733
 20
1.242211567572283
 30
0.0
 50
90.0
  0
INSERT
  5
36F
330
361
100
AcDbEntity
  8
CONSTR
100
AcDbBlockReference
  2
A$C7F5B3850
 10
5.008758599487733
 20
1.532942019285613
 30
0.0
 50
90.0
  0
INSERT
  5
370
330
361
100
AcDbEntity
  8
CONSTR
100
AcDbBlockReference
  2
A$C7F5B3850
 10
5.015363791569924
 20
1.830280015254018
 30
0.0
 50
90.0
  0
INSERT
  5
371
330
361
100
AcDbEntity
  8
CONSTR
100
AcDbBlockReference
  2
A$C7F5B3850
 10
5.008758599487733
 20
2.127618011222423
 30
0.0
 50
90.0
  0
ARC
  5
372
330
361
100
AcDbEntity
  8
CONSTR
  6
DASHED
100
AcDbCircle
 10
4.855584516852651
 20
2.717318625660041
 30
0.0
 40
0.1444277739574447
100
AcDbArc
 50
269.9551739112651
 51
94.13412058758693
  0
ARC
  5
373
330
361
100
AcDbEntity
  8
CONSTR
  6
DASHED
100
AcDbCircle
 10
0.1487077995042707
 20
2.562775818813705
 30
0.0
 40
0.1444277739574447
100
AcDbArc
 50
85.86587941241287
 51
270.0448260887348
  0
LWPOLYLINE
  5
374
330
361
100
AcDbEntity
  8
CONSTR
100
AcDbPolyline
 90
        2
 70
     0
 43
0.0
 10
0.1672545129529075
 20
2.420956635216853
 10
4.837027219401405
 20
2.572929405328594
  0
LWPOLYLINE
  5
375
330
361
100
AcDbEntity
  8
CONSTR
100
AcDbPolyline
 90
        2
 70
     0
 43
0.0
 10
0.1606495790172024
 20
2.705079542675051
 10
4.843632411483596
 20
2.863659483163999
  0
INSERT
  5
376
330
361
100
AcDbEntity
  8
CONSTR
100
AcDbBlockReference
  2
A$C7F5B3850
 10
4.995548473469837
 20
2.711687086930126
 30
0.0
 50
90.0
  0
INSERT
  5
377
330
361
100
AcDbEntity
  8
CONSTR
100
AcDbBlockReference
  2
A$C7F5B3850
 10
5.008758599487733
 20
3.002417164765532
 30
0.0
 50
90.0
  0
INSERT
  5
378
330
361
100
AcDbEntity
  8
CONSTR
100
AcDbBlockReference
  2
A$C7F5B3850
 10
5.008758599487733
 20
3.293147616478862
 30
0.0
 50
90.0
  0
LWPOLYLINE
  5
379
330
361
100
AcDbEntity
  8
CONSTR
100
AcDbPolyline
 90
        2
 70
     0
 43
0.0
 10
0.1606495790172024
 20
0.6607510380236051
 10
3.020637602477207
 20
-0.0000000225864909
  0
LWPOLYLINE
  5
37A
330
361
100
AcDbEntity
  8
CONSTR
100
AcDbPolyline
 90
        3
 70
     0
 43
0.0
 10
1.243878363606696
 20
0.6937883854212288
 10
3.086688232566685
 20
0.2709077963614987
 10
3.014032668541445
 20
-0.0000000225864909
  0
ENDBLK
  5
37C
330
361
100
AcDbEntity
  8
0
100
AcDbBlockEnd
  0
BLOCK
  5
394
330
392
100
AcDbEntity
  8
0
100
AcDbBlockBegin
  2
A$C407A1FD1
 70
     0
 10
0.0
 20
0.0
 30
0.0
  3
A$C407A1FD1
  1

  0
SOLID
  5
393
330
392
100
AcDbEntity
  8
METAL1
100
AcDbTrace
 10
0.0000000530218571
 20
1.599999988272077
 30
0.0
 11
0.8000000530218542
 21
1.599999988272077
 31
0.0
 12
0.0000000530218571
 22
-0.0000000117279235
 32
0.0
 13
0.8000000530218542
 23
-0.0000000117279235
 33
0.0
  0
ENDBLK
  5
395
330
392
100
AcDbEntity
  8
0
100
AcDbBlockEnd
  0
BLOCK
  5
40D
330
402
100
AcDbEntity
  8
0
100
AcDbBlockBegin
  2
*D10
 70
     1
 10
0.0
 20
0.0
 30
0.0
  3
*D10
  1

  0
LINE
  5
427
330
402
100
AcDbEntity
  8
0
 62
     0
370
    -2
100
AcDbLine
 10
-7.757512260783144
 20
20.41203857015116
 30
0.0
 11
-7.757512260783144
 21
22.6288833468423
 31
0.0
  0
LINE
  5
428
330
402
100
AcDbEntity
  8
0
 62
     0
370
    -2
100
AcDbLine
 10
52.23606511600052
 20
20.41203857015116
 30
0.0
 11
52.23606511600052
 21
22.6288833468423
 31
0.0
  0
LINE
  5
429
330
402
100
AcDbEntity
  8
0
 62
     0
370
    -2
100
AcDbLine
 10
-5.957512260783144
 20
22.4488833468423
 30
0.0
 11
20.79927642760868
 21
22.4488833468423
 31
0.0
  0
LINE
  5
42A
330
402
100
AcDbEntity
  8
0
 62
     0
370
    -2
100
AcDbLine
 10
50.43606511600052
 20
22.4488833468423
 30
0.0
 11
23.67927642760868
 21
22.4488833468423
 31
0.0
  0
SOLID
  5
42B
330
402
100
AcDbEntity
  8
0
 62
     0
100
AcDbTrace
 10
-5.957512260783144
 20
22.7488833468423
 30
0.0
 11
-5.957512260783144
 21
22.1488833468423
 31
0.0
 12
-7.757512260783144
 22
22.4488833468423
 32
0.0
 13
-7.757512260783144
 23
22.4488833468423
 33
0.0
  0
SOLID
  5
42C
330
402
100
AcDbEntity
  8
0
 62
     0
100
AcDbTrace
 10
50.43606511600052
 20
22.7488833468423
 30
0.0
 11
50.43606511600052
 21
22.1488833468423
 31
0.0
 12
52.23606511600052
 22
22.4488833468423
 32
0.0
 13
52.23606511600052
 23
22.4488833468423
 33
0.0
  0
MTEXT
  5
42D
330
402
100
AcDbEntity
  8
0
 62
     0
100
AcDbMText
 10
22.23927642760868
 20
22.4488833468423
 30
0.0
 40
1.8
 41
0.0
 71
     5
 72
     1
  1
\A1;60
 73
     1
 44
1.0
  0
POINT
  5
42E
330
402
100
AcDbEntity
  8
Defpoints
 62
     0
100
AcDbPoint
 10
-7.757512260783144
 20
20.34953857015116
 30
0.0
  0
POINT
  5
42F
330
402
100
AcDbEntity
  8
Defpoints
 62
     0
100
AcDbPoint
 10
52.23606511600052
 20
20.34953857015116
 30
0.0
  0
POINT
  5
430
330
402
100
AcDbEntity
  8
Defpoints
 62
     0
100
AcDbPoint
 10
52.23606511600052
 20
22.4488833468423
 30
0.0
  0
ENDBLK
  5
40E
330
402
100
AcDbEntity
  8
0
100
AcDbBlockEnd
  0
BLOCK
  5
41B
330
410
100
AcDbEntity
  8
0
100
AcDbBlockBegin
  2
*D11
 70
     1
 10
0.0
 20
0.0
 30
0.0
  3
*D11
  1

  0
LINE
  5
41D
330
410
100
AcDbEntity
  8
0
 62
     0
370
    -2
100
AcDbLine
 10
52.6485859046078
 20
-20.02786009803718
 30
0.0
 11
55.49624876729748
 21
-20.02786009803718
 31
0.0
  0
LINE
  5
41E
330
410
100
AcDbEntity
  8
0
 62
     0
370
    -2
100
AcDbLine
 10
52.6485859046078
 20
19.92966957014964
 30
0.0
 11
55.49624876729749
 21
19.92966957014964
 31
0.0
  0
LINE
  5
41F
330
410
100
AcDbEntity
  8
0
 62
     0
370
    -2
100
AcDbLine
 10
55.31624876729748
 20
-18.22786009803717
 30
0.0
 11
55.31624876729749
 21
-1.03909526394377
 31
0.0
  0
LINE
  5
420
330
410
100
AcDbEntity
  8
0
 62
     0
370
    -2
100
AcDbLine
 10
55.3162487672975
 20
18.12966957014964
 30
0.0
 11
55.31624876729749
 21
0.9409047360562288
 31
0.0
  0
SOLID
  5
421
330
410
100
AcDbEntity
  8
0
 62
     0
100
AcDbTrace
 10
55.01624876729748
 20
-18.22786009803717
 30
0.0
 11
55.61624876729748
 21
-18.22786009803717
 31
0.0
 12
55.31624876729748
 22
-20.02786009803718
 32
0.0
 13
55.31624876729748
 23
-20.02786009803718
 33
0.0
  0
SOLID
  5
422
330
410
100
AcDbEntity
  8
0
 62
     0
100
AcDbTrace
 10
55.01624876729749
 20
18.12966957014964
 30
0.0
 11
55.61624876729749
 21
18.12966957014964
 31
0.0
 12
55.3162487672975
 22
19.92966957014964
 32
0.0
 13
55.3162487672975
 23
19.92966957014964
 33
0.0
  0
MTEXT
  5
423
330
410
100
AcDbEntity
  8
0
 62
     0
100
AcDbMText
 10
55.31624876729749
 20
-0.0490952639437621
 30
0.0
 40
1.8
 41
0.0
 71
     5
 72
     1
  1
\A1;40
 73
     1
 44
1.0
  0
POINT
  5
424
330
410
100
AcDbEntity
  8
Defpoints
 62
     0
100
AcDbPoint
 10
52.5860859046078
 20
-20.02786009803718
 30
0.0
  0
POINT
  5
425
330
410
100
AcDbEntity
  8
Defpoints
 62
     0
100
AcDbPoint
 10
52.5860859046078
 20
19.92966957014964
 30
0.0
  0
POINT
  5
426
330
410
100
AcDbEntity
  8
Defpoints
 62
     0
100
AcDbPoint
 10
55.3162487672975
 20
19.92966957014964
 30
0.0
  0
ENDBLK
  5
41C
330
410
100
AcDbEntity
  8
0
100
AcDbBlockEnd
  0
ENDSEC
  0
SECTION
  2
ENTITIES
  0
SOLID
  5
23
330
1E
100
AcDbEntity
  8
METAL1
100
AcDbTrace
 10
0.0
 20
1.35
 30
0.0
 11
5.0
 21
1.35
 31
0.0
 12
0.0
 22
-1.35
 32
0.0
 13
5.0
 23
-1.35
 33
0.0
  0
SOLID
  5
2B
330
1E
100
AcDbEntity
  8
METAL1
100
AcDbTrace
 10
13.0
 20
-1.199999999999999
 30
0.0
 11
10.8
 21
-1.199999999999999
 31
0.0
 12
13.0
 22
1.199999999999999
 32
0.0
 13
10.8
 23
1.199999999999999
 33
0.0
  0
SOLID
  5
3C
330
1E
100
AcDbEntity
  8
METAL1
100
AcDbTrace
 10
15.94999999999999
 20
-0.8381999999999999
 30
0.0
 11
14.8324
 21
-0.8381999999999999
 31
0.0
 12
15.94999999999999
 22
0.8381999999999999
 32
0.0
 13
14.8324
 23
0.8381999999999999
 33
0.0
  0
SOLID
  5
3D
330
1E
100
AcDbEntity
  8
METAL1
100
AcDbTrace
 10
13.0
 20
-0.8381999999999999
 30
0.0
 11
11.8824
 21
-0.8381999999999999
 31
0.0
 12
13.0
 22
0.8381999999999999
 32
0.0
 13
11.8824
 23
0.8381999999999999
 33
0.0
  0
SOLID
  5
51
330
1E
100
AcDbEntity
  8
METAL1
100
AcDbTrace
 10
16.1
 20
0.8
 30
0.0
 11
16.89999999999999
 21
0.8
 31
0.0
 12
16.1
 22
-0.8
 32
0.0
 13
16.89999999999999
 23
-0.8
 33
0.0
  0
SOLID
  5
52
330
1E
100
AcDbEntity
  8
METAL1
100
AcDbTrace
 10
16.1
 20
-0.8
 30
0.0
 11
15.3
 21
-0.8
 31
0.0
 12
16.1
 22
0.8
 32
0.0
 13
15.3
 23
0.8
 33
0.0
  0
SOLID
  5
53
330
1E
100
AcDbEntity
  8
METAL1
100
AcDbTrace
 10
15.3
 20
0.0
 30
0.0
 11
15.3
 21
0.8
 31
0.0
 12
16.89999999999999
 22
0.0
 32
0.0
 13
16.89999999999999
 23
0.8
 33
0.0
  0
SOLID
  5
54
330
1E
100
AcDbEntity
  8
METAL1
100
AcDbTrace
 10
16.89999999999999
 20
0.8
 30
0.0
 11
18.6
 21
0.8
 31
0.0
 12
16.89999999999999
 22
-0.8
 32
0.0
 13
18.6
 23
-0.8
 33
0.0
  0
SOLID
  5
6C
330
1E
100
AcDbEntity
  8
METAL1
100
AcDbTrace
 10
18.62999999999999
 20
-2.9
 30
0.0
 11
17.23
 21
-2.9
 31
0.0
 12
18.62999999999999
 22
-1.7
 32
0.0
 13
17.23
 23
-1.7
 33
0.0
  0
SOLID
  5
6D
330
1E
100
AcDbEntity
  8
METAL1
100
AcDbTrace
 10
18.62999999999999
 20
-0.6
 30
0.0
 11
17.23
 21
-0.6
 31
0.0
 12
18.62999999999999
 22
0.6
 32
0.0
 13
17.23
 23
0.6
 33
0.0
  0
SOLID
  5
6E
330
1E
100
AcDbEntity
  8
METAL1
100
AcDbTrace
 10
18.62999999999999
 20
1.75
 30
0.0
 11
17.23
 21
1.75
 31
0.0
 12
18.62999999999999
 22
2.95
 32
0.0
 13
17.23
 23
2.95
 33
0.0
  0
SOLID
  5
6F
330
1E
100
AcDbEntity
  8
METAL1
100
AcDbTrace
 10
24.53
 20
-1.7
 30
0.0
 11
23.13
 21
-1.7
 31
0.0
 12
24.53
 22
1.8
 32
0.0
 13
23.13
 23
1.8
 33
0.0
  0
SOLID
  5
7F
330
1E
100
AcDbEntity
  8
METAL1
100
AcDbTrace
 10
22.37999999999999
 20
-4.0
 30
0.0
 11
22.37999999999999
 21
4.0
 31
0.0
 12
23.98
 22
-4.0
 32
0.0
 13
23.98
 23
4.0
 33
0.0
  0
SOLID
  5
80
330
1E
100
AcDbEntity
  8
METAL1
100
AcDbTrace
 10
23.18
 20
4.0
 30
0.0
 11
27.17999999999999
 21
4.0
 31
0.0
 12
23.18
 22
-4.0
 32
0.0
 13
27.17999999999999
 23
-4.0
 33
0.0
  0
SOLID
  5
81
330
1E
100
AcDbEntity
  8
METAL1
100
AcDbTrace
 10
27.305
 20
0.8
 30
0.0
 11
27.305
 21
-4.0
 31
0.0
 12
27.055
 22
0.8
 32
0.0
 13
27.055
 23
-4.0
 33
0.0
  0
SOLID
  5
82
330
1E
100
AcDbEntity
  8
METAL1
100
AcDbTrace
 10
26.53
 20
0.8381999999999999
 30
0.0
 11
27.6476
 21
0.8381999999999999
 31
0.0
 12
26.53
 22
-0.8381999999999999
 32
0.0
 13
27.6476
 23
-0.8381999999999999
 33
0.0
  0
SOLID
  5
83
330
1E
100
AcDbEntity
  8
METAL1
100
AcDbTrace
 10
29.48
 20
0.8381999999999999
 30
0.0
 11
30.5976
 21
0.8381999999999999
 31
0.0
 12
29.48
 22
-0.8381999999999999
 32
0.0
 13
30.5976
 23
-0.8381999999999999
 33
0.0
  0
SOLID
  5
88
330
1E
100
AcDbEntity
  8
METAL1
100
AcDbTrace
 10
29.98
 20
1.35
 30
0.0
 11
39.97999999999999
 21
1.35
 31
0.0
 12
29.98
 22
-1.35
 32
0.0
 13
39.97999999999999
 23
-1.35
 33
0.0
  0
SOLID
  5
8E
330
1E
100
AcDbEntity
  8
METAL1
100
AcDbTrace
 10
40.87117127699193
 20
-12.76550558723301
 30
0.0
 11
40.87117127699193
 21
-14.96550558723301
 31
0.0
 12
38.47117127699194
 22
-12.76550558723301
 32
0.0
 13
38.47117127699194
 23
-14.96550558723301
 33
0.0
  0
SOLID
  5
B6
330
1E
100
AcDbEntity
  8
METAL1
100
AcDbTrace
 10
41.6650899050009
 20
-14.36283632822465
 30
0.0
 11
40.86508990500089
 21
-14.36283632822465
 31
0.0
 12
41.6650899050009
 22
-12.76283632822464
 32
0.0
 13
40.86508990500089
 23
-12.76283632822464
 33
0.0
  0
SOLID
  5
B7
330
1E
100
AcDbEntity
  8
METAL1
100
AcDbTrace
 10
41.6650899050009
 20
-12.76283632822464
 30
0.0
 11
42.46508990500089
 21
-12.76283632822464
 31
0.0
 12
41.6650899050009
 22
-14.36283632822465
 32
0.0
 13
42.46508990500089
 23
-14.36283632822465
 33
0.0
  0
SOLID
  5
B8
330
1E
100
AcDbEntity
  8
METAL1
100
AcDbTrace
 10
42.46508990500089
 20
-13.56283632822465
 30
0.0
 11
42.46508990500089
 21
-14.36283632822465
 31
0.0
 12
40.86508990500089
 22
-13.56283632822465
 32
0.0
 13
40.86508990500089
 23
-14.36283632822465
 33
0.0
  0
SOLID
  5
B9
330
1E
100
AcDbEntity
  8
METAL1
100
AcDbTrace
 10
45.91508990500089
 20
-14.40103632822465
 30
0.0
 11
44.79748990500089
 21
-14.40103632822465
 31
0.0
 12
45.91508990500089
 22
-12.72463632822464
 32
0.0
 13
44.79748990500089
 23
-12.72463632822464
 33
0.0
  0
SOLID
  5
BA
330
1E
100
AcDbEntity
  8
METAL1
100
AcDbTrace
 10
42.96508990500089
 20
-14.40103632822465
 30
0.0
 11
41.84748990500089
 21
-14.40103632822465
 31
0.0
 12
42.96508990500089
 22
-12.72463632822464
 32
0.0
 13
41.84748990500089
 23
-12.72463632822464
 33
0.0
  0
SOLID
  5
BF
330
1E
100
AcDbEntity
  8
METAL1
100
AcDbTrace
 10
47.62149144169621
 20
-14.36283632822465
 30
0.0
 11
46.82149144169621
 21
-14.36283632822465
 31
0.0
 12
47.62149144169621
 22
-12.76283632822464
 32
0.0
 13
46.82149144169621
 23
-12.76283632822464
 33
0.0
  0
SOLID
  5
C0
330
1E
100
AcDbEntity
  8
METAL1
100
AcDbTrace
 10
47.62149144169621
 20
-12.76283632822464
 30
0.0
 11
48.42149144169621
 21
-12.76283632822464
 31
0.0
 12
47.62149144169621
 22
-14.36283632822465
 32
0.0
 13
48.42149144169621
 23
-14.36283632822465
 33
0.0
  0
SOLID
  5
C1
330
1E
100
AcDbEntity
  8
METAL1
100
AcDbTrace
 10
46.86508990500089
 20
-13.56283632822465
 30
0.0
 11
46.86508990500089
 21
-14.36283632822465
 31
0.0
 12
45.26508990500089
 22
-13.56283632822465
 32
0.0
 13
45.26508990500089
 23
-14.36283632822465
 33
0.0
  0
SOLID
  5
C2
330
1E
100
AcDbEntity
  8
METAL1
100
AcDbTrace
 10
46.9032899050009
 20
-13.71283632822464
 30
0.0
 11
46.9032899050009
 21
-14.83043632822464
 31
0.0
 12
45.22688990500088
 22
-13.71283632822464
 32
0.0
 13
45.22688990500088
 23
-14.83043632822464
 33
0.0
  0
SOLID
  5
C3
330
1E
100
AcDbEntity
  8
METAL1
100
AcDbTrace
 10
46.9032899050009
 20
-16.66283632822465
 30
0.0
 11
46.9032899050009
 21
-17.78043632822464
 31
0.0
 12
45.22688990500088
 22
-16.66283632822465
 32
0.0
 13
45.22688990500088
 23
-17.78043632822464
 33
0.0
  0
SOLID
  5
C8
330
1E
100
AcDbEntity
  8
METAL1
100
AcDbTrace
 10
46.86508990500089
 20
-17.16283632822465
 30
0.0
 11
46.86508990500089
 21
-18.76283632822464
 31
0.0
 12
45.26508990500089
 22
-17.16283632822465
 32
0.0
 13
45.26508990500089
 23
-18.76283632822464
 33
0.0
  0
LWPOLYLINE
  5
C9
330
1E
100
AcDbEntity
  8
METAL1
100
AcDbPolyline
 90
        2
 70
     0
 43
0.2
 10
46.06508990500089
 20
-18.36283632822464
 42
1.0
 10
46.06508990500089
 20
-17.56283632822464
  0
LWPOLYLINE
  5
D2
330
1E
100
AcDbEntity
  8
METAL1
100
AcDbPolyline
 90
        2
 70
     0
 43
0.2
 10
46.06508990500089
 20
-17.56283632822464
 42
1.0
 10
46.06508990500089
 20
-18.36283632822464
  0
SOLID
  5
DA
330
1E
100
AcDbEntity
  8
METAL1
100
AcDbTrace
 10
42.50328990500089
 20
-13.71283632822464
 30
0.0
 11
42.50328990500089
 21
-14.83043632822464
 31
0.0
 12
40.8268899050009
 22
-13.71283632822464
 32
0.0
 13
40.8268899050009
 23
-14.83043632822464
 33
0.0
  0
SOLID
  5
DB
330
1E
100
AcDbEntity
  8
METAL1
100
AcDbTrace
 10
42.50328990500089
 20
-16.66283632822465
 30
0.0
 11
42.50328990500089
 21
-17.78043632822464
 31
0.0
 12
40.8268899050009
 22
-16.66283632822465
 32
0.0
 13
40.8268899050009
 23
-17.78043632822464
 33
0.0
  0
SOLID
  5
E0
330
1E
100
AcDbEntity
  8
METAL1
100
AcDbTrace
 10
42.46508990500089
 20
-17.16283632822465
 30
0.0
 11
42.46508990500089
 21
-18.76283632822464
 31
0.0
 12
40.86508990500089
 22
-17.16283632822465
 32
0.0
 13
40.86508990500089
 23
-18.76283632822464
 33
0.0
  0
LWPOLYLINE
  5
E1
330
1E
100
AcDbEntity
  8
METAL1
100
AcDbPolyline
 90
        2
 70
     0
 43
0.2
 10
41.6650899050009
 20
-18.36283632822464
 42
1.0
 10
41.6650899050009
 20
-17.56283632822464
  0
LWPOLYLINE
  5
E9
330
1E
100
AcDbEntity
  8
METAL1
100
AcDbPolyline
 90
        2
 70
     0
 43
0.2
 10
41.6650899050009
 20
-17.56283632822464
 42
1.0
 10
41.6650899050009
 20
-18.36283632822464
  0
SOLID
  5
F1
330
1E
100
AcDbEntity
  8
METAL1
100
AcDbTrace
 10
23.18
 20
-4.0
 30
0.0
 11
19.18
 21
-4.0
 31
0.0
 12
23.18
 22
4.0
 32
0.0
 13
19.18
 23
4.0
 33
0.0
  0
SOLID
  5
F2
330
1E
100
AcDbEntity
  8
METAL1
100
AcDbTrace
 10
22.34179999999999
 20
3.35
 30
0.0
 11
22.34179999999999
 21
4.4676
 31
0.0
 12
24.0182
 22
3.35
 32
0.0
 13
24.0182
 23
4.4676
 33
0.0
  0
SOLID
  5
F3
330
1E
100
AcDbEntity
  8
METAL1
100
AcDbTrace
 10
22.34179999999999
 20
6.299999999999999
 30
0.0
 11
22.34179999999999
 21
7.4176
 31
0.0
 12
24.0182
 22
6.299999999999999
 32
0.0
 13
24.0182
 23
7.4176
 33
0.0
  0
SOLID
  5
F8
330
1E
100
AcDbEntity
  8
METAL1
100
AcDbTrace
 10
23.05499999999999
 20
6.799999999999999
 30
0.0
 11
23.05499999999999
 21
7.049999999999999
 31
0.0
 12
23.05499999999999
 22
6.799999999999999
 32
0.0
 13
23.305
 23
6.799999999999999
 33
0.0
  0
SOLID
  5
F9
330
1E
100
AcDbEntity
  8
METAL1
100
AcDbTrace
 10
16.25499999999999
 20
7.049999999999999
 30
0.0
 11
23.05499999999999
 21
7.049999999999999
 31
0.0
 12
16.25499999999999
 22
6.799999999999999
 32
0.0
 13
23.05499999999999
 23
6.799999999999999
 33
0.0
  0
SOLID
  5
FA
330
1E
100
AcDbEntity
  8
METAL1
100
AcDbTrace
 10
16.25499999999999
 20
6.799999999999999
 30
0.0
 11
16.005
 21
6.799999999999999
 31
0.0
 12
16.25499999999999
 22
6.799999999999999
 32
0.0
 13
16.25499999999999
 23
7.049999999999999
 33
0.0
  0
SOLID
  5
FB
330
1E
100
AcDbEntity
  8
METAL1
100
AcDbTrace
 10
16.005
 20
3.799999999999999
 30
0.0
 11
16.005
 21
6.799999999999999
 31
0.0
 12
16.25499999999999
 22
3.799999999999999
 32
0.0
 13
16.25499999999999
 23
6.799999999999999
 33
0.0
  0
SOLID
  5
FC
330
1E
100
AcDbEntity
  8
METAL1
100
AcDbTrace
 10
15.2618
 20
0.15
 30
0.0
 11
15.2618
 21
1.2676
 31
0.0
 12
16.93819999999999
 22
0.15
 32
0.0
 13
16.93819999999999
 23
1.2676
 33
0.0
  0
SOLID
  5
FD
330
1E
100
AcDbEntity
  8
METAL1
100
AcDbTrace
 10
15.2618
 20
3.1
 30
0.0
 11
15.2618
 21
4.2176
 31
0.0
 12
16.93819999999999
 22
3.1
 32
0.0
 13
16.93819999999999
 23
4.2176
 33
0.0
  0
SOLID
  5
111
330
1E
100
AcDbEntity
  8
METAL1
100
AcDbTrace
 10
18.6
 20
2.9
 30
0.0
 11
18.6
 21
1.7
 31
0.0
 12
17.4
 22
2.9
 32
0.0
 13
17.4
 23
1.7
 33
0.0
  0
LWPOLYLINE
  5
112
330
1E
100
AcDbEntity
  8
METAL1
100
AcDbPolyline
 90
        2
 70
     0
 43
0.2
 10
18.0
 20
1.9
 42
1.0
 10
18.0
 20
2.7
  0
LWPOLYLINE
  5
11A
330
1E
100
AcDbEntity
  8
METAL1
100
AcDbPolyline
 90
        2
 70
     0
 43
0.2
 10
18.0
 20
2.7
 42
1.0
 10
18.0
 20
1.9
  0
TEXT
  5
132
330
1E
100
AcDbEntity
  8
ERROR
100
AcDbText
 10
15.79666666666666
 20
3.674999999999999
 30
0.0
 40
0.25
  1
296
 72
     4
 11
16.12999999999999
 21
3.799999999999999
 31
0.0
100
AcDbText
  0
CIRCLE
  5
133
330
1E
100
AcDbEntity
  8
ERROR
100
AcDbCircle
 10
16.12999999999999
 20
3.799999999999999
 30
0.0
 40
0.5
  0
TEXT
  5
134
330
1E
100
AcDbEntity
  8
ERROR
100
AcDbText
 10
15.76666666666666
 20
3.475
 30
0.0
 40
0.25
  1
296
 72
     4
 11
16.1
 21
3.6
 31
0.0
100
AcDbText
  0
CIRCLE
  5
135
330
1E
100
AcDbEntity
  8
ERROR
100
AcDbCircle
 10
16.1
 20
3.6
 30
0.0
 40
0.5
  0
SOLID
  5
1E1
330
1E
100
AcDbEntity
  8
METAL1
100
AcDbTrace
 10
48.45032604292002
 20
-11.24706210626196
 30
0.0
 11
46.85032604292003
 21
-11.24706210626196
 31
0.0
 12
48.45032604292002
 22
-9.647062106261969
 32
0.0
 13
46.85032604292003
 23
-9.647062106261969
 33
0.0
  0
SOLID
  5
1E4
330
1E
100
AcDbEntity
  8
METAL1
100
AcDbTrace
 10
48.42611251239889
 20
-8.173210613377371
 30
0.0
 11
46.82611251239889
 21
-8.173210613377371
 31
0.0
 12
48.42611251239889
 22
-6.573210613377369
 32
0.0
 13
46.82611251239889
 23
-6.573210613377369
 33
0.0
  0
MTEXT
  5
1F0
330
1E
100
AcDbEntity
  8
METAL1
370
    30
100
AcDbMText
 10
21.09345117711777
 20
14.99181252110896
 30
0.0
 40
1.199999999999999
 41
44.51979999999999
 71
     5
 72
     5
  1
BFG135a ULTRA HI-DYNAMIC 10-70 MHz LNA\PYU1AW
 73
     1
 44
1.0
  0
SOLID
  5
39C
330
1E
100
AcDbEntity
  8
METAL1
100
AcDbTrace
 10
46.88195629265443
 20
-14.36981728587301
 30
0.0
 11
45.28195629265444
 21
-14.36981728587301
 31
0.0
 12
46.88195629265443
 22
-12.76981728587301
 32
0.0
 13
45.28195629265444
 23
-12.76981728587301
 33
0.0
  0
SOLID
  5
3D7
330
1E
100
AcDbEntity
  8
METAL1
100
AcDbTrace
 10
39.7111105746046
 20
1.358288318167217
 30
0.0
 11
49.7111105746046
 21
1.358288318167217
 31
0.0
 12
39.7111105746046
 22
-1.341711681832782
 32
0.0
 13
49.7111105746046
 23
-1.341711681832782
 33
0.0
  0
SOLID
  5
3E1
330
1E
100
AcDbEntity
  8
METAL1
100
AcDbTrace
 10
-4.956663503123138
 20
1.352261303072301
 30
0.0
 11
0.0433364968768615
 21
1.352261303072301
 31
0.0
 12
-4.956663503123138
 22
-1.347738696927697
 32
0.0
 13
0.0433364968768615
 23
-1.347738696927697
 33
0.0
  0
SOLID
  5
3E9
330
1E
100
AcDbEntity
  8
METAL1
100
AcDbTrace
 10
18.53372983521366
 20
-1.677479033064008
 30
0.0
 11
18.53372983521366
 21
-2.877479033064008
 31
0.0
 12
17.33372983521366
 22
-1.677479033064008
 32
0.0
 13
17.33372983521366
 23
-2.877479033064008
 33
0.0
  0
SOLID
  5
3F1
330
1E
100
AcDbEntity
  8
METAL1
100
AcDbTrace
 10
46.93092008705069
 20
-11.21711417003046
 30
0.0
 11
45.3309200870507
 21
-11.21711417003046
 31
0.0
 12
46.93092008705069
 22
-9.617114170030461
 32
0.0
 13
45.3309200870507
 23
-9.617114170030461
 33
0.0
  0
SOLID
  5
3F2
330
1E
100
AcDbEntity
  8
METAL1
100
AcDbTrace
 10
46.90670655652955
 20
-8.143262677145862
 30
0.0
 11
45.30670655652956
 21
-8.143262677145862
 31
0.0
 12
46.90670655652955
 22
-6.543262677145861
 32
0.0
 13
45.30670655652956
 23
-6.543262677145861
 33
0.0
  0
LWPOLYLINE
  5
3FC
330
1E
100
AcDbEntity
  8
0
100
AcDbPolyline
 90
        4
 70
     1
 43
0.0
 10
-7.772571848684947
 20
19.96637015128541
 10
52.22742815131505
 20
19.96637015128541
 10
52.22742815131505
 20
-20.03362984871458
 10
-7.772571848684947
 20
-20.03362984871458
  0
DIMENSION
  5
400
330
1E
100
AcDbEntity
  8
0
100
AcDbDimension
  2
*D10
 10
52.23606511600052
 20
22.4488833468423
 30
0.0
 11
22.23927642760868
 21
22.4488833468423
 31
0.0
 70
    32
 71
     5
 42
59.99357737678366
  3
Standard
100
AcDbAlignedDimension
 13
-7.757512260783144
 23
20.34953857015116
 33
0.0
 14
52.23606511600052
 24
20.34953857015116
 34
0.0
100
AcDbRotatedDimension
1001
ACAD
1000
DSTYLE
1002
{
1070
   271
1070
     0
1002
}
  0
DIMENSION
  5
40F
330
1E
100
AcDbEntity
  8
0
100
AcDbDimension
  2
*D11
 10
55.3162487672975
 20
19.92966957014964
 30
0.0
 11
55.31624876729749
 21
-0.0490952639437621
 31
0.0
 70
    32
 71
     5
 42
39.95752966818682
  3
Standard
100
AcDbAlignedDimension
 13
52.5860859046078
 23
-20.02786009803718
 33
0.0
 14
52.5860859046078
 24
19.92966957014964
 34
0.0
 50
90.0
100
AcDbRotatedDimension
1001
ACAD
1000
DSTYLE
1002
{
1070
   271
1070
     0
1002
}
  0
SOLID
  5
4B8
330
1E
100
AcDbEntity
  8
CONSTR
100
AcDbTrace
 10
15.46002493411624
 20
-0.865175478604133
 30
0.0
 11
15.46002493411624
 21
0.7348245213958684
 31
0.0
 12
15.51002493411623
 22
-0.865175478604133
 32
0.0
 13
15.51002493411623
 23
0.7348245213958684
 33
0.0
  0
SOLID
  5
4B9
330
1E
100
AcDbEntity
  8
CONSTR
100
AcDbTrace
 10
15.48502493411624
 20
-0.8901754786041315
 30
0.0
 11
12.28502493411624
 21
-0.8901754786041315
 31
0.0
 12
15.48502493411624
 22
-0.8401754786041308
 32
0.0
 13
12.28502493411624
 23
-0.8401754786041308
 33
0.0
  0
SOLID
  5
4BA
330
1E
100
AcDbEntity
  8
CONSTR
100
AcDbTrace
 10
15.48502493411624
 20
0.7098245213958663
 30
0.0
 11
12.28502493411624
 21
0.7098245213958663
 31
0.0
 12
15.48502493411624
 22
0.759824521395867
 32
0.0
 13
12.28502493411624
 23
0.759824521395867
 33
0.0
  0
SOLID
  5
4BB
330
1E
100
AcDbEntity
  8
CONSTR
100
AcDbTrace
 10
12.26002493411623
 20
-0.865175478604133
 30
0.0
 11
12.26002493411623
 21
0.7348245213958684
 31
0.0
 12
12.31002493411623
 22
-0.865175478604133
 32
0.0
 13
12.31002493411623
 23
0.7348245213958684
 33
0.0
  0
SOLID
  5
4BC
330
1E
100
AcDbEntity
  8
CONSTR
100
AcDbTrace
 10
19.11502493411624
 20
3.209824521395866
 30
0.0
 11
22.61502493411624
 21
3.209824521395866
 31
0.0
 12
19.11502493411624
 22
3.159824521395869
 32
0.0
 13
22.61502493411624
 23
3.159824521395869
 33
0.0
  0
SOLID
  5
4BD
330
1E
100
AcDbEntity
  8
CONSTR
100
AcDbTrace
 10
22.64002493411624
 20
3.184824521395867
 30
0.0
 11
22.64002493411624
 21
-3.315175478604132
 31
0.0
 12
22.59002493411624
 22
3.184824521395867
 32
0.0
 13
22.59002493411624
 23
-3.315175478604132
 33
0.0
  0
SOLID
  5
4BE
330
1E
100
AcDbEntity
  8
CONSTR
100
AcDbTrace
 10
22.61502493411624
 20
-3.340175478604132
 30
0.0
 11
19.11502493411624
 21
-3.340175478604132
 31
0.0
 12
22.61502493411624
 22
-3.290175478604131
 32
0.0
 13
19.11502493411624
 23
-3.290175478604131
 33
0.0
  0
SOLID
  5
4BF
330
1E
100
AcDbEntity
  8
CONSTR
100
AcDbTrace
 10
19.09002493411624
 20
-3.315175478604132
 30
0.0
 11
19.09002493411624
 21
3.184824521395867
 31
0.0
 12
19.14002493411624
 22
-3.315175478604132
 32
0.0
 13
19.14002493411624
 23
3.184824521395867
 33
0.0
  0
SOLID
  5
4C0
330
1E
100
AcDbEntity
  8
CONSTR
100
AcDbTrace
 10
22.61502493411624
 20
1.434824521395867
 30
0.0
 11
24.21502493411624
 21
1.434824521395867
 31
0.0
 12
22.61502493411624
 22
-1.565175478604132
 32
0.0
 13
24.21502493411624
 23
-1.565175478604132
 33
0.0
  0
SOLID
  5
4C1
330
1E
100
AcDbEntity
  8
CONSTR
100
AcDbTrace
 10
19.11502493411624
 20
-2.665175478604131
 30
0.0
 11
17.51502493411624
 21
-2.665175478604131
 31
0.0
 12
19.11502493411624
 22
-2.065175478604132
 32
0.0
 13
17.51502493411624
 23
-2.065175478604132
 33
0.0
  0
SOLID
  5
4C2
330
1E
100
AcDbEntity
  8
CONSTR
100
AcDbTrace
 10
19.11502493411624
 20
-0.365175478604133
 30
0.0
 11
17.51502493411624
 21
-0.365175478604133
 31
0.0
 12
19.11502493411624
 22
0.2348245213958684
 32
0.0
 13
17.51502493411624
 23
0.2348245213958684
 33
0.0
  0
SOLID
  5
4C3
330
1E
100
AcDbEntity
  8
CONSTR
100
AcDbTrace
 10
19.11502493411624
 20
1.934824521395867
 30
0.0
 11
17.51502493411624
 21
1.934824521395867
 31
0.0
 12
19.11502493411624
 22
2.534824521395869
 32
0.0
 13
17.51502493411624
 23
2.534824521395869
 33
0.0
  0
SOLID
  5
4C4
330
1E
100
AcDbEntity
  8
CONSTR
100
AcDbTrace
 10
26.99002493411624
 20
0.7348245213958684
 30
0.0
 11
26.99002493411624
 21
-0.865175478604133
 31
0.0
 12
26.94002493411623
 22
0.7348245213958684
 32
0.0
 13
26.94002493411623
 23
-0.865175478604133
 33
0.0
  0
SOLID
  5
4C5
330
1E
100
AcDbEntity
  8
CONSTR
100
AcDbTrace
 10
26.96502493411624
 20
0.759824521395867
 30
0.0
 11
30.16502493411624
 21
0.759824521395867
 31
0.0
 12
26.96502493411624
 22
0.7098245213958663
 32
0.0
 13
30.16502493411624
 23
0.7098245213958663
 33
0.0
  0
SOLID
  5
4C6
330
1E
100
AcDbEntity
  8
CONSTR
100
AcDbTrace
 10
26.96502493411624
 20
-0.8401754786041308
 30
0.0
 11
30.16502493411624
 21
-0.8401754786041308
 31
0.0
 12
26.96502493411624
 22
-0.8901754786041315
 32
0.0
 13
30.16502493411624
 23
-0.8901754786041315
 33
0.0
  0
SOLID
  5
4C7
330
1E
100
AcDbEntity
  8
CONSTR
100
AcDbTrace
 10
30.19002493411623
 20
0.7348245213958684
 30
0.0
 11
30.19002493411623
 21
-0.865175478604133
 31
0.0
 12
30.14002493411624
 22
0.7348245213958684
 32
0.0
 13
30.14002493411624
 23
-0.865175478604133
 33
0.0
  0
SOLID
  5
4C8
330
1E
100
AcDbEntity
  8
CONSTR
100
AcDbTrace
 10
45.42511483911712
 20
-14.42801180682878
 30
0.0
 11
45.42511483911712
 21
-12.82801180682878
 31
0.0
 12
45.47511483911713
 22
-14.42801180682878
 32
0.0
 13
45.47511483911713
 23
-12.82801180682878
 33
0.0
  0
SOLID
  5
4C9
330
1E
100
AcDbEntity
  8
CONSTR
100
AcDbTrace
 10
45.45011483911713
 20
-14.45301180682878
 30
0.0
 11
42.25011483911713
 21
-14.45301180682878
 31
0.0
 12
45.45011483911713
 22
-14.40301180682878
 32
0.0
 13
42.25011483911713
 23
-14.40301180682878
 33
0.0
  0
SOLID
  5
4CA
330
1E
100
AcDbEntity
  8
CONSTR
100
AcDbTrace
 10
45.45011483911713
 20
-12.85301180682878
 30
0.0
 11
42.25011483911713
 21
-12.85301180682878
 31
0.0
 12
45.45011483911713
 22
-12.80301180682878
 32
0.0
 13
42.25011483911713
 23
-12.80301180682878
 33
0.0
  0
SOLID
  5
4CB
330
1E
100
AcDbEntity
  8
CONSTR
100
AcDbTrace
 10
42.22511483911713
 20
-14.42801180682878
 30
0.0
 11
42.22511483911713
 21
-12.82801180682878
 31
0.0
 12
42.27511483911714
 22
-14.42801180682878
 32
0.0
 13
42.27511483911714
 23
-12.82801180682878
 33
0.0
  0
SOLID
  5
4CC
330
1E
100
AcDbEntity
  8
CONSTR
100
AcDbTrace
 10
46.85011483911713
 20
-14.25301180682878
 30
0.0
 11
45.25011483911713
 21
-14.25301180682878
 31
0.0
 12
46.85011483911713
 22
-14.20301180682877
 32
0.0
 13
45.25011483911713
 23
-14.20301180682877
 33
0.0
  0
SOLID
  5
4CD
330
1E
100
AcDbEntity
  8
CONSTR
100
AcDbTrace
 10
46.87511483911713
 20
-14.22801180682878
 30
0.0
 11
46.87511483911713
 21
-17.42801180682878
 31
0.0
 12
46.82511483911713
 22
-14.22801180682878
 32
0.0
 13
46.82511483911713
 23
-17.42801180682878
 33
0.0
  0
SOLID
  5
4CE
330
1E
100
AcDbEntity
  8
CONSTR
100
AcDbTrace
 10
45.27511483911713
 20
-14.22801180682878
 30
0.0
 11
45.27511483911713
 21
-17.42801180682878
 31
0.0
 12
45.22511483911713
 22
-14.22801180682878
 32
0.0
 13
45.22511483911713
 23
-17.42801180682878
 33
0.0
  0
SOLID
  5
4CF
330
1E
100
AcDbEntity
  8
CONSTR
100
AcDbTrace
 10
46.85011483911713
 20
-17.45301180682877
 30
0.0
 11
45.25011483911713
 21
-17.45301180682877
 31
0.0
 12
46.85011483911713
 22
-17.40301180682878
 32
0.0
 13
45.25011483911713
 23
-17.40301180682878
 33
0.0
  0
LWPOLYLINE
  5
4D0
330
1E
100
AcDbEntity
  8
GND
100
AcDbPolyline
 90
        2
 70
     0
 43
0.2
 10
46.05011483911713
 20
-18.42801180682878
 42
1.0
 10
46.05011483911713
 20
-17.62801180682878
  0
LWPOLYLINE
  5
4D1
330
1E
100
AcDbEntity
  8
GND
100
AcDbPolyline
 90
        2
 70
     0
 43
0.2
 10
46.05011483911713
 20
-17.62801180682878
 42
1.0
 10
46.05011483911713
 20
-18.42801180682878
  0
SOLID
  5
4D2
330
1E
100
AcDbEntity
  8
CONSTR
100
AcDbTrace
 10
42.45011483911713
 20
-14.25301180682878
 30
0.0
 11
40.85011483911713
 21
-14.25301180682878
 31
0.0
 12
42.45011483911713
 22
-14.20301180682877
 32
0.0
 13
40.85011483911713
 23
-14.20301180682877
 33
0.0
  0
SOLID
  5
4D3
330
1E
100
AcDbEntity
  8
CONSTR
100
AcDbTrace
 10
42.47511483911713
 20
-14.22801180682878
 30
0.0
 11
42.47511483911713
 21
-17.42801180682878
 31
0.0
 12
42.42511483911712
 22
-14.22801180682878
 32
0.0
 13
42.42511483911712
 23
-17.42801180682878
 33
0.0
  0
SOLID
  5
4D4
330
1E
100
AcDbEntity
  8
CONSTR
100
AcDbTrace
 10
40.87511483911713
 20
-14.22801180682878
 30
0.0
 11
40.87511483911713
 21
-17.42801180682878
 31
0.0
 12
40.82511483911713
 22
-14.22801180682878
 32
0.0
 13
40.82511483911713
 23
-17.42801180682878
 33
0.0
  0
SOLID
  5
4D5
330
1E
100
AcDbEntity
  8
CONSTR
100
AcDbTrace
 10
42.45011483911713
 20
-17.45301180682877
 30
0.0
 11
40.85011483911713
 21
-17.45301180682877
 31
0.0
 12
42.45011483911713
 22
-17.40301180682878
 32
0.0
 13
40.85011483911713
 23
-17.40301180682878
 33
0.0
  0
LWPOLYLINE
  5
4D6
330
1E
100
AcDbEntity
  8
GND
100
AcDbPolyline
 90
        2
 70
     0
 43
0.2
 10
41.65011483911714
 20
-18.42801180682878
 42
1.0
 10
41.65011483911714
 20
-17.62801180682878
  0
LWPOLYLINE
  5
4D7
330
1E
100
AcDbEntity
  8
GND
100
AcDbPolyline
 90
        2
 70
     0
 43
0.2
 10
41.65011483911714
 20
-17.62801180682878
 42
1.0
 10
41.65011483911714
 20
-18.42801180682878
  0
SOLID
  5
4D8
330
1E
100
AcDbEntity
  8
CONSTR
100
AcDbTrace
 10
22.36502493411623
 20
3.759824521395866
 30
0.0
 11
23.96502493411623
 21
3.759824521395866
 31
0.0
 12
22.36502493411623
 22
3.709824521395866
 32
0.0
 13
23.96502493411623
 23
3.709824521395866
 33
0.0
  0
SOLID
  5
4D9
330
1E
100
AcDbEntity
  8
CONSTR
100
AcDbTrace
 10
22.34002493411624
 20
3.734824521395868
 30
0.0
 11
22.34002493411624
 21
6.934824521395867
 31
0.0
 12
22.39002493411624
 22
3.734824521395868
 32
0.0
 13
22.39002493411624
 23
6.934824521395867
 33
0.0
  0
SOLID
  5
4DA
330
1E
100
AcDbEntity
  8
CONSTR
100
AcDbTrace
 10
23.94002493411623
 20
3.734824521395868
 30
0.0
 11
23.94002493411623
 21
6.934824521395867
 31
0.0
 12
23.99002493411623
 22
3.734824521395868
 32
0.0
 13
23.99002493411623
 23
6.934824521395867
 33
0.0
  0
SOLID
  5
4DB
330
1E
100
AcDbEntity
  8
CONSTR
100
AcDbTrace
 10
22.36502493411623
 20
6.959824521395866
 30
0.0
 11
23.96502493411623
 21
6.959824521395866
 31
0.0
 12
22.36502493411623
 22
6.909824521395869
 32
0.0
 13
23.96502493411623
 23
6.909824521395869
 33
0.0
  0
SOLID
  5
4DC
330
1E
100
AcDbEntity
  8
CONSTR
100
AcDbTrace
 10
15.28502493411624
 20
0.5598245213958677
 30
0.0
 11
16.88502493411623
 21
0.5598245213958677
 31
0.0
 12
15.28502493411624
 22
0.509824521395867
 32
0.0
 13
16.88502493411623
 23
0.509824521395867
 33
0.0
  0
SOLID
  5
4DD
330
1E
100
AcDbEntity
  8
CONSTR
100
AcDbTrace
 10
15.26002493411623
 20
0.5348245213958692
 30
0.0
 11
15.26002493411623
 21
3.734824521395868
 31
0.0
 12
15.31002493411623
 22
0.5348245213958692
 32
0.0
 13
15.31002493411623
 23
3.734824521395868
 33
0.0
  0
SOLID
  5
4DE
330
1E
100
AcDbEntity
  8
CONSTR
100
AcDbTrace
 10
16.86002493411623
 20
0.5348245213958692
 30
0.0
 11
16.86002493411623
 21
3.734824521395868
 31
0.0
 12
16.91002493411624
 22
0.5348245213958692
 32
0.0
 13
16.91002493411624
 23
3.734824521395868
 33
0.0
  0
SOLID
  5
4DF
330
1E
100
AcDbEntity
  8
CONSTR
100
AcDbTrace
 10
15.28502493411624
 20
3.759824521395866
 30
0.0
 11
16.88502493411623
 21
3.759824521395866
 31
0.0
 12
15.28502493411624
 22
3.709824521395866
 32
0.0
 13
16.88502493411623
 23
3.709824521395866
 33
0.0
  0
LWPOLYLINE
  5
4E0
330
1E
100
AcDbEntity
  8
GND
100
AcDbPolyline
 90
        2
 70
     0
 43
0.2
 10
17.98502493411624
 20
1.834824521395866
 42
1.0
 10
17.98502493411624
 20
2.634824521395866
  0
LWPOLYLINE
  5
4E1
330
1E
100
AcDbEntity
  8
GND
100
AcDbPolyline
 90
        2
 70
     0
 43
0.2
 10
17.98502493411624
 20
2.634824521395866
 42
1.0
 10
17.98502493411624
 20
1.834824521395866
  0
LWPOLYLINE
  5
4E2
330
1E
100
AcDbEntity
  8
CONSTR
100
AcDbPolyline
 90
        2
 70
     0
 43
0.0
 10
4.247972124950322
 20
4.122109637805905
 10
5.395305717258876
 20
-3.812795875912579
  0
LWPOLYLINE
  5
4E3
330
1E
100
AcDbEntity
  8
CONSTR
100
AcDbPolyline
 90
        2
 70
     0
 43
0.0
 10
6.572569738648168
 20
-3.812795875912584
 10
5.405282467258968
 20
4.112128690918297
  0
LWPOLYLINE
  5
4E4
330
1E
100
AcDbEntity
  8
CONSTR
100
AcDbPolyline
 90
        2
 70
     0
 43
0.0
 10
4.277902554031028
 20
4.301767758070035
 10
3.466563461339557
 20
-0.6476526421107032
  0
ARC
  5
4E5
330
1E
100
AcDbEntity
  8
CONSTR
100
AcDbCircle
 10
4.828045213363093
 20
4.110925847488182
 30
0.0
 40
0.5870977215103829
100
AcDbArc
 50
359.9495733215438
 51
180.0504266784561
  0
LINE
  5
4E6
330
1E
100
AcDbEntity
  8
CONSTR
100
AcDbLine
 10
4.633934037131913
 20
-0.6459808147514395
 30
0.0
 11
4.795150199791386
 21
0.3378516398282088
 31
0.0
  0
ARC
  5
4E7
330
1E
100
AcDbEntity
  8
CONSTR
100
AcDbCircle
 10
5.981932394580015
 20
-3.806147519388391
 30
0.0
 40
0.5870977215103829
100
AcDbArc
 50
180.6813662363378
 51
359.3186337636621
  0
LWPOLYLINE
  5
4E8
330
1E
100
AcDbEntity
  8
CONSTR
100
AcDbPolyline
 90
        2
 70
     0
 43
0.0
 10
5.966943415897492
 20
0.0011794482374192
 10
6.616265128102057
 20
4.07777147613358
  0
ARC
  5
4E9
330
1E
100
AcDbEntity
  8
CONSTR
100
AcDbCircle
 10
7.205353501447312
 20
4.048040873851036
 30
0.0
 40
0.5870977215103829
100
AcDbArc
 50
357.8628392357289
 51
2.662741806488528
  0
LWPOLYLINE
  5
4EA
330
1E
100
AcDbEntity
  8
CONSTR
100
AcDbPolyline
 90
        4
 70
     1
 43
0.0
 10
10.27982845763589
 20
4.595492827582376
 10
10.27982845763589
 20
4.595492827582376
 10
10.27982845763589
 20
4.595492827582376
 10
10.27982845763589
 20
4.595492827582376
  0
LWPOLYLINE
  5
4EB
330
1E
100
AcDbEntity
  8
CONSTR
100
AcDbPolyline
 90
        2
 70
     0
 43
0.0
 10
6.526473661779489
 20
-3.887077147319487
 10
7.166353808084112
 20
0.1621217930587804
  0
LWPOLYLINE
  5
4EC
330
1E
100
AcDbEntity
  8
CONSTR
100
AcDbPolyline
 90
        2
 70
     0
 43
0.0
 10
6.647787398867
 20
4.115398349113085
 10
7.795120991175563
 20
-3.819507164605404
  0
LWPOLYLINE
  5
4ED
330
1E
100
AcDbEntity
  8
CONSTR
100
AcDbPolyline
 90
        2
 70
     0
 43
0.0
 10
8.404445691963125
 20
0.0363356811315434
 10
9.052199549806886
 20
4.135360511960055
  0
LWPOLYLINE
  5
4EE
330
1E
100
AcDbEntity
  8
CONSTR
100
AcDbPolyline
 90
        2
 70
     0
 43
0.0
 10
8.972385012564853
 20
-3.819507164605404
 10
7.805097741175647
 20
4.105417402225469
  0
LWPOLYLINE
  5
4EF
330
1E
100
AcDbEntity
  8
CONSTR
100
AcDbPolyline
 90
        2
 70
     0
 43
0.0
 10
9.052199549806886
 20
4.145341458847696
 10
10.19953332119589
 20
-3.829488380564733
  0
LWPOLYLINE
  5
4F0
330
1E
100
AcDbEntity
  8
CONSTR
100
AcDbPolyline
 90
        2
 70
     0
 43
0.0
 10
10.21948682119609
 20
4.135360511960055
 10
11.35684366350457
 20
-3.849450274339986
  0
ARC
  5
4F1
330
1E
100
AcDbEntity
  8
CONSTR
100
AcDbCircle
 10
7.227860487279771
 20
4.104214558795366
 30
0.0
 40
0.5870977215103829
100
AcDbArc
 50
359.9495733215438
 51
180.0504266784561
  0
ARC
  5
4F2
330
1E
100
AcDbEntity
  8
CONSTR
100
AcDbCircle
 10
9.634932458111528
 20
4.139486985527337
 30
0.0
 40
0.5870977215103829
100
AcDbArc
 50
356.5051155470028
 51
183.4948844529971
  0
LWPOLYLINE
  5
4F3
330
1E
100
AcDbEntity
  8
CONSTR
100
AcDbPolyline
 90
        2
 70
     0
 43
0.0
 10
8.972385012564853
 20
-3.819507164605404
 10
9.611159902046409
 20
0.2601479717845052
  0
ARC
  5
4F4
330
1E
100
AcDbEntity
  8
CONSTR
100
AcDbCircle
 10
8.381747668496689
 20
-3.812858808081216
 30
0.0
 40
0.5870977215103829
100
AcDbArc
 50
180.6813662363378
 51
359.3186337636621
  0
LWPOLYLINE
  5
4F5
330
1E
100
AcDbEntity
  8
CONSTR
100
AcDbPolyline
 90
        2
 70
     0
 43
0.0
 10
11.35684366350457
 20
-3.809526217717762
 10
11.99672380980919
 20
0.2396727226605115
  0
ARC
  5
4F6
330
1E
100
AcDbEntity
  8
CONSTR
100
AcDbCircle
 10
10.77499492957496
 20
-3.812858808081216
 30
0.0
 40
0.5870977215103829
100
AcDbArc
 50
180.6813662363378
 51
359.3186337636621
  0
MTEXT
  5
4F7
330
1E
100
AcDbEntity
  8
CONSTR
100
AcDbMText
 10
6.377388197503435
 20
-5.591292958536897
 30
0.0
 40
0.8
 41
13.3098
 71
     1
 72
     5
  1
n=3t.\PD=8mm\Pl=7mm\Pd=1.5mm \PCuAg
 73
     1
 44
1.0
  0
MTEXT
  5
4F8
330
1E
100
AcDbEntity
  8
CONSTR
100
AcDbMText
 10
-4.74060762325304
 20
6.364869833959133
 30
0.0
 40
1.6
 41
10.6296
 71
     1
 72
     5
  1
Ant
 73
     1
 44
1.0
  0
MTEXT
  5
4F9
330
1E
100
AcDbEntity
  8
CONSTR
100
AcDbMText
 10
6.029533808098037
 20
6.974055452966524
 30
0.0
 40
1.199999999999999
 41
3.8612
 71
     1
 72
     5
  1
L
 73
     1
 44
1.0
  0
MTEXT
  5
4FA
330
1E
100
AcDbEntity
  8
CONSTR
100
AcDbMText
 10
45.08428948074836
 20
6.051158837270079
 30
0.0
 40
1.6
 41
8.2675
 71
     1
 72
     5
  1
Rx
 73
     1
 44
1.0
  0
INSERT
  5
4FB
330
1E
100
AcDbEntity
  8
CONSTR
100
AcDbBlockReference
  2
elkon
 10
39.89694050750619
 20
-19.50691466391107
 30
0.0
  0
INSERT
  5
4FC
330
1E
100
AcDbEntity
  8
CONSTR
100
AcDbBlockReference
  2
elkon
 10
51.86646678339942
 20
-1.412467008830859
 30
0.0
 50
180.0
  0
INSERT
  5
4FD
330
1E
100
AcDbEntity
  8
CONSTR
100
AcDbBlockReference
  2
rfc
 10
76.00245247025956
 20
23.08985691654727
 30
0.0
 41
5.747672421525731
 42
5.747672421525731
 43
5.747672421525731
 50
180.0
  0
LWPOLYLINE
  5
4FE
330
1E
100
AcDbEntity
  8
CONSTR
100
AcDbPolyline
 90
        2
 70
     0
 43
0.0
 10
48.5956642833625
 20
-8.588823155489336
 10
48.71142488424515
 20
-9.206882072283129
  0
LWPOLYLINE
  5
4FF
330
1E
100
AcDbEntity
  8
CONSTR
100
AcDbPolyline
 90
        2
 70
     0
 43
0.0
 10
48.58751678528325
 20
-10.53240998132194
 10
48.12396242563547
 20
-10.49387730099981
  0
MTEXT
  5
500
330
1E
100
AcDbEntity
  8
CONSTR
100
AcDbMText
 10
42.82559040076828
 20
-7.657868927938494
 30
0.0
 40
0.6
 41
1.6775
 71
     1
 72
     5
  1
1uF
 73
     1
 44
1.0
  0
MTEXT
  5
501
330
1E
100
AcDbEntity
  8
CONSTR
100
AcDbMText
 10
44.90179277776287
 20
-5.084927459886102
 30
0.0
 40
0.6
 41
2.423099999999999
 71
     1
 72
     5
  1
10uH
 11
0.0000000000000001
 21
1.0
 31
0.0
 73
     1
 44
1.0
  0
MTEXT
  5
502
330
1E
100
AcDbEntity
  8
CONSTR
100
AcDbMText
 10
50.92022426952797
 20
-9.071873207710495
 30
0.0
 40
0.5999999999999999
 41
3.075399999999999
 71
     1
 72
     5
  1
78L10
 11
0.0031168054897741
 21
-0.999995142749973
 31
0.0
 73
     1
 44
1.0
  0
INSERT
  5
503
330
1E
100
AcDbEntity
  8
CONSTR
100
AcDbBlockReference
  2
tri
 10
49.03013632615984
 20
-21.67776674594347
 30
0.0
 50
44.99999999999989
  0
LWPOLYLINE
  5
504
330
1E
100
AcDbEntity
  8
CONSTR
100
AcDbPolyline
 90
        2
 70
     0
 43
0.0
 10
48.70173857883414
 20
-11.97570833595324
 10
48.89502778045327
 20
-11.31895417892102
  0
LWPOLYLINE
  5
505
330
1E
100
AcDbEntity
  8
CONSTR
100
AcDbPolyline
 90
        2
 70
     0
 43
0.0
 10
48.72847281996986
 20
-9.237162336707044
 10
48.84423342085252
 20
-9.855221253500836
  0
LWPOLYLINE
  5
506
330
1E
100
AcDbEntity
  8
GND
100
AcDbPolyline
 90
        2
 70
     0
 43
0.2
 10
46.89000697683065
 20
-10.8656708799169
 42
1.0
 10
46.89000697683065
 20
-10.0656708799169
  0
LWPOLYLINE
  5
507
330
1E
100
AcDbEntity
  8
GND
100
AcDbPolyline
 90
        2
 70
     0
 43
0.2
 10
46.89000697683065
 20
-10.0656708799169
 42
1.0
 10
46.89000697683065
 20
-10.8656708799169
  0
LWPOLYLINE
  5
508
330
1E
100
AcDbEntity
  8
CONSTR
100
AcDbPolyline
 90
        2
 70
     0
 43
0.0
 10
48.5421299400028
 20
-12.53035270226901
 10
48.73541914162193
 20
-11.87359854523678
  0
LWPOLYLINE
  5
509
330
1E
100
AcDbEntity
  8
CONSTR
100
AcDbPolyline
 90
        2
 70
     0
 43
0.0
 10
48.33659178790806
 20
-13.05489361275525
 10
48.5298809895272
 20
-12.39813945572302
  0
LWPOLYLINE
  5
50A
330
1E
100
AcDbEntity
  8
CONSTR
100
AcDbPolyline
 90
        2
 70
     0
 43
0.0
 10
48.45765947614603
 20
-8.031787571828246
 10
48.57342007702868
 20
-8.649846488622038
  0
MTEXT
  5
50B
330
1E
100
AcDbEntity
  8
CONSTR
100
AcDbMText
 10
15.73746288496725
 20
1.223773309573488
 30
0.0
 40
0.6
 41
3.4054
 71
     1
 72
     5
  1
680
 11
0.0000000000000001
 21
1.0
 31
0.0
 73
     1
 44
1.0
  0
MTEXT
  5
50C
330
1E
100
AcDbEntity
  8
CONSTR
100
AcDbMText
 10
43.23114730680332
 20
-13.15433691565802
 30
0.0
 40
0.6
 41
3.8919
 71
     1
 72
     5
  1
33
 73
     1
 44
1.0
  0
MTEXT
  5
50D
330
1E
100
AcDbEntity
  8
CONSTR
100
AcDbMText
 10
41.283931739691
 20
-16.53560941942535
 30
0.0
 40
0.6
 41
5.9263
 71
     1
 72
     5
  1
1nF
 11
0.0000000000000001
 21
1.0
 31
0.0
 73
     1
 44
1.0
  0
MTEXT
  5
50E
330
1E
100
AcDbEntity
  8
CONSTR
100
AcDbMText
 10
45.74927885378111
 20
-16.7296971568567
 30
0.0
 40
0.6
 41
5.8379
 71
     1
 72
     5
  1
20nF
 11
0.0000000000000001
 21
1.0
 31
0.0
 73
     1
 44
1.0
  0
MTEXT
  5
50F
330
1E
100
AcDbEntity
  8
CONSTR
100
AcDbMText
 10
27.67209539201998
 20
0.3840329005388412
 30
0.0
 40
0.6
 41
5.1303
 71
     1
 72
     5
  1
82pF
 73
     1
 44
1.0
  0
MTEXT
  5
510
330
1E
100
AcDbEntity
  8
CONSTR
100
AcDbMText
 10
20.39456931608677
 20
-2.352718289375914
 30
0.0
 40
0.8
 41
4.462024804239632
 71
     1
 72
     5
  1
{\fTahoma|b0|i0|c0|p32;B\fTahoma|b0|i0|c238|p32;FG135a}
 11
0.0000000000000001
 21
1.0
 31
0.0
 73
     1
 44
1.0
  0
MTEXT
  5
511
330
1E
100
AcDbEntity
  8
CONSTR
100
AcDbMText
 10
22.69482177673967
 20
4.507618966831103
 30
0.0
 40
0.4
 41
2.770999999999999
 71
     1
 72
     5
  1
12k+\P1nF
 11
0.0000000000000001
 21
1.0
 31
0.0
 73
     1
 44
1.0
  0
MTEXT
  5
512
330
1E
100
AcDbEntity
  8
CONSTR
100
AcDbMText
 10
12.97633078977685
 20
0.401805396832998
 30
0.0
 40
0.6
 41
5.1303
 71
     1
 72
     5
  1
330pF
 73
     1
 44
1.0
  0
MTEXT
  5
513
330
1E
100
AcDbEntity
  8
CONSTR
100
AcDbMText
 10
43.01495330413738
 20
-10.97707408617803
 30
0.0
 40
0.6
 41
1.6775
 71
     1
 72
     5
  1
1uF
 73
     1
 44
1.0
  0
MTEXT
  5
514
330
1E
100
AcDbEntity
  8
CONSTR
100
AcDbMText
 10
21.53173825606195
 20
-5.87216434946913
 30
0.0
 40
0.8
 41
13.3098
 71
     1
 72
     5
  1
n=14.5t.\PD=8mm\Pl=12mm\Pd=0.8mm\PCul
 73
     1
 44
1.0
  0
LWPOLYLINE
  5
515
330
1E
100
AcDbEntity
  8
CONSTR
100
AcDbPolyline
 90
        2
 70
     0
 43
0.0
 10
46.47269446642378
 20
-5.182039369524105
 10
46.47269446642378
 20
-7.890324077104949
  0
LWPOLYLINE
  5
516
330
1E
100
AcDbEntity
  8
CONSTR
100
AcDbPolyline
 90
        2
 70
     0
 43
0.0
 10
46.41504994110668
 20
-2.704246936303107
 10
46.41504994110668
 20
0.3209647787905254
  0
LWPOLYLINE
  5
517
330
1E
100
AcDbEntity
  8
GND
100
AcDbPolyline
 90
        2
 70
     0
 43
0.2
 10
17.98314729669705
 20
-2.721389493893076
 42
1.0
 10
17.98314729669705
 20
-1.921389493893077
  0
LWPOLYLINE
  5
518
330
1E
100
AcDbEntity
  8
GND
100
AcDbPolyline
 90
        2
 70
     0
 43
0.2
 10
17.98314729669705
 20
-1.921389493893077
 42
1.0
 10
17.98314729669705
 20
-2.721389493893076
  0
ARC
  5
519
330
1E
100
AcDbEntity
  8
CONSTR
  6
DASHED
100
AcDbCircle
 10
38.75145913967748
 20
-5.942655915610508
 30
0.0
 40
0.3234710754397226
100
AcDbArc
 50
269.9551739112651
 51
94.13412058758686
  0
ARC
  5
51A
330
1E
100
AcDbEntity
  8
CONSTR
  6
DASHED
100
AcDbCircle
 10
28.20959151959296
 20
-6.288781363384751
 30
0.0
 40
0.3234710754397226
100
AcDbArc
 50
85.86587941241296
 51
270.0448260887347
  0
INSERT
  5
51B
330
1E
100
AcDbEntity
  8
CONSTR
100
AcDbBlockReference
  2
A$C7F5B3850
 10
39.06493272117227
 20
-5.95526872434827
 30
0.0
 41
2.239673620774855
 42
2.239673620774855
 43
2.239673620774856
 50
90.0
  0
INSERT
  5
51C
330
1E
100
AcDbEntity
  8
CONSTR
100
AcDbBlockReference
  2
A$C7F5B3850
 10
39.09451909194166
 20
-5.304128238254492
 30
0.0
 41
2.239673620774855
 42
2.239673620774855
 43
2.239673620774856
 50
90.0
  0
INSERT
  5
51D
330
1E
100
AcDbEntity
  8
CONSTR
100
AcDbBlockReference
  2
A$C7F5B3850
 10
39.09451909194166
 20
-4.652986914796189
 30
0.0
 41
2.239673620774855
 42
2.239673620774855
 43
2.239673620774856
 50
90.0
  0
ARC
  5
51E
330
1E
100
AcDbEntity
  8
CONSTR
  6
DASHED
100
AcDbCircle
 10
38.67803081409991
 20
-12.48670103983282
 30
0.0
 40
0.3234710754397226
100
AcDbArc
 50
269.9551739112651
 51
94.13412058758686
  0
ARC
  5
51F
330
1E
100
AcDbEntity
  8
CONSTR
  6
DASHED
100
AcDbCircle
 10
28.15302624532718
 20
-12.84031183401046
 30
0.0
 40
0.3234710754397226
100
AcDbArc
 50
85.86587941241296
 51
270.0448260887347
  0
LWPOLYLINE
  5
520
330
1E
100
AcDbEntity
  8
CONSTR
100
AcDbPolyline
 90
        2
 70
     0
 43
0.0
 10
28.19456483019015
 20
-13.15794051843216
 10
38.65333157583727
 20
-12.81757111413681
  0
LWPOLYLINE
  5
521
330
1E
100
AcDbEntity
  8
CONSTR
100
AcDbPolyline
 90
        2
 70
     0
 43
0.0
 10
28.1797719338874
 20
-12.52159793754017
 10
38.6681250503039
 20
-12.16643062804303
  0
INSERT
  5
522
330
1E
100
AcDbEntity
  8
CONSTR
100
AcDbBlockReference
  2
A$C7F5B3850
 10
39.00836744690649
 20
-12.50679919497398
 30
0.0
 41
2.239673620774855
 42
2.239673620774855
 43
2.239673620774856
 50
90.0
  0
INSERT
  5
523
330
1E
100
AcDbEntity
  8
CONSTR
100
AcDbBlockReference
  2
A$C7F5B3850
 10
39.03795381767588
 20
-11.8556587088802
 30
0.0
 41
2.239673620774855
 42
2.239673620774855
 43
2.239673620774856
 50
90.0
  0
INSERT
  5
524
330
1E
100
AcDbEntity
  8
CONSTR
100
AcDbBlockReference
  2
A$C7F5B3850
 10
39.03795381767588
 20
-11.2045173854219
 30
0.0
 41
2.239673620774855
 42
2.239673620774855
 43
2.239673620774856
 50
90.0
  0
INSERT
  5
525
330
1E
100
AcDbEntity
  8
CONSTR
100
AcDbBlockReference
  2
A$C7F5B3850
 10
39.05274729214251
 20
-10.5385773193974
 30
0.0
 41
2.239673620774855
 42
2.239673620774855
 43
2.239673620774856
 50
90.0
  0
INSERT
  5
526
330
1E
100
AcDbEntity
  8
CONSTR
100
AcDbBlockReference
  2
A$C7F5B3850
 10
39.03795381767588
 20
-9.872637253372907
 30
0.0
 41
2.239673620774855
 42
2.239673620774855
 43
2.239673620774856
 50
90.0
  0
ARC
  5
527
330
1E
100
AcDbEntity
  8
CONSTR
  6
DASHED
100
AcDbCircle
 10
38.6948938654117
 20
-8.55190034306225
 30
0.0
 40
0.3234710754397226
100
AcDbArc
 50
269.9551739112651
 51
94.13412058758693
  0
ARC
  5
528
330
1E
100
AcDbEntity
  8
CONSTR
  6
DASHED
100
AcDbCircle
 10
28.15302624532718
 20
-8.898025790836495
 30
0.0
 40
0.3234710754397226
100
AcDbArc
 50
85.86587941241287
 51
270.0448260887347
  0
LWPOLYLINE
  5
529
330
1E
100
AcDbEntity
  8
CONSTR
100
AcDbPolyline
 90
        2
 70
     0
 43
0.0
 10
28.19456483019015
 20
-9.215654475258189
 10
38.65333157583727
 20
-8.875285070962842
  0
LWPOLYLINE
  5
52A
330
1E
100
AcDbEntity
  8
CONSTR
100
AcDbPolyline
 90
        2
 70
     0
 43
0.0
 10
28.1797719338874
 20
-8.579311894366208
 10
38.6681250503039
 20
-8.224144584869062
  0
INSERT
  5
52B
330
1E
100
AcDbEntity
  8
CONSTR
100
AcDbBlockReference
  2
A$C7F5B3850
 10
39.00836744690649
 20
-8.564513151800014
 30
0.0
 41
2.239673620774855
 42
2.239673620774855
 43
2.239673620774856
 50
90.0
  0
INSERT
  5
52C
330
1E
100
AcDbEntity
  8
CONSTR
100
AcDbBlockReference
  2
A$C7F5B3850
 10
39.03795381767588
 20
-7.913372665706233
 30
0.0
 41
2.239673620774855
 42
2.239673620774855
 43
2.239673620774856
 50
90.0
  0
INSERT
  5
52D
330
1E
100
AcDbEntity
  8
CONSTR
100
AcDbBlockReference
  2
A$C7F5B3850
 10
39.03795381767588
 20
-7.262231342247932
 30
0.0
 41
2.239673620774855
 42
2.239673620774855
 43
2.239673620774856
 50
90.0
  0
ARC
  5
52E
330
1E
100
AcDbEntity
  8
CONSTR
  6
DASHED
100
AcDbCircle
 10
38.74104949137684
 20
-3.302899128145668
 30
0.0
 40
0.3234710754397225
100
AcDbArc
 50
269.9551739112651
 51
94.13412058758687
  0
LWPOLYLINE
  5
52F
330
1E
100
AcDbEntity
  8
CONSTR
100
AcDbPolyline
 90
        2
 70
     0
 43
0.0
 10
28.24072045615531
 20
-3.966653260341605
 10
38.69948720180241
 20
-3.62628385604626
  0
LWPOLYLINE
  5
530
330
1E
100
AcDbEntity
  8
CONSTR
100
AcDbPolyline
 90
        4
 70
     0
 43
0.0
 10
28.16979130332546
 20
-13.14515181366827
 10
39.79557646327988
 20
-13.6847198822404
 10
39.75405583664787
 20
-12.93762570788706
 10
37.09673346816785
 20
-12.89612047184304
  0
LWPOLYLINE
  5
531
330
1E
100
AcDbEntity
  8
CONSTR
100
AcDbPolyline
 90
        4
 70
     0
 43
0.0
 10
38.67451868172749
 20
-2.976369950590708
 10
26.79960954635899
 20
-3.349917074986805
 10
26.75808891972698
 20
-3.972495541208118
 10
28.21131203776852
 20
-3.930990305164101
  0
ENDSEC
  0
SECTION
  2
OBJECTS
  0
DICTIONARY
  5
C
330
0
100
AcDbDictionary
281
     1
  3
ACAD_GROUP
350
D
  3
ACAD_LAYOUT
350
19
  3
ACAD_MLINESTYLE
350
16
  3
ACAD_PLOTSETTINGS
350
18
  3
ACAD_PLOTSTYLENAME
350
E
  3
AcDbVariableDictionary
350
13C
  0
DICTIONARY
  5
139
330
1E
100
AcDbDictionary
280
     1
281
     1
  3
ACAD_SORTENTS
360
13A
  0
DICTIONARY
  5
D
102
{ACAD_REACTORS
330
C
102
}
330
C
100
AcDbDictionary
281
     1
  0
DICTIONARY
  5
19
102
{ACAD_REACTORS
330
C
102
}
330
C
100
AcDbDictionary
281
     1
  3
Layout1
350
1D
  3
Model
350
21
  0
DICTIONARY
  5
16
102
{ACAD_REACTORS
330
C
102
}
330
C
100
AcDbDictionary
281
     1
  3
Standard
350
17
  0
DICTIONARY
  5
18
102
{ACAD_REACTORS
330
C
102
}
330
C
100
AcDbDictionary
281
     1
  0
ACDBDICTIONARYWDFLT
  5
E
102
{ACAD_REACTORS
330
C
102
}
330
C
100
AcDbDictionary
281
     1
  3
Normal
350
F
100
AcDbDictionaryWithDefault
340
F
  0
DICTIONARY
  5
13C
102
{ACAD_REACTORS
330
C
102
}
330
C
100
AcDbDictionary
281
     1
  3
DIMASSOC
350
13E
  3
SORTENTS
350
13D
  0
SORTENTSTABLE
  5
13A
102
{ACAD_REACTORS
330
139
102
}
330
139
100
AcDbSortentsTable
330
1E
331
82
  5
37
331
23
  5
26
331
2B
  5
28
331
39C
  5
106
331
1B7
  5
1C0
331
E1
  5
4E
331
20E
  5
210
331
E9
  5
4F
331
1BF
  5
1CB
331
3AC
  5
3AD
331
F1
  5
50
331
53
  5
2E
331
BA
  5
42
331
F9
  5
54
331
3B4
  5
3B5
331
101
  5
1B5
331
C2
  5
46
331
1D7
  5
1DE
331
6B
  5
112
331
3BC
  5
3BD
331
111
  5
59
331
1DF
  5
1E4
331
1E7
  5
20E
331
D2
  5
4A
331
83
  5
38
331
DA
  5
4B
331
1B0
  5
1B8
331
39D
  5
39E
331
1B8
  5
1C1
331
20F
  5
211
331
3C
  5
29
331
1C0
  5
1CC
331
F2
  5
51
331
3AD
  5
3B0
331
54
  5
2F
331
FA
  5
55
331
64
  5
10B
331
BB
  5
123
331
1D0
  5
1DA
331
C3
  5
47
331
6C
  5
30
331
3B5
  5
3B6
331
3BD
  5
3BE
331
112
  5
5A
331
1E0
  5
1E5
331
1F0
  5
105
331
11A
  5
5B
331
3CD
  5
3D0
331
84
  5
116
331
132
  5
5C
331
1B1
  5
1B9
331
DB
  5
4C
331
210
  5
212
331
39E
  5
3A7
331
3D
  5
2A
331
1B9
  5
1C2
331
1C1
  5
1CD
331
F3
  5
52
331
BC
  5
124
331
65
  5
10C
331
FB
  5
56
331
3B6
  5
3B7
331
C4
  5
127
331
1D9
  5
1DF
331
6D
  5
31
331
1E1
  5
103
331
3BE
  5
3BF
331
85
  5
11A
331
1B2
  5
1BA
331
DC
  5
12D
331
133
  5
5D
331
1BA
  5
1C3
331
211
  5
213
331
3E
  5
107
331
3A7
  5
3A8
331
1C2
  5
1D0
331
F4
  5
134
331
FC
  5
57
331
66
  5
10D
331
BD
  5
125
331
1D2
  5
1DB
331
C5
  5
128
331
1DA
  5
1E0
331
6E
  5
32
331
3B7
  5
3B8
331
3BF
  5
3C9
331
1E2
  5
1E6
331
3D7
  5
3E1
331
86
  5
11E
331
134
  5
5E
331
1B3
  5
1BC
331
DD
  5
12E
331
8E
  5
25
331
E5
  5
132
331
212
  5
223
331
B6
  5
3E
331
3F
  5
108
331
1C3
  5
1D2
331
ED
  5
133
331
3A8
  5
3A9
331
1CB
  5
1D6
331
F5
  5
135
331
3B0
  5
3B1
331
1D3
  5
1DC
331
BE
  5
126
331
67
  5
10E
331
FD
  5
58
331
3B8
  5
3B9
331
C6
  5
129
331
1DB
  5
1E1
331
6F
  5
33
331
1E3
  5
1E7
331
7F
  5
34
331
CE
  5
12B
331
D6
  5
12C
331
3D0
  5
3D7
331
87
  5
122
331
1B4
  5
1BD
331
DE
  5
12F
331
135
  5
5F
331
1BC
  5
1C4
331
213
  5
37D
331
40
  5
109
331
B7
  5
3F
331
223
  5
384
331
3A9
  5
3AA
331
1C4
  5
1D3
331
F6
  5
1B0
331
1CC
  5
1D7
331
1D4
  5
1DD
331
FE
  5
1B2
331
3B1
  5
3B2
331
68
  5
10F
331
BF
  5
43
331
C7
  5
12A
331
3B9
  5
3BA
331
38A
  5
39C
331
3C9
  5
3CB
331
116
  5
1B6
331
1E4
  5
104
331
11E
  5
1B7
331
80
  5
35
331
88
  5
39
331
3E1
  5
3E9
331
1B5
  5
1BE
331
DF
  5
130
331
3E9
  5
23
331
41
  5
10A
331
1BD
  5
1C5
331
3AA
  5
3AB
331
1C5
  5
1D4
331
1CD
  5
1D9
331
F7
  5
1B1
331
51
  5
2B
331
B8
  5
40
331
FF
  5
1B3
331
3B2
  5
3B3
331
C0
  5
44
331
69
  5
110
331
3BA
  5
3BB
331
C8
  5
48
331
1DD
  5
1E2
331
1E5
  5
1F0
331
81
  5
36
331
1B6
  5
1BF
331
E0
  5
4D
331
20D
  5
20F
331
1BE
  5
1C9
331
3AB
  5
3AC
331
52
  5
2C
331
F8
  5
53
331
B9
  5
41
331
100
  5
1B4
331
3B3
  5
3B4
331
6A
  5
111
331
C1
  5
45
331
3BB
  5
3BC
331
C9
  5
49
331
1DE
  5
1E3
331
384
  5
38B
331
3CB
  5
3CD
331
1E6
  5
20D
  0
LAYOUT
  5
1D
102
{ACAD_REACTORS
330
19
102
}
330
19
100
AcDbPlotSettings
  1

  2
E:\ACAD2000\plotters\HP LaserJet 5L.pc3
  4

  6

 40
0.0
 41
0.0
 42
0.0
 43
0.0
 44
0.0
 45
0.0
 46
0.0
 47
0.0
 48
0.0
 49
0.0
140
0.0
141
0.0
142
1.0
143
1.0
 70
   688
 72
     0
 73
     0
 74
     5
  7
acad.stb
 75
    16
147
1.0
148
0.0
149
0.0
100
AcDbLayout
  1
Layout1
 70
     1
 71
     1
 10
0.0
 20
0.0
 11
12.0
 21
9.0
 12
0.0
 22
0.0
 32
0.0
 14
1.000000000000000E+20
 24
1.000000000000000E+20
 34
1.000000000000000E+20
 15
-1.000000000000000E+20
 25
-1.000000000000000E+20
 35
-1.000000000000000E+20
146
0.0
 13
0.0
 23
0.0
 33
0.0
 16
1.0
 26
0.0
 36
0.0
 17
0.0
 27
1.0
 37
0.0
 76
     0
330
1A
  0
LAYOUT
  5
21
102
{ACAD_REACTORS
330
19
102
}
330
19
100
AcDbPlotSettings
  1

  2
E:\ACAD2000\plotters\HP LaserJet 5L.pc3
  4

  6

 40
0.0
 41
0.0
 42
0.0
 43
0.0
 44
0.0
 45
0.0
 46
0.0
 47
0.0
 48
0.0
 49
0.0
140
0.0
141
0.0
142
1.0
143
1.0
 70
  1712
 72
     0
 73
     0
 74
     0
  7
acad.stb
 75
     0
147
1.0
148
0.0
149
0.0
100
AcDbLayout
  1
Model
 70
     1
 71
     0
 10
0.0
 20
0.0
 11
12.0
 21
9.0
 12
0.0
 22
0.0
 32
0.0
 14
0.0
 24
0.0
 34
0.0
 15
0.0
 25
0.0
 35
0.0
146
0.0
 13
0.0
 23
0.0
 33
0.0
 16
1.0
 26
0.0
 36
0.0
 17
0.0
 27
1.0
 37
0.0
 76
     0
330
1E
  0
MLINESTYLE
  5
17
102
{ACAD_REACTORS
330
16
102
}
330
16
100
AcDbMlineStyle
  2
STANDARD
 70
     0
  3

 62
   256
 51
90.0
 52
90.0
 71
     2
 49
0.5
 62
   256
  6
BYLAYER
 49
-0.5
 62
   256
  6
BYLAYER
  0
ACDBPLACEHOLDER
  5
F
102
{ACAD_REACTORS
330
E
102
}
330
E
  0
DICTIONARYVAR
  5
13E
102
{ACAD_REACTORS
330
13C
102
}
330
13C
100
DictionaryVariables
280
     0
  1
1
  0
DICTIONARYVAR
  5
13D
102
{ACAD_REACTORS
330
13C
102
}
330
13C
100
DictionaryVariables
280
     0
  1
127
  0
ENDSEC
  0
EOF
