  0
SECTION
  2
HEADER
  9
$ACADVER
  1
AC1015
  9
$ACADMAINTVER
 70
    13
  9
$DWGCODEPAGE
  3
ANSI_1252
  9
$INSBASE
 10
0.0
 20
0.0
 30
0.0
  9
$EXTMIN
 10
-7.34708718316358
 20
-24.68600161443482
 30
-0.000000000000013
  9
$EXTMAX
 10
52.86488915746225
 20
17.61104489108687
 30
0.0000000000000023
  9
$LIMMIN
 10
0.0
 20
0.0
  9
$LIMMAX
 10
12.0
 20
9.0
  9
$ORTHOMODE
 70
     0
  9
$REGENMODE
 70
     1
  9
$FILLMODE
 70
     1
  9
$QTEXTMODE
 70
     0
  9
$MIRRTEXT
 70
     1
  9
$LTSCALE
 40
1.0
  9
$ATTMODE
 70
     1
  9
$TEXTSIZE
 40
0.2
  9
$TRACEWID
 40
0.05
  9
$TEXTSTYLE
  7
Standard
  9
$CLAYER
  8
Defpoints
  9
$CELTYPE
  6
ByLayer
  9
$CECOLOR
 62
   256
  9
$CELTSCALE
 40
1.0
  9
$DISPSILH
 70
     0
  9
$DIMSCALE
 40
1.0
  9
$DIMASZ
 40
1.8
  9
$DIMEXO
 40
0.0625
  9
$DIMDLI
 40
0.38
  9
$DIMRND
 40
0.0
  9
$DIMDLE
 40
0.0
  9
$DIMEXE
 40
0.18
  9
$DIMTP
 40
0.0
  9
$DIMTM
 40
0.0
  9
$DIMTXT
 40
1.8
  9
$DIMCEN
 40
0.09
  9
$DIMTSZ
 40
0.0
  9
$DIMTOL
 70
     0
  9
$DIMLIM
 70
     0
  9
$DIMTIH
 70
     1
  9
$DIMTOH
 70
     1
  9
$DIMSE1
 70
     0
  9
$DIMSE2
 70
     0
  9
$DIMTAD
 70
     0
  9
$DIMZIN
 70
     0
  9
$DIMBLK
  1

  9
$DIMASO
 70
     1
  9
$DIMSHO
 70
     1
  9
$DIMPOST
  1

  9
$DIMAPOST
  1

  9
$DIMALT
 70
     0
  9
$DIMALTD
 70
     2
  9
$DIMALTF
 40
25.4
  9
$DIMLFAC
 40
1.0
  9
$DIMTOFL
 70
     0
  9
$DIMTVP
 40
0.0
  9
$DIMTIX
 70
     0
  9
$DIMSOXD
 70
     0
  9
$DIMSAH
 70
     0
  9
$DIMBLK1
  1

  9
$DIMBLK2
  1

  9
$DIMSTYLE
  2
Standard
  9
$DIMCLRD
 70
     0
  9
$DIMCLRE
 70
     0
  9
$DIMCLRT
 70
     0
  9
$DIMTFAC
 40
1.0
  9
$DIMGAP
 40
0.09
  9
$DIMJUST
 70
     0
  9
$DIMSD1
 70
     0
  9
$DIMSD2
 70
     0
  9
$DIMTOLJ
 70
     1
  9
$DIMTZIN
 70
     0
  9
$DIMALTZ
 70
     0
  9
$DIMALTTZ
 70
     0
  9
$DIMUPT
 70
     0
  9
$DIMDEC
 70
     4
  9
$DIMTDEC
 70
     4
  9
$DIMALTU
 70
     2
  9
$DIMALTTD
 70
     2
  9
$DIMTXSTY
  7
Standard
  9
$DIMAUNIT
 70
     0
  9
$DIMADEC
 70
     0
  9
$DIMALTRND
 40
0.0
  9
$DIMAZIN
 70
     0
  9
$DIMDSEP
 70
    46
  9
$DIMATFIT
 70
     3
  9
$DIMFRAC
 70
     0
  9
$DIMLDRBLK
  1

  9
$DIMLUNIT
 70
     2
  9
$DIMLWD
 70
    -2
  9
$DIMLWE
 70
    -2
  9
$DIMTMOVE
 70
     0
  9
$LUNITS
 70
     2
  9
$LUPREC
 70
     4
  9
$SKETCHINC
 40
0.1
  9
$FILLETRAD
 40
0.0
  9
$AUNITS
 70
     0
  9
$AUPREC
 70
     0
  9
$MENU
  1
.
  9
$ELEVATION
 40
0.0
  9
$PELEVATION
 40
0.0
  9
$THICKNESS
 40
0.0
  9
$LIMCHECK
 70
     0
  9
$CHAMFERA
 40
0.0
  9
$CHAMFERB
 40
0.0
  9
$CHAMFERC
 40
0.0
  9
$CHAMFERD
 40
0.0
  9
$SKPOLY
 70
     0
  9
$TDCREATE
 40
2451939.043234259
  9
$TDUCREATE
 40
2451938.959900926
  9
$TDUPDATE
 40
2452935.464037175
  9
$TDUUPDATE
 40
2452935.380703842
  9
$TDINDWG
 40
0.0551343403
  9
$TDUSRTIMER
 40
0.0551343403
  9
$USRTIMER
 70
     1
  9
$ANGBASE
 50
0.0
  9
$ANGDIR
 70
     0
  9
$PDMODE
 70
     0
  9
$PDSIZE
 40
0.0
  9
$PLINEWID
 40
0.0
  9
$SPLFRAME
 70
     0
  9
$SPLINETYPE
 70
     6
  9
$SPLINESEGS
 70
     8
  9
$HANDSEED
  5
391
  9
$SURFTAB1
 70
     6
  9
$SURFTAB2
 70
     6
  9
$SURFTYPE
 70
     6
  9
$SURFU
 70
     6
  9
$SURFV
 70
     6
  9
$UCSBASE
  2

  9
$UCSNAME
  2

  9
$UCSORG
 10
0.0
 20
0.0
 30
0.0
  9
$UCSXDIR
 10
1.0
 20
0.0
 30
0.0
  9
$UCSYDIR
 10
0.0
 20
1.0
 30
0.0
  9
$UCSORTHOREF
  2

  9
$UCSORTHOVIEW
 70
     0
  9
$UCSORGTOP
 10
0.0
 20
0.0
 30
0.0
  9
$UCSORGBOTTOM
 10
0.0
 20
0.0
 30
0.0
  9
$UCSORGLEFT
 10
0.0
 20
0.0
 30
0.0
  9
$UCSORGRIGHT
 10
0.0
 20
0.0
 30
0.0
  9
$UCSORGFRONT
 10
0.0
 20
0.0
 30
0.0
  9
$UCSORGBACK
 10
0.0
 20
0.0
 30
0.0
  9
$PUCSBASE
  2

  9
$PUCSNAME
  2

  9
$PUCSORG
 10
0.0
 20
0.0
 30
0.0
  9
$PUCSXDIR
 10
1.0
 20
0.0
 30
0.0
  9
$PUCSYDIR
 10
0.0
 20
1.0
 30
0.0
  9
$PUCSORTHOREF
  2

  9
$PUCSORTHOVIEW
 70
     0
  9
$PUCSORGTOP
 10
0.0
 20
0.0
 30
0.0
  9
$PUCSORGBOTTOM
 10
0.0
 20
0.0
 30
0.0
  9
$PUCSORGLEFT
 10
0.0
 20
0.0
 30
0.0
  9
$PUCSORGRIGHT
 10
0.0
 20
0.0
 30
0.0
  9
$PUCSORGFRONT
 10
0.0
 20
0.0
 30
0.0
  9
$PUCSORGBACK
 10
0.0
 20
0.0
 30
0.0
  9
$USERI1
 70
     0
  9
$USERI2
 70
     0
  9
$USERI3
 70
     0
  9
$USERI4
 70
     0
  9
$USERI5
 70
     0
  9
$USERR1
 40
0.0
  9
$USERR2
 40
0.0
  9
$USERR3
 40
0.0
  9
$USERR4
 40
0.0
  9
$USERR5
 40
0.0
  9
$WORLDVIEW
 70
     1
  9
$SHADEDGE
 70
     3
  9
$SHADEDIF
 70
    70
  9
$TILEMODE
 70
     1
  9
$MAXACTVP
 70
    64
  9
$PINSBASE
 10
0.0
 20
0.0
 30
0.0
  9
$PLIMCHECK
 70
     0
  9
$PEXTMIN
 10
1.000000000000000E+20
 20
1.000000000000000E+20
 30
1.000000000000000E+20
  9
$PEXTMAX
 10
-1.000000000000000E+20
 20
-1.000000000000000E+20
 30
-1.000000000000000E+20
  9
$PLIMMIN
 10
0.0
 20
0.0
  9
$PLIMMAX
 10
12.0
 20
9.0
  9
$UNITMODE
 70
     0
  9
$VISRETAIN
 70
     1
  9
$PLINEGEN
 70
     0
  9
$PSLTSCALE
 70
     1
  9
$TREEDEPTH
 70
  3020
  9
$CMLSTYLE
  2
Standard
  9
$CMLJUST
 70
     0
  9
$CMLSCALE
 40
1.0
  9
$PROXYGRAPHICS
 70
     1
  9
$MEASUREMENT
 70
     0
  9
$CELWEIGHT
370
    -1
  9
$ENDCAPS
280
     0
  9
$JOINSTYLE
280
     0
  9
$LWDISPLAY
290
     1
  9
$INSUNITS
 70
     0
  9
$HYPERLINKBASE
  1

  9
$STYLESHEET
  1

  9
$XEDIT
290
     1
  9
$CEPSNTYPE
380
     0
  9
$PSTYLEMODE
290
     1
  9
$FINGERPRINTGUID
  2
{FF6B9E91-9A00-4FF5-8718-7548F241763A}
  9
$VERSIONGUID
  2
{9D17EFDA-67A5-4623-AE64-EC8FBCCFC333}
  9
$EXTNAMES
290
     1
  9
$PSVPSCALE
 40
0.0
  9
$OLESTARTUP
290
     0
  0
ENDSEC
  0
SECTION
  2
CLASSES
  0
CLASS
  1
ACDBDICTIONARYWDFLT
  2
AcDbDictionaryWithDefault
  3
AutoCAD 2000
 90
        0
280
     0
281
     0
  0
CLASS
  1
ACDBPLACEHOLDER
  2
AcDbPlaceHolder
  3
AutoCAD 2000
 90
        0
280
     0
281
     0
  0
CLASS
  1
LAYOUT
  2
AcDbLayout
  3
AutoCAD 2000
 90
        0
280
     0
281
     0
  0
CLASS
  1
DICTIONARYVAR
  2
AcDbDictionaryVar
  3
AutoCAD 2000
 90
        0
280
     0
281
     0
  0
CLASS
  1
SORTENTSTABLE
  2
AcDbSortentsTable
  3
AutoCAD 2000
 90
        0
280
     0
281
     0
  0
ENDSEC
  0
SECTION
  2
TABLES
  0
TABLE
  2
VPORT
  5
8
330
0
100
AcDbSymbolTable
 70
    16
  0
VPORT
  5
390
330
8
100
AcDbSymbolTableRecord
100
AcDbViewportTableRecord
  2
*Active
 70
     0
 10
0.0
 20
0.0
 11
1.0
 21
1.0
 12
22.75890098714933
 22
-3.537478361673976
 13
0.0
 23
0.0
 14
1.0
 24
1.0
 15
0.0
 25
0.0
 16
0.0
 26
0.0
 36
1.0
 17
0.0
 27
0.0
 37
0.0
 40
42.62199180518
 41
1.528205128205127
 42
50.0
 43
0.0
 44
0.0
 50
0.0
 51
0.0
 71
     0
 72
   100
 73
     1
 74
     2
 75
     0
 76
     0
 77
     0
 78
     0
281
     0
 65
     1
110
0.0
120
0.0
130
0.0
111
1.0
121
0.0
131
0.0
112
0.0
122
1.0
132
0.0
 79
     0
146
0.0
  0
ENDTAB
  0
TABLE
  2
LTYPE
  5
5
330
0
100
AcDbSymbolTable
 70
     1
  0
LTYPE
  5
13
330
5
100
AcDbSymbolTableRecord
100
AcDbLinetypeTableRecord
  2
ByBlock
 70
     0
  3

 72
    65
 73
     0
 40
0.0
  0
LTYPE
  5
14
330
5
100
AcDbSymbolTableRecord
100
AcDbLinetypeTableRecord
  2
ByLayer
 70
     0
  3

 72
    65
 73
     0
 40
0.0
  0
LTYPE
  5
15
330
5
100
AcDbSymbolTableRecord
100
AcDbLinetypeTableRecord
  2
Continuous
 70
     0
  3
Solid line
 72
    65
 73
     0
 40
0.0
  0
ENDTAB
  0
TABLE
  2
LAYER
  5
2
330
0
100
AcDbSymbolTable
 70
     5
  0
LAYER
  5
10
330
2
100
AcDbSymbolTableRecord
100
AcDbLayerTableRecord
  2
0
 70
     0
 62
     7
  6
Continuous
370
    -3
390
F
  0
LAYER
  5
22
330
2
100
AcDbSymbolTableRecord
100
AcDbLayerTableRecord
  2
METAL1
 70
     0
 62
     7
  6
Continuous
370
    -3
390
F
  0
LAYER
  5
27
330
2
100
AcDbSymbolTableRecord
100
AcDbLayerTableRecord
  2
CONSTR
 70
     0
 62
  -102
  6
Continuous
370
    -3
390
F
  0
LAYER
  5
C7
330
2
100
AcDbSymbolTableRecord
100
AcDbLayerTableRecord
  2
GND
 70
     0
 62
     9
  6
Continuous
370
    -3
390
F
  0
LAYER
  5
153
330
2
100
AcDbSymbolTableRecord
100
AcDbLayerTableRecord
  2
Defpoints
 70
     4
 62
     7
  6
Continuous
290
     0
370
    -3
390
F
  0
ENDTAB
  0
TABLE
  2
STYLE
  5
3
330
0
100
AcDbSymbolTable
 70
     1
  0
STYLE
  5
11
330
3
100
AcDbSymbolTableRecord
100
AcDbTextStyleTableRecord
  2
Standard
 70
     0
 40
0.0
 41
1.0
 50
0.0
 71
     0
 42
0.2
  3
txt
  4

  0
ENDTAB
  0
TABLE
  2
VIEW
  5
6
330
0
100
AcDbSymbolTable
 70
     0
  0
ENDTAB
  0
TABLE
  2
UCS
  5
7
330
0
100
AcDbSymbolTable
 70
     0
  0
ENDTAB
  0
TABLE
  2
APPID
  5
9
330
0
100
AcDbSymbolTable
 70
     1
  0
APPID
  5
12
330
9
100
AcDbSymbolTableRecord
100
AcDbRegAppTableRecord
  2
ACAD
 70
     0
  0
ENDTAB
  0
TABLE
  2
DIMSTYLE
  5
A
330
0
100
AcDbSymbolTable
 70
     1
100
AcDbDimStyleTable
 71
     1
340
106
  0
DIMSTYLE
105
106
102
{ACAD_REACTORS
330
225
330
308
102
}
330
A
100
AcDbSymbolTableRecord
100
AcDbDimStyleTableRecord
  2
Standard
 70
     0
 41
1.8
140
1.8
340
11
  0
ENDTAB
  0
TABLE
  2
BLOCK_RECORD
  5
1
330
0
100
AcDbSymbolTable
 70
    14
  0
BLOCK_RECORD
  5
1E
102
{ACAD_XDICTIONARY
360
10B
102
}
330
1
100
AcDbSymbolTableRecord
100
AcDbBlockTableRecord
  2
*Model_Space
340
21
  0
BLOCK_RECORD
  5
1A
330
1
100
AcDbSymbolTableRecord
100
AcDbBlockTableRecord
  2
*Paper_Space
340
1D
  0
BLOCK_RECORD
  5
113
330
1
100
AcDbSymbolTableRecord
100
AcDbBlockTableRecord
  2
Inductor
340
0
310
280000002000000020000000010004000000000000020000000000000000000000000000000000000000000000008000008000000080800080000000800080008080000080808000C0C0C0000000FF0000FF000000FFFF00FF000000FF00FF00FFFF0000FFFFFF00FFFFFFFFFFFFFFFFFFFFFFFFFFFFFFFFFFFFFFFFFFFFFF
310
FFFFFFFFFFFFFFFFFFFFFFFFFFFFFFFFFFFFFFFFFFFFFFFFFFFFFFFFFFFFFFFFFFFFFFFFFFFFFFFFFFFFFFFFFFFFFFFFFFFFFFFFFFFFFFFFFFFFFFFFFFFFFFFFFFFFFFFFFFFFFFFFFFFFFFFFFFFFFFFFFFFFFFFFFFFFFFFFFFFFFFFFFFFFFFFFFFFFFFFFFFFFFFFFFFFFFFFFFFFFFFFFFFFFFFFFFFFFFFFFFFFFFFFFFFFFFF
310
FFFFFFFFFFFFFFFFFFFFFFFFFFFFFFFFFFFFFFFFFFFFFFFFFFFFFFFFFFFFFFFFFFFFFFFFFFFFFFFFFFFF0000FFFFFFFF0FFFFFF0FFFFFFF0000FFFF0FFFFFFF00FFFFFF0FFFFFFF0FFFFFFF0FFFFFFF00FFFFFF00FFFFFFF0FFFFFF0FFFFFFF00FFFFF0F0FFFFFFF0FFFFFF0FFFFFFF0F0FFFF0F0FFFFFFF0FFFFFFF0FFFFF
310
F00FFFFFF00FFFFFF0FFFFFFFF0FFFFFF00FFFFFF0FFFFFF0FFFFFFFFFF0FFFFF0F0FFFF0F0FFFFF0FFFFFFFFFFF00000FFF0000FFF00000FFFFFFFFFFFFFFFFFFFFFFFFFFFFFFFFFFFFFFFFFFFFFFFFFFFFFFFFFFFFFFFFFFFFFFFFFFFFFFFFFFFFFFFFFFFFFFFFFFFFFFFFFFFFFFFFFFFFFFFFFFFFFFFFFFFFFFFFFFFFFF
310
FFFFFFFFFFFFFFFFFFFFFFFFFFFFFFFFFFFFFFFFFFFFFFFFFFFFFFFFFFFFFFFFFFFFFFFFFFFFFFFFFFFFFFFFFFFFFFFFFFFFFFFFFFFFFFFFFFFFFFFFFFFFFFFFFFFFFFFFFFFFFFFFFFFFFFFFFFFFFFFFFFFFFFFFFFFFFFFFFFFFFFFFFFFFFFFFFFFFFFFFFFFFFFFFFFFFFFFF
102
{BLKREFS
331
121
102
}
1001
ACAD
1000
DesignCenter Data
1002
{
1070
     1
1070
     1
1002
}
  0
BLOCK_RECORD
  5
11B
330
1
100
AcDbSymbolTableRecord
100
AcDbBlockTableRecord
  2
conpoint
340
0
310
28000000200000002000000001000800000000000004000000000000000000000000000000000000000000004000000080000000FF000000002000004020000080200000FF200000004000004040000080400000FF400000006000004060000080600000FF600000008000004080000080800000FF80000000A0000040A000
310
0080A00000FFA0000000C0000040C0000080C00000FFC0000000FF000040FF000080FF0000FFFF0000000020004000200080002000FF002000002020004020200080202000FF202000004020004040200080402000FF402000006020004060200080602000FF602000008020004080200080802000FF80200000A0200040A0
310
200080A02000FFA0200000C0200040C0200080C02000FFC0200000FF200040FF200080FF2000FFFF2000000040004000400080004000FF004000002040004020400080204000FF204000004040004040400080404000FF404000006040004060400080604000FF604000008040004080400080804000FF80400000A0400040
310
A0400080A04000FFA0400000C0400040C0400080C04000FFC0400000FF400040FF400080FF4000FFFF4000000060004000600080006000FF006000002060004020600080206000FF206000004060004040600080406000FF406000006060004060600080606000FF606000008060004080600080806000FF80600000A06000
310
40A0600080A06000FFA0600000C0600040C0600080C06000FFC0600000FF600040FF600080FF6000FFFF6000000080004000800080008000FF008000002080004020800080208000FF208000004080004040800080408000FF408000006080004060800080608000FF608000008080004080800080808000FF80800000A080
310
0040A0800080A08000FFA0800000C0800040C0800080C08000FFC0800000FF800040FF800080FF8000FFFF80000000A0004000A0008000A000FF00A0000020A0004020A0008020A000FF20A0000040A0004040A0008040A000FF40A0000060A0004060A0008060A000FF60A0000080A0004080A0008080A000FF80A00000A0
310
A00040A0A00080A0A000FFA0A00000C0A00040C0A00080C0A000FFC0A00000FFA00040FFA00080FFA000FFFFA0000000C0004000C0008000C000FF00C0000020C0004020C0008020C000FF20C0000040C0004040C0008040C000FF40C0000060C0004060C0008060C000FF60C0000080C0004080C0008080C000FF80C00000
310
A0C00040A0C00080A0C000FFA0C00000C0C00040C0C00080C0C000FFC0C00000FFC00040FFC00080FFC000FFFFC0000000FF004000FF008000FF00FF00FF000020FF004020FF008020FF00FF20FF000040FF004040FF008040FF00FF40FF000060FF004060FF008060FF00FF60FF000080FF004080FF008080FF00FF80FF00
310
00A0FF0040A0FF0080A0FF00FFA0FF0000C0FF0040C0FF0080C0FF00FFC0FF0000FFFF0040FFFF0080FFFF00FFFFFF000000000000000000000000000000000000000000000000000000000000000000000000000000000000000000000000FFFFFF000000000000000000000000000000000000000000000000FFFFFFFFFF
310
FF00FFFFFF0000000000000000000000000000000000000000FFFF0000FFFF0000000000FFFFFFFF00000000000000000000000000000000FF0000FFFF000000000000000000FFFFFFFF00000000000000000000000000FF00FFFF00000000000000000000000000FFFFFF0000000000000000000000FFFFFF000000000000
310
0000000000000000000000FFFF000000000000000000FF00FF00000000000000000000000000000000000000FFFF0000000000000000FFFF0000000000000000000000000000000000000000FFFF00000000000000FF00FF000000000000000000000000000000000000000000FFFF000000000000FFFF0000000000000000
310
0000000000000000000000000000FF00FF00000000FF00FF0000000000000000000000000000000000000000000000FFFF00000000FFFF000000000000000000000000000000000000000000000000FFFF00000000FFFF00000000000000000000000000000000000000000000000000FF000000FFFF000000000000000000
310
0000000000000000000000000000000000FF000000FFFF000000000000000000000000000000000000000000000000000000FF0000FF00000000000000000000000000000000000000000000000000000000FF0000FFFF0000000000000000000000000000000000000000000000000000FFFF000000FF0000000000000000
310
000000000000000000000000000000000000FF00000000FFFF000000000000000000000000000000000000000000000000FFFF00000000FFFF000000000000000000000000000000000000000000000000FFFF0000000000FFFF00000000000000000000000000000000000000000000FF00FF0000000000FFFF0000000000
310
0000000000000000000000000000000000FFFF00000000000000FFFF0000000000000000000000000000000000000000FFFF0000000000000000FFFF0000000000000000000000000000000000000000FFFF000000000000000000FFFF000000000000000000000000000000000000FFFF0000000000000000000000FFFFFF
310
0000000000000000000000000000FFFFFF00000000000000000000000000FF00FFFF00000000000000000000FFFFFFFF000000000000000000000000000000FFFF00FFFF000000000000FFFFFFFF00000000000000000000000000000000000000FFFFFFFFFF0000FFFFFFFF00000000000000000000000000000000000000
310
00000000000000FFFFFF00000000000000000000000000000000000000000000000000000000000000000000000000000000000000000000
102
{BLKREFS
331
122
331
123
102
}
1001
ACAD
1000
DesignCenter Data
1002
{
1070
     1
1070
     1
1002
}
  0
BLOCK_RECORD
  5
120
330
1
100
AcDbSymbolTableRecord
100
AcDbBlockTableRecord
  2
ind
340
0
310
28000000200000002000000001000800000000000004000000000000000000000000000000000000000000004000000080000000FF000000002000004020000080200000FF200000004000004040000080400000FF400000006000004060000080600000FF600000008000004080000080800000FF80000000A0000040A000
310
0080A00000FFA0000000C0000040C0000080C00000FFC0000000FF000040FF000080FF0000FFFF0000000020004000200080002000FF002000002020004020200080202000FF202000004020004040200080402000FF402000006020004060200080602000FF602000008020004080200080802000FF80200000A0200040A0
310
200080A02000FFA0200000C0200040C0200080C02000FFC0200000FF200040FF200080FF2000FFFF2000000040004000400080004000FF004000002040004020400080204000FF204000004040004040400080404000FF404000006040004060400080604000FF604000008040004080400080804000FF80400000A0400040
310
A0400080A04000FFA0400000C0400040C0400080C04000FFC0400000FF400040FF400080FF4000FFFF4000000060004000600080006000FF006000002060004020600080206000FF206000004060004040600080406000FF406000006060004060600080606000FF606000008060004080600080806000FF80600000A06000
310
40A0600080A06000FFA0600000C0600040C0600080C06000FFC0600000FF600040FF600080FF6000FFFF6000000080004000800080008000FF008000002080004020800080208000FF208000004080004040800080408000FF408000006080004060800080608000FF608000008080004080800080808000FF80800000A080
310
0040A0800080A08000FFA0800000C0800040C0800080C08000FFC0800000FF800040FF800080FF8000FFFF80000000A0004000A0008000A000FF00A0000020A0004020A0008020A000FF20A0000040A0004040A0008040A000FF40A0000060A0004060A0008060A000FF60A0000080A0004080A0008080A000FF80A00000A0
310
A00040A0A00080A0A000FFA0A00000C0A00040C0A00080C0A000FFC0A00000FFA00040FFA00080FFA000FFFFA0000000C0004000C0008000C000FF00C0000020C0004020C0008020C000FF20C0000040C0004040C0008040C000FF40C0000060C0004060C0008060C000FF60C0000080C0004080C0008080C000FF80C00000
310
A0C00040A0C00080A0C000FFA0C00000C0C00040C0C00080C0C000FFC0C00000FFC00040FFC00080FFC000FFFFC0000000FF004000FF008000FF00FF00FF000020FF004020FF008020FF00FF20FF000040FF004040FF008040FF00FF40FF000060FF004060FF008060FF00FF60FF000080FF004080FF008080FF00FF80FF00
310
00A0FF0040A0FF0080A0FF00FFA0FF0000C0FF0040C0FF0080C0FF00FFC0FF0000FFFF0040FFFF0080FFFF00FFFFFF0000000000000000000000000000000000000000000000000000000000000000000000000000000000000000000000000000FFFF00000000000000000000000000000000000000000000000000000000
310
00FFFFFFFF00000000000000000000000000000000000000000000000000000000FF0000FF00000000000000000000000000000000000000000000000000000000FFFFFFFF000000000000000000000000000000000000000000000000000000000000FF000000000000000000000000000000000000000000000000000000
310
FFFFFFFFFF0000000000000000000000000000000000000000000000000000FF00000000FF00000000000000000000000000000000000000000000000000FF00000000000000000000000000000000000000000000000000000000000000FF00000000000000000000000000000000000000000000000000000000000000FF
310
00000000000000000000000000000000000000000000000000000000000000FF0000000000000000000000000000000000000000000000000000000000000000FFFFFFFFFF000000000000000000000000000000000000000000000000000000FFFFFFFFFFFF00000000000000000000000000000000000000000000000000
310
FF00000000000000000000000000000000000000000000000000000000000000FF00000000000000000000000000000000000000000000000000000000000000FF00000000000000000000000000000000000000000000000000000000000000FF000000000000000000000000000000000000000000000000000000000000
310
0000FFFFFFFFFFFF0000000000000000000000000000000000000000000000000000FFFFFFFFFF0000000000000000000000000000000000000000000000000000FF00000000000000000000000000000000000000000000000000000000000000FF0000000000000000000000000000000000000000000000000000000000
310
0000FF00000000000000000000000000000000000000000000000000000000000000FF0000000000000000000000000000000000000000000000000000000000000000FF00000000FF000000000000000000000000000000000000000000000000000000FFFFFFFFFF00000000000000000000000000000000000000000000
310
000000000000000000FF0000000000000000000000000000000000000000000000000000000000FFFFFFFF00000000000000000000000000000000000000000000000000000000FF0000FF00000000000000000000000000000000000000000000000000000000FFFFFFFF0000000000000000000000000000000000000000
310
000000000000000000FFFF000000000000000000000000000000000000000000000000000000000000000000000000000000000000000000
102
{BLKREFS
331
127
102
}
1001
ACAD
1000
DesignCenter Data
1002
{
1070
     1
1070
     1
1002
}
  0
BLOCK_RECORD
  5
126
330
1
100
AcDbSymbolTableRecord
100
AcDbBlockTableRecord
  2
rfc
340
0
310
28000000200000002000000001000800000000000004000000000000000000000000000000000000000000004000000080000000FF000000002000004020000080200000FF200000004000004040000080400000FF400000006000004060000080600000FF600000008000004080000080800000FF80000000A0000040A000
310
0080A00000FFA0000000C0000040C0000080C00000FFC0000000FF000040FF000080FF0000FFFF0000000020004000200080002000FF002000002020004020200080202000FF202000004020004040200080402000FF402000006020004060200080602000FF602000008020004080200080802000FF80200000A0200040A0
310
200080A02000FFA0200000C0200040C0200080C02000FFC0200000FF200040FF200080FF2000FFFF2000000040004000400080004000FF004000002040004020400080204000FF204000004040004040400080404000FF404000006040004060400080604000FF604000008040004080400080804000FF80400000A0400040
310
A0400080A04000FFA0400000C0400040C0400080C04000FFC0400000FF400040FF400080FF4000FFFF4000000060004000600080006000FF006000002060004020600080206000FF206000004060004040600080406000FF406000006060004060600080606000FF606000008060004080600080806000FF80600000A06000
310
40A0600080A06000FFA0600000C0600040C0600080C06000FFC0600000FF600040FF600080FF6000FFFF6000000080004000800080008000FF008000002080004020800080208000FF208000004080004040800080408000FF408000006080004060800080608000FF608000008080004080800080808000FF80800000A080
310
0040A0800080A08000FFA0800000C0800040C0800080C08000FFC0800000FF800040FF800080FF8000FFFF80000000A0004000A0008000A000FF00A0000020A0004020A0008020A000FF20A0000040A0004040A0008040A000FF40A0000060A0004060A0008060A000FF60A0000080A0004080A0008080A000FF80A00000A0
310
A00040A0A00080A0A000FFA0A00000C0A00040C0A00080C0A000FFC0A00000FFA00040FFA00080FFA000FFFFA0000000C0004000C0008000C000FF00C0000020C0004020C0008020C000FF20C0000040C0004040C0008040C000FF40C0000060C0004060C0008060C000FF60C0000080C0004080C0008080C000FF80C00000
310
A0C00040A0C00080A0C000FFA0C00000C0C00040C0C00080C0C000FFC0C00000FFC00040FFC00080FFC000FFFFC0000000FF004000FF008000FF00FF00FF000020FF004020FF008020FF00FF20FF000040FF004040FF008040FF00FF40FF000060FF004060FF008060FF00FF60FF000080FF004080FF008080FF00FF80FF00
310
00A0FF0040A0FF0080A0FF00FFA0FF0000C0FF0040C0FF0080C0FF00FFC0FF0000FFFF0040FFFF0080FFFF00FFFFFF00000000000000000000000000000000000000000000000000000000000000000000000000000000000000000000000000000000FFFF0000000000000000000000000000000000000000000000000000
310
000000FFFFFFFF00000000000000000000000000000000000000000000000000000000FF0000FF00000000000000000000000000000000000000000000000000000000FFFFFFFF0000000000000000000000000000000000000000000000000000000000FF0000000000000000000000000000000000000000000000000000
310
00FFFFFFFFFF00000000000000000000000000000000000000000000FFFFFF00FFFF000000FF00000000000000000000000000000000000000000000FF00FF00FF000000000000000000000000000000000000000000000000000000FF00FFFF00000000000000000000000000000000000000000000000000000000FF00FF
310
FF00000000000000000000000000000000000000000000000000000000FFFFFFFFFF000000000000000000000000000000000000000000000000000000FFFFFF00FFFFFFFFFFFF00000000000000000000000000000000000000000000FFFFFF00FFFFFFFFFFFF00000000000000000000000000000000000000000000FFFF
310
FFFFFF000000000000000000000000000000000000000000000000000000FFFFFFFF00000000000000000000000000000000000000000000000000000000FFFFFFFF00000000000000000000000000000000000000000000000000000000FFFFFFFFFF000000000000000000000000000000000000000000000000000000FF
310
FFFF00FFFFFFFFFFFF00000000000000000000000000000000000000000000FFFFFF00FFFFFFFFFFFF00000000000000000000000000000000000000000000FF00FFFFFF000000000000000000000000000000000000000000000000000000FF00FFFF00000000000000000000000000000000000000000000000000000000
310
FF00FFFF00000000000000000000000000000000000000000000000000000000FF00FF00FF000000000000000000000000000000000000000000000000000000FFFFFF00FFFF000000FF000000000000000000000000000000000000000000000000000000FFFFFFFFFF000000000000000000000000000000000000000000
310
00000000000000000000FF000000000000000000000000000000000000000000000000000000000000FFFFFF0000000000000000000000000000000000000000000000000000000000FF00FFFF00000000000000000000000000000000000000000000000000000000FF00FF00000000000000000000000000000000000000
310
0000000000000000000000FF0000000000000000000000000000000000000000000000000000000000000000000000000000000000000000
102
{BLKREFS
331
215
102
}
1001
ACAD
1000
DesignCenter Data
1002
{
1070
     1
1070
     1
1002
}
  0
BLOCK_RECORD
  5
12C
330
1
100
AcDbSymbolTableRecord
100
AcDbBlockTableRecord
  2
elkon
340
0
310
28000000200000002000000001000800000000000004000000000000000000000000000000000000000000004000000080000000FF000000002000004020000080200000FF200000004000004040000080400000FF400000006000004060000080600000FF600000008000004080000080800000FF80000000A0000040A000
310
0080A00000FFA0000000C0000040C0000080C00000FFC0000000FF000040FF000080FF0000FFFF0000000020004000200080002000FF002000002020004020200080202000FF202000004020004040200080402000FF402000006020004060200080602000FF602000008020004080200080802000FF80200000A0200040A0
310
200080A02000FFA0200000C0200040C0200080C02000FFC0200000FF200040FF200080FF2000FFFF2000000040004000400080004000FF004000002040004020400080204000FF204000004040004040400080404000FF404000006040004060400080604000FF604000008040004080400080804000FF80400000A0400040
310
A0400080A04000FFA0400000C0400040C0400080C04000FFC0400000FF400040FF400080FF4000FFFF4000000060004000600080006000FF006000002060004020600080206000FF206000004060004040600080406000FF406000006060004060600080606000FF606000008060004080600080806000FF80600000A06000
310
40A0600080A06000FFA0600000C0600040C0600080C06000FFC0600000FF600040FF600080FF6000FFFF6000000080004000800080008000FF008000002080004020800080208000FF208000004080004040800080408000FF408000006080004060800080608000FF608000008080004080800080808000FF80800000A080
310
0040A0800080A08000FFA0800000C0800040C0800080C08000FFC0800000FF800040FF800080FF8000FFFF80000000A0004000A0008000A000FF00A0000020A0004020A0008020A000FF20A0000040A0004040A0008040A000FF40A0000060A0004060A0008060A000FF60A0000080A0004080A0008080A000FF80A00000A0
310
A00040A0A00080A0A000FFA0A00000C0A00040C0A00080C0A000FFC0A00000FFA00040FFA00080FFA000FFFFA0000000C0004000C0008000C000FF00C0000020C0004020C0008020C000FF20C0000040C0004040C0008040C000FF40C0000060C0004060C0008060C000FF60C0000080C0004080C0008080C000FF80C00000
310
A0C00040A0C00080A0C000FFA0C00000C0C00040C0C00080C0C000FFC0C00000FFC00040FFC00080FFC000FFFFC0000000FF004000FF008000FF00FF00FF000020FF004020FF008020FF00FF20FF000040FF004040FF008040FF00FF40FF000060FF004060FF008060FF00FF60FF000080FF004080FF008080FF00FF80FF00
310
00A0FF0040A0FF0080A0FF00FFA0FF0000C0FF0040C0FF0080C0FF00FFC0FF0000FFFF0040FFFF0080FFFF00FFFFFF000000000000000000000000000000000000000000000000000000000000000000000000000000000000000000000000FF00000000000000000000000000000000000000000000000000000000000000
310
FF00000000000000000000000000000000000000000000000000000000000000FF00000000000000000000000000000000000000000000000000000000000000FF00000000000000000000000000000000000000000000000000000000000000FF000000000000000000000000000000000000000000000000000000000000
310
00FF00000000000000000000000000000000000000000000000000000000000000FF00000000000000000000000000000000000000000000000000000000000000FF00000000000000000000000000000000000000000000000000000000000000FF0000000000000000000000000000000000000000000000000000000000
310
0000FF00000000000000000000000000000000000000000000000000000000000000FF0000000000000000000000000000000000000000FFFFFFFFFFFFFFFFFFFFFFFFFFFFFFFFFFFFFFFFFFFFFFFF0000000000000000FF00000000000000000000000000000000000000000000FF0000000000000000FF00000000000000
310
000000000000000000000000000000FF0000000000000000FFFFFFFFFFFFFFFFFFFFFFFFFFFFFFFFFFFFFFFFFFFFFFFF00000000000000000000000000000000000000000000000000000000000000000000000000000000FFFFFFFFFFFFFFFFFFFFFFFFFFFFFFFFFFFFFFFFFFFFFFFF0000000000000000FF0000FFFFFFFF
310
FFFF000000000000FFFFFFFFFFFF0000FF0000000000000000FF0000000000FFFFFFFFFFFFFFFFFFFFFF000000000000FF0000000000000000FFFFFFFFFFFFFFFFFFFFFFFFFFFFFFFFFFFFFFFFFFFFFFFF00000000000000000000000000000000000000FF0000000000000000000000000000000000000000000000000000
310
0000000000FF00000000000000000000000000000000000000000000000000000000000000FF00000000000000000000000000000000000000000000000000000000000000FF00000000000000000000000000000000000000000000000000000000000000FF00000000000000000000000000000000000000000000000000
310
000000000000FF00000000000000000000000000000000000000000000000000000000000000FF00000000000000000000000000000000000000000000000000000000000000FF00000000000000000000000000000000000000000000000000000000000000FF000000000000000000000000000000000000000000000000
310
00000000000000FF000000000000000000000000000000000000000000000000000000000000000000000000000000000000000000000000
102
{BLKREFS
331
213
331
214
102
}
  0
BLOCK_RECORD
  5
134
330
1
100
AcDbSymbolTableRecord
100
AcDbBlockTableRecord
  2
tri
340
0
310
28000000200000002000000001000800000000000004000000000000000000000000000000000000000000004000000080000000FF000000002000004020000080200000FF200000004000004040000080400000FF400000006000004060000080600000FF600000008000004080000080800000FF80000000A0000040A000
310
0080A00000FFA0000000C0000040C0000080C00000FFC0000000FF000040FF000080FF0000FFFF0000000020004000200080002000FF002000002020004020200080202000FF202000004020004040200080402000FF402000006020004060200080602000FF602000008020004080200080802000FF80200000A0200040A0
310
200080A02000FFA0200000C0200040C0200080C02000FFC0200000FF200040FF200080FF2000FFFF2000000040004000400080004000FF004000002040004020400080204000FF204000004040004040400080404000FF404000006040004060400080604000FF604000008040004080400080804000FF80400000A0400040
310
A0400080A04000FFA0400000C0400040C0400080C04000FFC0400000FF400040FF400080FF4000FFFF4000000060004000600080006000FF006000002060004020600080206000FF206000004060004040600080406000FF406000006060004060600080606000FF606000008060004080600080806000FF80600000A06000
310
40A0600080A06000FFA0600000C0600040C0600080C06000FFC0600000FF600040FF600080FF6000FFFF6000000080004000800080008000FF008000002080004020800080208000FF208000004080004040800080408000FF408000006080004060800080608000FF608000008080004080800080808000FF80800000A080
310
0040A0800080A08000FFA0800000C0800040C0800080C08000FFC0800000FF800040FF800080FF8000FFFF80000000A0004000A0008000A000FF00A0000020A0004020A0008020A000FF20A0000040A0004040A0008040A000FF40A0000060A0004060A0008060A000FF60A0000080A0004080A0008080A000FF80A00000A0
310
A00040A0A00080A0A000FFA0A00000C0A00040C0A00080C0A000FFC0A00000FFA00040FFA00080FFA000FFFFA0000000C0004000C0008000C000FF00C0000020C0004020C0008020C000FF20C0000040C0004040C0008040C000FF40C0000060C0004060C0008060C000FF60C0000080C0004080C0008080C000FF80C00000
310
A0C00040A0C00080A0C000FFA0C00000C0C00040C0C00080C0C000FFC0C00000FFC00040FFC00080FFC000FFFFC0000000FF004000FF008000FF00FF00FF000020FF004020FF008020FF00FF20FF000040FF004040FF008040FF00FF40FF000060FF004060FF008060FF00FF60FF000080FF004080FF008080FF00FF80FF00
310
00A0FF0040A0FF0080A0FF00FFA0FF0000C0FF0040C0FF0080C0FF00FFC0FF0000FFFF0040FFFF0080FFFF00FFFFFF0000000000000000000000000000000000000000000000000000000000000000000000000000000000000000FF00000000000000000000000000000000000000000000000000000000000000FFFF0000
310
0000000000000000000000000000000000000000000000000000FFFF0000FF00000000000000000000000000000000000000000000000000FFFF0000000000FF0000000000000000000000000000000000000000000000FF0000000000000000FF000000000000000000000000000000000000000000FF0000000000000000
310
0000FF00000000000000000000000000000000000000FF000000000000000000000000FF000000000000000000000000000000000000FF00000000000000000000000000FF00000000000000000000000000000000FF000000000000000000000000000000FF000000000000000000000000000000FF000000000000000000
310
00000000000000FF00000000000000000000000000FF000000000000000000000000000000000000FF000000000000000000000000FF00000000000000000000000000000000000000FF00000000000000000000FF000000000000000000000000000000000000000000FF000000000000000000FF00000000000000000000
310
000000000000000000000000FF0000000000000000FF0000000000000000000000000000000000000000000000FF00000000000000FF000000000000000000000000000000000000000000000000FF000000000000FF00000000000000000000000000000000000000000000000000FF000000000000FF0000000000000000
310
0000000000000000000000000000000000FF0000000000FF0000000000000000000000000000000000000000000000000000FF00000000FF0000000000000000000000000000000000000000000000000000FFFF00000000FF00000000000000000000000000000000000000000000000000FF0000000000FF000000000000
310
000000000000000000000000000000000000FF00000000000000FF0000000000000000000000000000000000000000000000FF0000000000000000FF000000000000000000000000000000000000000000FF00000000000000000000FF00000000000000000000000000000000000000FF000000000000000000000000FF00
310
00000000000000000000000000000000FF0000000000000000000000000000FF0000000000000000000000000000FFFF00000000000000000000000000000000FFFF0000000000000000000000FF0000000000000000000000000000000000000000FFFFFFFFFFFFFFFFFFFFFF000000000000000000000000000000000000
310
0000000000000000000000000000000000000000000000000000000000000000000000000000000000000000000000000000000000000000
102
{BLKREFS
331
21F
102
}
  0
BLOCK_RECORD
  5
226
330
1
100
AcDbSymbolTableRecord
100
AcDbBlockTableRecord
  2
*D6
340
0
  0
BLOCK_RECORD
  5
233
330
1
100
AcDbSymbolTableRecord
100
AcDbBlockTableRecord
  2
*D7
340
0
  0
BLOCK_RECORD
  5
28A
330
1
100
AcDbSymbolTableRecord
100
AcDbBlockTableRecord
  2
A$C0E352CD6
340
0
  0
BLOCK_RECORD
  5
309
330
1
100
AcDbSymbolTableRecord
100
AcDbBlockTableRecord
  2
*D11
340
0
  0
ENDTAB
  0
ENDSEC
  0
SECTION
  2
BLOCKS
  0
BLOCK
  5
1F
330
1E
100
AcDbEntity
  8
0
100
AcDbBlockBegin
  2
*Model_Space
 70
     0
 10
0.0
 20
0.0
 30
0.0
  3
*Model_Space
  1

  0
ENDBLK
  5
20
330
1E
100
AcDbEntity
  8
0
100
AcDbBlockEnd
  0
BLOCK
  5
1B
330
1A
100
AcDbEntity
 67
     1
  8
0
100
AcDbBlockBegin
  2
*Paper_Space
 70
     0
 10
0.0
 20
0.0
 30
0.0
  3
*Paper_Space
  1

  0
ENDBLK
  5
1C
330
1A
100
AcDbEntity
 67
     1
  8
0
100
AcDbBlockEnd
  0
BLOCK
  5
119
330
113
100
AcDbEntity
  8
0
100
AcDbBlockBegin
  2
Inductor
 70
     2
 10
0.0
 20
0.0
 30
0.0
  3
Inductor
  1
INDUCTOR
  4
DesignCenter Basic Electronics example
  0
LINE
  5
114
330
113
100
AcDbEntity
  8
0
 62
     7
100
AcDbLine
 10
0.3500000000000001
 20
0.0
 30
0.0
 11
0.3999999999999999
 21
0.0
 31
0.0
  0
ARC
  5
115
330
113
100
AcDbEntity
  8
0
 62
     7
100
AcDbCircle
 10
0.2999999999999998
 20
0.0374999999999997
 30
0.0
 40
0.0625
100
AcDbArc
 50
323.1301
 51
216.8699
  0
LINE
  5
116
330
113
100
AcDbEntity
  8
0
 62
     7
100
AcDbLine
 10
0.0
 20
0.0
 30
0.0
 11
0.0499999999999998
 21
0.0
 31
0.0
  0
ARC
  5
117
330
113
100
AcDbEntity
  8
0
 62
     7
100
AcDbCircle
 10
0.1000000000000001
 20
0.0374999999999997
 30
0.0
 40
0.0625
100
AcDbArc
 50
323.1301
 51
216.8699
  0
ARC
  5
118
330
113
100
AcDbEntity
  8
0
 62
     7
100
AcDbCircle
 10
0.2000000000000002
 20
0.0374999999999997
 30
0.0
 40
0.0625
100
AcDbArc
 50
323.1301
 51
216.8699
  0
ENDBLK
  5
11A
330
113
100
AcDbEntity
  8
0
100
AcDbBlockEnd
  0
BLOCK
  5
11E
330
11B
100
AcDbEntity
  8
0
100
AcDbBlockBegin
  2
conpoint
 70
     0
 10
0.0
 20
0.0
 30
0.0
  3
conpoint
  1

  0
HATCH
  5
11C
330
11B
100
AcDbEntity
  8
0
100
AcDbHatch
 10
0.0
 20
0.0
 30
0.0
210
0.0
220
0.0
230
1.0
  2
SOLID
 70
     1
 71
     1
 91
        1
 92
        1
 93
        1
 72
     2
 10
3.932944225599126
 20
4.517912367231916
 40
0.0251551376970127
 50
0.0
 51
360.0
 73
     1
 97
        1
330
11D
 75
     0
 76
     1
 98
        1
 10
0.0
 20
0.0
  0
CIRCLE
  5
11D
102
{ACAD_REACTORS
330
11C
102
}
330
11B
100
AcDbEntity
  8
0
100
AcDbCircle
 10
3.932944225599126
 20
4.517912367231916
 30
0.0
 40
0.0251551376970127
  0
ENDBLK
  5
11F
330
11B
100
AcDbEntity
  8
0
100
AcDbBlockEnd
  0
BLOCK
  5
124
330
120
100
AcDbEntity
  8
0
100
AcDbBlockBegin
  2
ind
 70
     0
 10
0.0
 20
0.0
 30
0.0
  3
ind
  1

  0
INSERT
  5
121
330
120
100
AcDbEntity
  8
0
100
AcDbBlockReference
  2
Inductor
 10
5.142686818928233
 20
4.506130839892044
 30
0.0
 50
90.0
  0
INSERT
  5
122
330
120
100
AcDbEntity
  8
0
100
AcDbBlockReference
  2
conpoint
 10
1.213283901823427
 20
-0.0258025784579612
 30
0.0
  0
INSERT
  5
123
330
120
100
AcDbEntity
  8
0
100
AcDbBlockReference
  2
conpoint
 10
1.20936500961606
 20
0.4012205201373665
 30
0.0
  0
ENDBLK
  5
125
330
120
100
AcDbEntity
  8
0
100
AcDbBlockEnd
  0
BLOCK
  5
12A
330
126
100
AcDbEntity
  8
0
100
AcDbBlockBegin
  2
rfc
 70
     0
 10
0.0
 20
0.0
 30
0.0
  3
rfc
  1

  0
INSERT
  5
127
330
126
100
AcDbEntity
  8
0
100
AcDbBlockReference
  2
ind
 10
0.0
 20
0.0
 30
0.0
  0
HATCH
  5
128
330
126
100
AcDbEntity
  8
0
100
AcDbHatch
 10
0.0
 20
0.0
 30
0.0
210
0.0
220
0.0
230
1.0
  2
SOLID
 70
     1
 71
     1
 91
        1
 92
        1
 93
        4
 72
     1
 10
5.019171584733157
 20
4.850883942041264
 11
4.991736945333968
 21
4.850883942041264
 72
     1
 10
4.991736945333968
 20
4.850883942041264
 11
4.991736945333968
 21
4.557060643284785
 72
     1
 10
4.991736945333968
 20
4.557060643284785
 11
5.019171584733157
 21
4.557060643284785
 72
     1
 10
5.019171584733157
 20
4.557060643284785
 11
5.019171584733157
 21
4.850883942041264
 97
        1
330
129
 75
     0
 76
     1
 98
        1
 10
0.0
 20
0.0
  0
LWPOLYLINE
  5
129
102
{ACAD_REACTORS
330
128
102
}
330
126
100
AcDbEntity
  8
0
100
AcDbPolyline
 90
        4
 70
     1
 43
0.0
 10
5.019171584733157
 20
4.850883942041264
 10
4.991736945333968
 20
4.850883942041264
 10
4.991736945333968
 20
4.557060643284785
 10
5.019171584733157
 20
4.557060643284785
  0
ENDBLK
  5
12B
330
126
100
AcDbEntity
  8
0
100
AcDbBlockEnd
  0
BLOCK
  5
132
330
12C
100
AcDbEntity
  8
0
100
AcDbBlockBegin
  2
elkon
 70
     0
 10
0.0
 20
0.0
 30
0.0
  3
elkon
  1

  0
LWPOLYLINE
  5
12D
102
{ACAD_REACTORS
330
131
102
}
330
12C
100
AcDbEntity
  8
0
100
AcDbPolyline
 90
        4
 70
     1
 43
0.0
 10
5.277469087657244
 20
7.736467907658294
 10
6.725437308244949
 20
7.736467907658294
 10
6.725437308244949
 20
7.545307269129267
 10
5.277469087657244
 20
7.545307269129267
  0
LWPOLYLINE
  5
12E
330
12C
100
AcDbEntity
  8
0
100
AcDbPolyline
 90
        4
 70
     1
 43
0.0
 10
5.277469087657244
 20
7.381455311208465
 10
6.725437308244949
 20
7.381455311208465
 10
6.725437308244949
 20
7.190294672679439
 10
5.277469087657244
 20
7.190294672679439
  0
LWPOLYLINE
  5
12F
330
12C
100
AcDbEntity
  8
0
100
AcDbPolyline
 90
        2
 70
     0
 43
0.0
 10
5.987793119210273
 20
7.736467907658294
 10
5.987793119210273
 20
8.337258440989323
  0
LWPOLYLINE
  5
130
330
12C
100
AcDbEntity
  8
0
100
AcDbPolyline
 90
        2
 70
     0
 43
0.0
 10
5.987793119210273
 20
7.190294672679439
 10
5.987793119210273
 20
6.507578139433253
  0
HATCH
  5
131
330
12C
100
AcDbEntity
  8
0
100
AcDbHatch
 10
0.0
 20
0.0
 30
0.0
210
0.0
220
0.0
230
1.0
  2
SOLID
 70
     1
 71
     1
 91
        1
 92
        1
 93
        4
 72
     1
 10
5.277469087657244
 20
7.736467907658294
 11
6.725437308244949
 21
7.736467907658294
 72
     1
 10
6.725437308244949
 20
7.736467907658294
 11
6.725437308244949
 21
7.545307269129267
 72
     1
 10
6.725437308244949
 20
7.545307269129267
 11
5.277469087657244
 21
7.545307269129267
 72
     1
 10
5.277469087657244
 20
7.545307269129267
 11
5.277469087657244
 21
7.736467907658294
 97
        1
330
12D
 75
     0
 76
     1
 98
        1
 10
0.0
 20
0.0
  0
ENDBLK
  5
133
330
12C
100
AcDbEntity
  8
0
100
AcDbBlockEnd
  0
BLOCK
  5
137
330
134
100
AcDbEntity
  8
0
100
AcDbBlockBegin
  2
tri
 70
     0
 10
0.0
 20
0.0
 30
0.0
  3
tri
  1

  0
ARC
  5
135
330
134
100
AcDbEntity
  8
CONSTR
370
    50
100
AcDbCircle
 10
8.146085339866083
 20
7.572615928782735
 30
0.0
 40
0.8498249588931228
100
AcDbArc
 50
17.41576346451058
 51
252.8164832811067
  0
LWPOLYLINE
  5
136
330
134
100
AcDbEntity
  8
CONSTR
370
    50
100
AcDbPolyline
 90
        2
 70
     0
 43
0.0
 10
7.888244942516251
 20
6.7539228815622
 10
8.968782859461427
 20
7.838849627961277
  0
ENDBLK
  5
138
330
134
100
AcDbEntity
  8
0
100
AcDbBlockEnd
  0
BLOCK
  5
231
330
226
100
AcDbEntity
  8
0
100
AcDbBlockBegin
  2
*D6
 70
     1
 10
0.0
 20
0.0
 30
0.0
  3
*D6
  1

  0
LINE
  5
240
330
226
100
AcDbEntity
  8
0
 62
     0
370
    -2
100
AcDbLine
 10
-2.33643201070383
 20
16.14121352350991
 30
0.0
 11
-2.33643201070383
 21
17.34285662511495
 31
0.0
  0
LINE
  5
241
330
226
100
AcDbEntity
  8
0
 62
     0
370
    -2
100
AcDbLine
 10
47.66322215884807
 20
16.14121352350991
 30
0.0
 11
47.66322215884807
 21
17.34285662511495
 31
0.0
  0
LINE
  5
242
330
226
100
AcDbEntity
  8
0
 62
     0
370
    -2
100
AcDbLine
 10
-0.536432010703831
 20
17.16285662511495
 30
0.0
 11
20.41339507407212
 21
17.16285662511495
 31
0.0
  0
LINE
  5
243
330
226
100
AcDbEntity
  8
0
 62
     0
370
    -2
100
AcDbLine
 10
45.86322215884807
 20
17.16285662511495
 30
0.0
 11
24.91339507407212
 21
17.16285662511495
 31
0.0
  0
SOLID
  5
244
330
226
100
AcDbEntity
  8
0
 62
     0
100
AcDbTrace
 10
-0.536432010703831
 20
17.46285662511495
 30
0.0
 11
-0.536432010703831
 21
16.86285662511495
 31
0.0
 12
-2.33643201070383
 22
17.16285662511495
 32
0.0
 13
-2.33643201070383
 23
17.16285662511495
 33
0.0
  0
SOLID
  5
245
330
226
100
AcDbEntity
  8
0
 62
     0
100
AcDbTrace
 10
45.86322215884807
 20
17.46285662511495
 30
0.0
 11
45.86322215884807
 21
16.86285662511495
 31
0.0
 12
47.66322215884807
 22
17.16285662511495
 32
0.0
 13
47.66322215884807
 23
17.16285662511495
 33
0.0
  0
MTEXT
  5
246
330
226
100
AcDbEntity
  8
0
 62
     0
100
AcDbMText
 10
22.66339507407212
 20
17.16285662511495
 30
0.0
 40
1.8
 41
0.0
 71
     5
 72
     1
  1
\A1;50
 73
     1
 44
1.0
  0
POINT
  5
247
330
226
100
AcDbEntity
  8
Defpoints
 62
     0
100
AcDbPoint
 10
-2.33643201070383
 20
16.07871352350992
 30
0.0
  0
POINT
  5
248
330
226
100
AcDbEntity
  8
Defpoints
 62
     0
100
AcDbPoint
 10
47.66322215884807
 20
16.07871352350992
 30
0.0
  0
POINT
  5
249
330
226
100
AcDbEntity
  8
Defpoints
 62
     0
100
AcDbPoint
 10
47.66322215884807
 20
17.16285662511495
 30
0.0
  0
ENDBLK
  5
232
330
226
100
AcDbEntity
  8
0
100
AcDbBlockEnd
  0
BLOCK
  5
23E
330
233
100
AcDbEntity
  8
0
100
AcDbBlockBegin
  2
*D7
 70
     1
 10
0.0
 20
0.0
 30
0.0
  3
*D7
  1

  0
LINE
  5
385
330
233
100
AcDbEntity
  8
Defpoints
 62
     0
370
    -2
100
AcDbLine
 10
49.08146114318796
 20
15.26560617923244
 30
0.0
 11
51.69352090457213
 21
15.26560617923244
 31
0.0
  0
LINE
  5
386
330
233
100
AcDbEntity
  8
Defpoints
 62
     0
370
    -2
100
AcDbLine
 10
49.08146114318796
 20
-24.68506722696998
 30
0.0
 11
51.69352090457212
 21
-24.68506722696998
 31
0.0
  0
LINE
  5
387
330
233
100
AcDbEntity
  8
Defpoints
 62
     0
370
    -2
100
AcDbLine
 10
51.51352090457212
 20
13.46560617923244
 30
0.0
 11
51.51352090457212
 21
-2.909730523868768
 31
0.0
  0
LINE
  5
388
330
233
100
AcDbEntity
  8
Defpoints
 62
     0
370
    -2
100
AcDbLine
 10
51.51352090457212
 20
-22.88506722696998
 30
0.0
 11
51.51352090457212
 21
-6.509730523868768
 31
0.0
  0
SOLID
  5
389
330
233
100
AcDbEntity
  8
Defpoints
 62
     0
100
AcDbTrace
 10
51.21352090457213
 20
13.46560617923244
 30
0.0
 11
51.81352090457212
 21
13.46560617923244
 31
0.0
 12
51.51352090457212
 22
15.26560617923244
 32
0.0
 13
51.51352090457212
 23
15.26560617923244
 33
0.0
  0
SOLID
  5
38A
330
233
100
AcDbEntity
  8
Defpoints
 62
     0
100
AcDbTrace
 10
51.21352090457212
 20
-22.88506722696998
 30
0.0
 11
51.81352090457211
 21
-22.88506722696998
 31
0.0
 12
51.51352090457212
 22
-24.68506722696998
 32
0.0
 13
51.51352090457212
 23
-24.68506722696998
 33
0.0
  0
MTEXT
  5
38B
330
233
100
AcDbEntity
  8
Defpoints
 62
     0
100
AcDbMText
 10
51.51352090457212
 20
-4.70973052386876
 30
0.0
 40
1.8
 41
0.0
 71
     5
 72
     1
  1
\A1;40
 73
     1
 44
1.0
  0
POINT
  5
38C
330
233
100
AcDbEntity
  8
Defpoints
 62
     0
100
AcDbPoint
 10
49.01896114318796
 20
15.26560617923244
 30
0.0
  0
POINT
  5
38D
330
233
100
AcDbEntity
  8
Defpoints
 62
     0
100
AcDbPoint
 10
49.01896114318796
 20
-24.68506722696998
 30
0.0
  0
POINT
  5
38E
330
233
100
AcDbEntity
  8
Defpoints
 62
     0
100
AcDbPoint
 10
51.51352090457212
 20
-24.68506722696998
 30
0.0
  0
ENDBLK
  5
23F
330
233
100
AcDbEntity
  8
0
100
AcDbBlockEnd
  0
BLOCK
  5
28E
330
28A
100
AcDbEntity
  8
0
100
AcDbBlockBegin
  2
A$C0E352CD6
 70
     0
 10
0.0
 20
0.0
 30
0.0
  3
A$C0E352CD6
  1

  0
SOLID
  5
28B
330
28A
100
AcDbEntity
  8
METAL1
100
AcDbTrace
 10
1.199999992488876
 20
1.199999983694086
 30
0.0
 11
1.199999992488876
 21
-0.0000000163059131
 31
0.0
 12
-0.0000000075111224
 22
1.199999983694086
 32
0.0
 13
-0.0000000075111224
 23
-0.0000000163059131
 33
0.0
  0
LWPOLYLINE
  5
28C
330
28A
100
AcDbEntity
  8
GND
100
AcDbPolyline
 90
        2
 70
     0
 43
0.2
 10
0.5999999924888791
 20
0.1999999836940867
 42
1.0
 10
0.5999999924888791
 20
0.9999999836940867
  0
LWPOLYLINE
  5
28D
330
28A
100
AcDbEntity
  8
GND
100
AcDbPolyline
 90
        2
 70
     0
 43
0.2
 10
0.5999999924888791
 20
0.9999999836940867
 42
1.0
 10
0.5999999924888791
 20
0.1999999836940867
  0
ENDBLK
  5
28F
330
28A
100
AcDbEntity
  8
0
100
AcDbBlockEnd
  0
BLOCK
  5
314
330
309
100
AcDbEntity
  8
0
100
AcDbBlockBegin
  2
*D11
 70
     1
 10
0.0
 20
0.0
 30
0.0
  3
*D11
  1

  0
LINE
  5
37B
330
309
100
AcDbEntity
  8
Defpoints
 62
     0
370
    -2
100
AcDbLine
 10
-7.34487503331195
 20
16.4418330797631
 30
0.0
 11
-7.34487503331195
 21
16.89050391009163
 31
0.0
  0
LINE
  5
37C
330
309
100
AcDbEntity
  8
Defpoints
 62
     0
370
    -2
100
AcDbLine
 10
47.65383090575366
 20
16.4418330797631
 30
0.0
 11
47.65383090575366
 21
16.89050391009163
 31
0.0
  0
LINE
  5
37D
330
309
100
AcDbEntity
  8
Defpoints
 62
     0
370
    -2
100
AcDbLine
 10
-5.54487503331195
 20
16.71050391009163
 30
0.0
 11
18.56447793622085
 21
16.71050391009163
 31
0.0
  0
LINE
  5
37E
330
309
100
AcDbEntity
  8
Defpoints
 62
     0
370
    -2
100
AcDbLine
 10
45.85383090575366
 20
16.71050391009163
 30
0.0
 11
21.74447793622085
 21
16.71050391009163
 31
0.0
  0
SOLID
  5
37F
330
309
100
AcDbEntity
  8
Defpoints
 62
     0
100
AcDbTrace
 10
-5.54487503331195
 20
17.01050391009163
 30
0.0
 11
-5.54487503331195
 21
16.41050391009163
 31
0.0
 12
-7.34487503331195
 22
16.71050391009163
 32
0.0
 13
-7.34487503331195
 23
16.71050391009163
 33
0.0
  0
SOLID
  5
380
330
309
100
AcDbEntity
  8
Defpoints
 62
     0
100
AcDbTrace
 10
45.85383090575366
 20
17.01050391009163
 30
0.0
 11
45.85383090575366
 21
16.41050391009163
 31
0.0
 12
47.65383090575366
 22
16.71050391009163
 32
0.0
 13
47.65383090575366
 23
16.71050391009163
 33
0.0
  0
MTEXT
  5
381
330
309
100
AcDbEntity
  8
Defpoints
 62
     0
100
AcDbMText
 10
20.15447793622085
 20
16.71050391009163
 30
0.0
 40
1.8
 41
0.0
 71
     5
 72
     1
  1
\A1;55
 73
     1
 44
1.0
  0
POINT
  5
382
330
309
100
AcDbEntity
  8
Defpoints
 62
     0
100
AcDbPoint
 10
-7.34487503331195
 20
16.3793330797631
 30
0.0
  0
POINT
  5
383
330
309
100
AcDbEntity
  8
Defpoints
 62
     0
100
AcDbPoint
 10
47.65383090575366
 20
16.3793330797631
 30
0.0
  0
POINT
  5
384
330
309
100
AcDbEntity
  8
Defpoints
 62
     0
100
AcDbPoint
 10
47.65383090575366
 20
16.71050391009163
 30
0.0
  0
ENDBLK
  5
315
330
309
100
AcDbEntity
  8
0
100
AcDbBlockEnd
  0
ENDSEC
  0
SECTION
  2
ENTITIES
  0
SOLID
  5
23
330
1E
100
AcDbEntity
  8
METAL1
100
AcDbTrace
 10
-5.240890000880625
 20
1.537419232302587
 30
0.0
 11
-0.2408900008806256
 21
1.537419232302587
 31
0.0
 12
-5.240890000880625
 22
-1.162580767697411
 32
0.0
 13
-0.2408900008806256
 23
-1.162580767697411
 33
0.0
  0
SOLID
  5
3D
330
1E
100
AcDbEntity
  8
METAL1
100
AcDbTrace
 10
10.75964756529395
 20
2.717290837536456
 30
0.0
 11
8.559647565293948
 21
2.717290837536456
 31
0.0
 12
10.75964756529395
 22
5.117290837536454
 32
0.0
 13
8.559647565293948
 23
5.117290837536454
 33
0.0
  0
SOLID
  5
3E
330
1E
100
AcDbEntity
  8
METAL1
100
AcDbTrace
 10
14.59999999999999
 20
-1.199999999999999
 30
0.0
 11
12.4
 21
-1.199999999999999
 31
0.0
 12
14.59999999999999
 22
1.199999999999999
 32
0.0
 13
12.4
 23
1.199999999999999
 33
0.0
  0
SOLID
  5
52
330
1E
100
AcDbEntity
  8
CONSTR
100
AcDbTrace
 10
21.625
 20
2.5
 30
0.0
 11
21.625
 21
-0.1
 31
0.0
 12
21.575
 22
2.5
 32
0.0
 13
21.575
 23
-0.1
 33
0.0
  0
SOLID
  5
53
330
1E
100
AcDbEntity
  8
METAL1
100
AcDbTrace
 10
15.8
 20
-1.199999999999999
 30
0.0
 11
13.6
 21
-1.199999999999999
 31
0.0
 12
15.8
 22
1.199999999999999
 32
0.0
 13
13.6
 23
1.199999999999999
 33
0.0
  0
SOLID
  5
54
330
1E
100
AcDbEntity
  8
METAL1
100
AcDbTrace
 10
22.1
 20
-1.199999999999999
 30
0.0
 11
19.9
 21
-1.199999999999999
 31
0.0
 12
22.1
 22
1.199999999999999
 32
0.0
 13
19.9
 23
1.199999999999999
 33
0.0
  0
SOLID
  5
64
330
1E
100
AcDbEntity
  8
METAL1
100
AcDbTrace
 10
22.39999999999999
 20
0.125
 30
0.0
 11
23.19999999999999
 21
0.125
 31
0.0
 12
22.39999999999999
 22
-0.125
 32
0.0
 13
23.19999999999999
 23
-0.125
 33
0.0
  0
SOLID
  5
65
330
1E
100
AcDbEntity
  8
METAL1
100
AcDbTrace
 10
22.39999999999999
 20
-0.125
 30
0.0
 11
21.6
 21
-0.125
 31
0.0
 12
22.39999999999999
 22
0.125
 32
0.0
 13
21.6
 23
0.125
 33
0.0
  0
SOLID
  5
66
330
1E
100
AcDbEntity
  8
METAL1
100
AcDbTrace
 10
21.6
 20
0.0
 30
0.0
 11
21.6
 21
0.125
 31
0.0
 12
23.19999999999999
 22
0.0
 32
0.0
 13
23.19999999999999
 23
0.125
 33
0.0
  0
SOLID
  5
67
330
1E
100
AcDbEntity
  8
METAL1
100
AcDbTrace
 10
23.19999999999999
 20
0.5
 30
0.0
 11
23.9
 21
0.5
 31
0.0
 12
23.19999999999999
 22
-0.5
 32
0.0
 13
23.9
 23
-0.5
 33
0.0
  0
SOLID
  5
77
330
1E
100
AcDbEntity
  8
CONSTR
100
AcDbTrace
 10
23.875
 20
-2.41
 30
0.0
 11
23.875
 21
0.0
 31
0.0
 12
23.925
 22
-2.41
 32
0.0
 13
23.925
 23
0.0
 33
0.0
  0
SOLID
  5
78
330
1E
100
AcDbEntity
  8
CONSTR
100
AcDbTrace
 10
23.875
 20
0.0
 30
0.0
 11
23.875
 21
0.51
 31
0.0
 12
23.925
 22
0.0
 32
0.0
 13
23.925
 23
0.51
 33
0.0
  0
SOLID
  5
79
330
1E
100
AcDbEntity
  8
CONSTR
100
AcDbTrace
 10
23.9
 20
0.5350000000000001
 30
0.0
 11
25.19
 21
0.5350000000000001
 31
0.0
 12
23.9
 22
0.485
 32
0.0
 13
25.19
 23
0.485
 33
0.0
  0
SOLID
  5
7A
330
1E
100
AcDbEntity
  8
CONSTR
100
AcDbTrace
 10
25.215
 20
0.51
 30
0.0
 11
25.215
 21
-2.41
 31
0.0
 12
25.165
 22
0.51
 32
0.0
 13
25.165
 23
-2.41
 33
0.0
  0
SOLID
  5
7B
330
1E
100
AcDbEntity
  8
CONSTR
100
AcDbTrace
 10
25.19
 20
-2.435
 30
0.0
 11
23.9
 21
-2.435
 31
0.0
 12
25.19
 22
-2.384999999999999
 32
0.0
 13
23.9
 23
-2.384999999999999
 33
0.0
  0
SOLID
  5
7C
330
1E
100
AcDbEntity
  8
CONSTR
100
AcDbTrace
 10
23.91
 20
-0.22
 30
0.0
 11
23.41
 21
-0.22
 31
0.0
 12
23.91
 22
0.22
 32
0.0
 13
23.41
 23
0.22
 33
0.0
  0
SOLID
  5
7D
330
1E
100
AcDbEntity
  8
METAL1
100
AcDbTrace
 10
24.03
 20
-0.425
 30
0.0
 11
23.18
 21
-0.425
 31
0.0
 12
24.03
 22
0.425
 32
0.0
 13
23.18
 23
0.425
 33
0.0
  0
SOLID
  5
7E
330
1E
100
AcDbEntity
  8
CONSTR
100
AcDbTrace
 10
23.9
 20
-2.12
 30
0.0
 11
23.39999999999999
 21
-2.12
 31
0.0
 12
23.9
 22
-1.679999999999999
 32
0.0
 13
23.39999999999999
 23
-1.679999999999999
 33
0.0
  0
SOLID
  5
7F
330
1E
100
AcDbEntity
  8
METAL1
100
AcDbTrace
 10
24.03
 20
-2.325
 30
0.0
 11
23.18
 21
-2.325
 31
0.0
 12
24.03
 22
-1.475
 32
0.0
 13
23.18
 23
-1.475
 33
0.0
  0
SOLID
  5
80
330
1E
100
AcDbEntity
  8
CONSTR
100
AcDbTrace
 10
25.19
 20
-1.27
 30
0.0
 11
25.69
 21
-1.27
 31
0.0
 12
25.19
 22
-2.129999999999999
 32
0.0
 13
25.69
 23
-2.129999999999999
 33
0.0
  0
SOLID
  5
81
330
1E
100
AcDbEntity
  8
METAL1
100
AcDbTrace
 10
25.07
 20
-1.1
 30
0.0
 11
25.92
 21
-1.1
 31
0.0
 12
25.07
 22
-2.299999999999999
 32
0.0
 13
25.92
 23
-2.299999999999999
 33
0.0
  0
SOLID
  5
82
330
1E
100
AcDbEntity
  8
CONSTR
100
AcDbTrace
 10
25.19
 20
0.22
 30
0.0
 11
25.69
 21
0.22
 31
0.0
 12
25.19
 22
-0.22
 32
0.0
 13
25.69
 23
-0.22
 33
0.0
  0
SOLID
  5
83
330
1E
100
AcDbEntity
  8
METAL1
100
AcDbTrace
 10
25.07
 20
0.425
 30
0.0
 11
25.92
 21
0.425
 31
0.0
 12
25.07
 22
-0.425
 32
0.0
 13
25.92
 23
-0.425
 33
0.0
  0
SOLID
  5
93
330
1E
100
AcDbEntity
  8
METAL1
100
AcDbTrace
 10
25.19
 20
-1.1
 30
0.0
 11
26.69
 21
-1.1
 31
0.0
 12
25.19
 22
-2.299999999999999
 32
0.0
 13
26.69
 23
-2.299999999999999
 33
0.0
  0
SOLID
  5
94
330
1E
100
AcDbEntity
  8
METAL1
100
AcDbTrace
 10
27.49
 20
-2.299999999999999
 30
0.0
 11
26.69
 21
-2.299999999999999
 31
0.0
 12
27.49
 22
-1.1
 32
0.0
 13
26.69
 23
-1.1
 33
0.0
  0
SOLID
  5
95
330
1E
100
AcDbEntity
  8
METAL1
100
AcDbTrace
 10
27.49
 20
-0.9
 30
0.0
 11
28.29
 21
-0.9
 31
0.0
 12
27.49
 22
-2.5
 32
0.0
 13
28.29
 23
-2.5
 33
0.0
  0
SOLID
  5
96
330
1E
100
AcDbEntity
  8
METAL1
100
AcDbTrace
 10
26.69
 20
-1.7
 30
0.0
 11
26.69
 21
-0.9
 31
0.0
 12
28.29
 22
-1.7
 32
0.0
 13
28.29
 23
-0.9
 33
0.0
  0
SOLID
  5
97
330
1E
100
AcDbEntity
  8
METAL1
100
AcDbTrace
 10
27.61499999999999
 20
-1.7
 30
0.0
 11
27.61499999999999
 21
-2.5
 31
0.0
 12
27.36499999999999
 22
-1.7
 32
0.0
 13
27.36499999999999
 23
-2.5
 33
0.0
  0
SOLID
  5
98
330
1E
100
AcDbEntity
  8
METAL1
100
AcDbTrace
 10
26.6518
 20
-1.55
 30
0.0
 11
26.6518
 21
-0.4324
 31
0.0
 12
28.32819999999999
 22
-1.55
 32
0.0
 13
28.32819999999999
 23
-0.4324
 33
0.0
  0
SOLID
  5
99
330
1E
100
AcDbEntity
  8
METAL1
100
AcDbTrace
 10
26.6518
 20
1.399999999999999
 30
0.0
 11
26.6518
 21
2.517599999999999
 31
0.0
 12
28.32819999999999
 22
1.399999999999999
 32
0.0
 13
28.32819999999999
 23
2.517599999999999
 33
0.0
  0
SOLID
  5
9A
330
1E
100
AcDbEntity
  8
CONSTR
100
AcDbTrace
 10
26.69
 20
-1.074999999999999
 30
0.0
 11
28.29
 21
-1.074999999999999
 31
0.0
 12
26.69
 22
-1.125
 32
0.0
 13
28.29
 23
-1.125
 33
0.0
  0
SOLID
  5
9B
330
1E
100
AcDbEntity
  8
CONSTR
100
AcDbTrace
 10
26.665
 20
-1.1
 30
0.0
 11
26.665
 21
2.1
 31
0.0
 12
26.71499999999999
 22
-1.1
 32
0.0
 13
26.71499999999999
 23
2.1
 33
0.0
  0
SOLID
  5
9C
330
1E
100
AcDbEntity
  8
CONSTR
100
AcDbTrace
 10
28.265
 20
-1.1
 30
0.0
 11
28.265
 21
2.1
 31
0.0
 12
28.315
 22
-1.1
 32
0.0
 13
28.315
 23
2.1
 33
0.0
  0
SOLID
  5
9D
330
1E
100
AcDbEntity
  8
CONSTR
100
AcDbTrace
 10
26.69
 20
2.125
 30
0.0
 11
28.29
 21
2.125
 31
0.0
 12
26.69
 22
2.075
 32
0.0
 13
28.29
 23
2.075
 33
0.0
  0
SOLID
  5
9E
330
1E
100
AcDbEntity
  8
METAL1
100
AcDbTrace
 10
27.36499999999999
 20
1.9
 30
0.0
 11
27.36499999999999
 21
2.9
 31
0.0
 12
27.61499999999999
 22
1.9
 32
0.0
 13
27.61499999999999
 23
2.9
 33
0.0
  0
SOLID
  5
9F
330
1E
100
AcDbEntity
  8
METAL1
100
AcDbTrace
 10
27.36499999999999
 20
2.9
 30
0.0
 11
27.36499999999999
 21
3.149999999999999
 31
0.0
 12
27.36499999999999
 22
2.9
 32
0.0
 13
27.61499999999999
 23
2.9
 33
0.0
  0
SOLID
  5
A0
330
1E
100
AcDbEntity
  8
METAL1
100
AcDbTrace
 10
22.665
 20
3.149999999999999
 30
0.0
 11
27.36499999999999
 21
3.149999999999999
 31
0.0
 12
22.665
 22
2.9
 32
0.0
 13
27.36499999999999
 23
2.9
 33
0.0
  0
SOLID
  5
A1
330
1E
100
AcDbEntity
  8
METAL1
100
AcDbTrace
 10
22.665
 20
2.9
 30
0.0
 11
22.41499999999999
 21
2.9
 31
0.0
 12
22.665
 22
2.9
 32
0.0
 13
22.665
 23
3.149999999999999
 33
0.0
  0
SOLID
  5
A2
330
1E
100
AcDbEntity
  8
METAL1
100
AcDbTrace
 10
21.5618
 20
-0.525
 30
0.0
 11
21.5618
 21
0.5926000000000001
 31
0.0
 12
23.23819999999999
 22
-0.525
 32
0.0
 13
23.23819999999999
 23
0.5926000000000001
 33
0.0
  0
SOLID
  5
A3
330
1E
100
AcDbEntity
  8
METAL1
100
AcDbTrace
 10
21.5618
 20
2.424999999999999
 30
0.0
 11
21.5618
 21
3.5426
 31
0.0
 12
23.23819999999999
 22
2.424999999999999
 32
0.0
 13
23.23819999999999
 23
3.5426
 33
0.0
  0
SOLID
  5
A4
330
1E
100
AcDbEntity
  8
CONSTR
100
AcDbTrace
 10
21.6
 20
-0.05
 30
0.0
 11
23.19999999999999
 21
-0.05
 31
0.0
 12
21.6
 22
-0.1
 32
0.0
 13
23.19999999999999
 23
-0.1
 33
0.0
  0
SOLID
  5
A5
330
1E
100
AcDbEntity
  8
CONSTR
100
AcDbTrace
 10
21.575
 20
-0.075
 30
0.0
 11
21.575
 21
3.125
 31
0.0
 12
21.625
 22
-0.075
 32
0.0
 13
21.625
 23
3.125
 33
0.0
  0
SOLID
  5
A6
330
1E
100
AcDbEntity
  8
CONSTR
100
AcDbTrace
 10
23.175
 20
-0.075
 30
0.0
 11
23.175
 21
3.125
 31
0.0
 12
23.225
 22
-0.075
 32
0.0
 13
23.225
 23
3.125
 33
0.0
  0
SOLID
  5
A7
330
1E
100
AcDbEntity
  8
CONSTR
100
AcDbTrace
 10
21.6
 20
3.149999999999999
 30
0.0
 11
23.19999999999999
 21
3.149999999999999
 31
0.0
 12
21.6
 22
3.1
 32
0.0
 13
23.19999999999999
 23
3.1
 33
0.0
  0
SOLID
  5
A8
330
1E
100
AcDbEntity
  8
METAL1
100
AcDbTrace
 10
27.64
 20
-0.8618
 30
0.0
 11
28.7576
 21
-0.8618
 31
0.0
 12
27.64
 22
-2.538199999999999
 32
0.0
 13
28.7576
 23
-2.538199999999999
 33
0.0
  0
SOLID
  5
A9
330
1E
100
AcDbEntity
  8
METAL1
100
AcDbTrace
 10
30.59
 20
-0.8618
 30
0.0
 11
31.7076
 21
-0.8618
 31
0.0
 12
30.59
 22
-2.538199999999999
 32
0.0
 13
31.7076
 23
-2.538199999999999
 33
0.0
  0
SOLID
  5
AA
330
1E
100
AcDbEntity
  8
CONSTR
100
AcDbTrace
 10
28.115
 20
-0.9
 30
0.0
 11
28.115
 21
-2.5
 31
0.0
 12
28.065
 22
-0.9
 32
0.0
 13
28.065
 23
-2.5
 33
0.0
  0
SOLID
  5
AB
330
1E
100
AcDbEntity
  8
CONSTR
100
AcDbTrace
 10
28.09
 20
-0.875
 30
0.0
 11
31.29
 21
-0.875
 31
0.0
 12
28.09
 22
-0.925
 32
0.0
 13
31.29
 23
-0.925
 33
0.0
  0
SOLID
  5
AC
330
1E
100
AcDbEntity
  8
CONSTR
100
AcDbTrace
 10
28.09
 20
-2.475
 30
0.0
 11
31.29
 21
-2.475
 31
0.0
 12
28.09
 22
-2.524999999999999
 32
0.0
 13
31.29
 23
-2.524999999999999
 33
0.0
  0
SOLID
  5
AD
330
1E
100
AcDbEntity
  8
CONSTR
100
AcDbTrace
 10
31.315
 20
-0.9
 30
0.0
 11
31.315
 21
-2.5
 31
0.0
 12
31.265
 22
-0.9
 32
0.0
 13
31.265
 23
-2.5
 33
0.0
  0
SOLID
  5
AE
330
1E
100
AcDbEntity
  8
METAL1
100
AcDbTrace
 10
31.08999999999999
 20
-0.35
 30
0.0
 11
46.09
 21
-0.35
 31
0.0
 12
31.08999999999999
 22
-3.049999999999999
 32
0.0
 13
46.09
 23
-3.049999999999999
 33
0.0
  0
SOLID
  5
AF
330
1E
100
AcDbEntity
  8
METAL1
100
AcDbTrace
 10
27.36499999999999
 20
-20.5
 30
0.0
 11
27.36499999999999
 21
-2.5
 31
0.0
 12
27.61499999999999
 22
-20.5
 32
0.0
 13
27.61499999999999
 23
-2.5
 33
0.0
  0
SOLID
  5
B0
330
1E
100
AcDbEntity
  8
METAL1
100
AcDbTrace
 10
27.61499999999999
 20
-20.5
 30
0.0
 11
27.61499999999999
 21
-20.75
 31
0.0
 12
27.36499999999999
 22
-20.5
 32
0.0
 13
27.36499999999999
 23
-20.75
 33
0.0
  0
SOLID
  5
B1
330
1E
100
AcDbEntity
  8
METAL1
100
AcDbTrace
 10
43.144
 20
-20.75
 30
0.0
 11
27.61499999999999
 21
-20.75
 31
0.0
 12
43.144
 22
-20.5
 32
0.0
 13
27.61499999999999
 23
-20.5
 33
0.0
  0
SOLID
  5
B2
330
1E
100
AcDbEntity
  8
METAL1
100
AcDbTrace
 10
43.144
 20
-20.5
 30
0.0
 11
43.394
 21
-20.5
 31
0.0
 12
43.144
 22
-20.75
 32
0.0
 13
43.394
 23
-20.75
 33
0.0
  0
SOLID
  5
B3
330
1E
100
AcDbEntity
  8
METAL1
100
AcDbTrace
 10
43.144
 20
-20.5
 30
0.0
 11
43.144
 21
-18.5
 31
0.0
 12
43.394
 22
-20.5
 32
0.0
 13
43.394
 23
-18.5
 33
0.0
  0
SOLID
  5
B4
330
1E
100
AcDbEntity
  8
METAL1
100
AcDbTrace
 10
42.469
 20
-17.7
 30
0.0
 11
42.469
 21
-16.89999999999999
 31
0.0
 12
44.069
 22
-17.7
 32
0.0
 13
44.069
 23
-16.89999999999999
 33
0.0
  0
SOLID
  5
B5
330
1E
100
AcDbEntity
  8
METAL1
100
AcDbTrace
 10
44.069
 20
-17.7
 30
0.0
 11
44.069
 21
-18.5
 31
0.0
 12
42.469
 22
-17.7
 32
0.0
 13
42.469
 23
-18.5
 33
0.0
  0
SOLID
  5
B6
330
1E
100
AcDbEntity
  8
METAL1
100
AcDbTrace
 10
43.269
 20
-18.5
 30
0.0
 11
42.469
 21
-18.5
 31
0.0
 12
43.269
 22
-16.89999999999999
 32
0.0
 13
42.469
 23
-16.89999999999999
 33
0.0
  0
SOLID
  5
B7
330
1E
100
AcDbEntity
  8
METAL1
100
AcDbTrace
 10
44.1072
 20
-13.44999999999999
 30
0.0
 11
44.1072
 21
-14.5676
 31
0.0
 12
42.43079999999999
 22
-13.44999999999999
 32
0.0
 13
42.43079999999999
 23
-14.5676
 33
0.0
  0
SOLID
  5
B8
330
1E
100
AcDbEntity
  8
METAL1
100
AcDbTrace
 10
44.1072
 20
-16.39999999999999
 30
0.0
 11
44.1072
 21
-17.5176
 31
0.0
 12
42.43079999999999
 22
-16.39999999999999
 32
0.0
 13
42.43079999999999
 23
-17.5176
 33
0.0
  0
SOLID
  5
B9
330
1E
100
AcDbEntity
  8
CONSTR
100
AcDbTrace
 10
44.069
 20
-13.925
 30
0.0
 11
42.469
 21
-13.925
 31
0.0
 12
44.069
 22
-13.875
 32
0.0
 13
42.469
 23
-13.875
 33
0.0
  0
SOLID
  5
BA
330
1E
100
AcDbEntity
  8
CONSTR
100
AcDbTrace
 10
44.094
 20
-13.9
 30
0.0
 11
44.094
 21
-17.1
 31
0.0
 12
44.04399999999999
 22
-13.9
 32
0.0
 13
44.04399999999999
 23
-17.1
 33
0.0
  0
SOLID
  5
BB
330
1E
100
AcDbEntity
  8
CONSTR
100
AcDbTrace
 10
42.494
 20
-13.9
 30
0.0
 11
42.494
 21
-17.1
 31
0.0
 12
42.444
 22
-13.9
 32
0.0
 13
42.444
 23
-17.1
 33
0.0
  0
SOLID
  5
BC
330
1E
100
AcDbEntity
  8
CONSTR
100
AcDbTrace
 10
44.069
 20
-17.125
 30
0.0
 11
42.469
 21
-17.125
 31
0.0
 12
44.069
 22
-17.075
 32
0.0
 13
42.469
 23
-17.075
 33
0.0
  0
SOLID
  5
BD
330
1E
100
AcDbEntity
  8
METAL1
100
AcDbTrace
 10
42.469
 20
-13.3
 30
0.0
 11
42.469
 21
-12.5
 31
0.0
 12
44.069
 22
-13.3
 32
0.0
 13
44.069
 23
-12.5
 33
0.0
  0
SOLID
  5
BE
330
1E
100
AcDbEntity
  8
METAL1
100
AcDbTrace
 10
44.069
 20
-13.3
 30
0.0
 11
44.069
 21
-14.1
 31
0.0
 12
42.469
 22
-13.3
 32
0.0
 13
42.469
 23
-14.1
 33
0.0
  0
SOLID
  5
BF
330
1E
100
AcDbEntity
  8
METAL1
100
AcDbTrace
 10
43.269
 20
-14.1
 30
0.0
 11
42.469
 21
-14.1
 31
0.0
 12
43.269
 22
-12.5
 32
0.0
 13
42.469
 23
-12.5
 33
0.0
  0
SOLID
  5
C0
330
1E
100
AcDbEntity
  8
METAL1
100
AcDbTrace
 10
43.119
 20
-14.1382
 30
0.0
 11
42.0014
 21
-14.1382
 31
0.0
 12
43.119
 22
-12.4618
 32
0.0
 13
42.0014
 23
-12.4618
 33
0.0
  0
SOLID
  5
C1
330
1E
100
AcDbEntity
  8
METAL1
100
AcDbTrace
 10
40.16899999999999
 20
-14.1382
 30
0.0
 11
39.0514
 21
-14.1382
 31
0.0
 12
40.16899999999999
 22
-12.4618
 32
0.0
 13
39.0514
 23
-12.4618
 33
0.0
  0
SOLID
  5
C2
330
1E
100
AcDbEntity
  8
CONSTR
100
AcDbTrace
 10
42.644
 20
-14.1
 30
0.0
 11
42.644
 21
-12.5
 31
0.0
 12
42.694
 22
-14.1
 32
0.0
 13
42.694
 23
-12.5
 33
0.0
  0
SOLID
  5
C3
330
1E
100
AcDbEntity
  8
CONSTR
100
AcDbTrace
 10
42.66899999999999
 20
-14.125
 30
0.0
 11
39.469
 21
-14.125
 31
0.0
 12
42.66899999999999
 22
-14.07499999999999
 32
0.0
 13
39.469
 23
-14.07499999999999
 33
0.0
  0
SOLID
  5
C4
330
1E
100
AcDbEntity
  8
CONSTR
100
AcDbTrace
 10
42.66899999999999
 20
-12.525
 30
0.0
 11
39.469
 21
-12.525
 31
0.0
 12
42.66899999999999
 22
-12.475
 32
0.0
 13
39.469
 23
-12.475
 33
0.0
  0
SOLID
  5
C5
330
1E
100
AcDbEntity
  8
CONSTR
100
AcDbTrace
 10
39.444
 20
-14.1
 30
0.0
 11
39.444
 21
-12.5
 31
0.0
 12
39.494
 22
-14.1
 32
0.0
 13
39.494
 23
-12.5
 33
0.0
  0
SOLID
  5
C6
330
1E
100
AcDbEntity
  8
METAL1
100
AcDbTrace
 10
39.66899999999999
 20
-14.1
 30
0.0
 11
38.069
 21
-14.1
 31
0.0
 12
39.66899999999999
 22
-12.5
 32
0.0
 13
38.069
 23
-12.5
 33
0.0
  0
LWPOLYLINE
  5
C8
330
1E
100
AcDbEntity
  8
GND
100
AcDbPolyline
 90
        2
 70
     0
 43
0.2
 10
38.869
 20
-13.7
 42
1.0
 10
38.869
 20
-12.9
  0
LWPOLYLINE
  5
CC
330
1E
100
AcDbEntity
  8
GND
100
AcDbPolyline
 90
        2
 70
     0
 43
0.2
 10
38.869
 20
-12.9
 42
1.0
 10
38.869
 20
-13.7
  0
SOLID
  5
D0
330
1E
100
AcDbEntity
  8
METAL1
100
AcDbTrace
 10
43.119
 20
-18.53819999999999
 30
0.0
 11
42.0014
 21
-18.53819999999999
 31
0.0
 12
43.119
 22
-16.8618
 32
0.0
 13
42.0014
 23
-16.8618
 33
0.0
  0
SOLID
  5
D1
330
1E
100
AcDbEntity
  8
METAL1
100
AcDbTrace
 10
40.16899999999999
 20
-18.53819999999999
 30
0.0
 11
39.0514
 21
-18.53819999999999
 31
0.0
 12
40.16899999999999
 22
-16.8618
 32
0.0
 13
39.0514
 23
-16.8618
 33
0.0
  0
SOLID
  5
D2
330
1E
100
AcDbEntity
  8
CONSTR
100
AcDbTrace
 10
42.644
 20
-18.5
 30
0.0
 11
42.644
 21
-16.89999999999999
 31
0.0
 12
42.694
 22
-18.5
 32
0.0
 13
42.694
 23
-16.89999999999999
 33
0.0
  0
SOLID
  5
D3
330
1E
100
AcDbEntity
  8
CONSTR
100
AcDbTrace
 10
42.66899999999999
 20
-18.525
 30
0.0
 11
39.469
 21
-18.525
 31
0.0
 12
42.66899999999999
 22
-18.475
 32
0.0
 13
39.469
 23
-18.475
 33
0.0
  0
SOLID
  5
D4
330
1E
100
AcDbEntity
  8
CONSTR
100
AcDbTrace
 10
42.66899999999999
 20
-16.925
 30
0.0
 11
39.469
 21
-16.925
 31
0.0
 12
42.66899999999999
 22
-16.875
 32
0.0
 13
39.469
 23
-16.875
 33
0.0
  0
SOLID
  5
D5
330
1E
100
AcDbEntity
  8
CONSTR
100
AcDbTrace
 10
39.444
 20
-18.5
 30
0.0
 11
39.444
 21
-16.89999999999999
 31
0.0
 12
39.494
 22
-18.5
 32
0.0
 13
39.494
 23
-16.89999999999999
 33
0.0
  0
SOLID
  5
D6
330
1E
100
AcDbEntity
  8
METAL1
100
AcDbTrace
 10
39.66899999999999
 20
-18.5
 30
0.0
 11
38.069
 21
-18.5
 31
0.0
 12
39.66899999999999
 22
-16.89999999999999
 32
0.0
 13
38.069
 23
-16.89999999999999
 33
0.0
  0
LWPOLYLINE
  5
D7
330
1E
100
AcDbEntity
  8
GND
100
AcDbPolyline
 90
        2
 70
     0
 43
0.2
 10
38.869
 20
-18.1
 42
1.0
 10
38.869
 20
-17.3
  0
LWPOLYLINE
  5
DB
330
1E
100
AcDbEntity
  8
GND
100
AcDbPolyline
 90
        2
 70
     0
 43
0.2
 10
38.869
 20
-17.3
 42
1.0
 10
38.869
 20
-18.1
  0
SOLID
  5
EE
330
1E
100
AcDbEntity
  8
METAL1
100
AcDbTrace
 10
23.9
 20
-1.31
 30
0.0
 11
23.9
 21
-2.509999999999999
 31
0.0
 12
22.7
 22
-1.31
 32
0.0
 13
22.7
 23
-2.509999999999999
 33
0.0
  0
LWPOLYLINE
  5
EF
330
1E
100
AcDbEntity
  8
GND
100
AcDbPolyline
 90
        2
 70
     0
 43
0.2
 10
23.3
 20
-2.31
 42
1.0
 10
23.3
 20
-1.509999999999999
  0
LWPOLYLINE
  5
F3
330
1E
100
AcDbEntity
  8
GND
100
AcDbPolyline
 90
        2
 70
     0
 43
0.2
 10
23.3
 20
-1.509999999999999
 42
1.0
 10
23.3
 20
-2.31
  0
SOLID
  5
F7
330
1E
100
AcDbEntity
  8
METAL1
100
AcDbTrace
 10
8.499955131200369
 20
-0.8827091624635441
 30
0.0
 11
8.499955131200369
 21
0.2348908375364562
 31
0.0
 12
10.17635513120037
 22
-0.8827091624635441
 32
0.0
 13
10.17635513120037
 23
0.2348908375364562
 33
0.0
  0
SOLID
  5
F8
330
1E
100
AcDbEntity
  8
METAL1
100
AcDbTrace
 10
8.499955131200369
 20
2.067290837536456
 30
0.0
 11
8.499955131200369
 21
3.184890837536455
 31
0.0
 12
10.17635513120037
 22
2.067290837536456
 32
0.0
 13
10.17635513120037
 23
3.184890837536455
 33
0.0
  0
SOLID
  5
F9
330
1E
100
AcDbEntity
  8
CONSTR
100
AcDbTrace
 10
8.538155131200369
 20
-0.4077091624635445
 30
0.0
 11
10.13815513120037
 21
-0.4077091624635445
 31
0.0
 12
8.538155131200369
 22
-0.4577091624635444
 32
0.0
 13
10.13815513120037
 23
-0.4577091624635444
 33
0.0
  0
SOLID
  5
FA
330
1E
100
AcDbEntity
  8
CONSTR
100
AcDbTrace
 10
8.513155131200369
 20
-0.432709162463544
 30
0.0
 11
8.513155131200369
 21
2.767290837536455
 31
0.0
 12
8.563155131200369
 22
-0.432709162463544
 32
0.0
 13
8.563155131200369
 23
2.767290837536455
 33
0.0
  0
SOLID
  5
FB
330
1E
100
AcDbEntity
  8
CONSTR
100
AcDbTrace
 10
10.11315513120036
 20
-0.432709162463544
 30
0.0
 11
10.11315513120036
 21
2.767290837536455
 31
0.0
 12
10.16315513120036
 22
-0.432709162463544
 32
0.0
 13
10.16315513120036
 23
2.767290837536455
 33
0.0
  0
SOLID
  5
FC
330
1E
100
AcDbEntity
  8
CONSTR
100
AcDbTrace
 10
8.538155131200369
 20
2.792290837536455
 30
0.0
 11
10.13815513120037
 21
2.792290837536455
 31
0.0
 12
8.538155131200369
 22
2.742290837536454
 32
0.0
 13
10.13815513120037
 23
2.742290837536454
 33
0.0
  0
SOLID
  5
FD
330
1E
100
AcDbEntity
  8
METAL1
100
AcDbTrace
 10
10.13815513120037
 20
-1.832709162463544
 30
0.0
 11
8.538155131200369
 21
-1.832709162463544
 31
0.0
 12
10.13815513120037
 22
-0.2327091624635447
 32
0.0
 13
8.538155131200369
 23
-0.2327091624635447
 33
0.0
  0
LWPOLYLINE
  5
FE
330
1E
100
AcDbEntity
  8
GND
100
AcDbPolyline
 90
        2
 70
     0
 43
0.2
 10
9.33815513120037
 20
-1.432709162463543
 42
1.0
 10
9.33815513120037
 20
-0.6327091624635442
  0
LWPOLYLINE
  5
102
330
1E
100
AcDbEntity
  8
GND
100
AcDbPolyline
 90
        2
 70
     0
 43
0.2
 10
9.33815513120037
 20
-0.6327091624635442
 42
1.0
 10
9.33815513120037
 20
-1.432709162463543
  0
SOLID
  5
1BF
330
1E
100
AcDbEntity
  8
CONSTR
100
AcDbTrace
 10
21.63754328325983
 20
2.613985293591099
 30
0.0
 11
21.63754328325983
 21
0.013985293591098
 31
0.0
 12
21.58754328325982
 22
2.613985293591099
 32
0.0
 13
21.58754328325982
 23
0.013985293591098
 33
0.0
  0
SOLID
  5
1C0
330
1E
100
AcDbEntity
  8
CONSTR
100
AcDbTrace
 10
23.88754328325983
 20
-2.2960147064089
 30
0.0
 11
23.88754328325983
 21
0.1139852935910994
 31
0.0
 12
23.93754328325983
 22
-2.2960147064089
 32
0.0
 13
23.93754328325983
 23
0.1139852935910994
 33
0.0
  0
TEXT
  5
1E5
330
1E
100
AcDbEntity
  8
CONSTR
100
AcDbText
 10
14.63559118701582
 20
-0.694567367287025
 30
0.0
 40
0.3
  1

100
AcDbText
  0
CIRCLE
  5
1E6
330
1E
100
AcDbEntity
  8
CONSTR
370
    30
100
AcDbCircle
 10
17.69586860278659
 20
0.035048946800984
 30
0.0
 40
1.136483575809477
  0
LWPOLYLINE
  5
1E7
330
1E
100
AcDbEntity
  8
CONSTR
370
    30
100
AcDbPolyline
 90
        2
 70
     0
 43
0.0
 10
16.60571545959413
 20
-0.0557633299764433
 10
18.74059860800159
 20
-0.0557633299764433
  0
LWPOLYLINE
  5
1E8
330
1E
100
AcDbEntity
  8
CONSTR
370
    30
100
AcDbPolyline
 90
        2
 70
     0
 43
0.0
 10
16.69656160800397
 20
0.1258613116427369
 10
18.83144475641143
 20
0.1258613116427369
  0
LWPOLYLINE
  5
1E9
330
1E
100
AcDbEntity
  8
CONSTR
100
AcDbPolyline
 90
        2
 70
     0
 43
0.0
 10
11.83094270813118
 20
5.303779410868793
 10
9.169073853661522
 20
1.742015397890511
  0
LWPOLYLINE
  5
1EA
330
1E
100
AcDbEntity
  8
CONSTR
100
AcDbPolyline
 90
        2
 70
     0
 43
0.0
 10
9.630759190967371
 20
1.280330060584658
 10
12.28088864150029
 20
4.846005060514682
  0
LWPOLYLINE
  5
1EB
330
1E
100
AcDbEntity
  8
CONSTR
100
AcDbPolyline
 90
        2
 70
     0
 43
0.0
 10
11.91313664113316
 20
5.362497827767723
 10
9.65395081596379
 20
3.739674544684086
  0
ARC
  5
1EC
330
1E
100
AcDbEntity
  8
CONSTR
100
AcDbCircle
 10
12.05404291565366
 20
5.071907352832948
 30
0.0
 40
0.3256099016146134
100
AcDbArc
 50
314.9495733215438
 51
135.0504266784561
  0
LINE
  5
1ED
330
1E
100
AcDbEntity
  8
CONSTR
100
AcDbLine
 10
10.11241189726564
 20
3.282524737937912
 30
0.0
 11
10.56146338229936
 21
3.605128566228071
 31
0.0
  0
ARC
  5
1EE
330
1E
100
AcDbEntity
  8
CONSTR
100
AcDbCircle
 10
9.40173736765627
 20
1.514566429942584
 30
0.0
 40
0.3256099016146134
100
AcDbArc
 50
135.6813662363378
 51
314.3186337636621
  0
LWPOLYLINE
  5
1EF
330
1E
100
AcDbEntity
  8
CONSTR
100
AcDbPolyline
 90
        2
 70
     0
 43
0.0
 10
10.88897116720521
 20
3.013556626617717
 10
12.74232354996291
 20
4.357622548101584
  0
ARC
  5
1F0
330
1E
100
AcDbEntity
  8
CONSTR
100
AcDbCircle
 10
12.96168579710182
 20
4.114941516231752
 30
0.0
 40
0.3256099016146134
100
AcDbArc
 50
312.8628392357289
 51
317.6627418064885
  0
LWPOLYLINE
  5
1F1
330
1E
100
AcDbEntity
  8
CONSTR
100
AcDbPolyline
 90
        4
 70
     1
 43
0.0
 10
14.38208981584534
 20
3.123923829398597
 10
14.38208981584534
 20
3.123923829398597
 10
14.38208981584534
 20
3.123923829398597
 10
14.38208981584534
 20
3.123923829398597
  0
LWPOLYLINE
  5
1F2
330
1E
100
AcDbEntity
  8
CONSTR
100
AcDbPolyline
 90
        2
 70
     0
 43
0.0
 10
9.583551040855887
 20
1.269276727762974
 10
11.42245804935702
 20
2.606302635993437
  0
LWPOLYLINE
  5
1F3
330
1E
100
AcDbEntity
  8
CONSTR
100
AcDbPolyline
 90
        2
 70
     0
 43
0.0
 10
12.76944163492434
 20
4.360016578056922
 10
10.10757278045468
 20
0.7982525650786343
  0
LWPOLYLINE
  5
1F4
330
1E
100
AcDbEntity
  8
CONSTR
100
AcDbPolyline
 90
        2
 70
     0
 43
0.0
 10
12.81370095549523
 20
1.149652832227191
 10
14.66705333825292
 20
2.493718753711059
  0
LWPOLYLINE
  5
1F5
330
1E
100
AcDbEntity
  8
CONSTR
100
AcDbPolyline
 90
        2
 70
     0
 43
0.0
 10
11.8586688365556
 20
2.071433259967874
 10
13.72020378553813
 20
3.424911472455823
  0
LWPOLYLINE
  5
1F6
330
1E
100
AcDbEntity
  8
CONSTR
100
AcDbPolyline
 90
        2
 70
     0
 43
0.0
 10
10.56925811776053
 20
0.336567227772786
 10
13.21938756829345
 20
3.902242227702807
  0
LWPOLYLINE
  5
1F7
330
1E
100
AcDbEntity
  8
CONSTR
100
AcDbPolyline
 90
        2
 70
     0
 43
0.0
 10
13.72411799403065
 20
3.428825680948336
 10
11.04659216477792
 20
-0.1485954472722746
  0
LWPOLYLINE
  5
1F8
330
1E
100
AcDbEntity
  8
CONSTR
100
AcDbPolyline
 90
        2
 70
     0
 43
0.0
 10
14.17797656023669
 20
2.967138697757269
 10
11.49262388965453
 20
-0.6102840061189152
  0
ARC
  5
1F9
330
1E
100
AcDbEntity
  8
CONSTR
100
AcDbCircle
 10
12.99254184244682
 20
4.128144520021074
 30
0.0
 40
0.3256099016146134
100
AcDbArc
 50
314.9495733215438
 51
135.0504266784561
  0
ARC
  5
1FA
330
1E
100
AcDbEntity
  8
CONSTR
100
AcDbCircle
 10
13.95035128579972
 20
3.198000514390692
 30
0.0
 40
0.3256099016146134
100
AcDbArc
 50
311.5051155470028
 51
138.4948844529971
  0
LWPOLYLINE
  5
1FB
330
1E
100
AcDbEntity
  8
CONSTR
100
AcDbPolyline
 90
        2
 70
     0
 43
0.0
 10
10.56925811776053
 20
0.336567227772786
 10
12.41967562689136
 20
1.685970529462242
  0
ARC
  5
1FC
330
1E
100
AcDbEntity
  8
CONSTR
100
AcDbCircle
 10
10.34023629444942
 20
0.5708035971307126
 30
0.0
 40
0.3256099016146134
100
AcDbArc
 50
135.6813662363378
 51
314.3186337636621
  0
LWPOLYLINE
  5
1FD
330
1E
100
AcDbEntity
  8
CONSTR
100
AcDbPolyline
 90
        2
 70
     0
 43
0.0
 10
11.5082808291459
 20
-0.5946270666275524
 10
13.34718783764703
 20
0.7423988416029133
  0
ARC
  5
1FE
330
1E
100
AcDbEntity
  8
CONSTR
100
AcDbCircle
 10
11.27879140945523
 20
-0.3677515178750959
 30
0.0
 40
0.3256099016146134
100
AcDbArc
 50
135.6813662363378
 51
314.3186337636621
  0
LWPOLYLINE
  5
1FF
330
1E
100
AcDbEntity
  8
CONSTR
100
AcDbPolyline
 90
        2
 70
     0
 43
0.0
 10
14.67815560984893
 20
2.517866130930479
 10
12.99972836970187
 20
0.2753327422763441
  0
LWPOLYLINE
  5
200
330
1E
100
AcDbEntity
  8
CONSTR
100
AcDbPolyline
 90
        2
 70
     0
 43
0.0
 10
15.13201417605497
 20
2.056179147739412
 10
13.45469941094449
 20
-0.1783370065026801
  0
ARC
  5
201
330
1E
100
AcDbEntity
  8
CONSTR
100
AcDbCircle
 10
14.90438890161799
 20
2.287040964372835
 30
0.0
 40
0.3256099016146134
100
AcDbArc
 50
311.5051155470028
 51
138.4948844529971
  0
ARC
  5
202
330
1E
100
AcDbEntity
  8
CONSTR
100
AcDbCircle
 10
9.873754009537876
 20
3.538908640423546
 30
0.0
 40
0.3256099016146134
100
AcDbArc
 50
135.6813662363378
 51
314.3186337636621
  0
ARC
  5
203
330
1E
100
AcDbEntity
  8
CONSTR
100
AcDbCircle
 10
13.29687149734159
 20
0.0865589184936715
 30
0.0
 40
0.3256099016146134
100
AcDbArc
 50
135.6813662363378
 51
314.3186337636621
  0
MTEXT
  5
204
330
1E
100
AcDbEntity
  8
CONSTR
100
AcDbMText
 10
3.121539516814792
 20
-6.450556359907494
 30
0.0
 40
0.8
 41
13.3098
 71
     1
 72
     5
  1
n=3t.\PD=8mm\Pl=5mm\Pd=1mm CuAg
 73
     1
 44
1.0
  0
MTEXT
  5
205
330
1E
100
AcDbEntity
  8
CONSTR
100
AcDbMText
 10
8.934856959404385
 20
0.2707338296167023
 30
0.0
 40
0.6
 41
3.3612
 71
     1
 72
     5
  1
12pF
 11
0.0000000000000001
 21
1.0
 31
0.0
 73
     1
 44
1.0
  0
MTEXT
  5
206
330
1E
100
AcDbEntity
  8
CONSTR
100
AcDbMText
 10
22.15446565511645
 20
1.366308879405906
 30
0.0
 40
0.6
 41
3.4054
 71
     1
 72
     5
  1
1k
 11
0.0000000000000001
 21
1.0
 31
0.0
 73
     1
 44
1.0
  0
MTEXT
  5
207
330
1E
100
AcDbEntity
  8
CONSTR
100
AcDbMText
 10
43.57838653428202
 20
-14.75907333981898
 30
0.0
 40
0.6
 41
3.8919
 71
     1
 72
     5
  1
82
 11
-0.0000000000000002
 21
-1.0
 31
0.0
 73
     1
 44
1.0
  0
MTEXT
  5
208
330
1E
100
AcDbEntity
  8
CONSTR
100
AcDbMText
 10
40.2784572562119
 20
-13.01840294992096
 30
0.0
 40
0.5
 41
5.9263
 71
     1
 72
     5
  1
20nF
 73
     1
 44
1.0
  0
MTEXT
  5
209
330
1E
100
AcDbEntity
  8
CONSTR
100
AcDbMText
 10
40.3007635076858
 20
-17.38358653698893
 30
0.0
 40
0.6
 41
5.8379
 71
     1
 72
     5
  1
1nF
 73
     1
 44
1.0
  0
MTEXT
  5
20A
330
1E
100
AcDbEntity
  8
CONSTR
100
AcDbMText
 10
28.89688753841815
 20
-1.258887910404567
 30
0.0
 40
0.6
 41
5.1303
 71
     1
 72
     5
  1
3.9pF
 73
     1
 44
1.0
  0
MTEXT
  5
20B
330
1E
100
AcDbEntity
  8
CONSTR
100
AcDbMText
 10
24.27733138313094
 20
-2.214695847726417
 30
0.0
 40
0.5
 41
2.816399999999999
 71
     1
 72
     5
  1
BFP196
 11
0.0000000000000001
 21
1.0
 31
0.0
 73
     1
 44
1.0
  0
MTEXT
  5
20C
330
1E
100
AcDbEntity
  8
CONSTR
100
AcDbMText
 10
26.93091332447733
 20
-0.1368288260785562
 30
0.0
 40
0.4
 41
2.770999999999999
 71
     1
 72
     5
  1
33k+\P1nF
 11
0.0000000000000001
 21
1.0
 31
0.0
 73
     1
 44
1.0
  0
MTEXT
  5
20D
330
1E
100
AcDbEntity
  8
CONSTR
100
AcDbMText
 10
-4.215227059637243
 20
-2.144397511290662
 30
0.0
 40
1.6
 41
10.6296
 71
     1
 72
     5
  1
Ant
 73
     1
 44
1.0
  0
MTEXT
  5
20E
330
1E
100
AcDbEntity
  8
CONSTR
100
AcDbMText
 10
12.97512997367366
 20
6.162312152191887
 30
0.0
 40
1.199999999999999
 41
3.8612
 71
     1
 72
     5
  1
L
 73
     1
 44
1.0
  0
MTEXT
  5
20F
330
1E
100
AcDbEntity
  8
CONSTR
100
AcDbMText
 10
15.60789232823346
 20
6.241728671206502
 30
0.0
 40
1.199999999999999
 41
7.449799999999999
 71
     1
 72
     5
  1
C{\H0.5x;trimer}
 73
     1
 44
1.0
  0
MTEXT
  5
210
330
1E
100
AcDbEntity
  8
CONSTR
100
AcDbMText
 10
16.14128785587273
 20
-3.983093277349311
 30
0.0
 40
0.6
 41
5.1303
 71
     1
 72
     5
  1
1-5pF\P(2.2pf)
 73
     1
 44
1.0
  0
MTEXT
  5
211
330
1E
100
AcDbEntity
  8
CONSTR
100
AcDbMText
 10
41.46199648102052
 20
2.058301199828093
 30
0.0
 40
1.6
 41
8.2675
 71
     1
 72
     5
  1
Rx
 73
     1
 44
1.0
  0
CIRCLE
  5
212
330
1E
100
AcDbEntity
  8
CONSTR
370
    30
100
AcDbCircle
 10
17.6467807976259
 20
0.0770112706659916
 30
0.0
 40
3.12552617030451
  0
INSERT
  5
213
330
1E
100
AcDbEntity
  8
CONSTR
100
AcDbBlockReference
  2
elkon
 10
36.58194158742647
 20
-19.1172384657731
 30
0.0
  0
INSERT
  5
214
330
1E
100
AcDbEntity
  8
CONSTR
100
AcDbBlockReference
  2
elkon
 10
48.5514678633197
 20
-1.022790810692882
 30
0.0
 50
180.0
  0
INSERT
  5
215
330
1E
100
AcDbEntity
  8
CONSTR
100
AcDbBlockReference
  2
rfc
 10
72.63156084677496
 20
22.4894259786962
 30
0.0
 41
5.747672421525731
 42
5.747672421525731
 43
5.747672421525731
 50
180.0
  0
LWPOLYLINE
  5
216
330
1E
100
AcDbEntity
  8
CONSTR
100
AcDbPolyline
 90
        2
 70
     0
 43
0.0
 10
43.07304586438029
 20
-3.315494612239852
 10
43.07304586438029
 20
-2.05870890058815
  0
LWPOLYLINE
  5
217
330
1E
100
AcDbEntity
  8
CONSTR
100
AcDbPolyline
 90
        2
 70
     0
 43
0.0
 10
43.07304586438029
 20
-5.801744587179911
 10
43.07304586438029
 20
-6.86728028622781
  0
LWPOLYLINE
  5
218
330
1E
100
AcDbEntity
  8
CONSTR
100
AcDbPolyline
 90
        2
 70
     0
 43
0.0
 10
44.25581741690558
 20
-8.05944691694259
 10
44.37157801778822
 20
-8.677505833736383
  0
LWPOLYLINE
  5
219
330
1E
100
AcDbEntity
  8
CONSTR
100
AcDbPolyline
 90
        2
 70
     0
 43
0.0
 10
43.18577844421311
 20
-10.02976735991579
 10
42.85805923139821
 20
-9.428695936710845
  0
LWPOLYLINE
  5
21A
330
1E
100
AcDbEntity
  8
CONSTR
100
AcDbPolyline
 90
        2
 70
     0
 43
0.0
 10
44.24766991882633
 20
-10.00303374277519
 10
43.78411555917854
 20
-9.964501062453066
  0
MTEXT
  5
21B
330
1E
100
AcDbEntity
  8
CONSTR
100
AcDbMText
 10
39.89395607390095
 20
-8.145591720849097
 30
0.0
 40
0.6
 41
1.6775
 71
     1
 72
     5
  1
1uF
 73
     1
 44
1.0
  0
MTEXT
  5
21C
330
1E
100
AcDbEntity
  8
CONSTR
100
AcDbMText
 10
41.66220025511835
 20
-5.783834655354837
 30
0.0
 40
0.6
 41
2.423099999999999
 71
     1
 72
     5
  1
10uH
 11
0.0000000000000001
 21
1.0
 31
0.0
 73
     1
 44
1.0
  0
MTEXT
  5
21D
330
1E
100
AcDbEntity
  8
CONSTR
100
AcDbMText
 10
39.85527717216868
 20
-11.18463750118846
 30
0.0
 40
0.6
 41
1.6775
 71
     1
 72
     5
  1
1uF
 73
     1
 44
1.0
  0
MTEXT
  5
21E
330
1E
100
AcDbEntity
  8
CONSTR
100
AcDbMText
 10
46.58037740307104
 20
-8.54249696916375
 30
0.0
 40
0.5999999999999999
 41
3.075399999999999
 71
     1
 72
     5
  1
78L10
 11
0.0031168054897741
 21
-0.999995142749973
 31
0.0
 73
     1
 44
1.0
  0
INSERT
  5
21F
330
1E
100
AcDbEntity
  8
CONSTR
100
AcDbBlockReference
  2
tri
 10
44.69028945970292
 20
-21.14839050739672
 30
0.0
 50
44.99999999999988
  0
LWPOLYLINE
  5
220
330
1E
100
AcDbEntity
  8
CONSTR
100
AcDbPolyline
 90
        2
 70
     0
 43
0.0
 10
44.36189171237721
 20
-11.4463320974065
 10
44.55518091399635
 20
-10.78957794037427
  0
LWPOLYLINE
  5
221
330
1E
100
AcDbEntity
  8
CONSTR
100
AcDbPolyline
 90
        2
 70
     0
 43
0.0
 10
44.38862595351294
 20
-8.707786098160298
 10
44.5043865543956
 20
-9.32584501495409
  0
LWPOLYLINE
  5
222
330
1E
100
AcDbEntity
  8
0
100
AcDbPolyline
 90
        4
 70
     1
 43
0.0
 10
-2.334016977807479
 20
15.28790903073647
 10
-2.334016977807479
 20
15.28790903073647
 10
-2.334016977807479
 20
15.28790903073647
 10
-2.334016977807479
 20
15.28790903073647
  0
DIMENSION
  5
225
330
1E
100
AcDbEntity
  8
Defpoints
100
AcDbDimension
  2
*D7
 10
51.51352090457212
 20
-24.68506722696998
 30
0.0
 11
51.51352090457212
 21
-4.70973052386876
 31
0.0
 70
    32
 71
     5
 42
39.95067340620243
  3
Standard
100
AcDbAlignedDimension
 13
49.01896114318796
 23
15.26560617923244
 33
0.0
 14
49.01896114318796
 24
-24.68506722696998
 34
0.0
 50
90.0
100
AcDbRotatedDimension
1001
ACAD
1000
DSTYLE
1002
{
1070
    41
1040
1.8
1070
   140
1040
1.8
1070
   147
1040
0.9
1070
   271
1070
     0
1002
}
  0
SOLID
  5
25C
330
1E
100
AcDbEntity
  8
METAL1
100
AcDbTrace
 10
44.09550411057934
 20
-10.78286134631935
 30
0.0
 11
42.49550411057934
 21
-10.78286134631935
 31
0.0
 12
44.09550411057934
 22
-9.182861346319356
 32
0.0
 13
42.49550411057934
 23
-9.182861346319356
 33
0.0
  0
LWPOLYLINE
  5
25D
330
1E
100
AcDbEntity
  8
GND
100
AcDbPolyline
 90
        2
 70
     0
 43
0.2
 10
43.29550411057934
 20
-10.38286134631935
 42
1.0
 10
43.29550411057934
 20
-9.582861346319356
  0
LWPOLYLINE
  5
25E
330
1E
100
AcDbEntity
  8
GND
100
AcDbPolyline
 90
        2
 70
     0
 43
0.2
 10
43.29550411057934
 20
-9.582861346319356
 42
1.0
 10
43.29550411057934
 20
-10.38286134631935
  0
SOLID
  5
265
330
1E
100
AcDbEntity
  8
METAL1
100
AcDbTrace
 10
44.0712905800582
 20
-7.709009853434755
 30
0.0
 11
42.4712905800582
 21
-7.709009853434755
 31
0.0
 12
44.0712905800582
 22
-6.109009853434756
 32
0.0
 13
42.4712905800582
 23
-6.109009853434756
 33
0.0
  0
LWPOLYLINE
  5
26C
330
1E
100
AcDbEntity
  8
CONSTR
100
AcDbPolyline
 90
        2
 70
     0
 43
0.0
 10
44.20228307354587
 20
-12.00097646372226
 10
44.39557227516501
 20
-11.34422230669003
  0
LWPOLYLINE
  5
273
330
1E
100
AcDbEntity
  8
CONSTR
100
AcDbPolyline
 90
        2
 70
     0
 43
0.0
 10
43.99674492145114
 20
-12.5255173742085
 10
44.19003412307027
 20
-11.86876321717627
  0
LWPOLYLINE
  5
27A
330
1E
100
AcDbEntity
  8
CONSTR
100
AcDbPolyline
 90
        2
 70
     0
 43
0.0
 10
44.1178126096891
 20
-7.5024113332815
 10
44.23357321057175
 20
-8.120470250075292
  0
SOLID
  5
286
330
1E
100
AcDbEntity
  8
METAL1
100
AcDbTrace
 10
26.36709350769752
 20
0.5901838044988233
 30
0.0
 11
26.36709350769752
 21
-0.6098161955011765
 31
0.0
 12
25.16709350769752
 22
0.5901838044988233
 32
0.0
 13
25.16709350769752
 23
-0.6098161955011765
 33
0.0
  0
LWPOLYLINE
  5
287
330
1E
100
AcDbEntity
  8
GND
100
AcDbPolyline
 90
        2
 70
     0
 43
0.2
 10
25.76709350769752
 20
-0.4098161955011768
 42
1.0
 10
25.76709350769752
 20
0.3901838044988235
  0
LWPOLYLINE
  5
288
330
1E
100
AcDbEntity
  8
GND
100
AcDbPolyline
 90
        2
 70
     0
 43
0.2
 10
25.76709350769752
 20
0.3901838044988235
 42
1.0
 10
25.76709350769752
 20
-0.4098161955011768
  0
MTEXT
  5
299
330
1E
100
AcDbEntity
  8
METAL1
370
    30
100
AcDbMText
 10
22.87114105048853
 20
11.5795457463085
 30
0.0
 40
1.8
 41
42.71379999999999
 71
     5
 72
     5
  1
BFP196 HI-DYNAMIC 432 MHz LNA YU1AW
 73
     1
 44
1.0
  0
LWPOLYLINE
  5
2D1
330
1E
100
AcDbEntity
  8
CONSTR
100
AcDbPolyline
 90
        2
 70
     0
 43
0.0
 10
-2.219337503721002
 20
2.298008025555994
 10
1.342426509257279
 20
-0.3638608289136656
  0
LWPOLYLINE
  5
2D2
330
1E
100
AcDbEntity
  8
CONSTR
100
AcDbPolyline
 90
        2
 70
     0
 43
0.0
 10
1.804111846563131
 20
0.0978245083921827
 10
-1.761563153366891
 20
2.747953958925105
  0
LWPOLYLINE
  5
2D3
330
1E
100
AcDbEntity
  8
CONSTR
100
AcDbPolyline
 90
        2
 70
     0
 43
0.0
 10
-2.27805592061993
 20
2.380201958557979
 10
-0.6552326375362938
 20
0.1210161333886006
  0
ARC
  5
2D4
330
1E
100
AcDbEntity
  8
CONSTR
100
AcDbCircle
 10
-1.987465445685156
 20
2.521108233078479
 30
0.0
 40
0.3256099016146134
100
AcDbArc
 50
44.94957332154391
 51
225.0504266784561
  0
LINE
  5
2D5
330
1E
100
AcDbEntity
  8
CONSTR
100
AcDbLine
 10
-0.1980828307901206
 20
0.5794772146904493
 30
0.0
 11
-0.5206866590802797
 21
1.02852869972418
 31
0.0
  0
ARC
  5
2D6
330
1E
100
AcDbEntity
  8
CONSTR
100
AcDbCircle
 10
1.569875477205208
 20
-0.1311973149189178
 30
0.0
 40
0.3256099016146134
100
AcDbArc
 50
225.6813662363378
 51
44.31863376366203
  0
LWPOLYLINE
  5
2D7
330
1E
100
AcDbEntity
  8
CONSTR
100
AcDbPolyline
 90
        2
 70
     0
 43
0.0
 10
0.0708852805300744
 20
1.356036484630028
 10
-1.273180640953793
 20
3.20938886738773
  0
ARC
  5
2D8
330
1E
100
AcDbEntity
  8
CONSTR
100
AcDbCircle
 10
-1.03049960908396
 20
3.428751114526633
 30
0.0
 40
0.3256099016146134
100
AcDbArc
 50
42.86283923572905
 51
47.66274180648856
  0
LWPOLYLINE
  5
2D9
330
1E
100
AcDbEntity
  8
CONSTR
100
AcDbPolyline
 90
        4
 70
     1
 43
0.0
 10
-0.0394819222508058
 20
4.849155133270159
 10
-0.0394819222508058
 20
4.849155133270159
 10
-0.0394819222508058
 20
4.849155133270159
 10
-0.0394819222508058
 20
4.849155133270159
  0
LWPOLYLINE
  5
2DA
330
1E
100
AcDbEntity
  8
CONSTR
100
AcDbPolyline
 90
        2
 70
     0
 43
0.0
 10
1.815165179384816
 20
0.0506163582806991
 10
0.4781392711543547
 20
1.889523366781833
  0
LWPOLYLINE
  5
2DB
330
1E
100
AcDbEntity
  8
CONSTR
100
AcDbPolyline
 90
        2
 70
     0
 43
0.0
 10
-1.275574670909129
 20
3.236506952349156
 10
2.286189342069157
 20
0.5746380978794968
  0
LWPOLYLINE
  5
2DC
330
1E
100
AcDbEntity
  8
CONSTR
100
AcDbPolyline
 90
        2
 70
     0
 43
0.0
 10
1.934789074920601
 20
3.280766272920043
 10
0.5907231534367324
 20
5.134118655677738
  0
LWPOLYLINE
  5
2DD
330
1E
100
AcDbEntity
  8
CONSTR
100
AcDbPolyline
 90
        2
 70
     0
 43
0.0
 10
1.013008647179916
 20
2.32573415398042
 10
-0.3404695653080321
 20
4.187269102962947
  0
LWPOLYLINE
  5
2DE
330
1E
100
AcDbEntity
  8
CONSTR
100
AcDbPolyline
 90
        2
 70
     0
 43
0.0
 10
2.747874679375005
 20
1.036323435185344
 10
-0.8178003205550155
 20
3.686452885718264
  0
LWPOLYLINE
  5
2DF
330
1E
100
AcDbEntity
  8
CONSTR
100
AcDbPolyline
 90
        2
 70
     0
 43
0.0
 10
-0.3443837738005442
 20
4.191183311455461
 10
3.233037354420066
 20
1.513657482202738
  0
LWPOLYLINE
  5
2E0
330
1E
100
AcDbEntity
  8
CONSTR
100
AcDbPolyline
 90
        2
 70
     0
 43
0.0
 10
0.1173032093905224
 20
4.645041877661501
 10
3.694725913266708
 20
1.959689207079346
  0
ARC
  5
2E1
330
1E
100
AcDbEntity
  8
CONSTR
100
AcDbCircle
 10
-1.043702612873282
 20
3.459607159871641
 30
0.0
 40
0.3256099016146134
100
AcDbArc
 50
44.94957332154391
 51
225.0504266784561
  0
ARC
  5
2E2
330
1E
100
AcDbEntity
  8
CONSTR
100
AcDbCircle
 10
-0.1135586072429007
 20
4.417416603224531
 30
0.0
 40
0.3256099016146134
100
AcDbArc
 50
41.50511554700281
 51
228.4948844529971
  0
LWPOLYLINE
  5
2E3
330
1E
100
AcDbEntity
  8
CONSTR
100
AcDbPolyline
 90
        2
 70
     0
 43
0.0
 10
2.747874679375005
 20
1.036323435185344
 10
1.398471377685549
 20
2.886740944316176
  0
ARC
  5
2E4
330
1E
100
AcDbEntity
  8
CONSTR
100
AcDbCircle
 10
2.513638310017079
 20
0.8073016118742373
 30
0.0
 40
0.3256099016146134
100
AcDbArc
 50
225.6813662363378
 51
44.31863376366203
  0
LWPOLYLINE
  5
2E5
330
1E
100
AcDbEntity
  8
CONSTR
100
AcDbPolyline
 90
        2
 70
     0
 43
0.0
 10
3.679068973775343
 20
1.975346146570711
 10
2.342043065544878
 20
3.814253155071842
  0
ARC
  5
2E6
330
1E
100
AcDbEntity
  8
CONSTR
100
AcDbCircle
 10
3.452193425022888
 20
1.745856726880045
 30
0.0
 40
0.3256099016146134
100
AcDbArc
 50
225.6813662363378
 51
44.31863376366203
  0
LWPOLYLINE
  5
2E7
330
1E
100
AcDbEntity
  8
CONSTR
100
AcDbPolyline
 90
        2
 70
     0
 43
0.0
 10
0.566575776217313
 20
5.14522092727374
 10
2.809109164871447
 20
3.466793687126685
  0
LWPOLYLINE
  5
2E8
330
1E
100
AcDbEntity
  8
CONSTR
100
AcDbPolyline
 90
        2
 70
     0
 43
0.0
 10
1.028262759408379
 20
5.599079493479781
 10
3.262778913650471
 20
3.921764728369304
  0
ARC
  5
2E9
330
1E
100
AcDbEntity
  8
CONSTR
100
AcDbCircle
 10
0.7974009427749565
 20
5.37145421904281
 30
0.0
 40
0.3256099016146134
100
AcDbArc
 50
41.50511554700281
 51
228.4948844529971
  0
ARC
  5
2EA
330
1E
100
AcDbEntity
  8
CONSTR
100
AcDbCircle
 10
-0.4544667332757549
 20
0.3408193269626878
 30
0.0
 40
0.3256099016146134
100
AcDbArc
 50
225.6813662363378
 51
44.31863376366203
  0
ARC
  5
2EB
330
1E
100
AcDbEntity
  8
CONSTR
100
AcDbCircle
 10
2.99788298865412
 20
3.763936814766402
 30
0.0
 40
0.3256099016146134
100
AcDbArc
 50
225.6813662363378
 51
44.31863376366203
  0
SOLID
  5
2FA
330
1E
100
AcDbEntity
  8
METAL1
100
AcDbTrace
 10
4.432535176632558
 20
2.804237964054355
 30
0.0
 11
2.232535176632557
 21
2.804237964054355
 31
0.0
 12
4.432535176632558
 22
5.204237964054353
 32
0.0
 13
2.232535176632557
 23
5.204237964054353
 33
0.0
  0
SOLID
  5
2FB
330
1E
100
AcDbEntity
  8
METAL1
100
AcDbTrace
 10
10.73253517663256
 20
2.804237964054355
 30
0.0
 11
8.532535176632556
 21
2.804237964054355
 31
0.0
 12
10.73253517663256
 22
5.204237964054353
 32
0.0
 13
8.532535176632556
 23
5.204237964054353
 33
0.0
  0
CIRCLE
  5
2FC
330
1E
100
AcDbEntity
  8
CONSTR
370
    30
100
AcDbCircle
 10
6.675067007734298
 20
4.039286910855338
 30
0.0
 40
1.136483575809477
  0
LWPOLYLINE
  5
2FD
330
1E
100
AcDbEntity
  8
CONSTR
370
    30
100
AcDbPolyline
 90
        2
 70
     0
 43
0.0
 10
5.584913864541846
 20
3.948474634077911
 10
7.7197970129493
 20
3.948474634077911
  0
LWPOLYLINE
  5
2FE
330
1E
100
AcDbEntity
  8
CONSTR
370
    30
100
AcDbPolyline
 90
        2
 70
     0
 43
0.0
 10
5.675760012951684
 20
4.130099275697091
 10
7.810643161359138
 20
4.130099275697091
  0
MTEXT
  5
2FF
330
1E
100
AcDbEntity
  8
CONSTR
100
AcDbMText
 10
5.31893507077244
 20
10.24596663526085
 30
0.0
 40
1.199999999999999
 41
7.449799999999999
 71
     1
 72
     5
  1
C{\H0.5x;trimer}
 73
     1
 44
1.0
  0
MTEXT
  5
300
330
1E
100
AcDbEntity
  8
CONSTR
100
AcDbMText
 10
5.120486260820442
 20
0.0211446867050427
 30
0.0
 40
0.6
 41
5.1303
 71
     1
 72
     5
  1
1-5pF\P(2.2pf)
 73
     1
 44
1.0
  0
CIRCLE
  5
301
330
1E
100
AcDbEntity
  8
CONSTR
370
    30
100
AcDbCircle
 10
6.625979202573617
 20
4.081249234720345
 30
0.0
 40
3.12552617030451
  0
LWPOLYLINE
  5
307
330
1E
100
AcDbEntity
  8
0
100
AcDbPolyline
 90
        4
 70
     1
 43
0.0
 10
47.65383090575366
 20
-24.6858557999155
 10
-7.346169094246334
 20
-24.6858557999155
 10
-7.346169094246334
 20
15.3141442000845
 10
47.65383090575366
 20
15.3141442000845
  0
DIMENSION
  5
308
330
1E
100
AcDbEntity
  8
Defpoints
100
AcDbDimension
  2
*D11
 10
47.65383090575366
 20
16.71050391009163
 30
0.0
 11
20.15447793622085
 21
16.71050391009163
 31
0.0
 70
    32
 71
     5
 42
54.99870593906561
  3
Standard
100
AcDbAlignedDimension
 13
-7.34487503331195
 23
16.3793330797631
 33
0.0
 14
47.65383090575366
 24
16.3793330797631
 34
0.0
100
AcDbRotatedDimension
1001
ACAD
1000
DSTYLE
1002
{
1070
   271
1070
     0
1002
}
  0
MTEXT
  5
33B
330
1E
100
AcDbEntity
  8
CONSTR
100
AcDbMText
 10
-2.04379500986181
 20
6.374718441845999
 30
0.0
 40
1.199999999999999
 41
3.8612
 71
     1
 72
     5
  1
L
 73
     1
 44
1.0
  0
MTEXT
  5
346
330
1E
100
AcDbEntity
  8
CONSTR
100
AcDbMText
 10
3.422943859338744
 20
-4.277944955792406
 30
0.0
 40
1.199999999999999
 41
3.8612
 71
     1
 72
     5
  1
L
 73
     1
 44
1.0
  0
ENDSEC
  0
SECTION
  2
OBJECTS
  0
DICTIONARY
  5
C
330
0
100
AcDbDictionary
281
     1
  3
ACAD_GROUP
350
D
  3
ACAD_LAYOUT
350
19
  3
ACAD_MLINESTYLE
350
16
  3
ACAD_PLOTSETTINGS
350
18
  3
ACAD_PLOTSTYLENAME
350
E
  3
AcDbVariableDictionary
350
109
  0
DICTIONARY
  5
10B
330
1E
100
AcDbDictionary
280
     1
281
     1
  3
ACAD_SORTENTS
360
10C
  0
DICTIONARY
  5
D
102
{ACAD_REACTORS
330
C
102
}
330
C
100
AcDbDictionary
281
     1
  0
DICTIONARY
  5
19
102
{ACAD_REACTORS
330
C
102
}
330
C
100
AcDbDictionary
281
     1
  3
Layout1
350
1D
  3
Model
350
21
  0
DICTIONARY
  5
16
102
{ACAD_REACTORS
330
C
102
}
330
C
100
AcDbDictionary
281
     1
  3
Standard
350
17
  0
DICTIONARY
  5
18
102
{ACAD_REACTORS
330
C
102
}
330
C
100
AcDbDictionary
281
     1
  0
ACDBDICTIONARYWDFLT
  5
E
102
{ACAD_REACTORS
330
C
102
}
330
C
100
AcDbDictionary
281
     1
  3
Normal
350
F
100
AcDbDictionaryWithDefault
340
F
  0
DICTIONARY
  5
109
102
{ACAD_REACTORS
330
C
102
}
330
C
100
AcDbDictionary
281
     1
  3
DIMASSOC
350
2A8
  3
SORTENTS
350
10A
  0
SORTENTSTABLE
  5
10C
102
{ACAD_REACTORS
330
10B
102
}
330
10B
100
AcDbSortentsTable
330
1E
331
9A
  5
D5
331
D1
  5
AB
331
A2
  5
95
331
2E3
  5
2E7
331
25D
  5
286
331
21E
  5
25E
331
53
  5
53
331
AA
  5
F8
331
2EB
  5
2FD
331
1E7
  5
1F1
331
265
  5
B7
331
1EF
  5
1F9
331
1F7
  5
201
331
2FB
  5
BA
331
F9
  5
1EA
331
7B
  5
D1
331
B2
  5
9D
331
1FF
  5
209
331
BA
  5
FD
331
83
  5
7A
331
C2
  5
27A
331
207
  5
211
331
93
  5
7B
331
2D4
  5
2D8
331
20F
  5
219
331
2DC
  5
2E0
331
217
  5
221
331
9B
  5
D6
331
24
  5
25
331
1C0
  5
1EF
331
D2
  5
1E6
331
A3
  5
96
331
2E4
  5
2E8
331
25E
  5
287
331
21F
  5
265
331
54
  5
54
331
AB
  5
F9
331
1E8
  5
1F2
331
64
  5
64
331
1F0
  5
1FA
331
2FC
  5
2FE
331
1F8
  5
202
331
FA
  5
1EB
331
7C
  5
D2
331
B3
  5
9E
331
200
  5
20A
331
BB
  5
FE
331
102
  5
C4
331
286
  5
24
331
208
  5
212
331
C3
  5
1BF
331
94
  5
7C
331
2D5
  5
2D9
331
210
  5
21A
331
2DD
  5
2E1
331
9C
  5
D7
331
25
  5
26
331
218
  5
222
331
D3
  5
1E7
331
A4
  5
EE
331
3D
  5
3E
331
2E5
  5
2E9
331
220
  5
26C
331
AC
  5
FA
331
DB
  5
C0
331
1E9
  5
1F3
331
65
  5
65
331
1F1
  5
1FB
331
F3
  5
C2
331
2FD
  5
2FF
331
1F9
  5
203
331
FB
  5
1EC
331
7D
  5
77
331
B4
  5
9F
331
201
  5
20B
331
BC
  5
102
331
287
  5
2D2
331
209
  5
213
331
C4
  5
1C0
331
95
  5
7D
331
2D6
  5
2DA
331
211
  5
21B
331
CC
  5
BE
331
2DE
  5
2E2
331
9D
  5
DB
331
26
  5
3D
331
219
  5
223
331
D4
  5
1E8
331
A5
  5
EF
331
3E
  5
52
331
2E6
  5
2EA
331
221
  5
273
331
AD
  5
FB
331
1EA
  5
1F4
331
66
  5
66
331
1F2
  5
1FC
331
2FE
  5
300
331
1FA
  5
204
331
FC
  5
1ED
331
7E
  5
D3
331
B5
  5
A0
331
202
  5
20C
331
BD
  5
A4
331
288
  5
2D3
331
20A
  5
214
331
C5
  5
1E5
331
96
  5
7E
331
2D7
  5
2DB
331
212
  5
21C
331
2DF
  5
2E3
331
9E
  5
82
331
21A
  5
224
331
D5
  5
1E9
331
A6
  5
F3
331
2E7
  5
2EB
331
222
  5
B2
331
AE
  5
99
331
1EB
  5
1F5
331
67
  5
67
331
1F3
  5
1FD
331
2FF
  5
301
331
77
  5
C6
331
1FB
  5
205
331
FD
  5
B0
331
7F
  5
78
331
B6
  5
A1
331
203
  5
20D
331
307
  5
BB
331
BE
  5
A5
331
20B
  5
215
331
97
  5
7F
331
C6
  5
A9
331
2D8
  5
2DC
331
213
  5
21D
331
299
  5
B8
331
9F
  5
83
331
2E0
  5
2E4
331
21B
  5
225
331
A7
  5
F7
331
D6
  5
AC
331
2E8
  5
2FA
331
223
  5
B3
331
AF
  5
9A
331
1EC
  5
1F6
331
EE
  5
AD
331
1F4
  5
1FE
331
33B
  5
33B
331
78
  5
C8
331
300
  5
307
331
27A
  5
2D1
331
1FC
  5
206
331
80
  5
D4
331
B7
  5
A2
331
FE
  5
C3
331
204
  5
20E
331
308
  5
BC
331
BF
  5
A6
331
2D1
  5
2D5
331
20C
  5
216
331
2D9
  5
2DD
331
214
  5
21E
331
98
  5
80
331
A0
  5
93
331
2E1
  5
2E5
331
21C
  5
25C
331
D7
  5
BF
331
A8
  5
97
331
2E9
  5
2FB
331
224
  5
B4
331
1E5
  5
B1
331
1ED
  5
1F7
331
EF
  5
C1
331
273
  5
299
331
1F5
  5
1FF
331
F7
  5
AE
331
79
  5
CC
331
B0
  5
9B
331
301
  5
308
331
1FD
  5
207
331
81
  5
79
331
B8
  5
A3
331
205
  5
20F
331
C0
  5
A7
331
2D2
  5
2D6
331
20D
  5
217
331
C8
  5
BD
331
2DA
  5
2DE
331
215
  5
21F
331
99
  5
81
331
D0
  5
AA
331
A1
  5
94
331
2E2
  5
2E6
331
21D
  5
25D
331
25C
  5
B6
331
52
  5
C5
331
A9
  5
98
331
2EA
  5
2FC
331
1E6
  5
1F0
331
225
  5
B5
331
26C
  5
288
331
1EE
  5
1F8
331
1F6
  5
200
331
2FA
  5
B9
331
F8
  5
AF
331
7A
  5
D0
331
B1
  5
9C
331
1FE
  5
208
331
82
  5
2D4
331
B9
  5
FC
331
206
  5
210
331
C1
  5
A8
331
2D3
  5
2D7
331
20E
  5
218
331
2DB
  5
2DF
331
216
  5
220
331
1BF
  5
1EE
  0
LAYOUT
  5
1D
102
{ACAD_REACTORS
330
19
102
}
330
19
100
AcDbPlotSettings
  1

  2
C:\PROGRAM FILES\ACAD2000\plotters\HP LaserJet 5L PCL.pc3
  4

  6

 40
0.0
 41
0.0
 42
0.0
 43
0.0
 44
0.0
 45
0.0
 46
0.0
 47
0.0
 48
0.0
 49
0.0
140
0.0
141
0.0
142
1.0
143
1.0
 70
   688
 72
     0
 73
     0
 74
     5
  7

 75
    16
147
1.0
148
0.0
149
0.0
100
AcDbLayout
  1
Layout1
 70
     1
 71
     1
 10
0.0
 20
0.0
 11
12.0
 21
9.0
 12
0.0
 22
0.0
 32
0.0
 14
1.000000000000000E+20
 24
1.000000000000000E+20
 34
1.000000000000000E+20
 15
-1.000000000000000E+20
 25
-1.000000000000000E+20
 35
-1.000000000000000E+20
146
0.0
 13
0.0
 23
0.0
 33
0.0
 16
1.0
 26
0.0
 36
0.0
 17
0.0
 27
1.0
 37
0.0
 76
     0
330
1A
  0
LAYOUT
  5
21
102
{ACAD_REACTORS
330
19
102
}
330
19
100
AcDbPlotSettings
  1

  2
HP LaserJet 5L PCL.pc3
  4
A4
  6

 40
6.297083377838134
 41
7.143756389617919
 42
7.397750854492187
 43
7.14373779296875
 44
210.0579986572265
 45
296.9259948730469
 46
0.0
 47
0.0
 48
0.0
 49
0.0
140
0.0
141
0.0
142
1.0
143
0.2274924395230965
 70
 11952
 72
     1
 73
     1
 74
     0
  7

 75
     0
147
4.395750478988878
148
6.884872321492274
149
24.87357789822824
100
AcDbLayout
  1
Model
 70
     1
 71
     0
 10
0.0
 20
0.0
 11
12.0
 21
9.0
 12
0.0
 22
0.0
 32
0.0
 14
0.0
 24
0.0
 34
0.0
 15
0.0
 25
0.0
 35
0.0
146
0.0
 13
0.0
 23
0.0
 33
0.0
 16
1.0
 26
0.0
 36
0.0
 17
0.0
 27
1.0
 37
0.0
 76
     0
330
1E
  0
MLINESTYLE
  5
17
102
{ACAD_REACTORS
330
16
102
}
330
16
100
AcDbMlineStyle
  2
STANDARD
 70
     0
  3

 62
   256
 51
90.0
 52
90.0
 71
     2
 49
0.5
 62
   256
  6
BYLAYER
 49
-0.5
 62
   256
  6
BYLAYER
  0
ACDBPLACEHOLDER
  5
F
102
{ACAD_REACTORS
330
E
102
}
330
E
  0
DICTIONARYVAR
  5
2A8
102
{ACAD_REACTORS
330
109
102
}
330
109
100
DictionaryVariables
280
     0
  1
1
  0
DICTIONARYVAR
  5
10A
102
{ACAD_REACTORS
330
109
102
}
330
109
100
DictionaryVariables
280
     0
  1
127
  0
ENDSEC
  0
EOF
