  0
SECTION
  2
HEADER
  9
$ACADVER
  1
AC1015
  9
$ACADMAINTVER
 70
    13
  9
$DWGCODEPAGE
  3
ANSI_1252
  9
$INSBASE
 10
0.0
 20
0.0
 30
0.0
  9
$EXTMIN
 10
-6.191152610438521
 20
-21.3758367596428
 30
-0.0000000000112498
  9
$EXTMAX
 10
54.19673788030372
 20
23.22911856919279
 30
0.0000000000002956
  9
$LIMMIN
 10
0.0
 20
0.0
  9
$LIMMAX
 10
12.0
 20
9.0
  9
$ORTHOMODE
 70
     0
  9
$REGENMODE
 70
     1
  9
$FILLMODE
 70
     1
  9
$QTEXTMODE
 70
     0
  9
$MIRRTEXT
 70
     1
  9
$LTSCALE
 40
1.0
  9
$ATTMODE
 70
     1
  9
$TEXTSIZE
 40
0.2
  9
$TRACEWID
 40
0.05
  9
$TEXTSTYLE
  7
Standard
  9
$CLAYER
  8
0
  9
$CELTYPE
  6
ByLayer
  9
$CECOLOR
 62
   256
  9
$CELTSCALE
 40
1.0
  9
$DISPSILH
 70
     0
  9
$DIMSCALE
 40
1.0
  9
$DIMASZ
 40
1.8
  9
$DIMEXO
 40
0.0625
  9
$DIMDLI
 40
0.38
  9
$DIMRND
 40
0.0
  9
$DIMDLE
 40
0.0
  9
$DIMEXE
 40
0.18
  9
$DIMTP
 40
0.0
  9
$DIMTM
 40
0.0
  9
$DIMTXT
 40
1.8
  9
$DIMCEN
 40
0.09
  9
$DIMTSZ
 40
0.0
  9
$DIMTOL
 70
     0
  9
$DIMLIM
 70
     0
  9
$DIMTIH
 70
     1
  9
$DIMTOH
 70
     1
  9
$DIMSE1
 70
     0
  9
$DIMSE2
 70
     0
  9
$DIMTAD
 70
     0
  9
$DIMZIN
 70
     0
  9
$DIMBLK
  1

  9
$DIMASO
 70
     1
  9
$DIMSHO
 70
     1
  9
$DIMPOST
  1

  9
$DIMAPOST
  1

  9
$DIMALT
 70
     0
  9
$DIMALTD
 70
     2
  9
$DIMALTF
 40
25.4
  9
$DIMLFAC
 40
1.0
  9
$DIMTOFL
 70
     0
  9
$DIMTVP
 40
0.0
  9
$DIMTIX
 70
     0
  9
$DIMSOXD
 70
     0
  9
$DIMSAH
 70
     0
  9
$DIMBLK1
  1

  9
$DIMBLK2
  1

  9
$DIMSTYLE
  2
Standard
  9
$DIMCLRD
 70
     0
  9
$DIMCLRE
 70
     0
  9
$DIMCLRT
 70
     0
  9
$DIMTFAC
 40
1.0
  9
$DIMGAP
 40
0.09
  9
$DIMJUST
 70
     0
  9
$DIMSD1
 70
     0
  9
$DIMSD2
 70
     0
  9
$DIMTOLJ
 70
     1
  9
$DIMTZIN
 70
     0
  9
$DIMALTZ
 70
     0
  9
$DIMALTTZ
 70
     0
  9
$DIMUPT
 70
     0
  9
$DIMDEC
 70
     4
  9
$DIMTDEC
 70
     4
  9
$DIMALTU
 70
     2
  9
$DIMALTTD
 70
     2
  9
$DIMTXSTY
  7
Standard
  9
$DIMAUNIT
 70
     0
  9
$DIMADEC
 70
     0
  9
$DIMALTRND
 40
0.0
  9
$DIMAZIN
 70
     0
  9
$DIMDSEP
 70
    46
  9
$DIMATFIT
 70
     3
  9
$DIMFRAC
 70
     0
  9
$DIMLDRBLK
  1

  9
$DIMLUNIT
 70
     2
  9
$DIMLWD
 70
    -2
  9
$DIMLWE
 70
    -2
  9
$DIMTMOVE
 70
     0
  9
$LUNITS
 70
     2
  9
$LUPREC
 70
     4
  9
$SKETCHINC
 40
0.1
  9
$FILLETRAD
 40
0.0
  9
$AUNITS
 70
     0
  9
$AUPREC
 70
     0
  9
$MENU
  1
.
  9
$ELEVATION
 40
0.0
  9
$PELEVATION
 40
0.0
  9
$THICKNESS
 40
0.0
  9
$LIMCHECK
 70
     0
  9
$CHAMFERA
 40
0.0
  9
$CHAMFERB
 40
0.0
  9
$CHAMFERC
 40
0.0
  9
$CHAMFERD
 40
0.0
  9
$SKPOLY
 70
     0
  9
$TDCREATE
 40
2452198.469537847
  9
$TDUCREATE
 40
2452198.386204513
  9
$TDUPDATE
 40
2452548.447336631
  9
$TDUUPDATE
 40
2452548.364003298
  9
$TDINDWG
 40
0.0390229282
  9
$TDUSRTIMER
 40
0.0390229282
  9
$USRTIMER
 70
     1
  9
$ANGBASE
 50
0.0
  9
$ANGDIR
 70
     0
  9
$PDMODE
 70
     0
  9
$PDSIZE
 40
0.0
  9
$PLINEWID
 40
0.0
  9
$SPLFRAME
 70
     0
  9
$SPLINETYPE
 70
     6
  9
$SPLINESEGS
 70
     8
  9
$HANDSEED
  5
456
  9
$SURFTAB1
 70
     6
  9
$SURFTAB2
 70
     6
  9
$SURFTYPE
 70
     6
  9
$SURFU
 70
     6
  9
$SURFV
 70
     6
  9
$UCSBASE
  2

  9
$UCSNAME
  2

  9
$UCSORG
 10
0.0
 20
0.0
 30
0.0
  9
$UCSXDIR
 10
1.0
 20
0.0
 30
0.0
  9
$UCSYDIR
 10
0.0
 20
1.0
 30
0.0
  9
$UCSORTHOREF
  2

  9
$UCSORTHOVIEW
 70
     0
  9
$UCSORGTOP
 10
0.0
 20
0.0
 30
0.0
  9
$UCSORGBOTTOM
 10
0.0
 20
0.0
 30
0.0
  9
$UCSORGLEFT
 10
0.0
 20
0.0
 30
0.0
  9
$UCSORGRIGHT
 10
0.0
 20
0.0
 30
0.0
  9
$UCSORGFRONT
 10
0.0
 20
0.0
 30
0.0
  9
$UCSORGBACK
 10
0.0
 20
0.0
 30
0.0
  9
$PUCSBASE
  2

  9
$PUCSNAME
  2

  9
$PUCSORG
 10
0.0
 20
0.0
 30
0.0
  9
$PUCSXDIR
 10
1.0
 20
0.0
 30
0.0
  9
$PUCSYDIR
 10
0.0
 20
1.0
 30
0.0
  9
$PUCSORTHOREF
  2

  9
$PUCSORTHOVIEW
 70
     0
  9
$PUCSORGTOP
 10
0.0
 20
0.0
 30
0.0
  9
$PUCSORGBOTTOM
 10
0.0
 20
0.0
 30
0.0
  9
$PUCSORGLEFT
 10
0.0
 20
0.0
 30
0.0
  9
$PUCSORGRIGHT
 10
0.0
 20
0.0
 30
0.0
  9
$PUCSORGFRONT
 10
0.0
 20
0.0
 30
0.0
  9
$PUCSORGBACK
 10
0.0
 20
0.0
 30
0.0
  9
$USERI1
 70
     0
  9
$USERI2
 70
     0
  9
$USERI3
 70
     0
  9
$USERI4
 70
     0
  9
$USERI5
 70
     0
  9
$USERR1
 40
0.0
  9
$USERR2
 40
0.0
  9
$USERR3
 40
0.0
  9
$USERR4
 40
0.0
  9
$USERR5
 40
0.0
  9
$WORLDVIEW
 70
     1
  9
$SHADEDGE
 70
     3
  9
$SHADEDIF
 70
    70
  9
$TILEMODE
 70
     1
  9
$MAXACTVP
 70
    64
  9
$PINSBASE
 10
0.0
 20
0.0
 30
0.0
  9
$PLIMCHECK
 70
     0
  9
$PEXTMIN
 10
1.000000000000000E+20
 20
1.000000000000000E+20
 30
1.000000000000000E+20
  9
$PEXTMAX
 10
-1.000000000000000E+20
 20
-1.000000000000000E+20
 30
-1.000000000000000E+20
  9
$PLIMMIN
 10
0.0
 20
0.0
  9
$PLIMMAX
 10
12.0
 20
9.0
  9
$UNITMODE
 70
     0
  9
$VISRETAIN
 70
     1
  9
$PLINEGEN
 70
     0
  9
$PSLTSCALE
 70
     1
  9
$TREEDEPTH
 70
  3020
  9
$CMLSTYLE
  2
Standard
  9
$CMLJUST
 70
     0
  9
$CMLSCALE
 40
1.0
  9
$PROXYGRAPHICS
 70
     1
  9
$MEASUREMENT
 70
     0
  9
$CELWEIGHT
370
    -1
  9
$ENDCAPS
280
     0
  9
$JOINSTYLE
280
     0
  9
$LWDISPLAY
290
     1
  9
$INSUNITS
 70
     0
  9
$HYPERLINKBASE
  1

  9
$STYLESHEET
  1

  9
$XEDIT
290
     1
  9
$CEPSNTYPE
380
     0
  9
$PSTYLEMODE
290
     1
  9
$FINGERPRINTGUID
  2
{6580E939-64CD-4C92-95E8-13FC8A5A3F56}
  9
$VERSIONGUID
  2
{62C448E4-3F76-4FD2-B9EE-F2A480C86A50}
  9
$EXTNAMES
290
     1
  9
$PSVPSCALE
 40
0.0
  9
$OLESTARTUP
290
     0
  0
ENDSEC
  0
SECTION
  2
CLASSES
  0
CLASS
  1
ACDBDICTIONARYWDFLT
  2
AcDbDictionaryWithDefault
  3
AutoCAD 2000
 90
        0
280
     0
281
     0
  0
CLASS
  1
ACDBPLACEHOLDER
  2
AcDbPlaceHolder
  3
AutoCAD 2000
 90
        0
280
     0
281
     0
  0
CLASS
  1
LAYOUT
  2
AcDbLayout
  3
AutoCAD 2000
 90
        0
280
     0
281
     0
  0
CLASS
  1
DICTIONARYVAR
  2
AcDbDictionaryVar
  3
AutoCAD 2000
 90
        0
280
     0
281
     0
  0
CLASS
  1
SORTENTSTABLE
  2
AcDbSortentsTable
  3
AutoCAD 2000
 90
        0
280
     0
281
     0
  0
ENDSEC
  0
SECTION
  2
TABLES
  0
TABLE
  2
VPORT
  5
8
330
0
100
AcDbSymbolTable
 70
     2
  0
VPORT
  5
455
330
8
100
AcDbSymbolTableRecord
100
AcDbViewportTableRecord
  2
*Active
 70
     0
 10
0.0
 20
0.0
 11
1.0
 21
1.0
 12
24.00279263493259
 22
0.9266409047749917
 13
0.0
 23
0.0
 14
1.0
 24
1.0
 15
0.0
 25
0.0
 16
0.0
 26
0.0
 36
1.0
 17
0.0
 27
0.0
 37
0.0
 40
44.92623952088004
 41
1.448317307692307
 42
50.0
 43
0.0
 44
0.0
 50
0.0
 51
0.0
 71
     0
 72
   100
 73
     1
 74
     2
 75
     0
 76
     0
 77
     0
 78
     0
281
     0
 65
     1
110
0.0
120
0.0
130
0.0
111
1.0
121
0.0
131
0.0
112
0.0
122
1.0
132
0.0
 79
     0
146
0.0
  0
ENDTAB
  0
TABLE
  2
LTYPE
  5
5
330
0
100
AcDbSymbolTable
 70
     1
  0
LTYPE
  5
13
330
5
100
AcDbSymbolTableRecord
100
AcDbLinetypeTableRecord
  2
ByBlock
 70
     0
  3

 72
    65
 73
     0
 40
0.0
  0
LTYPE
  5
14
330
5
100
AcDbSymbolTableRecord
100
AcDbLinetypeTableRecord
  2
ByLayer
 70
     0
  3

 72
    65
 73
     0
 40
0.0
  0
LTYPE
  5
15
330
5
100
AcDbSymbolTableRecord
100
AcDbLinetypeTableRecord
  2
Continuous
 70
     0
  3
Solid line
 72
    65
 73
     0
 40
0.0
  0
ENDTAB
  0
TABLE
  2
LAYER
  5
2
330
0
100
AcDbSymbolTable
 70
     6
  0
LAYER
  5
10
330
2
100
AcDbSymbolTableRecord
100
AcDbLayerTableRecord
  2
0
 70
     0
 62
     7
  6
Continuous
370
    -3
390
F
  0
LAYER
  5
22
330
2
100
AcDbSymbolTableRecord
100
AcDbLayerTableRecord
  2
METAL1
 70
     0
 62
     7
  6
Continuous
370
    -3
390
F
  0
LAYER
  5
27
330
2
100
AcDbSymbolTableRecord
100
AcDbLayerTableRecord
  2
CONSTR
 70
     0
 62
    -3
  6
Continuous
370
    -3
390
F
  0
LAYER
  5
D8
330
2
100
AcDbSymbolTableRecord
100
AcDbLayerTableRecord
  2
GND
 70
     0
 62
     9
  6
Continuous
370
    -3
390
F
  0
LAYER
  5
133
330
2
100
AcDbSymbolTableRecord
100
AcDbLayerTableRecord
  2
ERROR
 70
     0
 62
    -7
  6
Continuous
370
    -3
390
F
  0
LAYER
  5
156
330
2
100
AcDbSymbolTableRecord
100
AcDbLayerTableRecord
  2
Defpoints
 70
     0
 62
     7
  6
Continuous
290
     0
370
    -3
390
F
  0
ENDTAB
  0
TABLE
  2
STYLE
  5
3
330
0
100
AcDbSymbolTable
 70
     1
  0
STYLE
  5
11
330
3
100
AcDbSymbolTableRecord
100
AcDbTextStyleTableRecord
  2
Standard
 70
     0
 40
0.0
 41
1.0
 50
0.0
 71
     0
 42
0.2
  3
txt
  4

  0
ENDTAB
  0
TABLE
  2
VIEW
  5
6
330
0
100
AcDbSymbolTable
 70
     0
  0
ENDTAB
  0
TABLE
  2
UCS
  5
7
330
0
100
AcDbSymbolTable
 70
     0
  0
ENDTAB
  0
TABLE
  2
APPID
  5
9
330
0
100
AcDbSymbolTable
 70
     1
  0
APPID
  5
12
330
9
100
AcDbSymbolTableRecord
100
AcDbRegAppTableRecord
  2
ACAD
 70
     0
  0
ENDTAB
  0
TABLE
  2
DIMSTYLE
  5
A
330
0
100
AcDbSymbolTable
 70
     1
100
AcDbDimStyleTable
 71
     1
340
138
  0
DIMSTYLE
105
138
102
{ACAD_REACTORS
330
192
330
1A0
102
}
330
A
100
AcDbSymbolTableRecord
100
AcDbDimStyleTableRecord
  2
Standard
 70
     0
 41
1.8
140
1.8
340
11
  0
ENDTAB
  0
TABLE
  2
BLOCK_RECORD
  5
1
330
0
100
AcDbSymbolTable
 70
    13
  0
BLOCK_RECORD
  5
1E
102
{ACAD_XDICTIONARY
360
32B
102
}
330
1
100
AcDbSymbolTableRecord
100
AcDbBlockTableRecord
  2
*Model_Space
340
21
  0
BLOCK_RECORD
  5
1A
330
1
100
AcDbSymbolTableRecord
100
AcDbBlockTableRecord
  2
*Paper_Space
340
1D
  0
BLOCK_RECORD
  5
193
330
1
100
AcDbSymbolTableRecord
100
AcDbBlockTableRecord
  2
*D4
340
0
  0
BLOCK_RECORD
  5
1A1
330
1
100
AcDbSymbolTableRecord
100
AcDbBlockTableRecord
  2
*D5
340
0
  0
BLOCK_RECORD
  5
1C3
330
1
100
AcDbSymbolTableRecord
100
AcDbBlockTableRecord
  2
Inductor
340
0
310
280000002000000020000000010004000000000000020000000000000000000000000000000000000000000000008000008000000080800080000000800080008080000080808000C0C0C0000000FF0000FF000000FFFF00FF000000FF00FF00FFFF0000FFFFFF00FFFFFFFFFFFFFFFFFFFFFFFFFFFFFFFFFFFFFFFFFFFFFF
310
FFFFFFFFFFFFFFFFFFFFFFFFFFFFFFFFFFFFFFFFFFFFFFFFFFFFFFFFFFFFFFFFFFFFFFFFFFFFFFFFFFFFFFFFFFFFFFFFFFFFFFFFFFFFFFFFFFFFFFFFFFFFFFFFFFFFFFFFFFFFFFFFFFFFFFFFFFFFFFFFFFFFFFFFFFFFFFFFFFFFFFFFFFFFFFFFFFFFFFFFFFFFFFFFFFFFFFFFFFFFFFFFFFFFFFFFFFFFFFFFFFFFFFFFFFFFFF
310
FFFFFFFFFFFFFFFFFFFFFFFFFFFFFFFFFFFFFFFFFFFFFFFFFFFFFFFFFFFFFFFFFFFFFFFFFFFFFFFFFFFF0000FFFFFFFF0FFFFFF0FFFFFFF0000FFFF0FFFFFFF00FFFFFF0FFFFFFF0FFFFFFF0FFFFFFF00FFFFFF00FFFFFFF0FFFFFF0FFFFFFF00FFFFF0F0FFFFFFF0FFFFFF0FFFFFFF0F0FFFF0F0FFFFFFF0FFFFFFF0FFFFF
310
F00FFFFFF00FFFFFF0FFFFFFFF0FFFFFF00FFFFFF0FFFFFF0FFFFFFFFFF0FFFFF0F0FFFF0F0FFFFF0FFFFFFFFFFF00000FFF0000FFF00000FFFFFFFFFFFFFFFFFFFFFFFFFFFFFFFFFFFFFFFFFFFFFFFFFFFFFFFFFFFFFFFFFFFFFFFFFFFFFFFFFFFFFFFFFFFFFFFFFFFFFFFFFFFFFFFFFFFFFFFFFFFFFFFFFFFFFFFFFFFFFF
310
FFFFFFFFFFFFFFFFFFFFFFFFFFFFFFFFFFFFFFFFFFFFFFFFFFFFFFFFFFFFFFFFFFFFFFFFFFFFFFFFFFFFFFFFFFFFFFFFFFFFFFFFFFFFFFFFFFFFFFFFFFFFFFFFFFFFFFFFFFFFFFFFFFFFFFFFFFFFFFFFFFFFFFFFFFFFFFFFFFFFFFFFFFFFFFFFFFFFFFFFFFFFFFFFFFFFFFFF
102
{BLKREFS
331
1D1
102
}
1001
ACAD
1000
DesignCenter Data
1002
{
1070
     1
1070
     1
1002
}
  0
BLOCK_RECORD
  5
1CB
330
1
100
AcDbSymbolTableRecord
100
AcDbBlockTableRecord
  2
conpoint
340
0
310
28000000200000002000000001000800000000000004000000000000000000000000000000000000000000004000000080000000FF000000002000004020000080200000FF200000004000004040000080400000FF400000006000004060000080600000FF600000008000004080000080800000FF80000000A0000040A000
310
0080A00000FFA0000000C0000040C0000080C00000FFC0000000FF000040FF000080FF0000FFFF0000000020004000200080002000FF002000002020004020200080202000FF202000004020004040200080402000FF402000006020004060200080602000FF602000008020004080200080802000FF80200000A0200040A0
310
200080A02000FFA0200000C0200040C0200080C02000FFC0200000FF200040FF200080FF2000FFFF2000000040004000400080004000FF004000002040004020400080204000FF204000004040004040400080404000FF404000006040004060400080604000FF604000008040004080400080804000FF80400000A0400040
310
A0400080A04000FFA0400000C0400040C0400080C04000FFC0400000FF400040FF400080FF4000FFFF4000000060004000600080006000FF006000002060004020600080206000FF206000004060004040600080406000FF406000006060004060600080606000FF606000008060004080600080806000FF80600000A06000
310
40A0600080A06000FFA0600000C0600040C0600080C06000FFC0600000FF600040FF600080FF6000FFFF6000000080004000800080008000FF008000002080004020800080208000FF208000004080004040800080408000FF408000006080004060800080608000FF608000008080004080800080808000FF80800000A080
310
0040A0800080A08000FFA0800000C0800040C0800080C08000FFC0800000FF800040FF800080FF8000FFFF80000000A0004000A0008000A000FF00A0000020A0004020A0008020A000FF20A0000040A0004040A0008040A000FF40A0000060A0004060A0008060A000FF60A0000080A0004080A0008080A000FF80A00000A0
310
A00040A0A00080A0A000FFA0A00000C0A00040C0A00080C0A000FFC0A00000FFA00040FFA00080FFA000FFFFA0000000C0004000C0008000C000FF00C0000020C0004020C0008020C000FF20C0000040C0004040C0008040C000FF40C0000060C0004060C0008060C000FF60C0000080C0004080C0008080C000FF80C00000
310
A0C00040A0C00080A0C000FFA0C00000C0C00040C0C00080C0C000FFC0C00000FFC00040FFC00080FFC000FFFFC0000000FF004000FF008000FF00FF00FF000020FF004020FF008020FF00FF20FF000040FF004040FF008040FF00FF40FF000060FF004060FF008060FF00FF60FF000080FF004080FF008080FF00FF80FF00
310
00A0FF0040A0FF0080A0FF00FFA0FF0000C0FF0040C0FF0080C0FF00FFC0FF0000FFFF0040FFFF0080FFFF00FFFFFF000000000000000000000000000000000000000000000000000000000000000000000000000000000000000000000000FFFFFF000000000000000000000000000000000000000000000000FFFFFFFFFF
310
FF00FFFFFF0000000000000000000000000000000000000000FFFF0000FFFF0000000000FFFFFFFF00000000000000000000000000000000FF0000FFFF000000000000000000FFFFFFFF00000000000000000000000000FF00FFFF00000000000000000000000000FFFFFF0000000000000000000000FFFFFF000000000000
310
0000000000000000000000FFFF000000000000000000FF00FF00000000000000000000000000000000000000FFFF0000000000000000FFFF0000000000000000000000000000000000000000FFFF00000000000000FF00FF000000000000000000000000000000000000000000FFFF000000000000FFFF0000000000000000
310
0000000000000000000000000000FF00FF00000000FF00FF0000000000000000000000000000000000000000000000FFFF00000000FFFF000000000000000000000000000000000000000000000000FFFF00000000FFFF00000000000000000000000000000000000000000000000000FF000000FFFF000000000000000000
310
0000000000000000000000000000000000FF000000FFFF000000000000000000000000000000000000000000000000000000FF0000FF00000000000000000000000000000000000000000000000000000000FF0000FFFF0000000000000000000000000000000000000000000000000000FFFF000000FF0000000000000000
310
000000000000000000000000000000000000FF00000000FFFF000000000000000000000000000000000000000000000000FFFF00000000FFFF000000000000000000000000000000000000000000000000FFFF0000000000FFFF00000000000000000000000000000000000000000000FF00FF0000000000FFFF0000000000
310
0000000000000000000000000000000000FFFF00000000000000FFFF0000000000000000000000000000000000000000FFFF0000000000000000FFFF0000000000000000000000000000000000000000FFFF000000000000000000FFFF000000000000000000000000000000000000FFFF0000000000000000000000FFFFFF
310
0000000000000000000000000000FFFFFF00000000000000000000000000FF00FFFF00000000000000000000FFFFFFFF000000000000000000000000000000FFFF00FFFF000000000000FFFFFFFF00000000000000000000000000000000000000FFFFFFFFFF0000FFFFFFFF00000000000000000000000000000000000000
310
00000000000000FFFFFF00000000000000000000000000000000000000000000000000000000000000000000000000000000000000000000
102
{BLKREFS
331
1D2
331
1D3
102
}
1001
ACAD
1000
DesignCenter Data
1002
{
1070
     1
1070
     1
1002
}
  0
BLOCK_RECORD
  5
1D0
330
1
100
AcDbSymbolTableRecord
100
AcDbBlockTableRecord
  2
ind
340
0
310
28000000200000002000000001000800000000000004000000000000000000000000000000000000000000004000000080000000FF000000002000004020000080200000FF200000004000004040000080400000FF400000006000004060000080600000FF600000008000004080000080800000FF80000000A0000040A000
310
0080A00000FFA0000000C0000040C0000080C00000FFC0000000FF000040FF000080FF0000FFFF0000000020004000200080002000FF002000002020004020200080202000FF202000004020004040200080402000FF402000006020004060200080602000FF602000008020004080200080802000FF80200000A0200040A0
310
200080A02000FFA0200000C0200040C0200080C02000FFC0200000FF200040FF200080FF2000FFFF2000000040004000400080004000FF004000002040004020400080204000FF204000004040004040400080404000FF404000006040004060400080604000FF604000008040004080400080804000FF80400000A0400040
310
A0400080A04000FFA0400000C0400040C0400080C04000FFC0400000FF400040FF400080FF4000FFFF4000000060004000600080006000FF006000002060004020600080206000FF206000004060004040600080406000FF406000006060004060600080606000FF606000008060004080600080806000FF80600000A06000
310
40A0600080A06000FFA0600000C0600040C0600080C06000FFC0600000FF600040FF600080FF6000FFFF6000000080004000800080008000FF008000002080004020800080208000FF208000004080004040800080408000FF408000006080004060800080608000FF608000008080004080800080808000FF80800000A080
310
0040A0800080A08000FFA0800000C0800040C0800080C08000FFC0800000FF800040FF800080FF8000FFFF80000000A0004000A0008000A000FF00A0000020A0004020A0008020A000FF20A0000040A0004040A0008040A000FF40A0000060A0004060A0008060A000FF60A0000080A0004080A0008080A000FF80A00000A0
310
A00040A0A00080A0A000FFA0A00000C0A00040C0A00080C0A000FFC0A00000FFA00040FFA00080FFA000FFFFA0000000C0004000C0008000C000FF00C0000020C0004020C0008020C000FF20C0000040C0004040C0008040C000FF40C0000060C0004060C0008060C000FF60C0000080C0004080C0008080C000FF80C00000
310
A0C00040A0C00080A0C000FFA0C00000C0C00040C0C00080C0C000FFC0C00000FFC00040FFC00080FFC000FFFFC0000000FF004000FF008000FF00FF00FF000020FF004020FF008020FF00FF20FF000040FF004040FF008040FF00FF40FF000060FF004060FF008060FF00FF60FF000080FF004080FF008080FF00FF80FF00
310
00A0FF0040A0FF0080A0FF00FFA0FF0000C0FF0040C0FF0080C0FF00FFC0FF0000FFFF0040FFFF0080FFFF00FFFFFF0000000000000000000000000000000000000000000000000000000000000000000000000000000000000000000000000000FFFF00000000000000000000000000000000000000000000000000000000
310
00FFFFFFFF00000000000000000000000000000000000000000000000000000000FF0000FF00000000000000000000000000000000000000000000000000000000FFFFFFFF000000000000000000000000000000000000000000000000000000000000FF000000000000000000000000000000000000000000000000000000
310
FFFFFFFFFF0000000000000000000000000000000000000000000000000000FF00000000FF00000000000000000000000000000000000000000000000000FF00000000000000000000000000000000000000000000000000000000000000FF00000000000000000000000000000000000000000000000000000000000000FF
310
00000000000000000000000000000000000000000000000000000000000000FF0000000000000000000000000000000000000000000000000000000000000000FFFFFFFFFF000000000000000000000000000000000000000000000000000000FFFFFFFFFFFF00000000000000000000000000000000000000000000000000
310
FF00000000000000000000000000000000000000000000000000000000000000FF00000000000000000000000000000000000000000000000000000000000000FF00000000000000000000000000000000000000000000000000000000000000FF000000000000000000000000000000000000000000000000000000000000
310
0000FFFFFFFFFFFF0000000000000000000000000000000000000000000000000000FFFFFFFFFF0000000000000000000000000000000000000000000000000000FF00000000000000000000000000000000000000000000000000000000000000FF0000000000000000000000000000000000000000000000000000000000
310
0000FF00000000000000000000000000000000000000000000000000000000000000FF0000000000000000000000000000000000000000000000000000000000000000FF00000000FF000000000000000000000000000000000000000000000000000000FFFFFFFFFF00000000000000000000000000000000000000000000
310
000000000000000000FF0000000000000000000000000000000000000000000000000000000000FFFFFFFF00000000000000000000000000000000000000000000000000000000FF0000FF00000000000000000000000000000000000000000000000000000000FFFFFFFF0000000000000000000000000000000000000000
310
000000000000000000FFFF000000000000000000000000000000000000000000000000000000000000000000000000000000000000000000
102
{BLKREFS
331
1D7
102
}
1001
ACAD
1000
DesignCenter Data
1002
{
1070
     1
1070
     1
1002
}
  0
BLOCK_RECORD
  5
1D6
330
1
100
AcDbSymbolTableRecord
100
AcDbBlockTableRecord
  2
rfc
340
0
310
28000000200000002000000001000800000000000004000000000000000000000000000000000000000000004000000080000000FF000000002000004020000080200000FF200000004000004040000080400000FF400000006000004060000080600000FF600000008000004080000080800000FF80000000A0000040A000
310
0080A00000FFA0000000C0000040C0000080C00000FFC0000000FF000040FF000080FF0000FFFF0000000020004000200080002000FF002000002020004020200080202000FF202000004020004040200080402000FF402000006020004060200080602000FF602000008020004080200080802000FF80200000A0200040A0
310
200080A02000FFA0200000C0200040C0200080C02000FFC0200000FF200040FF200080FF2000FFFF2000000040004000400080004000FF004000002040004020400080204000FF204000004040004040400080404000FF404000006040004060400080604000FF604000008040004080400080804000FF80400000A0400040
310
A0400080A04000FFA0400000C0400040C0400080C04000FFC0400000FF400040FF400080FF4000FFFF4000000060004000600080006000FF006000002060004020600080206000FF206000004060004040600080406000FF406000006060004060600080606000FF606000008060004080600080806000FF80600000A06000
310
40A0600080A06000FFA0600000C0600040C0600080C06000FFC0600000FF600040FF600080FF6000FFFF6000000080004000800080008000FF008000002080004020800080208000FF208000004080004040800080408000FF408000006080004060800080608000FF608000008080004080800080808000FF80800000A080
310
0040A0800080A08000FFA0800000C0800040C0800080C08000FFC0800000FF800040FF800080FF8000FFFF80000000A0004000A0008000A000FF00A0000020A0004020A0008020A000FF20A0000040A0004040A0008040A000FF40A0000060A0004060A0008060A000FF60A0000080A0004080A0008080A000FF80A00000A0
310
A00040A0A00080A0A000FFA0A00000C0A00040C0A00080C0A000FFC0A00000FFA00040FFA00080FFA000FFFFA0000000C0004000C0008000C000FF00C0000020C0004020C0008020C000FF20C0000040C0004040C0008040C000FF40C0000060C0004060C0008060C000FF60C0000080C0004080C0008080C000FF80C00000
310
A0C00040A0C00080A0C000FFA0C00000C0C00040C0C00080C0C000FFC0C00000FFC00040FFC00080FFC000FFFFC0000000FF004000FF008000FF00FF00FF000020FF004020FF008020FF00FF20FF000040FF004040FF008040FF00FF40FF000060FF004060FF008060FF00FF60FF000080FF004080FF008080FF00FF80FF00
310
00A0FF0040A0FF0080A0FF00FFA0FF0000C0FF0040C0FF0080C0FF00FFC0FF0000FFFF0040FFFF0080FFFF00FFFFFF00000000000000000000000000000000000000000000000000000000000000000000000000000000000000000000000000000000FFFF0000000000000000000000000000000000000000000000000000
310
000000FFFFFFFF00000000000000000000000000000000000000000000000000000000FF0000FF00000000000000000000000000000000000000000000000000000000FFFFFFFF0000000000000000000000000000000000000000000000000000000000FF0000000000000000000000000000000000000000000000000000
310
00FFFFFFFFFF00000000000000000000000000000000000000000000FFFFFF00FFFF000000FF00000000000000000000000000000000000000000000FF00FF00FF000000000000000000000000000000000000000000000000000000FF00FFFF00000000000000000000000000000000000000000000000000000000FF00FF
310
FF00000000000000000000000000000000000000000000000000000000FFFFFFFFFF000000000000000000000000000000000000000000000000000000FFFFFF00FFFFFFFFFFFF00000000000000000000000000000000000000000000FFFFFF00FFFFFFFFFFFF00000000000000000000000000000000000000000000FFFF
310
FFFFFF000000000000000000000000000000000000000000000000000000FFFFFFFF00000000000000000000000000000000000000000000000000000000FFFFFFFF00000000000000000000000000000000000000000000000000000000FFFFFFFFFF000000000000000000000000000000000000000000000000000000FF
310
FFFF00FFFFFFFFFFFF00000000000000000000000000000000000000000000FFFFFF00FFFFFFFFFFFF00000000000000000000000000000000000000000000FF00FFFFFF000000000000000000000000000000000000000000000000000000FF00FFFF00000000000000000000000000000000000000000000000000000000
310
FF00FFFF00000000000000000000000000000000000000000000000000000000FF00FF00FF000000000000000000000000000000000000000000000000000000FFFFFF00FFFF000000FF000000000000000000000000000000000000000000000000000000FFFFFFFFFF000000000000000000000000000000000000000000
310
00000000000000000000FF000000000000000000000000000000000000000000000000000000000000FFFFFF0000000000000000000000000000000000000000000000000000000000FF00FFFF00000000000000000000000000000000000000000000000000000000FF00FF00000000000000000000000000000000000000
310
0000000000000000000000FF0000000000000000000000000000000000000000000000000000000000000000000000000000000000000000
102
{BLKREFS
331
344
102
}
1001
ACAD
1000
DesignCenter Data
1002
{
1070
     1
1070
     1
1002
}
  0
BLOCK_RECORD
  5
1DC
330
1
100
AcDbSymbolTableRecord
100
AcDbBlockTableRecord
  2
elkon
340
0
310
28000000200000002000000001000800000000000004000000000000000000000000000000000000000000004000000080000000FF000000002000004020000080200000FF200000004000004040000080400000FF400000006000004060000080600000FF600000008000004080000080800000FF80000000A0000040A000
310
0080A00000FFA0000000C0000040C0000080C00000FFC0000000FF000040FF000080FF0000FFFF0000000020004000200080002000FF002000002020004020200080202000FF202000004020004040200080402000FF402000006020004060200080602000FF602000008020004080200080802000FF80200000A0200040A0
310
200080A02000FFA0200000C0200040C0200080C02000FFC0200000FF200040FF200080FF2000FFFF2000000040004000400080004000FF004000002040004020400080204000FF204000004040004040400080404000FF404000006040004060400080604000FF604000008040004080400080804000FF80400000A0400040
310
A0400080A04000FFA0400000C0400040C0400080C04000FFC0400000FF400040FF400080FF4000FFFF4000000060004000600080006000FF006000002060004020600080206000FF206000004060004040600080406000FF406000006060004060600080606000FF606000008060004080600080806000FF80600000A06000
310
40A0600080A06000FFA0600000C0600040C0600080C06000FFC0600000FF600040FF600080FF6000FFFF6000000080004000800080008000FF008000002080004020800080208000FF208000004080004040800080408000FF408000006080004060800080608000FF608000008080004080800080808000FF80800000A080
310
0040A0800080A08000FFA0800000C0800040C0800080C08000FFC0800000FF800040FF800080FF8000FFFF80000000A0004000A0008000A000FF00A0000020A0004020A0008020A000FF20A0000040A0004040A0008040A000FF40A0000060A0004060A0008060A000FF60A0000080A0004080A0008080A000FF80A00000A0
310
A00040A0A00080A0A000FFA0A00000C0A00040C0A00080C0A000FFC0A00000FFA00040FFA00080FFA000FFFFA0000000C0004000C0008000C000FF00C0000020C0004020C0008020C000FF20C0000040C0004040C0008040C000FF40C0000060C0004060C0008060C000FF60C0000080C0004080C0008080C000FF80C00000
310
A0C00040A0C00080A0C000FFA0C00000C0C00040C0C00080C0C000FFC0C00000FFC00040FFC00080FFC000FFFFC0000000FF004000FF008000FF00FF00FF000020FF004020FF008020FF00FF20FF000040FF004040FF008040FF00FF40FF000060FF004060FF008060FF00FF60FF000080FF004080FF008080FF00FF80FF00
310
00A0FF0040A0FF0080A0FF00FFA0FF0000C0FF0040C0FF0080C0FF00FFC0FF0000FFFF0040FFFF0080FFFF00FFFFFF000000000000000000000000000000000000000000000000000000000000000000000000000000000000000000000000FF00000000000000000000000000000000000000000000000000000000000000
310
FF00000000000000000000000000000000000000000000000000000000000000FF00000000000000000000000000000000000000000000000000000000000000FF00000000000000000000000000000000000000000000000000000000000000FF000000000000000000000000000000000000000000000000000000000000
310
00FF00000000000000000000000000000000000000000000000000000000000000FF00000000000000000000000000000000000000000000000000000000000000FF00000000000000000000000000000000000000000000000000000000000000FF0000000000000000000000000000000000000000000000000000000000
310
0000FF00000000000000000000000000000000000000000000000000000000000000FF0000000000000000000000000000000000000000FFFFFFFFFFFFFFFFFFFFFFFFFFFFFFFFFFFFFFFFFFFFFFFF0000000000000000FF00000000000000000000000000000000000000000000FF0000000000000000FF00000000000000
310
000000000000000000000000000000FF0000000000000000FFFFFFFFFFFFFFFFFFFFFFFFFFFFFFFFFFFFFFFFFFFFFFFF00000000000000000000000000000000000000000000000000000000000000000000000000000000FFFFFFFFFFFFFFFFFFFFFFFFFFFFFFFFFFFFFFFFFFFFFFFF0000000000000000FF0000FFFFFFFF
310
FFFF000000000000FFFFFFFFFFFF0000FF0000000000000000FF0000000000FFFFFFFFFFFFFFFFFFFFFF000000000000FF0000000000000000FFFFFFFFFFFFFFFFFFFFFFFFFFFFFFFFFFFFFFFFFFFFFFFF00000000000000000000000000000000000000FF0000000000000000000000000000000000000000000000000000
310
0000000000FF00000000000000000000000000000000000000000000000000000000000000FF00000000000000000000000000000000000000000000000000000000000000FF00000000000000000000000000000000000000000000000000000000000000FF00000000000000000000000000000000000000000000000000
310
000000000000FF00000000000000000000000000000000000000000000000000000000000000FF00000000000000000000000000000000000000000000000000000000000000FF00000000000000000000000000000000000000000000000000000000000000FF000000000000000000000000000000000000000000000000
310
00000000000000FF000000000000000000000000000000000000000000000000000000000000000000000000000000000000000000000000
102
{BLKREFS
331
346
331
34F
102
}
  0
BLOCK_RECORD
  5
1E4
330
1
100
AcDbSymbolTableRecord
100
AcDbBlockTableRecord
  2
tri
340
0
310
28000000200000002000000001000800000000000004000000000000000000000000000000000000000000004000000080000000FF000000002000004020000080200000FF200000004000004040000080400000FF400000006000004060000080600000FF600000008000004080000080800000FF80000000A0000040A000
310
0080A00000FFA0000000C0000040C0000080C00000FFC0000000FF000040FF000080FF0000FFFF0000000020004000200080002000FF002000002020004020200080202000FF202000004020004040200080402000FF402000006020004060200080602000FF602000008020004080200080802000FF80200000A0200040A0
310
200080A02000FFA0200000C0200040C0200080C02000FFC0200000FF200040FF200080FF2000FFFF2000000040004000400080004000FF004000002040004020400080204000FF204000004040004040400080404000FF404000006040004060400080604000FF604000008040004080400080804000FF80400000A0400040
310
A0400080A04000FFA0400000C0400040C0400080C04000FFC0400000FF400040FF400080FF4000FFFF4000000060004000600080006000FF006000002060004020600080206000FF206000004060004040600080406000FF406000006060004060600080606000FF606000008060004080600080806000FF80600000A06000
310
40A0600080A06000FFA0600000C0600040C0600080C06000FFC0600000FF600040FF600080FF6000FFFF6000000080004000800080008000FF008000002080004020800080208000FF208000004080004040800080408000FF408000006080004060800080608000FF608000008080004080800080808000FF80800000A080
310
0040A0800080A08000FFA0800000C0800040C0800080C08000FFC0800000FF800040FF800080FF8000FFFF80000000A0004000A0008000A000FF00A0000020A0004020A0008020A000FF20A0000040A0004040A0008040A000FF40A0000060A0004060A0008060A000FF60A0000080A0004080A0008080A000FF80A00000A0
310
A00040A0A00080A0A000FFA0A00000C0A00040C0A00080C0A000FFC0A00000FFA00040FFA00080FFA000FFFFA0000000C0004000C0008000C000FF00C0000020C0004020C0008020C000FF20C0000040C0004040C0008040C000FF40C0000060C0004060C0008060C000FF60C0000080C0004080C0008080C000FF80C00000
310
A0C00040A0C00080A0C000FFA0C00000C0C00040C0C00080C0C000FFC0C00000FFC00040FFC00080FFC000FFFFC0000000FF004000FF008000FF00FF00FF000020FF004020FF008020FF00FF20FF000040FF004040FF008040FF00FF40FF000060FF004060FF008060FF00FF60FF000080FF004080FF008080FF00FF80FF00
310
00A0FF0040A0FF0080A0FF00FFA0FF0000C0FF0040C0FF0080C0FF00FFC0FF0000FFFF0040FFFF0080FFFF00FFFFFF0000000000000000000000000000000000000000000000000000000000000000000000000000000000000000FF00000000000000000000000000000000000000000000000000000000000000FFFF0000
310
0000000000000000000000000000000000000000000000000000FFFF0000FF00000000000000000000000000000000000000000000000000FFFF0000000000FF0000000000000000000000000000000000000000000000FF0000000000000000FF000000000000000000000000000000000000000000FF0000000000000000
310
0000FF00000000000000000000000000000000000000FF000000000000000000000000FF000000000000000000000000000000000000FF00000000000000000000000000FF00000000000000000000000000000000FF000000000000000000000000000000FF000000000000000000000000000000FF000000000000000000
310
00000000000000FF00000000000000000000000000FF000000000000000000000000000000000000FF000000000000000000000000FF00000000000000000000000000000000000000FF00000000000000000000FF000000000000000000000000000000000000000000FF000000000000000000FF00000000000000000000
310
000000000000000000000000FF0000000000000000FF0000000000000000000000000000000000000000000000FF00000000000000FF000000000000000000000000000000000000000000000000FF000000000000FF00000000000000000000000000000000000000000000000000FF000000000000FF0000000000000000
310
0000000000000000000000000000000000FF0000000000FF0000000000000000000000000000000000000000000000000000FF00000000FF0000000000000000000000000000000000000000000000000000FFFF00000000FF00000000000000000000000000000000000000000000000000FF0000000000FF000000000000
310
000000000000000000000000000000000000FF00000000000000FF0000000000000000000000000000000000000000000000FF0000000000000000FF000000000000000000000000000000000000000000FF00000000000000000000FF00000000000000000000000000000000000000FF000000000000000000000000FF00
310
00000000000000000000000000000000FF0000000000000000000000000000FF0000000000000000000000000000FFFF00000000000000000000000000000000FFFF0000000000000000000000FF0000000000000000000000000000000000000000FFFFFFFFFFFFFFFFFFFFFF000000000000000000000000000000000000
310
0000000000000000000000000000000000000000000000000000000000000000000000000000000000000000000000000000000000000000
102
{BLKREFS
331
345
102
}
  0
BLOCK_RECORD
  5
32D
330
1
100
AcDbSymbolTableRecord
100
AcDbBlockTableRecord
  2
A$C5B9F102E
340
0
  0
ENDTAB
  0
ENDSEC
  0
SECTION
  2
BLOCKS
  0
BLOCK
  5
1F
330
1E
100
AcDbEntity
  8
0
100
AcDbBlockBegin
  2
*Model_Space
 70
     0
 10
0.0
 20
0.0
 30
0.0
  3
*Model_Space
  1

  0
ENDBLK
  5
20
330
1E
100
AcDbEntity
  8
0
100
AcDbBlockEnd
  0
BLOCK
  5
1B
330
1A
100
AcDbEntity
 67
     1
  8
0
100
AcDbBlockBegin
  2
*Paper_Space
 70
     0
 10
0.0
 20
0.0
 30
0.0
  3
*Paper_Space
  1

  0
ENDBLK
  5
1C
330
1A
100
AcDbEntity
 67
     1
  8
0
100
AcDbBlockEnd
  0
BLOCK
  5
19E
330
193
100
AcDbEntity
  8
0
100
AcDbBlockBegin
  2
*D4
 70
     1
 10
0.0
 20
0.0
 30
0.0
  3
*D4
  1

  0
LINE
  5
424
330
193
100
AcDbEntity
  8
0
 62
     0
370
    -2
100
AcDbLine
 10
-6.187841860961782
 20
20.70336859531823
 30
0.0
 11
-6.187841860961782
 21
22.50688568026045
 31
0.0
  0
LINE
  5
425
330
193
100
AcDbEntity
  8
0
 62
     0
370
    -2
100
AcDbLine
 10
48.7957040109659
 20
20.70336859531823
 30
0.0
 11
48.7957040109659
 21
22.50688568026045
 31
0.0
  0
LINE
  5
426
330
193
100
AcDbEntity
  8
0
 62
     0
370
    -2
100
AcDbLine
 10
-4.387841860961782
 20
22.32688568026045
 30
0.0
 11
19.71393107500206
 21
22.32688568026045
 31
0.0
  0
LINE
  5
427
330
193
100
AcDbEntity
  8
0
 62
     0
370
    -2
100
AcDbLine
 10
46.99570401096591
 20
22.32688568026045
 30
0.0
 11
22.89393107500206
 21
22.32688568026045
 31
0.0
  0
SOLID
  5
428
330
193
100
AcDbEntity
  8
0
 62
     0
100
AcDbTrace
 10
-4.387841860961782
 20
22.62688568026045
 30
0.0
 11
-4.387841860961782
 21
22.02688568026045
 31
0.0
 12
-6.187841860961782
 22
22.32688568026045
 32
0.0
 13
-6.187841860961782
 23
22.32688568026045
 33
0.0
  0
SOLID
  5
429
330
193
100
AcDbEntity
  8
0
 62
     0
100
AcDbTrace
 10
46.99570401096591
 20
22.62688568026045
 30
0.0
 11
46.99570401096591
 21
22.02688568026045
 31
0.0
 12
48.7957040109659
 22
22.32688568026045
 32
0.0
 13
48.7957040109659
 23
22.32688568026045
 33
0.0
  0
MTEXT
  5
42A
330
193
100
AcDbEntity
  8
0
 62
     0
100
AcDbMText
 10
21.30393107500206
 20
22.32688568026045
 30
0.0
 40
1.8
 41
0.0
 71
     5
 72
     1
  1
\A1;55
 73
     1
 44
1.0
  0
POINT
  5
42B
330
193
100
AcDbEntity
  8
Defpoints
 62
     0
100
AcDbPoint
 10
-6.187841860961782
 20
20.64086859531823
 30
0.0
  0
POINT
  5
42C
330
193
100
AcDbEntity
  8
Defpoints
 62
     0
100
AcDbPoint
 10
48.7957040109659
 20
20.64086859531823
 30
0.0
  0
POINT
  5
42D
330
193
100
AcDbEntity
  8
Defpoints
 62
     0
100
AcDbPoint
 10
48.7957040109659
 20
22.32688568026045
 30
0.0
  0
ENDBLK
  5
19F
330
193
100
AcDbEntity
  8
0
100
AcDbBlockEnd
  0
BLOCK
  5
1AC
330
1A1
100
AcDbEntity
  8
0
100
AcDbBlockBegin
  2
*D5
 70
     1
 10
0.0
 20
0.0
 30
0.0
  3
*D5
  1

  0
LINE
  5
42E
330
1A1
100
AcDbEntity
  8
0
 62
     0
370
    -2
100
AcDbLine
 10
50.94960267070174
 20
-21.37467834981622
 30
0.0
 11
53.02357237768958
 21
-21.37467834981622
 31
0.0
  0
LINE
  5
42F
330
1A1
100
AcDbEntity
  8
0
 62
     0
370
    -2
100
AcDbLine
 10
50.94960267070174
 20
18.61764801720972
 30
0.0
 11
53.02357237768959
 21
18.61764801720972
 31
0.0
  0
LINE
  5
430
330
1A1
100
AcDbEntity
  8
0
 62
     0
370
    -2
100
AcDbLine
 10
52.84357237768958
 20
-19.57467834981622
 30
0.0
 11
52.84357237768959
 21
-2.368515166303253
 31
0.0
  0
LINE
  5
431
330
1A1
100
AcDbEntity
  8
0
 62
     0
370
    -2
100
AcDbLine
 10
52.8435723776896
 20
16.81764801720972
 30
0.0
 11
52.84357237768959
 21
-0.3885151663032533
 31
0.0
  0
SOLID
  5
432
330
1A1
100
AcDbEntity
  8
0
 62
     0
100
AcDbTrace
 10
52.54357237768958
 20
-19.57467834981622
 30
0.0
 11
53.14357237768958
 21
-19.57467834981622
 31
0.0
 12
52.84357237768958
 22
-21.37467834981622
 32
0.0
 13
52.84357237768958
 23
-21.37467834981622
 33
0.0
  0
SOLID
  5
433
330
1A1
100
AcDbEntity
  8
0
 62
     0
100
AcDbTrace
 10
52.5435723776896
 20
16.81764801720972
 30
0.0
 11
53.14357237768959
 21
16.81764801720972
 31
0.0
 12
52.8435723776896
 22
18.61764801720972
 32
0.0
 13
52.8435723776896
 23
18.61764801720972
 33
0.0
  0
MTEXT
  5
434
330
1A1
100
AcDbEntity
  8
0
 62
     0
100
AcDbMText
 10
52.84357237768959
 20
-1.378515166303244
 30
0.0
 40
1.8
 41
0.0
 71
     5
 72
     1
  1
\A1;40
 73
     1
 44
1.0
  0
POINT
  5
435
330
1A1
100
AcDbEntity
  8
Defpoints
 62
     0
100
AcDbPoint
 10
50.88710267070173
 20
-21.37467834981622
 30
0.0
  0
POINT
  5
436
330
1A1
100
AcDbEntity
  8
Defpoints
 62
     0
100
AcDbPoint
 10
50.88710267070173
 20
18.61764801720972
 30
0.0
  0
POINT
  5
437
330
1A1
100
AcDbEntity
  8
Defpoints
 62
     0
100
AcDbPoint
 10
52.8435723776896
 20
18.61764801720972
 30
0.0
  0
ENDBLK
  5
1AD
330
1A1
100
AcDbEntity
  8
0
100
AcDbBlockEnd
  0
BLOCK
  5
1C9
330
1C3
100
AcDbEntity
  8
0
100
AcDbBlockBegin
  2
Inductor
 70
     2
 10
0.0
 20
0.0
 30
0.0
  3
Inductor
  1
INDUCTOR
  4
DesignCenter Basic Electronics example
  0
LINE
  5
1C4
330
1C3
100
AcDbEntity
  8
0
 62
     7
100
AcDbLine
 10
0.3500000000000001
 20
0.0
 30
0.0
 11
0.3999999999999999
 21
0.0
 31
0.0
  0
ARC
  5
1C5
330
1C3
100
AcDbEntity
  8
0
 62
     7
100
AcDbCircle
 10
0.2999999999999998
 20
0.0374999999999997
 30
0.0
 40
0.0625
100
AcDbArc
 50
323.1301
 51
216.8699
  0
LINE
  5
1C6
330
1C3
100
AcDbEntity
  8
0
 62
     7
100
AcDbLine
 10
0.0
 20
0.0
 30
0.0
 11
0.0499999999999998
 21
0.0
 31
0.0
  0
ARC
  5
1C7
330
1C3
100
AcDbEntity
  8
0
 62
     7
100
AcDbCircle
 10
0.1000000000000001
 20
0.0374999999999997
 30
0.0
 40
0.0625
100
AcDbArc
 50
323.1301
 51
216.8699
  0
ARC
  5
1C8
330
1C3
100
AcDbEntity
  8
0
 62
     7
100
AcDbCircle
 10
0.2000000000000002
 20
0.0374999999999997
 30
0.0
 40
0.0625
100
AcDbArc
 50
323.1301
 51
216.8699
  0
ENDBLK
  5
1CA
330
1C3
100
AcDbEntity
  8
0
100
AcDbBlockEnd
  0
BLOCK
  5
1CE
330
1CB
100
AcDbEntity
  8
0
100
AcDbBlockBegin
  2
conpoint
 70
     0
 10
0.0
 20
0.0
 30
0.0
  3
conpoint
  1

  0
HATCH
  5
1CC
330
1CB
100
AcDbEntity
  8
0
100
AcDbHatch
 10
0.0
 20
0.0
 30
0.0
210
0.0
220
0.0
230
1.0
  2
SOLID
 70
     1
 71
     1
 91
        1
 92
        1
 93
        1
 72
     2
 10
3.932944225599126
 20
4.517912367231916
 40
0.0251551376970127
 50
0.0
 51
360.0
 73
     1
 97
        1
330
1CD
 75
     0
 76
     1
 98
        1
 10
0.0
 20
0.0
  0
CIRCLE
  5
1CD
102
{ACAD_REACTORS
330
1CC
102
}
330
1CB
100
AcDbEntity
  8
0
100
AcDbCircle
 10
3.932944225599126
 20
4.517912367231916
 30
0.0
 40
0.0251551376970127
  0
ENDBLK
  5
1CF
330
1CB
100
AcDbEntity
  8
0
100
AcDbBlockEnd
  0
BLOCK
  5
1D4
330
1D0
100
AcDbEntity
  8
0
100
AcDbBlockBegin
  2
ind
 70
     0
 10
0.0
 20
0.0
 30
0.0
  3
ind
  1

  0
INSERT
  5
1D1
330
1D0
100
AcDbEntity
  8
0
100
AcDbBlockReference
  2
Inductor
 10
5.142686818928233
 20
4.506130839892044
 30
0.0
 50
90.0
  0
INSERT
  5
1D2
330
1D0
100
AcDbEntity
  8
0
100
AcDbBlockReference
  2
conpoint
 10
1.213283901823427
 20
-0.0258025784579612
 30
0.0
  0
INSERT
  5
1D3
330
1D0
100
AcDbEntity
  8
0
100
AcDbBlockReference
  2
conpoint
 10
1.20936500961606
 20
0.4012205201373665
 30
0.0
  0
ENDBLK
  5
1D5
330
1D0
100
AcDbEntity
  8
0
100
AcDbBlockEnd
  0
BLOCK
  5
1DA
330
1D6
100
AcDbEntity
  8
0
100
AcDbBlockBegin
  2
rfc
 70
     0
 10
0.0
 20
0.0
 30
0.0
  3
rfc
  1

  0
INSERT
  5
1D7
330
1D6
100
AcDbEntity
  8
0
100
AcDbBlockReference
  2
ind
 10
0.0
 20
0.0
 30
0.0
  0
HATCH
  5
1D8
330
1D6
100
AcDbEntity
  8
0
100
AcDbHatch
 10
0.0
 20
0.0
 30
0.0
210
0.0
220
0.0
230
1.0
  2
SOLID
 70
     1
 71
     1
 91
        1
 92
        1
 93
        4
 72
     1
 10
5.019171584733157
 20
4.850883942041264
 11
4.991736945333968
 21
4.850883942041264
 72
     1
 10
4.991736945333968
 20
4.850883942041264
 11
4.991736945333968
 21
4.557060643284785
 72
     1
 10
4.991736945333968
 20
4.557060643284785
 11
5.019171584733157
 21
4.557060643284785
 72
     1
 10
5.019171584733157
 20
4.557060643284785
 11
5.019171584733157
 21
4.850883942041264
 97
        1
330
1D9
 75
     0
 76
     1
 98
        1
 10
0.0
 20
0.0
  0
LWPOLYLINE
  5
1D9
102
{ACAD_REACTORS
330
1D8
102
}
330
1D6
100
AcDbEntity
  8
0
100
AcDbPolyline
 90
        4
 70
     1
 43
0.0
 10
5.019171584733157
 20
4.850883942041264
 10
4.991736945333968
 20
4.850883942041264
 10
4.991736945333968
 20
4.557060643284785
 10
5.019171584733157
 20
4.557060643284785
  0
ENDBLK
  5
1DB
330
1D6
100
AcDbEntity
  8
0
100
AcDbBlockEnd
  0
BLOCK
  5
1E2
330
1DC
100
AcDbEntity
  8
0
100
AcDbBlockBegin
  2
elkon
 70
     0
 10
0.0
 20
0.0
 30
0.0
  3
elkon
  1

  0
LWPOLYLINE
  5
1DD
102
{ACAD_REACTORS
330
1E1
102
}
330
1DC
100
AcDbEntity
  8
0
100
AcDbPolyline
 90
        4
 70
     1
 43
0.0
 10
5.277469087657244
 20
7.736467907658294
 10
6.725437308244949
 20
7.736467907658294
 10
6.725437308244949
 20
7.545307269129267
 10
5.277469087657244
 20
7.545307269129267
  0
LWPOLYLINE
  5
1DE
330
1DC
100
AcDbEntity
  8
0
100
AcDbPolyline
 90
        4
 70
     1
 43
0.0
 10
5.277469087657244
 20
7.381455311208465
 10
6.725437308244949
 20
7.381455311208465
 10
6.725437308244949
 20
7.190294672679439
 10
5.277469087657244
 20
7.190294672679439
  0
LWPOLYLINE
  5
1DF
330
1DC
100
AcDbEntity
  8
0
100
AcDbPolyline
 90
        2
 70
     0
 43
0.0
 10
5.987793119210273
 20
7.736467907658294
 10
5.987793119210273
 20
8.337258440989323
  0
LWPOLYLINE
  5
1E0
330
1DC
100
AcDbEntity
  8
0
100
AcDbPolyline
 90
        2
 70
     0
 43
0.0
 10
5.987793119210273
 20
7.190294672679439
 10
5.987793119210273
 20
6.507578139433253
  0
HATCH
  5
1E1
330
1DC
100
AcDbEntity
  8
0
100
AcDbHatch
 10
0.0
 20
0.0
 30
0.0
210
0.0
220
0.0
230
1.0
  2
SOLID
 70
     1
 71
     1
 91
        1
 92
        1
 93
        4
 72
     1
 10
5.277469087657244
 20
7.736467907658294
 11
6.725437308244949
 21
7.736467907658294
 72
     1
 10
6.725437308244949
 20
7.736467907658294
 11
6.725437308244949
 21
7.545307269129267
 72
     1
 10
6.725437308244949
 20
7.545307269129267
 11
5.277469087657244
 21
7.545307269129267
 72
     1
 10
5.277469087657244
 20
7.545307269129267
 11
5.277469087657244
 21
7.736467907658294
 97
        1
330
1DD
 75
     0
 76
     1
 98
        1
 10
0.0
 20
0.0
  0
ENDBLK
  5
1E3
330
1DC
100
AcDbEntity
  8
0
100
AcDbBlockEnd
  0
BLOCK
  5
1E7
330
1E4
100
AcDbEntity
  8
0
100
AcDbBlockBegin
  2
tri
 70
     0
 10
0.0
 20
0.0
 30
0.0
  3
tri
  1

  0
ARC
  5
1E5
330
1E4
100
AcDbEntity
  8
CONSTR
370
    50
100
AcDbCircle
 10
8.146085339866083
 20
7.572615928782735
 30
0.0
 40
0.8498249588931228
100
AcDbArc
 50
17.41576346451058
 51
252.8164832811067
  0
LWPOLYLINE
  5
1E6
330
1E4
100
AcDbEntity
  8
CONSTR
370
    50
100
AcDbPolyline
 90
        2
 70
     0
 43
0.0
 10
7.888244942516251
 20
6.7539228815622
 10
8.968782859461427
 20
7.838849627961277
  0
ENDBLK
  5
1E8
330
1E4
100
AcDbEntity
  8
0
100
AcDbBlockEnd
  0
BLOCK
  5
32F
330
32D
100
AcDbEntity
  8
0
100
AcDbBlockBegin
  2
A$C5B9F102E
 70
     0
 10
0.0
 20
0.0
 30
0.0
  3
A$C5B9F102E
  1

  0
SOLID
  5
32E
330
32D
100
AcDbEntity
  8
METAL1
100
AcDbTrace
 10
1.600000007967395
 20
1.599999966655271
 30
0.0
 11
1.600000007967395
 21
-0.0000000333447261
 31
0.0
 12
0.000000007967401
 22
1.599999966655271
 32
0.0
 13
0.000000007967401
 23
-0.0000000333447261
 33
0.0
  0
ENDBLK
  5
330
330
32D
100
AcDbEntity
  8
0
100
AcDbBlockEnd
  0
ENDSEC
  0
SECTION
  2
ENTITIES
  0
SOLID
  5
23
330
1E
100
AcDbEntity
  8
METAL1
100
AcDbTrace
 10
-3.536418464594419
 20
1.349999999999999
 30
0.0
 11
1.46358153540558
 21
1.349999999999999
 31
0.0
 12
-3.536418464594419
 22
-1.349999999999999
 32
0.0
 13
1.46358153540558
 23
-1.349999999999999
 33
0.0
  0
SOLID
  5
24
330
1E
100
AcDbEntity
  8
METAL1
100
AcDbTrace
 10
2.26358153540558
 20
-1.349999999999999
 30
0.0
 11
1.46358153540558
 21
-1.349999999999999
 31
0.0
 12
2.26358153540558
 22
1.349999999999999
 32
0.0
 13
1.46358153540558
 23
1.349999999999999
 33
0.0
  0
SOLID
  5
25
330
1E
100
AcDbEntity
  8
METAL1
100
AcDbTrace
 10
2.26358153540558
 20
1.349999999999999
 30
0.0
 11
3.06358153540558
 21
1.349999999999999
 31
0.0
 12
2.26358153540558
 22
-1.349999999999999
 32
0.0
 13
3.06358153540558
 23
-1.349999999999999
 33
0.0
  0
SOLID
  5
3D
330
1E
100
AcDbEntity
  8
METAL1
100
AcDbTrace
 10
4.763581535405581
 20
-1.199999999999999
 30
0.0
 11
2.56358153540558
 21
-1.199999999999999
 31
0.0
 12
4.763581535405581
 22
1.199999999999999
 32
0.0
 13
2.56358153540558
 23
1.199999999999999
 33
0.0
  0
SOLID
  5
3E
330
1E
100
AcDbEntity
  8
METAL1
100
AcDbTrace
 10
14.59999999999999
 20
-1.199999999999999
 30
0.0
 11
12.4
 21
-1.199999999999999
 31
0.0
 12
14.59999999999999
 22
1.199999999999999
 32
0.0
 13
12.4
 23
1.199999999999999
 33
0.0
  0
SOLID
  5
52
330
1E
100
AcDbEntity
  8
CONSTR
100
AcDbTrace
 10
21.625
 20
2.5
 30
0.0
 11
21.625
 21
-0.1
 31
0.0
 12
21.575
 22
2.5
 32
0.0
 13
21.575
 23
-0.1
 33
0.0
  0
SOLID
  5
53
330
1E
100
AcDbEntity
  8
METAL1
100
AcDbTrace
 10
15.8
 20
-1.199999999999999
 30
0.0
 11
13.6
 21
-1.199999999999999
 31
0.0
 12
15.8
 22
1.199999999999999
 32
0.0
 13
13.6
 23
1.199999999999999
 33
0.0
  0
SOLID
  5
54
330
1E
100
AcDbEntity
  8
METAL1
100
AcDbTrace
 10
22.1
 20
-1.199999999999999
 30
0.0
 11
19.9
 21
-1.199999999999999
 31
0.0
 12
22.1
 22
1.199999999999999
 32
0.0
 13
19.9
 23
1.199999999999999
 33
0.0
  0
SOLID
  5
64
330
1E
100
AcDbEntity
  8
METAL1
100
AcDbTrace
 10
22.39999999999999
 20
0.125
 30
0.0
 11
23.19999999999999
 21
0.125
 31
0.0
 12
22.39999999999999
 22
-0.125
 32
0.0
 13
23.19999999999999
 23
-0.125
 33
0.0
  0
SOLID
  5
65
330
1E
100
AcDbEntity
  8
METAL1
100
AcDbTrace
 10
22.39999999999999
 20
-0.125
 30
0.0
 11
21.6
 21
-0.125
 31
0.0
 12
22.39999999999999
 22
0.125
 32
0.0
 13
21.6
 23
0.125
 33
0.0
  0
SOLID
  5
66
330
1E
100
AcDbEntity
  8
METAL1
100
AcDbTrace
 10
21.6
 20
0.0
 30
0.0
 11
21.6
 21
0.125
 31
0.0
 12
23.19999999999999
 22
0.0
 32
0.0
 13
23.19999999999999
 23
0.125
 33
0.0
  0
SOLID
  5
67
330
1E
100
AcDbEntity
  8
METAL1
100
AcDbTrace
 10
23.19999999999999
 20
0.5
 30
0.0
 11
23.9
 21
0.5
 31
0.0
 12
23.19999999999999
 22
-0.5
 32
0.0
 13
23.9
 23
-0.5
 33
0.0
  0
SOLID
  5
7C
330
1E
100
AcDbEntity
  8
CONSTR
100
AcDbTrace
 10
23.91
 20
-0.22
 30
0.0
 11
23.41
 21
-0.22
 31
0.0
 12
23.91
 22
0.22
 32
0.0
 13
23.41
 23
0.22
 33
0.0
  0
SOLID
  5
7E
330
1E
100
AcDbEntity
  8
CONSTR
100
AcDbTrace
 10
23.9
 20
-2.12
 30
0.0
 11
23.39999999999999
 21
-2.12
 31
0.0
 12
23.9
 22
-1.679999999999999
 32
0.0
 13
23.39999999999999
 23
-1.679999999999999
 33
0.0
  0
SOLID
  5
80
330
1E
100
AcDbEntity
  8
CONSTR
100
AcDbTrace
 10
25.19
 20
-1.27
 30
0.0
 11
25.69
 21
-1.27
 31
0.0
 12
25.19
 22
-2.129999999999999
 32
0.0
 13
25.69
 23
-2.129999999999999
 33
0.0
  0
SOLID
  5
81
330
1E
100
AcDbEntity
  8
METAL1
100
AcDbTrace
 10
25.07
 20
-1.1
 30
0.0
 11
25.92
 21
-1.1
 31
0.0
 12
25.07
 22
-2.299999999999999
 32
0.0
 13
25.92
 23
-2.299999999999999
 33
0.0
  0
SOLID
  5
83
330
1E
100
AcDbEntity
  8
METAL1
100
AcDbTrace
 10
25.07
 20
0.425
 30
0.0
 11
25.92
 21
0.425
 31
0.0
 12
25.07
 22
-0.425
 32
0.0
 13
25.92
 23
-0.425
 33
0.0
  0
SOLID
  5
93
330
1E
100
AcDbEntity
  8
METAL1
100
AcDbTrace
 10
25.19
 20
-1.1
 30
0.0
 11
26.69
 21
-1.1
 31
0.0
 12
25.19
 22
-2.299999999999999
 32
0.0
 13
26.69
 23
-2.299999999999999
 33
0.0
  0
SOLID
  5
94
330
1E
100
AcDbEntity
  8
METAL1
100
AcDbTrace
 10
27.49
 20
-2.299999999999999
 30
0.0
 11
26.69
 21
-2.299999999999999
 31
0.0
 12
27.49
 22
-1.1
 32
0.0
 13
26.69
 23
-1.1
 33
0.0
  0
SOLID
  5
95
330
1E
100
AcDbEntity
  8
METAL1
100
AcDbTrace
 10
27.49
 20
-0.9
 30
0.0
 11
28.29
 21
-0.9
 31
0.0
 12
27.49
 22
-2.5
 32
0.0
 13
28.29
 23
-2.5
 33
0.0
  0
SOLID
  5
96
330
1E
100
AcDbEntity
  8
METAL1
100
AcDbTrace
 10
26.69
 20
-1.7
 30
0.0
 11
26.69
 21
-0.9
 31
0.0
 12
28.29
 22
-1.7
 32
0.0
 13
28.29
 23
-0.9
 33
0.0
  0
SOLID
  5
97
330
1E
100
AcDbEntity
  8
METAL1
100
AcDbTrace
 10
27.61499999999999
 20
-1.7
 30
0.0
 11
27.61499999999999
 21
-2.5
 31
0.0
 12
27.36499999999999
 22
-1.7
 32
0.0
 13
27.36499999999999
 23
-2.5
 33
0.0
  0
SOLID
  5
98
330
1E
100
AcDbEntity
  8
METAL1
100
AcDbTrace
 10
26.6518
 20
-1.55
 30
0.0
 11
26.6518
 21
-0.4324
 31
0.0
 12
28.32819999999999
 22
-1.55
 32
0.0
 13
28.32819999999999
 23
-0.4324
 33
0.0
  0
SOLID
  5
99
330
1E
100
AcDbEntity
  8
METAL1
100
AcDbTrace
 10
26.6518
 20
1.399999999999999
 30
0.0
 11
26.6518
 21
2.517599999999999
 31
0.0
 12
28.32819999999999
 22
1.399999999999999
 32
0.0
 13
28.32819999999999
 23
2.517599999999999
 33
0.0
  0
SOLID
  5
9A
330
1E
100
AcDbEntity
  8
CONSTR
100
AcDbTrace
 10
26.69
 20
-1.074999999999999
 30
0.0
 11
28.29
 21
-1.074999999999999
 31
0.0
 12
26.69
 22
-1.125
 32
0.0
 13
28.29
 23
-1.125
 33
0.0
  0
SOLID
  5
9B
330
1E
100
AcDbEntity
  8
CONSTR
100
AcDbTrace
 10
26.665
 20
-1.1
 30
0.0
 11
26.665
 21
2.1
 31
0.0
 12
26.71499999999999
 22
-1.1
 32
0.0
 13
26.71499999999999
 23
2.1
 33
0.0
  0
SOLID
  5
9C
330
1E
100
AcDbEntity
  8
CONSTR
100
AcDbTrace
 10
28.265
 20
-1.1
 30
0.0
 11
28.265
 21
2.1
 31
0.0
 12
28.315
 22
-1.1
 32
0.0
 13
28.315
 23
2.1
 33
0.0
  0
SOLID
  5
9D
330
1E
100
AcDbEntity
  8
CONSTR
100
AcDbTrace
 10
26.69
 20
2.125
 30
0.0
 11
28.29
 21
2.125
 31
0.0
 12
26.69
 22
2.075
 32
0.0
 13
28.29
 23
2.075
 33
0.0
  0
SOLID
  5
9E
330
1E
100
AcDbEntity
  8
METAL1
100
AcDbTrace
 10
27.36499999999999
 20
1.9
 30
0.0
 11
27.36499999999999
 21
2.9
 31
0.0
 12
27.61499999999999
 22
1.9
 32
0.0
 13
27.61499999999999
 23
2.9
 33
0.0
  0
SOLID
  5
9F
330
1E
100
AcDbEntity
  8
METAL1
100
AcDbTrace
 10
27.36499999999999
 20
2.9
 30
0.0
 11
27.36499999999999
 21
3.149999999999999
 31
0.0
 12
27.36499999999999
 22
2.9
 32
0.0
 13
27.61499999999999
 23
2.9
 33
0.0
  0
SOLID
  5
A0
330
1E
100
AcDbEntity
  8
METAL1
100
AcDbTrace
 10
22.665
 20
3.149999999999999
 30
0.0
 11
27.36499999999999
 21
3.149999999999999
 31
0.0
 12
22.665
 22
2.9
 32
0.0
 13
27.36499999999999
 23
2.9
 33
0.0
  0
SOLID
  5
A1
330
1E
100
AcDbEntity
  8
METAL1
100
AcDbTrace
 10
22.665
 20
2.9
 30
0.0
 11
22.41499999999999
 21
2.9
 31
0.0
 12
22.665
 22
2.9
 32
0.0
 13
22.665
 23
3.149999999999999
 33
0.0
  0
SOLID
  5
A2
330
1E
100
AcDbEntity
  8
METAL1
100
AcDbTrace
 10
21.5618
 20
-0.525
 30
0.0
 11
21.5618
 21
0.5926000000000001
 31
0.0
 12
23.23819999999999
 22
-0.525
 32
0.0
 13
23.23819999999999
 23
0.5926000000000001
 33
0.0
  0
SOLID
  5
A3
330
1E
100
AcDbEntity
  8
METAL1
100
AcDbTrace
 10
21.5618
 20
2.424999999999999
 30
0.0
 11
21.5618
 21
3.5426
 31
0.0
 12
23.23819999999999
 22
2.424999999999999
 32
0.0
 13
23.23819999999999
 23
3.5426
 33
0.0
  0
SOLID
  5
A4
330
1E
100
AcDbEntity
  8
CONSTR
100
AcDbTrace
 10
21.6
 20
-0.05
 30
0.0
 11
23.19999999999999
 21
-0.05
 31
0.0
 12
21.6
 22
-0.1
 32
0.0
 13
23.19999999999999
 23
-0.1
 33
0.0
  0
SOLID
  5
A5
330
1E
100
AcDbEntity
  8
CONSTR
100
AcDbTrace
 10
21.575
 20
-0.075
 30
0.0
 11
21.575
 21
3.125
 31
0.0
 12
21.625
 22
-0.075
 32
0.0
 13
21.625
 23
3.125
 33
0.0
  0
SOLID
  5
A6
330
1E
100
AcDbEntity
  8
CONSTR
100
AcDbTrace
 10
23.175
 20
-0.075
 30
0.0
 11
23.175
 21
3.125
 31
0.0
 12
23.225
 22
-0.075
 32
0.0
 13
23.225
 23
3.125
 33
0.0
  0
SOLID
  5
A7
330
1E
100
AcDbEntity
  8
CONSTR
100
AcDbTrace
 10
21.6
 20
3.149999999999999
 30
0.0
 11
23.19999999999999
 21
3.149999999999999
 31
0.0
 12
21.6
 22
3.1
 32
0.0
 13
23.19999999999999
 23
3.1
 33
0.0
  0
SOLID
  5
A8
330
1E
100
AcDbEntity
  8
METAL1
100
AcDbTrace
 10
27.64
 20
-0.8618
 30
0.0
 11
28.7576
 21
-0.8618
 31
0.0
 12
27.64
 22
-2.538199999999999
 32
0.0
 13
28.7576
 23
-2.538199999999999
 33
0.0
  0
SOLID
  5
A9
330
1E
100
AcDbEntity
  8
METAL1
100
AcDbTrace
 10
30.59
 20
-0.8618
 30
0.0
 11
31.7076
 21
-0.8618
 31
0.0
 12
30.59
 22
-2.538199999999999
 32
0.0
 13
31.7076
 23
-2.538199999999999
 33
0.0
  0
SOLID
  5
AA
330
1E
100
AcDbEntity
  8
CONSTR
100
AcDbTrace
 10
28.115
 20
-0.9
 30
0.0
 11
28.115
 21
-2.5
 31
0.0
 12
28.065
 22
-0.9
 32
0.0
 13
28.065
 23
-2.5
 33
0.0
  0
SOLID
  5
AB
330
1E
100
AcDbEntity
  8
CONSTR
100
AcDbTrace
 10
28.09
 20
-0.875
 30
0.0
 11
31.29
 21
-0.875
 31
0.0
 12
28.09
 22
-0.925
 32
0.0
 13
31.29
 23
-0.925
 33
0.0
  0
SOLID
  5
AC
330
1E
100
AcDbEntity
  8
CONSTR
100
AcDbTrace
 10
28.09
 20
-2.475
 30
0.0
 11
31.29
 21
-2.475
 31
0.0
 12
28.09
 22
-2.524999999999999
 32
0.0
 13
31.29
 23
-2.524999999999999
 33
0.0
  0
SOLID
  5
AD
330
1E
100
AcDbEntity
  8
CONSTR
100
AcDbTrace
 10
31.315
 20
-0.9
 30
0.0
 11
31.315
 21
-2.5
 31
0.0
 12
31.265
 22
-0.9
 32
0.0
 13
31.265
 23
-2.5
 33
0.0
  0
SOLID
  5
AE
330
1E
100
AcDbEntity
  8
METAL1
100
AcDbTrace
 10
31.08999999999999
 20
-0.35
 30
0.0
 11
46.09
 21
-0.35
 31
0.0
 12
31.08999999999999
 22
-3.049999999999999
 32
0.0
 13
46.09
 23
-3.049999999999999
 33
0.0
  0
SOLID
  5
AF
330
1E
100
AcDbEntity
  8
METAL1
100
AcDbTrace
 10
27.36499999999999
 20
-6.5
 30
0.0
 11
27.36499999999999
 21
-2.5
 31
0.0
 12
27.61499999999999
 22
-6.5
 32
0.0
 13
27.61499999999999
 23
-2.5
 33
0.0
  0
SOLID
  5
B0
330
1E
100
AcDbEntity
  8
METAL1
100
AcDbTrace
 10
27.61499999999999
 20
-6.5
 30
0.0
 11
27.61499999999999
 21
-13.7565
 31
0.0
 12
27.36499999999999
 22
-6.5
 32
0.0
 13
27.36499999999999
 23
-13.7565
 33
0.0
  0
SOLID
  5
B1
330
1E
100
AcDbEntity
  8
METAL1
100
AcDbTrace
 10
27.36499999999999
 20
-13.5065
 30
0.0
 11
28.115
 21
-13.5065
 31
0.0
 12
27.36499999999999
 22
-13.7565
 32
0.0
 13
28.115
 23
-13.7565
 33
0.0
  0
SOLID
  5
B2
330
1E
100
AcDbEntity
  8
METAL1
100
AcDbTrace
 10
27.865
 20
-13.5065
 30
0.0
 11
34.87149999999999
 21
-13.5065
 31
0.0
 12
27.865
 22
-13.7565
 32
0.0
 13
34.87149999999999
 23
-13.7565
 33
0.0
  0
SOLID
  5
B3
330
1E
100
AcDbEntity
  8
METAL1
100
AcDbTrace
 10
34.62149999999999
 20
-13.7565
 30
0.0
 11
34.62149999999999
 21
-13.0065
 31
0.0
 12
34.87149999999999
 22
-13.7565
 32
0.0
 13
34.87149999999999
 23
-13.0065
 33
0.0
  0
SOLID
  5
B4
330
1E
100
AcDbEntity
  8
METAL1
100
AcDbTrace
 10
34.62149999999999
 20
-13.2565
 30
0.0
 11
34.62149999999999
 21
-6.5
 31
0.0
 12
34.87149999999999
 22
-13.2565
 32
0.0
 13
34.87149999999999
 23
-6.5
 33
0.0
  0
SOLID
  5
B5
330
1E
100
AcDbEntity
  8
METAL1
100
AcDbTrace
 10
34.87149999999999
 20
-6.75
 30
0.0
 11
34.1215
 21
-6.75
 31
0.0
 12
34.87149999999999
 22
-6.5
 32
0.0
 13
34.1215
 23
-6.5
 33
0.0
  0
SOLID
  5
B6
330
1E
100
AcDbEntity
  8
METAL1
100
AcDbTrace
 10
34.37149999999999
 20
-6.75
 30
0.0
 11
27.865
 21
-6.75
 31
0.0
 12
34.37149999999999
 22
-6.5
 32
0.0
 13
27.865
 23
-6.5
 33
0.0
  0
SOLID
  5
B7
330
1E
100
AcDbEntity
  8
METAL1
100
AcDbTrace
 10
28.115
 20
-6.5
 30
0.0
 11
28.115
 21
-13.2565
 31
0.0
 12
27.865
 22
-6.5
 32
0.0
 13
27.865
 23
-13.2565
 33
0.0
  0
SOLID
  5
B8
330
1E
100
AcDbEntity
  8
METAL1
100
AcDbTrace
 10
27.865
 20
-13.0065
 30
0.0
 11
34.37149999999999
 21
-13.0065
 31
0.0
 12
27.865
 22
-13.2565
 32
0.0
 13
34.37149999999999
 23
-13.2565
 33
0.0
  0
SOLID
  5
B9
330
1E
100
AcDbEntity
  8
METAL1
100
AcDbTrace
 10
34.1215
 20
-13.2565
 30
0.0
 11
34.1215
 21
-7.0
 31
0.0
 12
34.37149999999999
 22
-13.2565
 32
0.0
 13
34.37149999999999
 23
-7.0
 33
0.0
  0
SOLID
  5
BA
330
1E
100
AcDbEntity
  8
METAL1
100
AcDbTrace
 10
34.37149999999999
 20
-7.25
 30
0.0
 11
28.365
 21
-7.25
 31
0.0
 12
34.37149999999999
 22
-7.0
 32
0.0
 13
28.365
 23
-7.0
 33
0.0
  0
SOLID
  5
BB
330
1E
100
AcDbEntity
  8
METAL1
100
AcDbTrace
 10
28.61499999999999
 20
-7.0
 30
0.0
 11
28.61499999999999
 21
-12.7565
 31
0.0
 12
28.365
 22
-7.0
 32
0.0
 13
28.365
 23
-12.7565
 33
0.0
  0
SOLID
  5
BC
330
1E
100
AcDbEntity
  8
METAL1
100
AcDbTrace
 10
28.365
 20
-12.5065
 30
0.0
 11
33.8715
 21
-12.5065
 31
0.0
 12
28.365
 22
-12.7565
 32
0.0
 13
33.8715
 23
-12.7565
 33
0.0
  0
SOLID
  5
BD
330
1E
100
AcDbEntity
  8
METAL1
100
AcDbTrace
 10
33.62149999999999
 20
-12.7565
 30
0.0
 11
33.62149999999999
 21
-12.2565
 31
0.0
 12
33.8715
 22
-12.7565
 32
0.0
 13
33.8715
 23
-12.2565
 33
0.0
  0
SOLID
  5
BE
330
1E
100
AcDbEntity
  8
METAL1
100
AcDbTrace
 10
32.87073926228727
 20
-12.74292158354425
 30
0.0
 11
32.87073926228727
 21
-11.74292158354425
 31
0.0
 12
33.87073926228727
 22
-12.74292158354425
 32
0.0
 13
33.87073926228727
 23
-11.74292158354425
 33
0.0
  0
SOLID
  5
BF
330
1E
100
AcDbEntity
  8
METAL1
100
AcDbTrace
 10
33.46176657804433
 20
-12.17458215998166
 30
0.0
 11
33.21176657804433
 21
-12.17458215998166
 31
0.0
 12
33.46176657804433
 22
-11.92458215998166
 32
0.0
 13
33.21176657804433
 23
-11.92458215998166
 33
0.0
  0
SOLID
  5
C0
330
1E
100
AcDbEntity
  8
CONSTR
100
AcDbTrace
 10
33.46176657804433
 20
-11.79958215998166
 30
0.0
 11
36.46176657804433
 21
-11.79958215998166
 31
0.0
 12
33.46176657804433
 22
-12.29958215998166
 32
0.0
 13
36.46176657804433
 23
-12.29958215998166
 33
0.0
  0
SOLID
  5
C1
330
1E
100
AcDbEntity
  8
METAL1
100
AcDbTrace
 10
37.26176657804433
 20
-12.84958215998166
 30
0.0
 11
36.46176657804433
 21
-12.84958215998166
 31
0.0
 12
37.26176657804433
 22
-11.24958215998166
 32
0.0
 13
36.46176657804433
 23
-11.24958215998166
 33
0.0
  0
SOLID
  5
C2
330
1E
100
AcDbEntity
  8
METAL1
100
AcDbTrace
 10
37.26176657804433
 20
-11.24958215998166
 30
0.0
 11
38.06176657804433
 21
-11.24958215998166
 31
0.0
 12
37.26176657804433
 22
-12.84958215998166
 32
0.0
 13
38.06176657804433
 23
-12.84958215998166
 33
0.0
  0
SOLID
  5
C3
330
1E
100
AcDbEntity
  8
METAL1
100
AcDbTrace
 10
38.06176657804433
 20
-12.04958215998166
 30
0.0
 11
38.06176657804433
 21
-12.84958215998166
 31
0.0
 12
36.46176657804433
 22
-12.04958215998166
 32
0.0
 13
36.46176657804433
 23
-12.84958215998166
 33
0.0
  0
SOLID
  5
C4
330
1E
100
AcDbEntity
  8
METAL1
100
AcDbTrace
 10
41.51176657804433
 20
-12.88778215998166
 30
0.0
 11
40.39416657804433
 21
-12.88778215998166
 31
0.0
 12
41.51176657804433
 22
-11.21138215998166
 32
0.0
 13
40.39416657804433
 23
-11.21138215998166
 33
0.0
  0
SOLID
  5
C5
330
1E
100
AcDbEntity
  8
METAL1
100
AcDbTrace
 10
38.56176657804433
 20
-12.88778215998166
 30
0.0
 11
37.44416657804434
 21
-12.88778215998166
 31
0.0
 12
38.56176657804433
 22
-11.21138215998166
 32
0.0
 13
37.44416657804434
 23
-11.21138215998166
 33
0.0
  0
SOLID
  5
C6
330
1E
100
AcDbEntity
  8
CONSTR
100
AcDbTrace
 10
41.03676657804434
 20
-12.84958215998166
 30
0.0
 11
41.03676657804434
 21
-11.24958215998166
 31
0.0
 12
41.08676657804433
 22
-12.84958215998166
 32
0.0
 13
41.08676657804433
 23
-11.24958215998166
 33
0.0
  0
SOLID
  5
C7
330
1E
100
AcDbEntity
  8
CONSTR
100
AcDbTrace
 10
41.06176657804433
 20
-12.87458215998166
 30
0.0
 11
37.86176657804434
 21
-12.87458215998166
 31
0.0
 12
41.06176657804433
 22
-12.82458215998166
 32
0.0
 13
37.86176657804434
 23
-12.82458215998166
 33
0.0
  0
SOLID
  5
C8
330
1E
100
AcDbEntity
  8
CONSTR
100
AcDbTrace
 10
41.06176657804433
 20
-11.27458215998166
 30
0.0
 11
37.86176657804434
 21
-11.27458215998166
 31
0.0
 12
41.06176657804433
 22
-11.22458215998166
 32
0.0
 13
37.86176657804434
 23
-11.22458215998166
 33
0.0
  0
SOLID
  5
C9
330
1E
100
AcDbEntity
  8
CONSTR
100
AcDbTrace
 10
37.83676657804433
 20
-12.84958215998166
 30
0.0
 11
37.83676657804433
 21
-11.24958215998166
 31
0.0
 12
37.88676657804433
 22
-12.84958215998166
 32
0.0
 13
37.88676657804433
 23
-11.24958215998166
 33
0.0
  0
SOLID
  5
CA
330
1E
100
AcDbEntity
  8
METAL1
100
AcDbTrace
 10
41.66176657804434
 20
-12.84958215998166
 30
0.0
 11
40.86176657804434
 21
-12.84958215998166
 31
0.0
 12
41.66176657804434
 22
-11.24958215998166
 32
0.0
 13
40.86176657804434
 23
-11.24958215998166
 33
0.0
  0
SOLID
  5
CB
330
1E
100
AcDbEntity
  8
METAL1
100
AcDbTrace
 10
41.66176657804434
 20
-11.24958215998166
 30
0.0
 11
42.46176657804433
 21
-11.24958215998166
 31
0.0
 12
41.66176657804434
 22
-12.84958215998166
 32
0.0
 13
42.46176657804433
 23
-12.84958215998166
 33
0.0
  0
SOLID
  5
CC
330
1E
100
AcDbEntity
  8
METAL1
100
AcDbTrace
 10
42.46176657804433
 20
-12.04958215998166
 30
0.0
 11
42.46176657804433
 21
-12.84958215998166
 31
0.0
 12
40.86176657804434
 22
-12.04958215998166
 32
0.0
 13
40.86176657804434
 23
-12.84958215998166
 33
0.0
  0
SOLID
  5
CD
330
1E
100
AcDbEntity
  8
METAL1
100
AcDbTrace
 10
42.49996657804433
 20
-12.19958215998166
 30
0.0
 11
42.49996657804433
 21
-13.31718215998166
 31
0.0
 12
40.82356657804433
 22
-12.19958215998166
 32
0.0
 13
40.82356657804433
 23
-13.31718215998166
 33
0.0
  0
SOLID
  5
CE
330
1E
100
AcDbEntity
  8
METAL1
100
AcDbTrace
 10
42.49996657804433
 20
-15.14958215998166
 30
0.0
 11
42.49996657804433
 21
-16.26718215998166
 31
0.0
 12
40.82356657804433
 22
-15.14958215998166
 32
0.0
 13
40.82356657804433
 23
-16.26718215998166
 33
0.0
  0
SOLID
  5
CF
330
1E
100
AcDbEntity
  8
CONSTR
100
AcDbTrace
 10
42.46176657804433
 20
-12.67458215998166
 30
0.0
 11
40.86176657804434
 21
-12.67458215998166
 31
0.0
 12
42.46176657804433
 22
-12.62458215998166
 32
0.0
 13
40.86176657804434
 23
-12.62458215998166
 33
0.0
  0
SOLID
  5
D0
330
1E
100
AcDbEntity
  8
CONSTR
100
AcDbTrace
 10
42.48676657804433
 20
-12.64958215998166
 30
0.0
 11
42.48676657804433
 21
-15.84958215998166
 31
0.0
 12
42.43676657804433
 22
-12.64958215998166
 32
0.0
 13
42.43676657804433
 23
-15.84958215998166
 33
0.0
  0
SOLID
  5
D1
330
1E
100
AcDbEntity
  8
CONSTR
100
AcDbTrace
 10
40.88676657804433
 20
-12.64958215998166
 30
0.0
 11
40.88676657804433
 21
-15.84958215998166
 31
0.0
 12
40.83676657804433
 22
-12.64958215998166
 32
0.0
 13
40.83676657804433
 23
-15.84958215998166
 33
0.0
  0
SOLID
  5
D2
330
1E
100
AcDbEntity
  8
CONSTR
100
AcDbTrace
 10
42.46176657804433
 20
-15.87458215998166
 30
0.0
 11
40.86176657804434
 21
-15.87458215998166
 31
0.0
 12
42.46176657804433
 22
-15.82458215998166
 32
0.0
 13
40.86176657804434
 23
-15.82458215998166
 33
0.0
  0
SOLID
  5
D3
330
1E
100
AcDbEntity
  8
METAL1
100
AcDbTrace
 10
42.46176657804433
 20
-15.64958215998166
 30
0.0
 11
42.46176657804433
 21
-17.24958215998166
 31
0.0
 12
40.86176657804434
 22
-15.64958215998166
 32
0.0
 13
40.86176657804434
 23
-17.24958215998166
 33
0.0
  0
LWPOLYLINE
  5
D4
330
1E
100
AcDbEntity
  8
METAL1
100
AcDbPolyline
 90
        2
 70
     0
 43
0.2
 10
41.66176657804434
 20
-16.84958215998166
 42
1.0
 10
41.66176657804434
 20
-16.04958215998166
  0
LWPOLYLINE
  5
D9
330
1E
100
AcDbEntity
  8
GND
100
AcDbPolyline
 90
        2
 70
     0
 43
0.2
 10
41.66176657804434
 20
-16.84958215998166
 42
1.0
 10
41.66176657804434
 20
-16.04958215998166
  0
LWPOLYLINE
  5
DD
330
1E
100
AcDbEntity
  8
METAL1
100
AcDbPolyline
 90
        2
 70
     0
 43
0.2
 10
41.66176657804434
 20
-16.04958215998166
 42
1.0
 10
41.66176657804434
 20
-16.84958215998166
  0
LWPOLYLINE
  5
E1
330
1E
100
AcDbEntity
  8
GND
100
AcDbPolyline
 90
        2
 70
     0
 43
0.2
 10
41.66176657804434
 20
-16.04958215998166
 42
1.0
 10
41.66176657804434
 20
-16.84958215998166
  0
SOLID
  5
E5
330
1E
100
AcDbEntity
  8
METAL1
100
AcDbTrace
 10
38.09996657804433
 20
-12.19958215998166
 30
0.0
 11
38.09996657804433
 21
-13.31718215998166
 31
0.0
 12
36.42356657804433
 22
-12.19958215998166
 32
0.0
 13
36.42356657804433
 23
-13.31718215998166
 33
0.0
  0
SOLID
  5
E6
330
1E
100
AcDbEntity
  8
METAL1
100
AcDbTrace
 10
38.09996657804433
 20
-15.14958215998166
 30
0.0
 11
38.09996657804433
 21
-16.26718215998166
 31
0.0
 12
36.42356657804433
 22
-15.14958215998166
 32
0.0
 13
36.42356657804433
 23
-16.26718215998166
 33
0.0
  0
SOLID
  5
E7
330
1E
100
AcDbEntity
  8
CONSTR
100
AcDbTrace
 10
38.06176657804433
 20
-12.67458215998166
 30
0.0
 11
36.46176657804433
 21
-12.67458215998166
 31
0.0
 12
38.06176657804433
 22
-12.62458215998166
 32
0.0
 13
36.46176657804433
 23
-12.62458215998166
 33
0.0
  0
SOLID
  5
E8
330
1E
100
AcDbEntity
  8
CONSTR
100
AcDbTrace
 10
38.08676657804433
 20
-12.64958215998166
 30
0.0
 11
38.08676657804433
 21
-15.84958215998166
 31
0.0
 12
38.03676657804433
 22
-12.64958215998166
 32
0.0
 13
38.03676657804433
 23
-15.84958215998166
 33
0.0
  0
SOLID
  5
E9
330
1E
100
AcDbEntity
  8
CONSTR
100
AcDbTrace
 10
36.48676657804434
 20
-12.64958215998166
 30
0.0
 11
36.48676657804434
 21
-15.84958215998166
 31
0.0
 12
36.43676657804433
 22
-12.64958215998166
 32
0.0
 13
36.43676657804433
 23
-15.84958215998166
 33
0.0
  0
SOLID
  5
EA
330
1E
100
AcDbEntity
  8
CONSTR
100
AcDbTrace
 10
38.06176657804433
 20
-15.87458215998166
 30
0.0
 11
36.46176657804433
 21
-15.87458215998166
 31
0.0
 12
38.06176657804433
 22
-15.82458215998166
 32
0.0
 13
36.46176657804433
 23
-15.82458215998166
 33
0.0
  0
SOLID
  5
EB
330
1E
100
AcDbEntity
  8
METAL1
100
AcDbTrace
 10
38.06176657804433
 20
-15.64958215998166
 30
0.0
 11
38.06176657804433
 21
-17.24958215998166
 31
0.0
 12
36.46176657804433
 22
-15.64958215998166
 32
0.0
 13
36.46176657804433
 23
-17.24958215998166
 33
0.0
  0
LWPOLYLINE
  5
EC
330
1E
100
AcDbEntity
  8
METAL1
100
AcDbPolyline
 90
        2
 70
     0
 43
0.2
 10
37.26176657804433
 20
-16.84958215998166
 42
1.0
 10
37.26176657804433
 20
-16.04958215998166
  0
LWPOLYLINE
  5
F0
330
1E
100
AcDbEntity
  8
GND
100
AcDbPolyline
 90
        2
 70
     0
 43
0.2
 10
37.26176657804433
 20
-16.84958215998166
 42
1.0
 10
37.26176657804433
 20
-16.04958215998166
  0
LWPOLYLINE
  5
F4
330
1E
100
AcDbEntity
  8
METAL1
100
AcDbPolyline
 90
        2
 70
     0
 43
0.2
 10
37.26176657804433
 20
-16.04958215998166
 42
1.0
 10
37.26176657804433
 20
-16.84958215998166
  0
LWPOLYLINE
  5
F8
330
1E
100
AcDbEntity
  8
GND
100
AcDbPolyline
 90
        2
 70
     0
 43
0.2
 10
37.26176657804433
 20
-16.04958215998166
 42
1.0
 10
37.26176657804433
 20
-16.84958215998166
  0
SOLID
  5
10B
330
1E
100
AcDbEntity
  8
METAL1
100
AcDbTrace
 10
23.9
 20
-1.31
 30
0.0
 11
23.9
 21
-2.509999999999999
 31
0.0
 12
22.7
 22
-1.31
 32
0.0
 13
22.7
 23
-2.509999999999999
 33
0.0
  0
LWPOLYLINE
  5
10C
330
1E
100
AcDbEntity
  8
METAL1
100
AcDbPolyline
 90
        2
 70
     0
 43
0.2
 10
23.3
 20
-2.31
 42
1.0
 10
23.3
 20
-1.509999999999999
  0
LWPOLYLINE
  5
110
330
1E
100
AcDbEntity
  8
GND
100
AcDbPolyline
 90
        2
 70
     0
 43
0.2
 10
23.3
 20
-2.31
 42
1.0
 10
23.3
 20
-1.509999999999999
  0
LWPOLYLINE
  5
114
330
1E
100
AcDbEntity
  8
METAL1
100
AcDbPolyline
 90
        2
 70
     0
 43
0.2
 10
23.3
 20
-1.509999999999999
 42
1.0
 10
23.3
 20
-2.31
  0
LWPOLYLINE
  5
118
330
1E
100
AcDbEntity
  8
GND
100
AcDbPolyline
 90
        2
 70
     0
 43
0.2
 10
23.3
 20
-1.509999999999999
 42
1.0
 10
23.3
 20
-2.31
  0
SOLID
  5
11C
330
1E
100
AcDbEntity
  8
METAL1
100
AcDbTrace
 10
1.42538153540558
 20
-4.8
 30
0.0
 11
1.42538153540558
 21
-3.682399999999999
 31
0.0
 12
3.101781535405581
 22
-4.8
 32
0.0
 13
3.101781535405581
 23
-3.682399999999999
 33
0.0
  0
SOLID
  5
11D
330
1E
100
AcDbEntity
  8
METAL1
100
AcDbTrace
 10
1.42538153540558
 20
-1.849999999999999
 30
0.0
 11
1.42538153540558
 21
-0.7324000000000002
 31
0.0
 12
3.101781535405581
 22
-1.849999999999999
 32
0.0
 13
3.101781535405581
 23
-0.7324000000000002
 33
0.0
  0
SOLID
  5
11E
330
1E
100
AcDbEntity
  8
CONSTR
100
AcDbTrace
 10
1.46358153540558
 20
-4.324999999999999
 30
0.0
 11
3.06358153540558
 21
-4.324999999999999
 31
0.0
 12
1.46358153540558
 22
-4.375
 32
0.0
 13
3.06358153540558
 23
-4.375
 33
0.0
  0
SOLID
  5
11F
330
1E
100
AcDbEntity
  8
CONSTR
100
AcDbTrace
 10
1.43858153540558
 20
-4.349999999999999
 30
0.0
 11
1.43858153540558
 21
-1.15
 31
0.0
 12
1.488581535405581
 22
-4.349999999999999
 32
0.0
 13
1.488581535405581
 23
-1.15
 33
0.0
  0
SOLID
  5
120
330
1E
100
AcDbEntity
  8
CONSTR
100
AcDbTrace
 10
3.03858153540558
 20
-4.349999999999999
 30
0.0
 11
3.03858153540558
 21
-1.15
 31
0.0
 12
3.08858153540558
 22
-4.349999999999999
 32
0.0
 13
3.08858153540558
 23
-1.15
 33
0.0
  0
SOLID
  5
121
330
1E
100
AcDbEntity
  8
CONSTR
100
AcDbTrace
 10
1.46358153540558
 20
-1.125
 30
0.0
 11
3.06358153540558
 21
-1.125
 31
0.0
 12
1.46358153540558
 22
-1.175
 32
0.0
 13
3.06358153540558
 23
-1.175
 33
0.0
  0
SOLID
  5
122
330
1E
100
AcDbEntity
  8
METAL1
100
AcDbTrace
 10
3.06358153540558
 20
-5.75
 30
0.0
 11
1.46358153540558
 21
-5.75
 31
0.0
 12
3.06358153540558
 22
-4.15
 32
0.0
 13
1.46358153540558
 23
-4.15
 33
0.0
  0
LWPOLYLINE
  5
123
330
1E
100
AcDbEntity
  8
METAL1
100
AcDbPolyline
 90
        2
 70
     0
 43
0.2
 10
2.26358153540558
 20
-5.349999999999999
 42
1.0
 10
2.26358153540558
 20
-4.549999999999999
  0
LWPOLYLINE
  5
127
330
1E
100
AcDbEntity
  8
GND
100
AcDbPolyline
 90
        2
 70
     0
 43
0.2
 10
2.26358153540558
 20
-5.349999999999999
 42
1.0
 10
2.26358153540558
 20
-4.549999999999999
  0
LWPOLYLINE
  5
12B
330
1E
100
AcDbEntity
  8
METAL1
100
AcDbPolyline
 90
        2
 70
     0
 43
0.2
 10
2.26358153540558
 20
-4.549999999999999
 42
1.0
 10
2.26358153540558
 20
-5.349999999999999
  0
LWPOLYLINE
  5
12F
330
1E
100
AcDbEntity
  8
GND
100
AcDbPolyline
 90
        2
 70
     0
 43
0.2
 10
2.26358153540558
 20
-4.549999999999999
 42
1.0
 10
2.26358153540558
 20
-5.349999999999999
  0
TEXT
  5
134
330
1E
100
AcDbEntity
  8
ERROR
100
AcDbText
 10
22.20666666666666
 20
2.774999999999999
 30
0.0
 40
0.25
  1
244
 72
     4
 11
22.54
 21
2.9
 31
0.0
100
AcDbText
  0
CIRCLE
  5
135
330
1E
100
AcDbEntity
  8
ERROR
100
AcDbCircle
 10
22.54
 20
2.9
 30
0.0
 40
0.5
  0
TEXT
  5
136
330
1E
100
AcDbEntity
  8
ERROR
100
AcDbText
 10
22.06666666666666
 20
2.799999999999999
 30
0.0
 40
0.25
  1
244
 72
     4
 11
22.39999999999999
 21
2.924999999999999
 31
0.0
100
AcDbText
  0
CIRCLE
  5
137
330
1E
100
AcDbEntity
  8
ERROR
100
AcDbCircle
 10
22.39999999999999
 20
2.924999999999999
 30
0.0
 40
0.5
  0
MTEXT
  5
160
330
1E
100
AcDbEntity
  8
METAL1
370
    30
100
AcDbMText
 10
22.49126387716532
 20
15.06002152559197
 30
0.0
 40
1.8
 41
57.7028
 71
     5
 72
     5
  1
BFP196 HI-DYNAMIC 222 MHz LNA YU1AW
 73
     1
 44
1.0
  0
LWPOLYLINE
  5
191
330
1E
100
AcDbEntity
  8
0
100
AcDbPolyline
 90
        4
 70
     1
 43
0.0
 10
-6.187841860961768
 20
-21.37467834981624
 10
48.81215813903823
 20
-21.37467834981624
 10
48.81215813903823
 20
18.62532165018375
 10
-6.187841860961768
 20
18.62532165018375
  0
DIMENSION
  5
192
330
1E
100
AcDbEntity
  8
0
100
AcDbDimension
  2
*D4
 10
48.7957040109659
 20
22.32688568026045
 30
0.0
 11
21.30393107500206
 21
22.32688568026045
 31
0.0
 70
    32
 71
     5
 42
54.98354587192769
  3
Standard
100
AcDbAlignedDimension
 13
-6.187841860961782
 23
20.64086859531823
 33
0.0
 14
48.7957040109659
 24
20.64086859531823
 34
0.0
100
AcDbRotatedDimension
1001
ACAD
1000
DSTYLE
1002
{
1070
   271
1070
     0
1002
}
  0
DIMENSION
  5
1A0
330
1E
100
AcDbEntity
  8
0
100
AcDbDimension
  2
*D5
 10
52.8435723776896
 20
18.61764801720972
 30
0.0
 11
52.84357237768959
 21
-1.378515166303244
 31
0.0
 70
    32
 71
     5
 42
39.99232636702595
  3
Standard
100
AcDbAlignedDimension
 13
50.88710267070173
 23
-21.37467834981622
 33
0.0
 14
50.88710267070173
 24
18.61764801720972
 34
0.0
 50
90.0
100
AcDbRotatedDimension
1001
ACAD
1000
DSTYLE
1002
{
1070
   271
1070
     0
1002
}
  0
SOLID
  5
31F
330
1E
100
AcDbEntity
  8
METAL1
100
AcDbTrace
 10
42.36765729203127
 20
-8.205895625445979
 30
0.0
 11
42.36765729203127
 21
-9.805895625445977
 31
0.0
 12
40.76765729203127
 22
-8.205895625445979
 32
0.0
 13
40.76765729203127
 23
-9.805895625445977
 33
0.0
  0
LWPOLYLINE
  5
320
330
1E
100
AcDbEntity
  8
GND
100
AcDbPolyline
 90
        2
 70
     0
 43
0.2
 10
41.56765729203127
 20
-8.605895625445977
 42
1.0
 10
41.56765729203127
 20
-9.405895625445978
  0
LWPOLYLINE
  5
321
330
1E
100
AcDbEntity
  8
GND
100
AcDbPolyline
 90
        2
 70
     0
 43
0.2
 10
41.56765729203127
 20
-9.405895625445978
 42
1.0
 10
41.56765729203127
 20
-8.605895625445977
  0
SOLID
  5
328
330
1E
100
AcDbEntity
  8
METAL1
100
AcDbTrace
 10
42.32885833680349
 20
-5.21942789769756
 30
0.0
 11
42.32885833680349
 21
-6.819427897697558
 31
0.0
 12
40.72885833680349
 22
-5.21942789769756
 32
0.0
 13
40.72885833680349
 23
-6.819427897697558
 33
0.0
  0
MTEXT
  5
343
330
1E
100
AcDbEntity
  8
CONSTR
100
AcDbMText
 10
39.30536631299947
 20
-5.507582990858423
 30
0.0
 40
0.6
 41
2.423099999999999
 71
     1
 72
     5
  1
10uH
 11
0.0000000000000001
 21
1.0
 31
0.0
 73
     1
 44
1.0
  0
INSERT
  5
344
330
1E
100
AcDbEntity
  8
CONSTR
100
AcDbBlockReference
  2
rfc
 10
71.00905141705492
 20
22.84724049447754
 30
0.0
 41
5.747672421525734
 42
5.747672421525731
 43
5.747672421525731
 50
180.0
  0
INSERT
  5
345
330
1E
100
AcDbEntity
  8
CONSTR
100
AcDbBlockReference
  2
tri
 10
42.86984923665052
 20
-20.04353127491176
 30
0.0
 50
45.00000000000007
  0
INSERT
  5
346
330
1E
100
AcDbEntity
  8
CONSTR
100
AcDbBlockReference
  2
elkon
 10
46.90449551325298
 20
-0.187441466558127
 30
0.0
 50
180.0
  0
LWPOLYLINE
  5
347
330
1E
100
AcDbEntity
  8
CONSTR
100
AcDbPolyline
 90
        2
 70
     0
 43
0.0
 10
42.62589703666867
 20
-9.037746770706206
 10
42.16234267702087
 20
-8.999214090384086
  0
MTEXT
  5
348
330
1E
100
AcDbEntity
  8
CONSTR
100
AcDbMText
 10
39.05215487531265
 20
-8.991269035568215
 30
0.0
 40
0.6
 41
1.6775
 71
     1
 72
     5
  1
1uF
 73
     1
 44
1.0
  0
LWPOLYLINE
  5
349
330
1E
100
AcDbEntity
  8
CONSTR
100
AcDbPolyline
 90
        2
 70
     0
 43
0.0
 10
42.54145148932482
 20
-10.34147286492154
 10
42.73474069094395
 20
-9.684718707889331
  0
LWPOLYLINE
  5
34B
330
1E
100
AcDbEntity
  8
CONSTR
100
AcDbPolyline
 90
        2
 70
     0
 43
0.0
 10
42.43537719385318
 20
-6.954587684457635
 10
42.55113779473583
 20
-7.572646601251427
  0
LWPOLYLINE
  5
34C
330
1E
100
AcDbEntity
  8
CONSTR
100
AcDbPolyline
 90
        2
 70
     0
 43
0.0
 10
42.56818573046055
 20
-7.602926865675343
 10
42.68394633134319
 20
-8.220985782469135
  0
MTEXT
  5
34E
330
1E
100
AcDbEntity
  8
CONSTR
100
AcDbMText
 10
41.57423864007022
 20
2.085705183999962
 30
0.0
 40
1.6
 41
8.2675
 71
     1
 72
     5
  1
Rx
 73
     1
 44
1.0
  0
INSERT
  5
34F
330
1E
100
AcDbEntity
  8
CONSTR
100
AcDbBlockReference
  2
elkon
 10
34.91369221149872
 20
-17.68352457399966
 30
0.0
  0
MTEXT
  5
356
330
1E
100
AcDbEntity
  8
CONSTR
100
AcDbMText
 10
31.80596168251428
 20
-13.92024065580936
 30
0.0
 40
0.6
 41
6.372399999999999
 71
     1
 72
     5
  1
0.3-0.4mm\PCul
 73
     1
 44
1.0
  0
MTEXT
  5
35D
330
1E
100
AcDbEntity
  8
CONSTR
100
AcDbMText
 10
44.14920771270227
 20
-10.42848760362619
 30
0.0
 40
0.5999999999999999
 41
3.075399999999999
 71
     1
 72
     5
  1
78L10
 11
-0.0031168054897748
 21
0.999995142749973
 31
0.0
 73
     1
 44
1.0
  0
MTEXT
  5
364
330
1E
100
AcDbEntity
  8
CONSTR
100
AcDbMText
 10
38.94982177467765
 20
-6.646720493545622
 30
0.0
 40
0.6
 41
1.6775
 71
     1
 72
     5
  1
1uF
 73
     1
 44
1.0
  0
MTEXT
  5
36B
330
1E
100
AcDbEntity
  8
CONSTR
100
AcDbMText
 10
41.13805547154678
 20
-15.02587149109241
 30
0.0
 40
0.6
 41
5.8379
 71
     1
 72
     5
  1
20nF
 11
0.0000000000000001
 21
1.0
 31
0.0
 73
     1
 44
1.0
  0
MTEXT
  5
372
330
1E
100
AcDbEntity
  8
CONSTR
100
AcDbMText
 10
38.71132643924325
 20
-11.68357987495684
 30
0.0
 40
0.6
 41
3.8919
 71
     1
 72
     5
  1
82
 73
     1
 44
1.0
  0
MTEXT
  5
379
330
1E
100
AcDbEntity
  8
CONSTR
100
AcDbMText
 10
36.81214723092252
 20
-15.02587146636298
 30
0.0
 40
0.5
 41
5.9263
 71
     1
 72
     5
  1
150pF
 11
0.0000000000000001
 21
1.0
 31
0.0
 73
     1
 44
1.0
  0
SOLID
  5
395
330
1E
100
AcDbEntity
  8
CONSTR
100
AcDbTrace
 10
23.85020383986798
 20
0.0312312229953022
 30
0.0
 11
23.85020383986798
 21
0.5412312229953074
 31
0.0
 12
23.90020383986799
 22
0.0312312229953022
 32
0.0
 13
23.90020383986799
 23
0.5412312229953074
 33
0.0
  0
SOLID
  5
396
330
1E
100
AcDbEntity
  8
CONSTR
100
AcDbTrace
 10
23.88520383986799
 20
-0.1887687770046966
 30
0.0
 11
23.38520383986798
 21
-0.1887687770046966
 31
0.0
 12
23.88520383986799
 22
0.2512312229953011
 32
0.0
 13
23.38520383986798
 23
0.2512312229953011
 33
0.0
  0
SOLID
  5
397
330
1E
100
AcDbEntity
  8
CONSTR
100
AcDbTrace
 10
23.87520383986798
 20
-2.088768777004702
 30
0.0
 11
23.37520383986798
 21
-2.088768777004702
 31
0.0
 12
23.87520383986798
 22
-1.648768777004697
 32
0.0
 13
23.37520383986798
 23
-1.648768777004697
 33
0.0
  0
SOLID
  5
398
330
1E
100
AcDbEntity
  8
CONSTR
100
AcDbTrace
 10
25.16520383986799
 20
-1.238768777004693
 30
0.0
 11
25.66520383986798
 21
-1.238768777004693
 31
0.0
 12
25.16520383986799
 22
-2.098768777004693
 32
0.0
 13
25.66520383986798
 23
-2.098768777004693
 33
0.0
  0
SOLID
  5
399
330
1E
100
AcDbEntity
  8
CONSTR
100
AcDbTrace
 10
25.16520383986799
 20
0.2512312229953011
 30
0.0
 11
25.66520383986798
 21
0.2512312229953011
 31
0.0
 12
25.16520383986799
 22
-0.1887687770046966
 32
0.0
 13
25.66520383986798
 23
-0.1887687770046966
 33
0.0
  0
SOLID
  5
39A
330
1E
100
AcDbEntity
  8
CONSTR
100
AcDbTrace
 10
23.85020383986798
 20
-2.378768777004694
 30
0.0
 11
23.85020383986798
 21
0.0312312229953022
 31
0.0
 12
23.90020383986799
 22
-2.378768777004694
 32
0.0
 13
23.90020383986799
 23
0.0312312229953022
 33
0.0
  0
SOLID
  5
39B
330
1E
100
AcDbEntity
  8
CONSTR
100
AcDbTrace
 10
23.87520383986798
 20
0.5662312229952989
 30
0.0
 11
25.16520383986799
 21
0.5662312229952989
 31
0.0
 12
23.87520383986798
 22
0.5162312229953017
 32
0.0
 13
25.16520383986799
 23
0.5162312229953017
 33
0.0
  0
SOLID
  5
39C
330
1E
100
AcDbEntity
  8
CONSTR
100
AcDbTrace
 10
25.19020383986799
 20
0.5412312229953074
 30
0.0
 11
25.19020383986799
 21
-2.378768777004694
 31
0.0
 12
25.14020383986798
 22
0.5412312229953074
 32
0.0
 13
25.14020383986798
 23
-2.378768777004694
 33
0.0
  0
SOLID
  5
39D
330
1E
100
AcDbEntity
  8
CONSTR
100
AcDbTrace
 10
25.16520383986799
 20
-2.4037687770047
 30
0.0
 11
23.87520383986798
 21
-2.4037687770047
 31
0.0
 12
25.16520383986799
 22
-2.353768777004695
 32
0.0
 13
23.87520383986798
 23
-2.353768777004695
 33
0.0
  0
CIRCLE
  5
39E
330
1E
100
AcDbEntity
  8
CONSTR
370
    30
100
AcDbCircle
 10
17.91873748888538
 20
-0.0775454791974681
 30
0.0
 40
1.136483575809477
  0
LWPOLYLINE
  5
39F
330
1E
100
AcDbEntity
  8
CONSTR
370
    30
100
AcDbPolyline
 90
        2
 70
     0
 43
0.0
 10
16.82858434569293
 20
-0.1683577559748954
 10
18.96346749410038
 20
-0.1683577559748954
  0
LWPOLYLINE
  5
3A0
330
1E
100
AcDbEntity
  8
CONSTR
370
    30
100
AcDbPolyline
 90
        2
 70
     0
 43
0.0
 10
16.91943049410276
 20
0.0132668856442848
 10
19.05431364251022
 20
0.0132668856442848
  0
MTEXT
  5
3A1
330
1E
100
AcDbEntity
  8
CONSTR
100
AcDbMText
 10
22.22507051472633
 20
1.25371445340744
 30
0.0
 40
0.6
 41
3.4054
 71
     1
 72
     5
  1
1k
 11
0.0000000000000001
 21
1.0
 31
0.0
 73
     1
 44
1.0
  0
MTEXT
  5
3A2
330
1E
100
AcDbEntity
  8
CONSTR
100
AcDbMText
 10
28.77057327745848
 20
-1.222041902742077
 30
0.0
 40
0.6
 41
5.1303
 71
     1
 72
     5
  1
4.7pF
 73
     1
 44
1.0
  0
MTEXT
  5
3A3
330
1E
100
AcDbEntity
  8
CONSTR
100
AcDbMText
 10
24.34793624274083
 20
-2.327290273724884
 30
0.0
 40
0.5
 41
2.816399999999999
 71
     1
 72
     5
  1
BFP196
 11
0.0000000000000001
 21
1.0
 31
0.0
 73
     1
 44
1.0
  0
MTEXT
  5
3A4
330
1E
100
AcDbEntity
  8
CONSTR
100
AcDbMText
 10
27.00151818408722
 20
-0.2494232520770225
 30
0.0
 40
0.4
 41
2.770999999999999
 71
     1
 72
     5
  1
33k+\P10nF
 11
0.0000000000000001
 21
1.0
 31
0.0
 73
     1
 44
1.0
  0
MTEXT
  5
3A5
330
1E
100
AcDbEntity
  8
CONSTR
100
AcDbMText
 10
15.83076121433225
 20
6.129134245208049
 30
0.0
 40
1.199999999999999
 41
7.449799999999999
 71
     1
 72
     5
  1
C{\H0.5x;trimer}
 73
     1
 44
1.0
  0
MTEXT
  5
3A6
330
1E
100
AcDbEntity
  8
CONSTR
100
AcDbMText
 10
16.36415674197152
 20
-4.095687703347763
 30
0.0
 40
0.6
 41
5.1303
 71
     1
 72
     5
  1
1-5pF\P(2.5pf)
 73
     1
 44
1.0
  0
CIRCLE
  5
3A7
330
1E
100
AcDbEntity
  8
CONSTR
370
    30
100
AcDbCircle
 10
17.8696496837247
 20
-0.0355831553324606
 30
0.0
 40
3.12552617030451
  0
MTEXT
  5
3B1
330
1E
100
AcDbEntity
  8
CONSTR
100
AcDbMText
 10
5.845853073402338
 20
-3.432580503482725
 30
0.0
 40
0.8
 41
13.3098
 71
     1
 72
     5
  1
n=7zav.\PD=8mm\Pl=10mm\Pd=1mm CuAg
 73
     1
 44
1.0
  0
MTEXT
  5
3B2
330
1E
100
AcDbEntity
  8
CONSTR
100
AcDbMText
 10
1.838923034260261
 20
-3.555778421375663
 30
0.0
 40
0.6
 41
3.3612
 71
     1
 72
     5
  1
22pF
 11
0.0000000000000001
 21
1.0
 31
0.0
 73
     1
 44
1.0
  0
MTEXT
  5
3B3
330
1E
100
AcDbEntity
  8
CONSTR
100
AcDbMText
 10
-3.556694209833779
 20
4.420979520689883
 30
0.0
 40
1.6
 41
10.6296
 71
     1
 72
     5
  1
Ant
 73
     1
 44
1.0
  0
MTEXT
  5
3B4
330
1E
100
AcDbEntity
  8
CONSTR
100
AcDbMText
 10
6.779830841136387
 20
5.918336565694232
 30
0.0
 40
1.199999999999999
 41
3.8612
 71
     1
 72
     5
  1
L
 73
     1
 44
1.0
  0
LWPOLYLINE
  5
3EF
330
1E
100
AcDbEntity
  8
CONSTR
100
AcDbPolyline
 90
        2
 70
     0
 43
0.0
 10
4.198816958080865
 20
2.223512679087065
 10
4.835138927019254
 20
-2.17726032510086
  0
LWPOLYLINE
  5
3F0
330
1E
100
AcDbEntity
  8
CONSTR
100
AcDbPolyline
 90
        2
 70
     0
 43
0.0
 10
6.500182998538896
 20
-0.015261229958206
 10
6.860302908872125
 20
2.245654935261001
  0
LWPOLYLINE
  5
3F1
330
1E
100
AcDbEntity
  8
CONSTR
100
AcDbPolyline
 90
        2
 70
     0
 43
0.0
 10
5.173076119765259
 20
-0.0387737262908914
 10
5.532326483368084
 20
2.234583881788879
  0
LWPOLYLINE
  5
3F2
330
1E
100
AcDbEntity
  8
CONSTR
100
AcDbPolyline
 90
        2
 70
     0
 43
0.0
 10
5.488060592585986
 20
-2.17726032510086
 10
4.840672126122132
 20
2.217977152351011
  0
LWPOLYLINE
  5
3F3
330
1E
100
AcDbEntity
  8
CONSTR
100
AcDbPolyline
 90
        2
 70
     0
 43
0.0
 10
5.532326483368084
 20
2.240119408524947
 10
6.168648551626169
 20
-2.182796001066606
  0
LWPOLYLINE
  5
3F4
330
1E
100
AcDbEntity
  8
CONSTR
100
AcDbPolyline
 90
        2
 70
     0
 43
0.0
 10
6.179714949831941
 20
2.234583881788879
 10
6.810503719667455
 20
-2.193867054538728
  0
LWPOLYLINE
  5
3F5
330
1E
100
AcDbEntity
  8
CONSTR
100
AcDbPolyline
 90
        2
 70
     0
 43
0.0
 10
4.215416654709187
 20
2.323152757254931
 10
3.765440385907252
 20
-0.4218422078187203
  0
ARC
  5
3F6
330
1E
100
AcDbEntity
  8
CONSTR
100
AcDbCircle
 10
4.520530932308966
 20
2.217310044105502
 30
0.0
 40
0.3256099016146134
100
AcDbArc
 50
359.9495733215438
 51
180.0504266784561
  0
ARC
  5
3F7
330
1E
100
AcDbEntity
  8
CONSTR
100
AcDbCircle
 10
5.855515618649571
 20
2.236872462723582
 30
0.0
 40
0.3256099016146134
100
AcDbArc
 50
356.5051155470028
 51
183.4948844529971
  0
ARC
  5
3F8
330
1E
100
AcDbEntity
  8
CONSTR
100
AcDbCircle
 10
7.187016844660869
 20
2.229166064448733
 30
0.0
 40
0.3256099016146134
100
AcDbArc
 50
357.8628392357289
 51
2.662741806488529
  0
LWPOLYLINE
  5
3F9
330
1E
100
AcDbEntity
  8
CONSTR
100
AcDbPolyline
 90
        4
 70
     1
 43
0.0
 10
8.89214948497457
 20
2.532788051491372
 10
8.89214948497457
 20
2.532788051491372
 10
8.89214948497457
 20
2.532788051491372
 10
8.89214948497457
 20
2.532788051491372
  0
LWPOLYLINE
  5
3FA
330
1E
100
AcDbEntity
  8
CONSTR
100
AcDbPolyline
 90
        2
 70
     0
 43
0.0
 10
5.488060592585986
 20
-2.17726032510086
 10
5.842331136138586
 20
0.085354668812002
  0
LINE
  5
3FB
330
1E
100
AcDbEntity
  8
CONSTR
100
AcDbLine
 10
4.412875053774246
 20
-0.4209149966884099
 30
0.0
 11
4.502287049322772
 21
0.1247277081015454
 31
0.0
  0
ARC
  5
3FC
330
1E
100
AcDbEntity
  8
CONSTR
100
AcDbCircle
 10
5.160487583109491
 20
-2.173573084230341
 30
0.0
 40
0.3256099016146134
100
AcDbArc
 50
180.6813662363378
 51
359.3186337636621
  0
LWPOLYLINE
  5
3FD
330
1E
100
AcDbEntity
  8
CONSTR
100
AcDbPolyline
 90
        2
 70
     0
 43
0.0
 10
6.810503719667455
 20
-2.171724798364792
 10
7.165387249018216
 20
0.0739989036496951
  0
ARC
  5
3FE
330
1E
100
AcDbEntity
  8
CONSTR
100
AcDbCircle
 10
6.487804955785342
 20
-2.173573084230341
 30
0.0
 40
0.3256099016146134
100
AcDbArc
 50
180.6813662363378
 51
359.3186337636621
  0
LWPOLYLINE
  5
3FF
330
1E
100
AcDbEntity
  8
CONSTR
100
AcDbPolyline
 90
        2
 70
     0
 43
0.0
 10
6.877785455825359
 20
2.266523151845795
 10
7.514107424763746
 20
-2.134249852342122
  0
LWPOLYLINE
  5
400
330
1E
100
AcDbEntity
  8
CONSTR
100
AcDbPolyline
 90
        2
 70
     0
 43
0.0
 10
9.17915149628339
 20
0.0277492428005388
 10
9.539271406616617
 20
2.288665408019738
  0
LWPOLYLINE
  5
401
330
1E
100
AcDbEntity
  8
CONSTR
100
AcDbPolyline
 90
        2
 70
     0
 43
0.0
 10
7.852044617509752
 20
0.0042367464678463
 10
8.211294981112576
 20
2.277594354547616
  0
LWPOLYLINE
  5
402
330
1E
100
AcDbEntity
  8
CONSTR
100
AcDbPolyline
 90
        2
 70
     0
 43
0.0
 10
8.16702909033048
 20
-2.134249852342122
 10
7.519640623866628
 20
2.260987625109748
  0
LWPOLYLINE
  5
403
330
1E
100
AcDbEntity
  8
CONSTR
100
AcDbPolyline
 90
        2
 70
     0
 43
0.0
 10
8.211294981112576
 20
2.283129881283684
 10
8.847617049370667
 20
-2.139785528307868
  0
LWPOLYLINE
  5
404
330
1E
100
AcDbEntity
  8
CONSTR
100
AcDbPolyline
 90
        2
 70
     0
 43
0.0
 10
8.858683447576433
 20
2.277594354547616
 10
9.489472217411952
 20
-2.15085658177999
  0
ARC
  5
405
330
1E
100
AcDbEntity
  8
CONSTR
100
AcDbCircle
 10
7.19949943005346
 20
2.26032051686424
 30
0.0
 40
0.3256099016146134
100
AcDbArc
 50
359.9495733215438
 51
180.0504266784561
  0
ARC
  5
406
330
1E
100
AcDbEntity
  8
CONSTR
100
AcDbCircle
 10
8.534484116394065
 20
2.279882935482319
 30
0.0
 40
0.3256099016146134
100
AcDbArc
 50
356.5051155470028
 51
183.4948844529971
  0
LWPOLYLINE
  5
407
330
1E
100
AcDbEntity
  8
CONSTR
100
AcDbPolyline
 90
        2
 70
     0
 43
0.0
 10
8.16702909033048
 20
-2.134249852342122
 10
8.52129963388308
 20
0.1283651415707396
  0
ARC
  5
408
330
1E
100
AcDbEntity
  8
CONSTR
100
AcDbCircle
 10
7.839456080853985
 20
-2.130562611471603
 30
0.0
 40
0.3256099016146134
100
AcDbArc
 50
180.6813662363378
 51
359.3186337636621
  0
LWPOLYLINE
  5
409
330
1E
100
AcDbEntity
  8
CONSTR
100
AcDbPolyline
 90
        2
 70
     0
 43
0.0
 10
9.489472217411952
 20
-2.128714325606054
 10
9.84435574676271
 20
0.1170093764084328
  0
ARC
  5
40A
330
1E
100
AcDbEntity
  8
CONSTR
100
AcDbCircle
 10
9.166773453529835
 20
-2.130562611471603
 30
0.0
 40
0.3256099016146134
100
AcDbArc
 50
180.6813662363378
 51
359.3186337636621
  0
LWPOLYLINE
  5
40B
330
1E
100
AcDbEntity
  8
CONSTR
100
AcDbPolyline
 90
        2
 70
     0
 43
0.0
 10
10.51821997034797
 20
0.0364250163028714
 10
10.8783398806812
 20
2.297341181522078
  0
LWPOLYLINE
  5
40C
330
1E
100
AcDbEntity
  8
CONSTR
100
AcDbPolyline
 90
        2
 70
     0
 43
0.0
 10
9.550363455177162
 20
2.291805654786024
 10
10.18668552343525
 20
-2.131109754805528
  0
LWPOLYLINE
  5
40D
330
1E
100
AcDbEntity
  8
CONSTR
100
AcDbPolyline
 90
        2
 70
     0
 43
0.0
 10
10.19775192164102
 20
2.286270128049956
 10
10.82854069147653
 20
-2.14218080827765
  0
ARC
  5
40E
330
1E
100
AcDbEntity
  8
CONSTR
100
AcDbCircle
 10
9.87355259045865
 20
2.288558708984666
 30
0.0
 40
0.3256099016146134
100
AcDbArc
 50
356.5051155470028
 51
183.4948844529971
  0
ARC
  5
40F
330
1E
100
AcDbEntity
  8
CONSTR
100
AcDbCircle
 10
11.20505381646994
 20
2.280852310709811
 30
0.0
 40
0.3256099016146134
100
AcDbArc
 50
357.8628392357289
 51
2.662741806488529
  0
LWPOLYLINE
  5
410
330
1E
100
AcDbEntity
  8
CONSTR
100
AcDbPolyline
 90
        4
 70
     1
 43
0.0
 10
12.91018645678365
 20
2.58447429775245
 10
12.91018645678365
 20
2.58447429775245
 10
12.91018645678365
 20
2.58447429775245
 10
12.91018645678365
 20
2.58447429775245
  0
LWPOLYLINE
  5
411
330
1E
100
AcDbEntity
  8
CONSTR
100
AcDbPolyline
 90
        2
 70
     0
 43
0.0
 10
10.82854069147653
 20
-2.120038552103707
 10
11.18342422082729
 20
0.1256851499107725
  0
ARC
  5
412
330
1E
100
AcDbEntity
  8
CONSTR
100
AcDbCircle
 10
10.50584192759442
 20
-2.121886837969263
 30
0.0
 40
0.3256099016146134
100
AcDbArc
 50
180.6813662363378
 51
359.3186337636621
  0
LWPOLYLINE
  5
413
330
1E
100
AcDbEntity
  8
CONSTR
100
AcDbPolyline
 90
        2
 70
     0
 43
0.0
 10
10.89582242763443
 20
2.31820939810688
 10
11.53214439657283
 20
-2.082563606081038
  0
LWPOLYLINE
  5
415
330
1E
100
AcDbEntity
  8
CONSTR
100
AcDbPolyline
 90
        2
 70
     0
 43
0.0
 10
11.87008158931883
 20
0.0559229927289238
 10
12.22933195292165
 20
2.329280600808701
  0
LWPOLYLINE
  5
416
330
1E
100
AcDbEntity
  8
CONSTR
100
AcDbPolyline
 90
        2
 70
     0
 43
0.0
 10
12.18506606213956
 20
-2.082563606081038
 10
11.5376775956757
 20
2.312673871370826
  0
ARC
  5
419
330
1E
100
AcDbEntity
  8
CONSTR
100
AcDbCircle
 10
11.21753640186254
 20
2.312006763125324
 30
0.0
 40
0.3256099016146134
100
AcDbArc
 50
359.9495733215438
 51
180.0504266784561
  0
LWPOLYLINE
  5
41B
330
1E
100
AcDbEntity
  8
CONSTR
100
AcDbPolyline
 90
        2
 70
     0
 43
0.0
 10
12.18506606213956
 20
-2.082563606081038
 10
12.53933660569216
 20
0.1800513878318242
  0
ARC
  5
41C
330
1E
100
AcDbEntity
  8
CONSTR
100
AcDbCircle
 10
11.85749305266306
 20
-2.078876365210525
 30
0.0
 40
0.3256099016146134
100
AcDbArc
 50
180.6813662363378
 51
359.3186337636621
  0
LWPOLYLINE
  5
41F
330
1E
100
AcDbEntity
  8
CONSTR
100
AcDbPolyline
 90
        2
 70
     0
 43
0.0
 10
12.2180056187438
 20
2.365276919992645
 10
12.61688890166218
 20
-0.4072609293981487
  0
LWPOLYLINE
  5
420
330
1E
100
AcDbEntity
  8
CONSTR
100
AcDbPolyline
 90
        2
 70
     0
 43
0.0
 10
12.86539408520766
 20
2.359741393256577
 10
13.25939496594919
 20
-0.4063407766728347
  0
ARC
  5
421
330
1E
100
AcDbEntity
  8
CONSTR
100
AcDbCircle
 10
12.54119475402529
 20
2.362029974191287
 30
0.0
 40
0.3256099016146134
100
AcDbArc
 50
356.5051155470028
 51
183.4948844529971
  0
ARC
  5
422
330
1E
100
AcDbEntity
  8
CONSTR
100
AcDbCircle
 10
4.062827646943622
 20
-0.4083808114497032
 30
0.0
 40
0.3256099016146134
100
AcDbArc
 50
180.6813662363378
 51
359.3186337636621
  0
ARC
  5
423
330
1E
100
AcDbEntity
  8
CONSTR
100
AcDbCircle
 10
12.96048407310645
 20
-0.3306322597683646
 30
0.0
 40
0.3256099016146134
100
AcDbArc
 50
180.6813662363378
 51
359.3186337636621
  0
LWPOLYLINE
  5
43E
330
1E
100
AcDbEntity
  8
CONSTR
100
AcDbPolyline
 90
        2
 70
     0
 43
0.0
 10
42.34603666046626
 20
-10.97073526365983
 10
42.53932586208539
 20
-10.31398110662762
  0
SOLID
  5
447
330
1E
100
AcDbEntity
  8
METAL1
100
AcDbTrace
 10
26.27045142277021
 20
0.6952728505204271
 30
0.0
 11
26.27045142277021
 21
-0.5047271494795727
 31
0.0
 12
25.07045142277021
 22
0.6952728505204271
 32
0.0
 13
25.07045142277021
 23
-0.5047271494795727
 33
0.0
  0
LWPOLYLINE
  5
448
330
1E
100
AcDbEntity
  8
GND
100
AcDbPolyline
 90
        2
 70
     0
 43
0.2
 10
25.67045142277021
 20
-0.3047271494795729
 42
1.0
 10
25.67045142277021
 20
0.4952728505204272
  0
LWPOLYLINE
  5
449
330
1E
100
AcDbEntity
  8
GND
100
AcDbPolyline
 90
        2
 70
     0
 43
0.2
 10
25.67045142277021
 20
0.4952728505204272
 42
1.0
 10
25.67045142277021
 20
-0.3047271494795729
  0
ENDSEC
  0
SECTION
  2
OBJECTS
  0
DICTIONARY
  5
C
330
0
100
AcDbDictionary
281
     1
  3
ACAD_GROUP
350
D
  3
ACAD_LAYOUT
350
19
  3
ACAD_MLINESTYLE
350
16
  3
ACAD_PLOTSETTINGS
350
18
  3
ACAD_PLOTSTYLENAME
350
E
  3
AcDbVariableDictionary
350
329
  0
DICTIONARY
  5
32B
330
1E
100
AcDbDictionary
280
     1
281
     1
  3
ACAD_SORTENTS
360
32C
  0
DICTIONARY
  5
D
102
{ACAD_REACTORS
330
C
102
}
330
C
100
AcDbDictionary
281
     1
  0
DICTIONARY
  5
19
102
{ACAD_REACTORS
330
C
102
}
330
C
100
AcDbDictionary
281
     1
  3
Layout1
350
1D
  3
Model
350
21
  0
DICTIONARY
  5
16
102
{ACAD_REACTORS
330
C
102
}
330
C
100
AcDbDictionary
281
     1
  3
Standard
350
17
  0
DICTIONARY
  5
18
102
{ACAD_REACTORS
330
C
102
}
330
C
100
AcDbDictionary
281
     1
  0
ACDBDICTIONARYWDFLT
  5
E
102
{ACAD_REACTORS
330
C
102
}
330
C
100
AcDbDictionary
281
     1
  3
Normal
350
F
100
AcDbDictionaryWithDefault
340
F
  0
DICTIONARY
  5
329
102
{ACAD_REACTORS
330
C
102
}
330
C
100
AcDbDictionary
281
     1
  3
DIMASSOC
350
454
  3
SORTENTS
350
32A
  0
SORTENTSTABLE
  5
32C
102
{ACAD_REACTORS
330
32B
102
}
330
32B
100
AcDbSortentsTable
330
1E
331
120
  5
344
331
D9
  5
E8
331
3A3
  5
3A6
331
E1
  5
E9
331
3B3
  5
3F0
331
422
  5
447
331
E9
  5
320
331
364
  5
379
331
3F3
  5
3F6
331
25
  5
3D
331
A4
  5
11D
331
3D
  5
53
331
AC
  5
123
331
B4
  5
AA
331
65
  5
7B
331
BA
  5
B0
331
C2
  5
B7
331
3FB
  5
3FE
331
345
  5
348
331
403
  5
406
331
CA
  5
BB
331
D2
  5
192
331
40B
  5
40E
331
39C
  5
39F
331
413
  5
419
331
95
  5
97
331
9D
  5
11C
331
121
  5
345
331
160
  5
D2
331
35D
  5
372
331
3A4
  5
3A7
331
41B
  5
420
331
3B4
  5
3F1
331
423
  5
448
331
EA
  5
321
331
3F4
  5
3F7
331
A5
  5
11E
331
3E
  5
54
331
AD
  5
127
331
B5
  5
AB
331
66
  5
7C
331
BB
  5
B1
331
C3
  5
B8
331
3FC
  5
3FF
331
CB
  5
BC
331
346
  5
349
331
404
  5
407
331
34E
  5
35D
331
D3
  5
39
331
395
  5
398
331
40C
  5
40F
331
356
  5
36B
331
39D
  5
3A0
331
7E
  5
10B
331
96
  5
98
331
9E
  5
9C
331
1A0
  5
D9
331
122
  5
C9
331
3A5
  5
3B1
331
41C
  5
421
331
31F
  5
23
331
EB
  5
3A
331
3F5
  5
3F8
331
A6
  5
11F
331
AE
  5
A4
331
B6
  5
AC
331
67
  5
7D
331
BC
  5
B2
331
3FD
  5
400
331
10B
  5
C2
331
C4
  5
B9
331
347
  5
34B
331
405
  5
408
331
191
  5
D3
331
CC
  5
BD
331
396
  5
399
331
40D
  5
410
331
D4
  5
E1
331
34F
  5
364
331
39E
  5
3A1
331
415
  5
41B
331
97
  5
99
331
9F
  5
9D
331
123
  5
CA
331
12B
  5
CC
331
3A6
  5
3B2
331
320
  5
EC
331
EC
  5
E6
331
F4
  5
E7
331
328
  5
DD
331
3F6
  5
3F9
331
A7
  5
120
331
AF
  5
A5
331
B7
  5
AD
331
BD
  5
B3
331
3FE
  5
401
331
C5
  5
BA
331
10C
  5
C3
331
406
  5
409
331
192
  5
D4
331
114
  5
C5
331
CD
  5
BE
331
348
  5
34C
331
40E
  5
411
331
11C
  5
C7
331
397
  5
39A
331
39F
  5
3A2
331
416
  5
41C
331
80
  5
10C
331
98
  5
9A
331
DD
  5
E5
331
E5
  5
C0
331
3A7
  5
3B3
331
321
  5
F0
331
134
  5
CE
331
3EF
  5
3F2
331
3F7
  5
3FA
331
A0
  5
9E
331
A8
  5
A2
331
B0
  5
A6
331
BE
  5
B4
331
3FF
  5
402
331
C6
  5
12F
331
407
  5
40A
331
349
  5
34E
331
43E
  5
449
331
CE
  5
BF
331
398
  5
39B
331
40F
  5
412
331
11D
  5
C8
331
81
  5
93
331
99
  5
9B
331
3A0
  5
3A3
331
41F
  5
422
331
E6
  5
C1
331
135
  5
CF
331
3F0
  5
3F3
331
A1
  5
9F
331
A9
  5
A3
331
52
  5
F4
331
B1
  5
A7
331
3F8
  5
3FB
331
BF
  5
B5
331
400
  5
403
331
C7
  5
134
331
379
  5
397
331
CF
  5
137
331
408
  5
40B
331
410
  5
413
331
447
  5
25
331
11E
  5
328
331
399
  5
39C
331
9A
  5
110
331
3A1
  5
3A4
331
E7
  5
1A0
331
3B1
  5
3B4
331
420
  5
423
331
136
  5
D0
331
3F1
  5
3F4
331
23
  5
3B
331
A2
  5
A0
331
AA
  5
121
331
B2
  5
A8
331
53
  5
77
331
B8
  5
AE
331
372
  5
396
331
C0
  5
12B
331
3F9
  5
3FC
331
343
  5
346
331
401
  5
404
331
C8
  5
135
331
409
  5
40C
331
34B
  5
34F
331
D0
  5
160
331
11F
  5
343
331
39A
  5
39D
331
411
  5
415
331
448
  5
26
331
83
  5
24
331
93
  5
95
331
9B
  5
114
331
127
  5
CB
331
3A2
  5
3A5
331
419
  5
41F
331
3B2
  5
3EF
331
421
  5
43E
331
12F
  5
CD
331
E8
  5
31F
331
36B
  5
395
331
F0
  5
EA
331
137
  5
D1
331
3F2
  5
3F5
331
A3
  5
A1
331
24
  5
3C
331
AB
  5
122
331
54
  5
78
331
B3
  5
A9
331
64
  5
7A
331
F8
  5
EB
331
B9
  5
AF
331
C1
  5
B6
331
3FA
  5
3FD
331
110
  5
C4
331
C9
  5
136
331
344
  5
347
331
402
  5
405
331
34C
  5
356
331
118
  5
C6
331
D1
  5
191
331
40A
  5
40D
331
412
  5
416
331
449
  5
38
331
39B
  5
39E
331
7C
  5
F8
331
94
  5
96
331
9C
  5
118
  0
LAYOUT
  5
1D
102
{ACAD_REACTORS
330
19
102
}
330
19
100
AcDbPlotSettings
  1

  2
C:\PROGRAM FILES\ACAD2000\plotters\HP LaserJet 5L PCL.pc3
  4

  6

 40
0.0
 41
0.0
 42
0.0
 43
0.0
 44
0.0
 45
0.0
 46
0.0
 47
0.0
 48
0.0
 49
0.0
140
0.0
141
0.0
142
1.0
143
1.0
 70
   688
 72
     0
 73
     0
 74
     5
  7

 75
    16
147
1.0
148
0.0
149
0.0
100
AcDbLayout
  1
Layout1
 70
     1
 71
     1
 10
0.0
 20
0.0
 11
12.0
 21
9.0
 12
0.0
 22
0.0
 32
0.0
 14
1.000000000000000E+20
 24
1.000000000000000E+20
 34
1.000000000000000E+20
 15
-1.000000000000000E+20
 25
-1.000000000000000E+20
 35
-1.000000000000000E+20
146
0.0
 13
0.0
 23
0.0
 33
0.0
 16
1.0
 26
0.0
 36
0.0
 17
0.0
 27
1.0
 37
0.0
 76
     0
330
1A
  0
LAYOUT
  5
21
102
{ACAD_REACTORS
330
19
102
}
330
19
100
AcDbPlotSettings
  1

  2
C:\PROGRAM FILES\ACAD2000\plotters\HP LaserJet 5L PCL.pc3
  4

  6

 40
0.0
 41
0.0
 42
0.0
 43
0.0
 44
0.0
 45
0.0
 46
0.0
 47
0.0
 48
0.0
 49
0.0
140
0.0
141
0.0
142
1.0
143
1.0
 70
  1712
 72
     0
 73
     0
 74
     0
  7

 75
     0
147
1.0
148
0.0
149
0.0
100
AcDbLayout
  1
Model
 70
     1
 71
     0
 10
0.0
 20
0.0
 11
12.0
 21
9.0
 12
0.0
 22
0.0
 32
0.0
 14
0.0
 24
0.0
 34
0.0
 15
0.0
 25
0.0
 35
0.0
146
0.0
 13
0.0
 23
0.0
 33
0.0
 16
1.0
 26
0.0
 36
0.0
 17
0.0
 27
1.0
 37
0.0
 76
     0
330
1E
  0
MLINESTYLE
  5
17
102
{ACAD_REACTORS
330
16
102
}
330
16
100
AcDbMlineStyle
  2
STANDARD
 70
     0
  3

 62
   256
 51
90.0
 52
90.0
 71
     2
 49
0.5
 62
   256
  6
BYLAYER
 49
-0.5
 62
   256
  6
BYLAYER
  0
ACDBPLACEHOLDER
  5
F
102
{ACAD_REACTORS
330
E
102
}
330
E
  0
DICTIONARYVAR
  5
454
102
{ACAD_REACTORS
330
329
102
}
330
329
100
DictionaryVariables
280
     0
  1
1
  0
DICTIONARYVAR
  5
32A
102
{ACAD_REACTORS
330
329
102
}
330
329
100
DictionaryVariables
280
     0
  1
127
  0
ENDSEC
  0
EOF
