  0
SECTION
  2
HEADER
  9
$ACADVER
  1
AC1015
  9
$ACADMAINTVER
 70
    13
  9
$DWGCODEPAGE
  3
ANSI_1252
  9
$INSBASE
 10
0.0
 20
0.0
 30
0.0
  9
$EXTMIN
 10
-12.89511463513888
 20
-20.70423866198801
 30
0.0
  9
$EXTMAX
 10
51.10046216816272
 20
22.31243365953847
 30
0.0
  9
$LIMMIN
 10
0.0
 20
0.0
  9
$LIMMAX
 10
12.0
 20
9.0
  9
$ORTHOMODE
 70
     0
  9
$REGENMODE
 70
     1
  9
$FILLMODE
 70
     1
  9
$QTEXTMODE
 70
     0
  9
$MIRRTEXT
 70
     1
  9
$LTSCALE
 40
1.0
  9
$ATTMODE
 70
     1
  9
$TEXTSIZE
 40
0.2
  9
$TRACEWID
 40
0.05
  9
$TEXTSTYLE
  7
Standard
  9
$CLAYER
  8
CONSTR
  9
$CELTYPE
  6
ByLayer
  9
$CECOLOR
 62
   256
  9
$CELTSCALE
 40
1.0
  9
$DISPSILH
 70
     0
  9
$DIMSCALE
 40
1.0
  9
$DIMASZ
 40
1.8
  9
$DIMEXO
 40
0.0625
  9
$DIMDLI
 40
0.38
  9
$DIMRND
 40
0.0
  9
$DIMDLE
 40
0.0
  9
$DIMEXE
 40
0.18
  9
$DIMTP
 40
0.0
  9
$DIMTM
 40
0.0
  9
$DIMTXT
 40
1.8
  9
$DIMCEN
 40
0.09
  9
$DIMTSZ
 40
0.0
  9
$DIMTOL
 70
     0
  9
$DIMLIM
 70
     0
  9
$DIMTIH
 70
     1
  9
$DIMTOH
 70
     1
  9
$DIMSE1
 70
     0
  9
$DIMSE2
 70
     0
  9
$DIMTAD
 70
     0
  9
$DIMZIN
 70
     0
  9
$DIMBLK
  1

  9
$DIMASO
 70
     1
  9
$DIMSHO
 70
     1
  9
$DIMPOST
  1

  9
$DIMAPOST
  1

  9
$DIMALT
 70
     0
  9
$DIMALTD
 70
     2
  9
$DIMALTF
 40
25.4
  9
$DIMLFAC
 40
1.0
  9
$DIMTOFL
 70
     0
  9
$DIMTVP
 40
0.0
  9
$DIMTIX
 70
     0
  9
$DIMSOXD
 70
     0
  9
$DIMSAH
 70
     0
  9
$DIMBLK1
  1

  9
$DIMBLK2
  1

  9
$DIMSTYLE
  2
Standard
  9
$DIMCLRD
 70
     0
  9
$DIMCLRE
 70
     0
  9
$DIMCLRT
 70
     0
  9
$DIMTFAC
 40
1.0
  9
$DIMGAP
 40
0.09
  9
$DIMJUST
 70
     0
  9
$DIMSD1
 70
     0
  9
$DIMSD2
 70
     0
  9
$DIMTOLJ
 70
     1
  9
$DIMTZIN
 70
     0
  9
$DIMALTZ
 70
     0
  9
$DIMALTTZ
 70
     0
  9
$DIMUPT
 70
     0
  9
$DIMDEC
 70
     4
  9
$DIMTDEC
 70
     4
  9
$DIMALTU
 70
     2
  9
$DIMALTTD
 70
     2
  9
$DIMTXSTY
  7
Standard
  9
$DIMAUNIT
 70
     0
  9
$DIMADEC
 70
     0
  9
$DIMALTRND
 40
0.0
  9
$DIMAZIN
 70
     0
  9
$DIMDSEP
 70
    46
  9
$DIMATFIT
 70
     3
  9
$DIMFRAC
 70
     0
  9
$DIMLDRBLK
  1

  9
$DIMLUNIT
 70
     2
  9
$DIMLWD
 70
    -2
  9
$DIMLWE
 70
    -2
  9
$DIMTMOVE
 70
     0
  9
$LUNITS
 70
     2
  9
$LUPREC
 70
     4
  9
$SKETCHINC
 40
0.1
  9
$FILLETRAD
 40
0.0
  9
$AUNITS
 70
     0
  9
$AUPREC
 70
     0
  9
$MENU
  1
.
  9
$ELEVATION
 40
0.0
  9
$PELEVATION
 40
0.0
  9
$THICKNESS
 40
0.0
  9
$LIMCHECK
 70
     0
  9
$CHAMFERA
 40
0.0
  9
$CHAMFERB
 40
0.0
  9
$CHAMFERC
 40
0.0
  9
$CHAMFERD
 40
0.0
  9
$SKPOLY
 70
     0
  9
$TDCREATE
 40
2451867.659834606
  9
$TDUCREATE
 40
2451867.576501273
  9
$TDUPDATE
 40
2453166.828829930
  9
$TDUUPDATE
 40
2453166.745496597
  9
$TDINDWG
 40
0.2196700116
  9
$TDUSRTIMER
 40
0.2196700116
  9
$USRTIMER
 70
     1
  9
$ANGBASE
 50
0.0
  9
$ANGDIR
 70
     0
  9
$PDMODE
 70
     0
  9
$PDSIZE
 40
0.0
  9
$PLINEWID
 40
0.0
  9
$SPLFRAME
 70
     0
  9
$SPLINETYPE
 70
     6
  9
$SPLINESEGS
 70
     8
  9
$HANDSEED
  5
C12
  9
$SURFTAB1
 70
     6
  9
$SURFTAB2
 70
     6
  9
$SURFTYPE
 70
     6
  9
$SURFU
 70
     6
  9
$SURFV
 70
     6
  9
$UCSBASE
  2

  9
$UCSNAME
  2

  9
$UCSORG
 10
0.0
 20
0.0
 30
0.0
  9
$UCSXDIR
 10
1.0
 20
0.0
 30
0.0
  9
$UCSYDIR
 10
0.0
 20
1.0
 30
0.0
  9
$UCSORTHOREF
  2

  9
$UCSORTHOVIEW
 70
     0
  9
$UCSORGTOP
 10
0.0
 20
0.0
 30
0.0
  9
$UCSORGBOTTOM
 10
0.0
 20
0.0
 30
0.0
  9
$UCSORGLEFT
 10
0.0
 20
0.0
 30
0.0
  9
$UCSORGRIGHT
 10
0.0
 20
0.0
 30
0.0
  9
$UCSORGFRONT
 10
0.0
 20
0.0
 30
0.0
  9
$UCSORGBACK
 10
0.0
 20
0.0
 30
0.0
  9
$PUCSBASE
  2

  9
$PUCSNAME
  2

  9
$PUCSORG
 10
0.0
 20
0.0
 30
0.0
  9
$PUCSXDIR
 10
1.0
 20
0.0
 30
0.0
  9
$PUCSYDIR
 10
0.0
 20
1.0
 30
0.0
  9
$PUCSORTHOREF
  2

  9
$PUCSORTHOVIEW
 70
     0
  9
$PUCSORGTOP
 10
0.0
 20
0.0
 30
0.0
  9
$PUCSORGBOTTOM
 10
0.0
 20
0.0
 30
0.0
  9
$PUCSORGLEFT
 10
0.0
 20
0.0
 30
0.0
  9
$PUCSORGRIGHT
 10
0.0
 20
0.0
 30
0.0
  9
$PUCSORGFRONT
 10
0.0
 20
0.0
 30
0.0
  9
$PUCSORGBACK
 10
0.0
 20
0.0
 30
0.0
  9
$USERI1
 70
     0
  9
$USERI2
 70
     0
  9
$USERI3
 70
     0
  9
$USERI4
 70
     0
  9
$USERI5
 70
     0
  9
$USERR1
 40
0.0
  9
$USERR2
 40
0.0
  9
$USERR3
 40
0.0
  9
$USERR4
 40
0.0
  9
$USERR5
 40
0.0
  9
$WORLDVIEW
 70
     1
  9
$SHADEDGE
 70
     3
  9
$SHADEDIF
 70
    70
  9
$TILEMODE
 70
     1
  9
$MAXACTVP
 70
    64
  9
$PINSBASE
 10
0.0
 20
0.0
 30
0.0
  9
$PLIMCHECK
 70
     0
  9
$PEXTMIN
 10
1.049999952316284
 20
0.7999999523162842
 30
0.0
  9
$PEXTMAX
 10
9.449999570846555
 20
7.199999570846556
 30
0.0
  9
$PLIMMIN
 10
-0.2500002402958907
 20
-0.2499999962453767
  9
$PLIMMAX
 10
10.74999951940821
 20
8.249999763458731
  9
$UNITMODE
 70
     0
  9
$VISRETAIN
 70
     1
  9
$PLINEGEN
 70
     0
  9
$PSLTSCALE
 70
     1
  9
$TREEDEPTH
 70
  3020
  9
$CMLSTYLE
  2
Standard
  9
$CMLJUST
 70
     0
  9
$CMLSCALE
 40
1.0
  9
$PROXYGRAPHICS
 70
     1
  9
$MEASUREMENT
 70
     0
  9
$CELWEIGHT
370
    -1
  9
$ENDCAPS
280
     0
  9
$JOINSTYLE
280
     0
  9
$LWDISPLAY
290
     1
  9
$INSUNITS
 70
     0
  9
$HYPERLINKBASE
  1

  9
$STYLESHEET
  1

  9
$XEDIT
290
     1
  9
$CEPSNTYPE
380
     0
  9
$PSTYLEMODE
290
     1
  9
$FINGERPRINTGUID
  2
{61AAA7DB-BD59-11D4-85D5-E6203D5D4530}
  9
$VERSIONGUID
  2
{D0320CBE-C089-440F-8120-53F6E6896336}
  9
$EXTNAMES
290
     1
  9
$PSVPSCALE
 40
0.0
  9
$OLESTARTUP
290
     0
  0
ENDSEC
  0
SECTION
  2
CLASSES
  0
CLASS
  1
ACDBDICTIONARYWDFLT
  2
AcDbDictionaryWithDefault
  3
AutoCAD 2000
 90
        0
280
     0
281
     0
  0
CLASS
  1
ACDBPLACEHOLDER
  2
AcDbPlaceHolder
  3
AutoCAD 2000
 90
        0
280
     0
281
     0
  0
CLASS
  1
LAYOUT
  2
AcDbLayout
  3
AutoCAD 2000
 90
        0
280
     0
281
     0
  0
CLASS
  1
DICTIONARYVAR
  2
AcDbDictionaryVar
  3
AutoCAD 2000
 90
        0
280
     0
281
     0
  0
CLASS
  1
SORTENTSTABLE
  2
AcDbSortentsTable
  3
AutoCAD 2000
 90
        0
280
     0
281
     0
  0
ENDSEC
  0
SECTION
  2
TABLES
  0
TABLE
  2
VPORT
  5
8
330
0
100
AcDbSymbolTable
 70
     2
  0
VPORT
  5
C11
330
8
100
AcDbSymbolTableRecord
100
AcDbViewportTableRecord
  2
*Active
 70
     0
 10
0.0
 20
0.0
 11
1.0
 21
1.0
 12
19.10175384307525
 22
0.8034221254507798
 13
0.0
 23
0.0
 14
1.0
 24
1.0
 15
0.0
 25
0.0
 16
0.0
 26
0.0
 36
1.0
 17
0.0
 27
0.0
 37
0.0
 40
44.01814873870469
 41
1.461165048543689
 42
50.0
 43
0.0
 44
0.0
 50
0.0
 51
0.0
 71
     0
 72
   100
 73
     1
 74
     2
 75
     0
 76
     0
 77
     0
 78
     0
281
     0
 65
     1
110
0.0
120
0.0
130
0.0
111
1.0
121
0.0
131
0.0
112
0.0
122
1.0
132
0.0
 79
     0
146
0.0
  0
ENDTAB
  0
TABLE
  2
LTYPE
  5
5
330
0
100
AcDbSymbolTable
 70
     1
  0
LTYPE
  5
13
330
5
100
AcDbSymbolTableRecord
100
AcDbLinetypeTableRecord
  2
ByBlock
 70
     0
  3

 72
    65
 73
     0
 40
0.0
  0
LTYPE
  5
14
330
5
100
AcDbSymbolTableRecord
100
AcDbLinetypeTableRecord
  2
ByLayer
 70
     0
  3

 72
    65
 73
     0
 40
0.0
  0
LTYPE
  5
15
330
5
100
AcDbSymbolTableRecord
100
AcDbLinetypeTableRecord
  2
Continuous
 70
     0
  3
Solid line
 72
    65
 73
     0
 40
0.0
  0
ENDTAB
  0
TABLE
  2
LAYER
  5
2
330
0
100
AcDbSymbolTable
 70
     6
  0
LAYER
  5
10
330
2
100
AcDbSymbolTableRecord
100
AcDbLayerTableRecord
  2
0
 70
     0
 62
     7
  6
Continuous
370
    -3
390
F
  0
LAYER
  5
22
330
2
100
AcDbSymbolTableRecord
100
AcDbLayerTableRecord
  2
METAL1
 70
     0
 62
     7
  6
Continuous
370
    -3
390
F
  0
LAYER
  5
27
330
2
100
AcDbSymbolTableRecord
100
AcDbLayerTableRecord
  2
CONSTR
 70
     0
 62
    -7
  6
Continuous
370
    -3
390
F
  0
LAYER
  5
D8
330
2
100
AcDbSymbolTableRecord
100
AcDbLayerTableRecord
  2
GND
 70
     0
 62
     9
  6
Continuous
370
    -3
390
F
  0
LAYER
  5
20B
330
2
100
AcDbSymbolTableRecord
100
AcDbLayerTableRecord
  2
Defpoints
 70
     0
 62
     7
  6
Continuous
290
     0
370
    -3
390
F
  0
LAYER
  5
3CD
330
2
100
AcDbSymbolTableRecord
100
AcDbLayerTableRecord
  2
ERROR
 70
     0
 62
     7
  6
Continuous
370
    -3
390
F
  0
ENDTAB
  0
TABLE
  2
STYLE
  5
3
330
0
100
AcDbSymbolTable
 70
     1
  0
STYLE
  5
11
330
3
100
AcDbSymbolTableRecord
100
AcDbTextStyleTableRecord
  2
Standard
 70
     0
 40
0.0
 41
1.0
 50
0.0
 71
     0
 42
0.2
  3
txt
  4

  0
ENDTAB
  0
TABLE
  2
VIEW
  5
6
330
0
100
AcDbSymbolTable
 70
     0
  0
ENDTAB
  0
TABLE
  2
UCS
  5
7
330
0
100
AcDbSymbolTable
 70
     0
  0
ENDTAB
  0
TABLE
  2
APPID
  5
9
330
0
100
AcDbSymbolTable
 70
     1
  0
APPID
  5
12
330
9
100
AcDbSymbolTableRecord
100
AcDbRegAppTableRecord
  2
ACAD
 70
     0
  0
ENDTAB
  0
TABLE
  2
DIMSTYLE
  5
A
330
0
100
AcDbSymbolTable
 70
     1
100
AcDbDimStyleTable
 71
     1
340
117
  0
DIMSTYLE
105
117
102
{ACAD_REACTORS
330
BAE
330
BD0
102
}
330
A
100
AcDbSymbolTableRecord
100
AcDbDimStyleTableRecord
  2
Standard
 70
     0
 41
1.8
140
1.8
340
11
  0
ENDTAB
  0
TABLE
  2
BLOCK_RECORD
  5
1
330
0
100
AcDbSymbolTable
 70
    13
  0
BLOCK_RECORD
  5
1E
102
{ACAD_XDICTIONARY
360
11E
102
}
330
1
100
AcDbSymbolTableRecord
100
AcDbBlockTableRecord
  2
*Model_Space
340
21
  0
BLOCK_RECORD
  5
1A
330
1
100
AcDbSymbolTableRecord
100
AcDbBlockTableRecord
  2
*Paper_Space
340
1D
  0
BLOCK_RECORD
  5
1A3
330
1
100
AcDbSymbolTableRecord
100
AcDbBlockTableRecord
  2
Inductor
340
0
310
280000002000000020000000010004000000000000020000000000000000000000000000000000000000000000008000008000000080800080000000800080008080000080808000C0C0C0000000FF0000FF000000FFFF00FF000000FF00FF00FFFF0000FFFFFF00FFFFFFFFFFFFFFFFFFFFFFFFFFFFFFFFFFFFFFFFFFFFFF
310
FFFFFFFFFFFFFFFFFFFFFFFFFFFFFFFFFFFFFFFFFFFFFFFFFFFFFFFFFFFFFFFFFFFFFFFFFFFFFFFFFFFFFFFFFFFFFFFFFFFFFFFFFFFFFFFFFFFFFFFFFFFFFFFFFFFFFFFFFFFFFFFFFFFFFFFFFFFFFFFFFFFFFFFFFFFFFFFFFFFFFFFFFFFFFFFFFFFFFFFFFFFFFFFFFFFFFFFFFFFFFFFFFFFFFFFFFFFFFFFFFFFFFFFFFFFFFF
310
FFFFFFFFFFFFFFFFFFFFFFFFFFFFFFFFFFFFFFFFFFFFFFFFFFFFFFFFFFFFFFFFFFFFFFFFFFFFFFFFFFFF0000FFFFFFFF0FFFFFF0FFFFFFF0000FFFF0FFFFFFF00FFFFFF0FFFFFFF0FFFFFFF0FFFFFFF00FFFFFF00FFFFFFF0FFFFFF0FFFFFFF00FFFFF0F0FFFFFFF0FFFFFF0FFFFFFF0F0FFFF0F0FFFFFFF0FFFFFFF0FFFFF
310
F00FFFFFF00FFFFFF0FFFFFFFF0FFFFFF00FFFFFF0FFFFFF0FFFFFFFFFF0FFFFF0F0FFFF0F0FFFFF0FFFFFFFFFFF00000FFF0000FFF00000FFFFFFFFFFFFFFFFFFFFFFFFFFFFFFFFFFFFFFFFFFFFFFFFFFFFFFFFFFFFFFFFFFFFFFFFFFFFFFFFFFFFFFFFFFFFFFFFFFFFFFFFFFFFFFFFFFFFFFFFFFFFFFFFFFFFFFFFFFFFFF
310
FFFFFFFFFFFFFFFFFFFFFFFFFFFFFFFFFFFFFFFFFFFFFFFFFFFFFFFFFFFFFFFFFFFFFFFFFFFFFFFFFFFFFFFFFFFFFFFFFFFFFFFFFFFFFFFFFFFFFFFFFFFFFFFFFFFFFFFFFFFFFFFFFFFFFFFFFFFFFFFFFFFFFFFFFFFFFFFFFFFFFFFFFFFFFFFFFFFFFFFFFFFFFFFFFFFFFFFF
102
{BLKREFS
331
1B1
102
}
1001
ACAD
1000
DesignCenter Data
1002
{
1070
     1
1070
     1
1002
}
  0
BLOCK_RECORD
  5
1AB
330
1
100
AcDbSymbolTableRecord
100
AcDbBlockTableRecord
  2
conpoint
340
0
310
28000000200000002000000001000800000000000004000000000000000000000000000000000000000000004000000080000000FF000000002000004020000080200000FF200000004000004040000080400000FF400000006000004060000080600000FF600000008000004080000080800000FF80000000A0000040A000
310
0080A00000FFA0000000C0000040C0000080C00000FFC0000000FF000040FF000080FF0000FFFF0000000020004000200080002000FF002000002020004020200080202000FF202000004020004040200080402000FF402000006020004060200080602000FF602000008020004080200080802000FF80200000A0200040A0
310
200080A02000FFA0200000C0200040C0200080C02000FFC0200000FF200040FF200080FF2000FFFF2000000040004000400080004000FF004000002040004020400080204000FF204000004040004040400080404000FF404000006040004060400080604000FF604000008040004080400080804000FF80400000A0400040
310
A0400080A04000FFA0400000C0400040C0400080C04000FFC0400000FF400040FF400080FF4000FFFF4000000060004000600080006000FF006000002060004020600080206000FF206000004060004040600080406000FF406000006060004060600080606000FF606000008060004080600080806000FF80600000A06000
310
40A0600080A06000FFA0600000C0600040C0600080C06000FFC0600000FF600040FF600080FF6000FFFF6000000080004000800080008000FF008000002080004020800080208000FF208000004080004040800080408000FF408000006080004060800080608000FF608000008080004080800080808000FF80800000A080
310
0040A0800080A08000FFA0800000C0800040C0800080C08000FFC0800000FF800040FF800080FF8000FFFF80000000A0004000A0008000A000FF00A0000020A0004020A0008020A000FF20A0000040A0004040A0008040A000FF40A0000060A0004060A0008060A000FF60A0000080A0004080A0008080A000FF80A00000A0
310
A00040A0A00080A0A000FFA0A00000C0A00040C0A00080C0A000FFC0A00000FFA00040FFA00080FFA000FFFFA0000000C0004000C0008000C000FF00C0000020C0004020C0008020C000FF20C0000040C0004040C0008040C000FF40C0000060C0004060C0008060C000FF60C0000080C0004080C0008080C000FF80C00000
310
A0C00040A0C00080A0C000FFA0C00000C0C00040C0C00080C0C000FFC0C00000FFC00040FFC00080FFC000FFFFC0000000FF004000FF008000FF00FF00FF000020FF004020FF008020FF00FF20FF000040FF004040FF008040FF00FF40FF000060FF004060FF008060FF00FF60FF000080FF004080FF008080FF00FF80FF00
310
00A0FF0040A0FF0080A0FF00FFA0FF0000C0FF0040C0FF0080C0FF00FFC0FF0000FFFF0040FFFF0080FFFF00FFFFFF000000000000000000000000000000000000000000000000000000000000000000000000000000000000000000000000FFFFFF000000000000000000000000000000000000000000000000FFFFFFFFFF
310
FF00FFFFFF0000000000000000000000000000000000000000FFFF0000FFFF0000000000FFFFFFFF00000000000000000000000000000000FF0000FFFF000000000000000000FFFFFFFF00000000000000000000000000FF00FFFF00000000000000000000000000FFFFFF0000000000000000000000FFFFFF000000000000
310
0000000000000000000000FFFF000000000000000000FF00FF00000000000000000000000000000000000000FFFF0000000000000000FFFF0000000000000000000000000000000000000000FFFF00000000000000FF00FF000000000000000000000000000000000000000000FFFF000000000000FFFF0000000000000000
310
0000000000000000000000000000FF00FF00000000FF00FF0000000000000000000000000000000000000000000000FFFF00000000FFFF000000000000000000000000000000000000000000000000FFFF00000000FFFF00000000000000000000000000000000000000000000000000FF000000FFFF000000000000000000
310
0000000000000000000000000000000000FF000000FFFF000000000000000000000000000000000000000000000000000000FF0000FF00000000000000000000000000000000000000000000000000000000FF0000FFFF0000000000000000000000000000000000000000000000000000FFFF000000FF0000000000000000
310
000000000000000000000000000000000000FF00000000FFFF000000000000000000000000000000000000000000000000FFFF00000000FFFF000000000000000000000000000000000000000000000000FFFF0000000000FFFF00000000000000000000000000000000000000000000FF00FF0000000000FFFF0000000000
310
0000000000000000000000000000000000FFFF00000000000000FFFF0000000000000000000000000000000000000000FFFF0000000000000000FFFF0000000000000000000000000000000000000000FFFF000000000000000000FFFF000000000000000000000000000000000000FFFF0000000000000000000000FFFFFF
310
0000000000000000000000000000FFFFFF00000000000000000000000000FF00FFFF00000000000000000000FFFFFFFF000000000000000000000000000000FFFF00FFFF000000000000FFFFFFFF00000000000000000000000000000000000000FFFFFFFFFF0000FFFFFFFF00000000000000000000000000000000000000
310
00000000000000FFFFFF00000000000000000000000000000000000000000000000000000000000000000000000000000000000000000000
102
{BLKREFS
331
1B2
331
1B3
102
}
1001
ACAD
1000
DesignCenter Data
1002
{
1070
     1
1070
     1
1002
}
  0
BLOCK_RECORD
  5
1B0
330
1
100
AcDbSymbolTableRecord
100
AcDbBlockTableRecord
  2
ind
340
0
310
28000000200000002000000001000800000000000004000000000000000000000000000000000000000000004000000080000000FF000000002000004020000080200000FF200000004000004040000080400000FF400000006000004060000080600000FF600000008000004080000080800000FF80000000A0000040A000
310
0080A00000FFA0000000C0000040C0000080C00000FFC0000000FF000040FF000080FF0000FFFF0000000020004000200080002000FF002000002020004020200080202000FF202000004020004040200080402000FF402000006020004060200080602000FF602000008020004080200080802000FF80200000A0200040A0
310
200080A02000FFA0200000C0200040C0200080C02000FFC0200000FF200040FF200080FF2000FFFF2000000040004000400080004000FF004000002040004020400080204000FF204000004040004040400080404000FF404000006040004060400080604000FF604000008040004080400080804000FF80400000A0400040
310
A0400080A04000FFA0400000C0400040C0400080C04000FFC0400000FF400040FF400080FF4000FFFF4000000060004000600080006000FF006000002060004020600080206000FF206000004060004040600080406000FF406000006060004060600080606000FF606000008060004080600080806000FF80600000A06000
310
40A0600080A06000FFA0600000C0600040C0600080C06000FFC0600000FF600040FF600080FF6000FFFF6000000080004000800080008000FF008000002080004020800080208000FF208000004080004040800080408000FF408000006080004060800080608000FF608000008080004080800080808000FF80800000A080
310
0040A0800080A08000FFA0800000C0800040C0800080C08000FFC0800000FF800040FF800080FF8000FFFF80000000A0004000A0008000A000FF00A0000020A0004020A0008020A000FF20A0000040A0004040A0008040A000FF40A0000060A0004060A0008060A000FF60A0000080A0004080A0008080A000FF80A00000A0
310
A00040A0A00080A0A000FFA0A00000C0A00040C0A00080C0A000FFC0A00000FFA00040FFA00080FFA000FFFFA0000000C0004000C0008000C000FF00C0000020C0004020C0008020C000FF20C0000040C0004040C0008040C000FF40C0000060C0004060C0008060C000FF60C0000080C0004080C0008080C000FF80C00000
310
A0C00040A0C00080A0C000FFA0C00000C0C00040C0C00080C0C000FFC0C00000FFC00040FFC00080FFC000FFFFC0000000FF004000FF008000FF00FF00FF000020FF004020FF008020FF00FF20FF000040FF004040FF008040FF00FF40FF000060FF004060FF008060FF00FF60FF000080FF004080FF008080FF00FF80FF00
310
00A0FF0040A0FF0080A0FF00FFA0FF0000C0FF0040C0FF0080C0FF00FFC0FF0000FFFF0040FFFF0080FFFF00FFFFFF0000000000000000000000000000000000000000000000000000000000000000000000000000000000000000000000000000FFFF00000000000000000000000000000000000000000000000000000000
310
00FFFFFFFF00000000000000000000000000000000000000000000000000000000FF0000FF00000000000000000000000000000000000000000000000000000000FFFFFFFF000000000000000000000000000000000000000000000000000000000000FF000000000000000000000000000000000000000000000000000000
310
FFFFFFFFFF0000000000000000000000000000000000000000000000000000FF00000000FF00000000000000000000000000000000000000000000000000FF00000000000000000000000000000000000000000000000000000000000000FF00000000000000000000000000000000000000000000000000000000000000FF
310
00000000000000000000000000000000000000000000000000000000000000FF0000000000000000000000000000000000000000000000000000000000000000FFFFFFFFFF000000000000000000000000000000000000000000000000000000FFFFFFFFFFFF00000000000000000000000000000000000000000000000000
310
FF00000000000000000000000000000000000000000000000000000000000000FF00000000000000000000000000000000000000000000000000000000000000FF00000000000000000000000000000000000000000000000000000000000000FF000000000000000000000000000000000000000000000000000000000000
310
0000FFFFFFFFFFFF0000000000000000000000000000000000000000000000000000FFFFFFFFFF0000000000000000000000000000000000000000000000000000FF00000000000000000000000000000000000000000000000000000000000000FF0000000000000000000000000000000000000000000000000000000000
310
0000FF00000000000000000000000000000000000000000000000000000000000000FF0000000000000000000000000000000000000000000000000000000000000000FF00000000FF000000000000000000000000000000000000000000000000000000FFFFFFFFFF00000000000000000000000000000000000000000000
310
000000000000000000FF0000000000000000000000000000000000000000000000000000000000FFFFFFFF00000000000000000000000000000000000000000000000000000000FF0000FF00000000000000000000000000000000000000000000000000000000FFFFFFFF0000000000000000000000000000000000000000
310
000000000000000000FFFF000000000000000000000000000000000000000000000000000000000000000000000000000000000000000000
102
{BLKREFS
331
1B7
102
}
1001
ACAD
1000
DesignCenter Data
1002
{
1070
     1
1070
     1
1002
}
  0
BLOCK_RECORD
  5
1B6
330
1
100
AcDbSymbolTableRecord
100
AcDbBlockTableRecord
  2
rfc
340
0
310
28000000200000002000000001000800000000000004000000000000000000000000000000000000000000004000000080000000FF000000002000004020000080200000FF200000004000004040000080400000FF400000006000004060000080600000FF600000008000004080000080800000FF80000000A0000040A000
310
0080A00000FFA0000000C0000040C0000080C00000FFC0000000FF000040FF000080FF0000FFFF0000000020004000200080002000FF002000002020004020200080202000FF202000004020004040200080402000FF402000006020004060200080602000FF602000008020004080200080802000FF80200000A0200040A0
310
200080A02000FFA0200000C0200040C0200080C02000FFC0200000FF200040FF200080FF2000FFFF2000000040004000400080004000FF004000002040004020400080204000FF204000004040004040400080404000FF404000006040004060400080604000FF604000008040004080400080804000FF80400000A0400040
310
A0400080A04000FFA0400000C0400040C0400080C04000FFC0400000FF400040FF400080FF4000FFFF4000000060004000600080006000FF006000002060004020600080206000FF206000004060004040600080406000FF406000006060004060600080606000FF606000008060004080600080806000FF80600000A06000
310
40A0600080A06000FFA0600000C0600040C0600080C06000FFC0600000FF600040FF600080FF6000FFFF6000000080004000800080008000FF008000002080004020800080208000FF208000004080004040800080408000FF408000006080004060800080608000FF608000008080004080800080808000FF80800000A080
310
0040A0800080A08000FFA0800000C0800040C0800080C08000FFC0800000FF800040FF800080FF8000FFFF80000000A0004000A0008000A000FF00A0000020A0004020A0008020A000FF20A0000040A0004040A0008040A000FF40A0000060A0004060A0008060A000FF60A0000080A0004080A0008080A000FF80A00000A0
310
A00040A0A00080A0A000FFA0A00000C0A00040C0A00080C0A000FFC0A00000FFA00040FFA00080FFA000FFFFA0000000C0004000C0008000C000FF00C0000020C0004020C0008020C000FF20C0000040C0004040C0008040C000FF40C0000060C0004060C0008060C000FF60C0000080C0004080C0008080C000FF80C00000
310
A0C00040A0C00080A0C000FFA0C00000C0C00040C0C00080C0C000FFC0C00000FFC00040FFC00080FFC000FFFFC0000000FF004000FF008000FF00FF00FF000020FF004020FF008020FF00FF20FF000040FF004040FF008040FF00FF40FF000060FF004060FF008060FF00FF60FF000080FF004080FF008080FF00FF80FF00
310
00A0FF0040A0FF0080A0FF00FFA0FF0000C0FF0040C0FF0080C0FF00FFC0FF0000FFFF0040FFFF0080FFFF00FFFFFF00000000000000000000000000000000000000000000000000000000000000000000000000000000000000000000000000000000FFFF0000000000000000000000000000000000000000000000000000
310
000000FFFFFFFF00000000000000000000000000000000000000000000000000000000FF0000FF00000000000000000000000000000000000000000000000000000000FFFFFFFF0000000000000000000000000000000000000000000000000000000000FF0000000000000000000000000000000000000000000000000000
310
00FFFFFFFFFF00000000000000000000000000000000000000000000FFFFFF00FFFF000000FF00000000000000000000000000000000000000000000FF00FF00FF000000000000000000000000000000000000000000000000000000FF00FFFF00000000000000000000000000000000000000000000000000000000FF00FF
310
FF00000000000000000000000000000000000000000000000000000000FFFFFFFFFF000000000000000000000000000000000000000000000000000000FFFFFF00FFFFFFFFFFFF00000000000000000000000000000000000000000000FFFFFF00FFFFFFFFFFFF00000000000000000000000000000000000000000000FFFF
310
FFFFFF000000000000000000000000000000000000000000000000000000FFFFFFFF00000000000000000000000000000000000000000000000000000000FFFFFFFF00000000000000000000000000000000000000000000000000000000FFFFFFFFFF000000000000000000000000000000000000000000000000000000FF
310
FFFF00FFFFFFFFFFFF00000000000000000000000000000000000000000000FFFFFF00FFFFFFFFFFFF00000000000000000000000000000000000000000000FF00FFFFFF000000000000000000000000000000000000000000000000000000FF00FFFF00000000000000000000000000000000000000000000000000000000
310
FF00FFFF00000000000000000000000000000000000000000000000000000000FF00FF00FF000000000000000000000000000000000000000000000000000000FFFFFF00FFFF000000FF000000000000000000000000000000000000000000000000000000FFFFFFFFFF000000000000000000000000000000000000000000
310
00000000000000000000FF000000000000000000000000000000000000000000000000000000000000FFFFFF0000000000000000000000000000000000000000000000000000000000FF00FFFF00000000000000000000000000000000000000000000000000000000FF00FF00000000000000000000000000000000000000
310
0000000000000000000000FF0000000000000000000000000000000000000000000000000000000000000000000000000000000000000000
102
{BLKREFS
331
1CF
331
AAF
102
}
1001
ACAD
1000
DesignCenter Data
1002
{
1070
     1
1070
     1
1002
}
  0
BLOCK_RECORD
  5
1CD
330
1
100
AcDbSymbolTableRecord
100
AcDbBlockTableRecord
  2
A$C38CF55EC
340
0
  0
BLOCK_RECORD
  5
2B8
330
1
100
AcDbSymbolTableRecord
100
AcDbBlockTableRecord
  2
elkon
340
0
310
28000000200000002000000001000800000000000004000000000000000000000000000000000000000000004000000080000000FF000000002000004020000080200000FF200000004000004040000080400000FF400000006000004060000080600000FF600000008000004080000080800000FF80000000A0000040A000
310
0080A00000FFA0000000C0000040C0000080C00000FFC0000000FF000040FF000080FF0000FFFF0000000020004000200080002000FF002000002020004020200080202000FF202000004020004040200080402000FF402000006020004060200080602000FF602000008020004080200080802000FF80200000A0200040A0
310
200080A02000FFA0200000C0200040C0200080C02000FFC0200000FF200040FF200080FF2000FFFF2000000040004000400080004000FF004000002040004020400080204000FF204000004040004040400080404000FF404000006040004060400080604000FF604000008040004080400080804000FF80400000A0400040
310
A0400080A04000FFA0400000C0400040C0400080C04000FFC0400000FF400040FF400080FF4000FFFF4000000060004000600080006000FF006000002060004020600080206000FF206000004060004040600080406000FF406000006060004060600080606000FF606000008060004080600080806000FF80600000A06000
310
40A0600080A06000FFA0600000C0600040C0600080C06000FFC0600000FF600040FF600080FF6000FFFF6000000080004000800080008000FF008000002080004020800080208000FF208000004080004040800080408000FF408000006080004060800080608000FF608000008080004080800080808000FF80800000A080
310
0040A0800080A08000FFA0800000C0800040C0800080C08000FFC0800000FF800040FF800080FF8000FFFF80000000A0004000A0008000A000FF00A0000020A0004020A0008020A000FF20A0000040A0004040A0008040A000FF40A0000060A0004060A0008060A000FF60A0000080A0004080A0008080A000FF80A00000A0
310
A00040A0A00080A0A000FFA0A00000C0A00040C0A00080C0A000FFC0A00000FFA00040FFA00080FFA000FFFFA0000000C0004000C0008000C000FF00C0000020C0004020C0008020C000FF20C0000040C0004040C0008040C000FF40C0000060C0004060C0008060C000FF60C0000080C0004080C0008080C000FF80C00000
310
A0C00040A0C00080A0C000FFA0C00000C0C00040C0C00080C0C000FFC0C00000FFC00040FFC00080FFC000FFFFC0000000FF004000FF008000FF00FF00FF000020FF004020FF008020FF00FF20FF000040FF004040FF008040FF00FF40FF000060FF004060FF008060FF00FF60FF000080FF004080FF008080FF00FF80FF00
310
00A0FF0040A0FF0080A0FF00FFA0FF0000C0FF0040C0FF0080C0FF00FFC0FF0000FFFF0040FFFF0080FFFF00FFFFFF000000000000000000000000000000000000000000000000000000000000000000000000000000000000000000000000FF00000000000000000000000000000000000000000000000000000000000000
310
FF00000000000000000000000000000000000000000000000000000000000000FF00000000000000000000000000000000000000000000000000000000000000FF00000000000000000000000000000000000000000000000000000000000000FF000000000000000000000000000000000000000000000000000000000000
310
00FF00000000000000000000000000000000000000000000000000000000000000FF00000000000000000000000000000000000000000000000000000000000000FF00000000000000000000000000000000000000000000000000000000000000FF0000000000000000000000000000000000000000000000000000000000
310
0000FF00000000000000000000000000000000000000000000000000000000000000FF0000000000000000000000000000000000000000FFFFFFFFFFFFFFFFFFFFFFFFFFFFFFFFFFFFFFFFFFFFFFFF0000000000000000FF00000000000000000000000000000000000000000000FF0000000000000000FF00000000000000
310
000000000000000000000000000000FF0000000000000000FFFFFFFFFFFFFFFFFFFFFFFFFFFFFFFFFFFFFFFFFFFFFFFF00000000000000000000000000000000000000000000000000000000000000000000000000000000FFFFFFFFFFFFFFFFFFFFFFFFFFFFFFFFFFFFFFFFFFFFFFFF0000000000000000FF0000FFFFFFFF
310
FFFF000000000000FFFFFFFFFFFF0000FF0000000000000000FF0000000000FFFFFFFFFFFFFFFFFFFFFF000000000000FF0000000000000000FFFFFFFFFFFFFFFFFFFFFFFFFFFFFFFFFFFFFFFFFFFFFFFF00000000000000000000000000000000000000FF0000000000000000000000000000000000000000000000000000
310
0000000000FF00000000000000000000000000000000000000000000000000000000000000FF00000000000000000000000000000000000000000000000000000000000000FF00000000000000000000000000000000000000000000000000000000000000FF00000000000000000000000000000000000000000000000000
310
000000000000FF00000000000000000000000000000000000000000000000000000000000000FF00000000000000000000000000000000000000000000000000000000000000FF00000000000000000000000000000000000000000000000000000000000000FF000000000000000000000000000000000000000000000000
310
00000000000000FF000000000000000000000000000000000000000000000000000000000000000000000000000000000000000000000000
102
{BLKREFS
331
AAD
331
AAE
102
}
  0
BLOCK_RECORD
  5
2C0
330
1
100
AcDbSymbolTableRecord
100
AcDbBlockTableRecord
  2
tri
340
0
310
28000000200000002000000001000800000000000004000000000000000000000000000000000000000000004000000080000000FF000000002000004020000080200000FF200000004000004040000080400000FF400000006000004060000080600000FF600000008000004080000080800000FF80000000A0000040A000
310
0080A00000FFA0000000C0000040C0000080C00000FFC0000000FF000040FF000080FF0000FFFF0000000020004000200080002000FF002000002020004020200080202000FF202000004020004040200080402000FF402000006020004060200080602000FF602000008020004080200080802000FF80200000A0200040A0
310
200080A02000FFA0200000C0200040C0200080C02000FFC0200000FF200040FF200080FF2000FFFF2000000040004000400080004000FF004000002040004020400080204000FF204000004040004040400080404000FF404000006040004060400080604000FF604000008040004080400080804000FF80400000A0400040
310
A0400080A04000FFA0400000C0400040C0400080C04000FFC0400000FF400040FF400080FF4000FFFF4000000060004000600080006000FF006000002060004020600080206000FF206000004060004040600080406000FF406000006060004060600080606000FF606000008060004080600080806000FF80600000A06000
310
40A0600080A06000FFA0600000C0600040C0600080C06000FFC0600000FF600040FF600080FF6000FFFF6000000080004000800080008000FF008000002080004020800080208000FF208000004080004040800080408000FF408000006080004060800080608000FF608000008080004080800080808000FF80800000A080
310
0040A0800080A08000FFA0800000C0800040C0800080C08000FFC0800000FF800040FF800080FF8000FFFF80000000A0004000A0008000A000FF00A0000020A0004020A0008020A000FF20A0000040A0004040A0008040A000FF40A0000060A0004060A0008060A000FF60A0000080A0004080A0008080A000FF80A00000A0
310
A00040A0A00080A0A000FFA0A00000C0A00040C0A00080C0A000FFC0A00000FFA00040FFA00080FFA000FFFFA0000000C0004000C0008000C000FF00C0000020C0004020C0008020C000FF20C0000040C0004040C0008040C000FF40C0000060C0004060C0008060C000FF60C0000080C0004080C0008080C000FF80C00000
310
A0C00040A0C00080A0C000FFA0C00000C0C00040C0C00080C0C000FFC0C00000FFC00040FFC00080FFC000FFFFC0000000FF004000FF008000FF00FF00FF000020FF004020FF008020FF00FF20FF000040FF004040FF008040FF00FF40FF000060FF004060FF008060FF00FF60FF000080FF004080FF008080FF00FF80FF00
310
00A0FF0040A0FF0080A0FF00FFA0FF0000C0FF0040C0FF0080C0FF00FFC0FF0000FFFF0040FFFF0080FFFF00FFFFFF0000000000000000000000000000000000000000000000000000000000000000000000000000000000000000FF00000000000000000000000000000000000000000000000000000000000000FFFF0000
310
0000000000000000000000000000000000000000000000000000FFFF0000FF00000000000000000000000000000000000000000000000000FFFF0000000000FF0000000000000000000000000000000000000000000000FF0000000000000000FF000000000000000000000000000000000000000000FF0000000000000000
310
0000FF00000000000000000000000000000000000000FF000000000000000000000000FF000000000000000000000000000000000000FF00000000000000000000000000FF00000000000000000000000000000000FF000000000000000000000000000000FF000000000000000000000000000000FF000000000000000000
310
00000000000000FF00000000000000000000000000FF000000000000000000000000000000000000FF000000000000000000000000FF00000000000000000000000000000000000000FF00000000000000000000FF000000000000000000000000000000000000000000FF000000000000000000FF00000000000000000000
310
000000000000000000000000FF0000000000000000FF0000000000000000000000000000000000000000000000FF00000000000000FF000000000000000000000000000000000000000000000000FF000000000000FF00000000000000000000000000000000000000000000000000FF000000000000FF0000000000000000
310
0000000000000000000000000000000000FF0000000000FF0000000000000000000000000000000000000000000000000000FF00000000FF0000000000000000000000000000000000000000000000000000FFFF00000000FF00000000000000000000000000000000000000000000000000FF0000000000FF000000000000
310
000000000000000000000000000000000000FF00000000000000FF0000000000000000000000000000000000000000000000FF0000000000000000FF000000000000000000000000000000000000000000FF00000000000000000000FF00000000000000000000000000000000000000FF000000000000000000000000FF00
310
00000000000000000000000000000000FF0000000000000000000000000000FF0000000000000000000000000000FFFF00000000000000000000000000000000FFFF0000000000000000000000FF0000000000000000000000000000000000000000FFFFFFFFFFFFFFFFFFFFFF000000000000000000000000000000000000
310
0000000000000000000000000000000000000000000000000000000000000000000000000000000000000000000000000000000000000000
102
{BLKREFS
331
AB9
102
}
  0
BLOCK_RECORD
  5
628
330
1
100
AcDbSymbolTableRecord
100
AcDbBlockTableRecord
  2
A$C29E612DD
340
0
  0
BLOCK_RECORD
  5
6A3
330
1
100
AcDbSymbolTableRecord
100
AcDbBlockTableRecord
  2
A$C11056497
340
0
  0
BLOCK_RECORD
  5
6E8
330
1
100
AcDbSymbolTableRecord
100
AcDbBlockTableRecord
  2
A$C54300923
340
0
  0
BLOCK_RECORD
  5
72D
330
1
100
AcDbSymbolTableRecord
100
AcDbBlockTableRecord
  2
A$C57047F67
340
0
  0
BLOCK_RECORD
  5
BAF
330
1
100
AcDbSymbolTableRecord
100
AcDbBlockTableRecord
  2
*D11
340
0
  0
BLOCK_RECORD
  5
BD1
330
1
100
AcDbSymbolTableRecord
100
AcDbBlockTableRecord
  2
*D12
340
0
  0
ENDTAB
  0
ENDSEC
  0
SECTION
  2
BLOCKS
  0
BLOCK
  5
1F
330
1E
100
AcDbEntity
  8
0
100
AcDbBlockBegin
  2
*Model_Space
 70
     0
 10
0.0
 20
0.0
 30
0.0
  3
*Model_Space
  1

  0
ENDBLK
  5
20
330
1E
100
AcDbEntity
  8
0
100
AcDbBlockEnd
  0
BLOCK
  5
1B
330
1A
100
AcDbEntity
 67
     1
  8
0
100
AcDbBlockBegin
  2
*Paper_Space
 70
     0
 10
0.0
 20
0.0
 30
0.0
  3
*Paper_Space
  1

  0
ENDBLK
  5
1C
330
1A
100
AcDbEntity
 67
     1
  8
0
100
AcDbBlockEnd
  0
BLOCK
  5
1A9
330
1A3
100
AcDbEntity
  8
0
100
AcDbBlockBegin
  2
Inductor
 70
     2
 10
0.0
 20
0.0
 30
0.0
  3
Inductor
  1
INDUCTOR
  4
DesignCenter Basic Electronics example
  0
LINE
  5
1A4
330
1A3
100
AcDbEntity
  8
0
 62
     7
100
AcDbLine
 10
0.3500000000000001
 20
0.0
 30
0.0
 11
0.3999999999999999
 21
0.0
 31
0.0
  0
ARC
  5
1A5
330
1A3
100
AcDbEntity
  8
0
 62
     7
100
AcDbCircle
 10
0.2999999999999998
 20
0.0374999999999997
 30
0.0
 40
0.0625
100
AcDbArc
 50
323.1301
 51
216.8699
  0
LINE
  5
1A6
330
1A3
100
AcDbEntity
  8
0
 62
     7
100
AcDbLine
 10
0.0
 20
0.0
 30
0.0
 11
0.0499999999999998
 21
0.0
 31
0.0
  0
ARC
  5
1A7
330
1A3
100
AcDbEntity
  8
0
 62
     7
100
AcDbCircle
 10
0.1000000000000001
 20
0.0374999999999997
 30
0.0
 40
0.0625
100
AcDbArc
 50
323.1301
 51
216.8699
  0
ARC
  5
1A8
330
1A3
100
AcDbEntity
  8
0
 62
     7
100
AcDbCircle
 10
0.2000000000000002
 20
0.0374999999999997
 30
0.0
 40
0.0625
100
AcDbArc
 50
323.1301
 51
216.8699
  0
ENDBLK
  5
1AA
330
1A3
100
AcDbEntity
  8
0
100
AcDbBlockEnd
  0
BLOCK
  5
1AE
330
1AB
100
AcDbEntity
  8
0
100
AcDbBlockBegin
  2
conpoint
 70
     0
 10
0.0
 20
0.0
 30
0.0
  3
conpoint
  1

  0
HATCH
  5
1AC
330
1AB
100
AcDbEntity
  8
0
100
AcDbHatch
 10
0.0
 20
0.0
 30
0.0
210
0.0
220
0.0
230
1.0
  2
SOLID
 70
     1
 71
     1
 91
        1
 92
        1
 93
        1
 72
     2
 10
3.932944225599126
 20
4.517912367231916
 40
0.0251551376970127
 50
0.0
 51
360.0
 73
     1
 97
        1
330
1AD
 75
     0
 76
     1
 98
        1
 10
0.0
 20
0.0
  0
CIRCLE
  5
1AD
102
{ACAD_REACTORS
330
1AC
102
}
330
1AB
100
AcDbEntity
  8
0
100
AcDbCircle
 10
3.932944225599126
 20
4.517912367231916
 30
0.0
 40
0.0251551376970127
  0
ENDBLK
  5
1AF
330
1AB
100
AcDbEntity
  8
0
100
AcDbBlockEnd
  0
BLOCK
  5
1B4
330
1B0
100
AcDbEntity
  8
0
100
AcDbBlockBegin
  2
ind
 70
     0
 10
0.0
 20
0.0
 30
0.0
  3
ind
  1

  0
INSERT
  5
1B1
330
1B0
100
AcDbEntity
  8
0
100
AcDbBlockReference
  2
Inductor
 10
5.142686818928233
 20
4.506130839892044
 30
0.0
 50
90.0
  0
INSERT
  5
1B2
330
1B0
100
AcDbEntity
  8
0
100
AcDbBlockReference
  2
conpoint
 10
1.213283901823427
 20
-0.0258025784579612
 30
0.0
  0
INSERT
  5
1B3
330
1B0
100
AcDbEntity
  8
0
100
AcDbBlockReference
  2
conpoint
 10
1.20936500961606
 20
0.4012205201373665
 30
0.0
  0
ENDBLK
  5
1B5
330
1B0
100
AcDbEntity
  8
0
100
AcDbBlockEnd
  0
BLOCK
  5
1BA
330
1B6
100
AcDbEntity
  8
0
100
AcDbBlockBegin
  2
rfc
 70
     0
 10
0.0
 20
0.0
 30
0.0
  3
rfc
  1

  0
INSERT
  5
1B7
330
1B6
100
AcDbEntity
  8
0
100
AcDbBlockReference
  2
ind
 10
0.0
 20
0.0
 30
0.0
  0
HATCH
  5
1B8
330
1B6
100
AcDbEntity
  8
0
100
AcDbHatch
 10
0.0
 20
0.0
 30
0.0
210
0.0
220
0.0
230
1.0
  2
SOLID
 70
     1
 71
     1
 91
        1
 92
        1
 93
        4
 72
     1
 10
5.019171584733157
 20
4.850883942041264
 11
4.991736945333968
 21
4.850883942041264
 72
     1
 10
4.991736945333968
 20
4.850883942041264
 11
4.991736945333968
 21
4.557060643284785
 72
     1
 10
4.991736945333968
 20
4.557060643284785
 11
5.019171584733157
 21
4.557060643284785
 72
     1
 10
5.019171584733157
 20
4.557060643284785
 11
5.019171584733157
 21
4.850883942041264
 97
        1
330
1B9
 75
     0
 76
     1
 98
        1
 10
0.0
 20
0.0
  0
LWPOLYLINE
  5
1B9
102
{ACAD_REACTORS
330
1B8
102
}
330
1B6
100
AcDbEntity
  8
0
100
AcDbPolyline
 90
        4
 70
     1
 43
0.0
 10
5.019171584733157
 20
4.850883942041264
 10
4.991736945333968
 20
4.850883942041264
 10
4.991736945333968
 20
4.557060643284785
 10
5.019171584733157
 20
4.557060643284785
  0
ENDBLK
  5
1BB
330
1B6
100
AcDbEntity
  8
0
100
AcDbBlockEnd
  0
BLOCK
  5
1D1
330
1CD
100
AcDbEntity
  8
0
 62
     3
100
AcDbBlockBegin
  2
A$C38CF55EC
 70
     0
 10
0.0
 20
0.0
 30
0.0
  3
A$C38CF55EC
  1

  0
MTEXT
  5
1CE
330
1CD
100
AcDbEntity
  8
0
 62
     3
100
AcDbMText
 10
-0.0000000196864391
 20
6.710114783395795
 30
0.0
 40
0.5
 41
2.816399999999999
 71
     1
 72
     5
  1
BFP196
 11
0.0000000000000001
 21
1.0
 31
0.0
 73
     1
 44
1.0
  0
INSERT
  5
1CF
330
1CD
100
AcDbEntity
  8
CONSTR
100
AcDbBlockReference
  2
rfc
 10
-42.8924235945596
 20
-53.54591120857048
 30
0.0
 41
11.98711769948618
 42
11.98711769948618
 43
11.98711769948618
  0
MTEXT
  5
1D0
330
1CD
100
AcDbEntity
  8
0
 62
     3
100
AcDbMText
 10
19.44379258077894
 20
3.23806040961206
 30
0.0
 40
0.6
 41
8.181699999999999
 71
     1
 72
     5
  1
10uH
 73
     1
 44
1.0
  0
ENDBLK
  5
1D2
330
1CD
100
AcDbEntity
  8
0
 62
     3
100
AcDbBlockEnd
  0
BLOCK
  5
2BE
330
2B8
100
AcDbEntity
  8
0
100
AcDbBlockBegin
  2
elkon
 70
     0
 10
0.0
 20
0.0
 30
0.0
  3
elkon
  1

  0
LWPOLYLINE
  5
2B9
102
{ACAD_REACTORS
330
2BD
102
}
330
2B8
100
AcDbEntity
  8
0
100
AcDbPolyline
 90
        4
 70
     1
 43
0.0
 10
5.277469087657244
 20
7.736467907658294
 10
6.725437308244949
 20
7.736467907658294
 10
6.725437308244949
 20
7.545307269129267
 10
5.277469087657244
 20
7.545307269129267
  0
LWPOLYLINE
  5
2BA
330
2B8
100
AcDbEntity
  8
0
100
AcDbPolyline
 90
        4
 70
     1
 43
0.0
 10
5.277469087657244
 20
7.381455311208465
 10
6.725437308244949
 20
7.381455311208465
 10
6.725437308244949
 20
7.190294672679439
 10
5.277469087657244
 20
7.190294672679439
  0
LWPOLYLINE
  5
2BB
330
2B8
100
AcDbEntity
  8
0
100
AcDbPolyline
 90
        2
 70
     0
 43
0.0
 10
5.987793119210273
 20
7.736467907658294
 10
5.987793119210273
 20
8.337258440989323
  0
LWPOLYLINE
  5
2BC
330
2B8
100
AcDbEntity
  8
0
100
AcDbPolyline
 90
        2
 70
     0
 43
0.0
 10
5.987793119210273
 20
7.190294672679439
 10
5.987793119210273
 20
6.507578139433253
  0
HATCH
  5
2BD
330
2B8
100
AcDbEntity
  8
0
100
AcDbHatch
 10
0.0
 20
0.0
 30
0.0
210
0.0
220
0.0
230
1.0
  2
SOLID
 70
     1
 71
     1
 91
        1
 92
        1
 93
        4
 72
     1
 10
5.277469087657244
 20
7.736467907658294
 11
6.725437308244949
 21
7.736467907658294
 72
     1
 10
6.725437308244949
 20
7.736467907658294
 11
6.725437308244949
 21
7.545307269129267
 72
     1
 10
6.725437308244949
 20
7.545307269129267
 11
5.277469087657244
 21
7.545307269129267
 72
     1
 10
5.277469087657244
 20
7.545307269129267
 11
5.277469087657244
 21
7.736467907658294
 97
        1
330
2B9
 75
     0
 76
     1
 98
        1
 10
0.0
 20
0.0
  0
ENDBLK
  5
2BF
330
2B8
100
AcDbEntity
  8
0
100
AcDbBlockEnd
  0
BLOCK
  5
2C3
330
2C0
100
AcDbEntity
  8
0
100
AcDbBlockBegin
  2
tri
 70
     0
 10
0.0
 20
0.0
 30
0.0
  3
tri
  1

  0
ARC
  5
2C1
330
2C0
100
AcDbEntity
  8
CONSTR
370
    50
100
AcDbCircle
 10
8.146085339866083
 20
7.572615928782735
 30
0.0
 40
0.8498249588931228
100
AcDbArc
 50
17.41576346451058
 51
252.8164832811067
  0
LWPOLYLINE
  5
2C2
330
2C0
100
AcDbEntity
  8
CONSTR
370
    50
100
AcDbPolyline
 90
        2
 70
     0
 43
0.0
 10
7.888244942516251
 20
6.7539228815622
 10
8.968782859461427
 20
7.838849627961277
  0
ENDBLK
  5
2C4
330
2C0
100
AcDbEntity
  8
0
100
AcDbBlockEnd
  0
BLOCK
  5
664
330
628
100
AcDbEntity
  8
0
100
AcDbBlockBegin
  2
A$C29E612DD
 70
     0
 10
0.0
 20
0.0
 30
0.0
  3
A$C29E612DD
  1

  0
SOLID
  5
629
330
628
100
AcDbEntity
  8
METAL1
100
AcDbTrace
 10
2.338200032593128
 20
16.67613052226808
 30
0.0
 11
2.338200032593128
 21
15.47613052226808
 31
0.0
 12
1.138200032593129
 22
16.67613052226808
 32
0.0
 13
1.138200032593129
 23
15.47613052226808
 33
0.0
  0
SOLID
  5
62A
330
628
100
AcDbEntity
  8
METAL1
100
AcDbTrace
 10
3.628200032593131
 20
16.88613052226808
 30
0.0
 11
5.128200032593131
 21
16.88613052226808
 31
0.0
 12
3.628200032593131
 22
15.68613052226808
 32
0.0
 13
5.128200032593131
 23
15.68613052226808
 33
0.0
  0
SOLID
  5
62B
330
628
100
AcDbEntity
  8
METAL1
100
AcDbTrace
 10
4.77619593770617
 20
18.62204402217375
 30
0.0
 11
4.77619593770617
 21
17.42204402217375
 31
0.0
 12
3.57619593770617
 22
18.62204402217375
 32
0.0
 13
3.57619593770617
 23
17.42204402217375
 33
0.0
  0
SOLID
  5
62C
330
628
100
AcDbEntity
  8
METAL1
100
AcDbTrace
 10
9.528200032593129
 20
17.63613052226808
 30
0.0
 11
24.52820003259313
 21
17.63613052226808
 31
0.0
 12
9.528200032593129
 22
14.93613052226808
 32
0.0
 13
24.52820003259313
 23
14.93613052226808
 33
0.0
  0
SOLID
  5
62D
330
628
100
AcDbEntity
  8
METAL1
100
AcDbTrace
 10
0.8382000325931286
 20
18.11113052226808
 30
0.0
 11
1.638200032593129
 21
18.11113052226808
 31
0.0
 12
0.8382000325931286
 22
17.86113052226808
 32
0.0
 13
1.638200032593129
 23
17.86113052226808
 33
0.0
  0
SOLID
  5
62E
330
628
100
AcDbEntity
  8
METAL1
100
AcDbTrace
 10
0.8382000325931286
 20
17.86113052226808
 30
0.0
 11
0.0382000325931316
 21
17.86113052226808
 31
0.0
 12
0.8382000325931286
 22
18.11113052226808
 32
0.0
 13
0.0382000325931316
 23
18.11113052226808
 33
0.0
  0
SOLID
  5
62F
330
628
100
AcDbEntity
  8
METAL1
100
AcDbTrace
 10
0.0382000325931316
 20
17.98613052226808
 30
0.0
 11
0.0382000325931316
 21
18.11113052226808
 31
0.0
 12
1.638200032593129
 22
17.98613052226808
 32
0.0
 13
1.638200032593129
 23
18.11113052226808
 33
0.0
  0
SOLID
  5
630
330
628
100
AcDbEntity
  8
METAL1
100
AcDbTrace
 10
1.638200032593129
 20
18.48613052226808
 30
0.0
 11
2.338200032593128
 21
18.48613052226808
 31
0.0
 12
1.638200032593129
 22
17.48613052226808
 32
0.0
 13
2.338200032593128
 23
17.48613052226808
 33
0.0
  0
SOLID
  5
631
330
628
100
AcDbEntity
  8
METAL1
100
AcDbTrace
 10
5.928200032593128
 20
15.68613052226808
 30
0.0
 11
5.128200032593131
 21
15.68613052226808
 31
0.0
 12
5.928200032593128
 22
16.88613052226808
 32
0.0
 13
5.128200032593131
 23
16.88613052226808
 33
0.0
  0
SOLID
  5
632
330
628
100
AcDbEntity
  8
METAL1
100
AcDbTrace
 10
5.928200032593128
 20
17.08613052226808
 30
0.0
 11
6.728200032593129
 21
17.08613052226808
 31
0.0
 12
5.928200032593128
 22
15.48613052226808
 32
0.0
 13
6.728200032593129
 23
15.48613052226808
 33
0.0
  0
SOLID
  5
633
330
628
100
AcDbEntity
  8
METAL1
100
AcDbTrace
 10
5.128200032593131
 20
16.28613052226808
 30
0.0
 11
5.128200032593131
 21
17.08613052226808
 31
0.0
 12
6.728200032593129
 22
16.28613052226808
 32
0.0
 13
6.728200032593129
 23
17.08613052226808
 33
0.0
  0
SOLID
  5
634
330
628
100
AcDbEntity
  8
METAL1
100
AcDbTrace
 10
6.053200032593128
 20
16.28613052226808
 30
0.0
 11
6.053200032593128
 21
15.48613052226808
 31
0.0
 12
5.803200032593128
 22
16.28613052226808
 32
0.0
 13
5.803200032593128
 23
15.48613052226808
 33
0.0
  0
SOLID
  5
635
330
628
100
AcDbEntity
  8
METAL1
100
AcDbTrace
 10
5.090000032593131
 20
16.43613052226808
 30
0.0
 11
5.090000032593131
 21
17.55373052226808
 31
0.0
 12
6.766400032593129
 22
16.43613052226808
 32
0.0
 13
6.766400032593129
 23
17.55373052226808
 33
0.0
  0
SOLID
  5
636
330
628
100
AcDbEntity
  8
METAL1
100
AcDbTrace
 10
5.090000032593131
 20
19.38613052226808
 30
0.0
 11
5.090000032593131
 21
20.50373052226808
 31
0.0
 12
6.766400032593129
 22
19.38613052226808
 32
0.0
 13
6.766400032593129
 23
20.50373052226808
 33
0.0
  0
SOLID
  5
637
330
628
100
AcDbEntity
  8
METAL1
100
AcDbTrace
 10
5.803200032593128
 20
19.88613052226808
 30
0.0
 11
5.803200032593128
 21
20.88613052226808
 31
0.0
 12
6.053200032593128
 22
19.88613052226808
 32
0.0
 13
6.053200032593128
 23
20.88613052226808
 33
0.0
  0
SOLID
  5
638
330
628
100
AcDbEntity
  8
METAL1
100
AcDbTrace
 10
5.803200032593128
 20
20.88613052226808
 30
0.0
 11
5.803200032593128
 21
21.13613052226808
 31
0.0
 12
5.803200032593128
 22
20.88613052226808
 32
0.0
 13
6.053200032593128
 23
20.88613052226808
 33
0.0
  0
SOLID
  5
639
330
628
100
AcDbEntity
  8
METAL1
100
AcDbTrace
 10
1.103200032593129
 20
21.13613052226808
 30
0.0
 11
5.803200032593128
 21
21.13613052226808
 31
0.0
 12
1.103200032593129
 22
20.88613052226808
 32
0.0
 13
5.803200032593128
 23
20.88613052226808
 33
0.0
  0
SOLID
  5
63A
330
628
100
AcDbEntity
  8
METAL1
100
AcDbTrace
 10
1.103200032593129
 20
20.88613052226808
 30
0.0
 11
0.8532000325931292
 21
20.88613052226808
 31
0.0
 12
1.103200032593129
 22
20.88613052226808
 32
0.0
 13
1.103200032593129
 23
21.13613052226808
 33
0.0
  0
SOLID
  5
63B
330
628
100
AcDbEntity
  8
METAL1
100
AcDbTrace
 10
0.0000000325931317
 20
17.46113052226808
 30
0.0
 11
0.0000000325931317
 21
18.57873052226808
 31
0.0
 12
1.676400032593129
 22
17.46113052226808
 32
0.0
 13
1.676400032593129
 23
18.57873052226808
 33
0.0
  0
SOLID
  5
63C
330
628
100
AcDbEntity
  8
METAL1
100
AcDbTrace
 10
0.0000000325931317
 20
20.41113052226808
 30
0.0
 11
0.0000000325931317
 21
21.52873052226808
 31
0.0
 12
1.676400032593129
 22
20.41113052226808
 32
0.0
 13
1.676400032593129
 23
21.52873052226808
 33
0.0
  0
SOLID
  5
63D
330
628
100
AcDbEntity
  8
METAL1
100
AcDbTrace
 10
6.07820003259313
 20
17.12433052226808
 30
0.0
 11
7.19580003259313
 21
17.12433052226808
 31
0.0
 12
6.07820003259313
 22
15.44793052226808
 32
0.0
 13
7.19580003259313
 23
15.44793052226808
 33
0.0
  0
SOLID
  5
63E
330
628
100
AcDbEntity
  8
METAL1
100
AcDbTrace
 10
9.028200032593129
 20
17.12433052226808
 30
0.0
 11
10.14580003259313
 21
17.12433052226808
 31
0.0
 12
9.028200032593129
 22
15.44793052226808
 32
0.0
 13
10.14580003259313
 23
15.44793052226808
 33
0.0
  0
SOLID
  5
63F
330
628
100
AcDbEntity
  8
METAL1
100
AcDbTrace
 10
5.803200032593128
 20
11.48613052226808
 30
0.0
 11
5.803200032593128
 21
15.48613052226808
 31
0.0
 12
6.053200032593128
 22
11.48613052226808
 32
0.0
 13
6.053200032593128
 23
15.48613052226808
 33
0.0
  0
SOLID
  5
640
330
628
100
AcDbEntity
  8
METAL1
100
AcDbTrace
 10
6.053200032593128
 20
11.48613052226808
 30
0.0
 11
6.053200032593128
 21
3.025430522268084
 31
0.0
 12
5.803200032593128
 22
11.48613052226808
 32
0.0
 13
5.803200032593128
 23
3.025430522268084
 33
0.0
  0
SOLID
  5
641
330
628
100
AcDbEntity
  8
METAL1
100
AcDbTrace
 10
5.803200032593128
 20
3.275430522268084
 30
0.0
 11
6.553200032593128
 21
3.275430522268084
 31
0.0
 12
5.803200032593128
 22
3.025430522268084
 32
0.0
 13
6.553200032593128
 23
3.025430522268084
 33
0.0
  0
SOLID
  5
642
330
628
100
AcDbEntity
  8
METAL1
100
AcDbTrace
 10
6.303200032593128
 20
3.275430522268084
 30
0.0
 11
14.51390003259312
 21
3.275430522268084
 31
0.0
 12
6.303200032593128
 22
3.025430522268084
 32
0.0
 13
14.51390003259312
 23
3.025430522268084
 33
0.0
  0
SOLID
  5
643
330
628
100
AcDbEntity
  8
METAL1
100
AcDbTrace
 10
14.26390003259312
 20
3.025430522268084
 30
0.0
 11
14.26390003259312
 21
3.775430522268084
 31
0.0
 12
14.51390003259312
 22
3.025430522268084
 32
0.0
 13
14.51390003259312
 23
3.775430522268084
 33
0.0
  0
SOLID
  5
644
330
628
100
AcDbEntity
  8
METAL1
100
AcDbTrace
 10
14.26390003259312
 20
3.525430522268084
 30
0.0
 11
14.26390003259312
 21
11.48613052226808
 31
0.0
 12
14.51390003259312
 22
3.525430522268084
 32
0.0
 13
14.51390003259312
 23
11.48613052226808
 33
0.0
  0
SOLID
  5
645
330
628
100
AcDbEntity
  8
METAL1
100
AcDbTrace
 10
14.51390003259312
 20
11.23613052226808
 30
0.0
 11
13.76390003259312
 21
11.23613052226808
 31
0.0
 12
14.51390003259312
 22
11.48613052226808
 32
0.0
 13
13.76390003259312
 23
11.48613052226808
 33
0.0
  0
SOLID
  5
646
330
628
100
AcDbEntity
  8
METAL1
100
AcDbTrace
 10
14.01390003259312
 20
11.23613052226808
 30
0.0
 11
6.303200032593128
 21
11.23613052226808
 31
0.0
 12
14.01390003259312
 22
11.48613052226808
 32
0.0
 13
6.303200032593128
 23
11.48613052226808
 33
0.0
  0
SOLID
  5
647
330
628
100
AcDbEntity
  8
METAL1
100
AcDbTrace
 10
6.553200032593128
 20
11.48613052226808
 30
0.0
 11
6.553200032593128
 21
3.525430522268084
 31
0.0
 12
6.303200032593128
 22
11.48613052226808
 32
0.0
 13
6.303200032593128
 23
3.525430522268084
 33
0.0
  0
SOLID
  5
648
330
628
100
AcDbEntity
  8
METAL1
100
AcDbTrace
 10
6.303200032593128
 20
3.775430522268084
 30
0.0
 11
14.01390003259312
 21
3.775430522268084
 31
0.0
 12
6.303200032593128
 22
3.525430522268084
 32
0.0
 13
14.01390003259312
 23
3.525430522268084
 33
0.0
  0
SOLID
  5
649
330
628
100
AcDbEntity
  8
METAL1
100
AcDbTrace
 10
13.76390003259312
 20
3.525430522268084
 30
0.0
 11
13.76390003259312
 21
10.98613052226808
 31
0.0
 12
14.01390003259312
 22
3.525430522268084
 32
0.0
 13
14.01390003259312
 23
10.98613052226808
 33
0.0
  0
SOLID
  5
64A
330
628
100
AcDbEntity
  8
METAL1
100
AcDbTrace
 10
14.01390003259312
 20
10.73613052226808
 30
0.0
 11
6.803200032593128
 21
10.73613052226808
 31
0.0
 12
14.01390003259312
 22
10.98613052226808
 32
0.0
 13
6.803200032593128
 23
10.98613052226808
 33
0.0
  0
SOLID
  5
64B
330
628
100
AcDbEntity
  8
METAL1
100
AcDbTrace
 10
7.053200032593128
 20
10.98613052226808
 30
0.0
 11
7.053200032593128
 21
4.025430522268084
 31
0.0
 12
6.803200032593128
 22
10.98613052226808
 32
0.0
 13
6.803200032593128
 23
4.025430522268084
 33
0.0
  0
SOLID
  5
64C
330
628
100
AcDbEntity
  8
METAL1
100
AcDbTrace
 10
6.803200032593128
 20
4.275430522268084
 30
0.0
 11
13.51390003259312
 21
4.275430522268084
 31
0.0
 12
6.803200032593128
 22
4.025430522268084
 32
0.0
 13
13.51390003259312
 23
4.025430522268084
 33
0.0
  0
SOLID
  5
64D
330
628
100
AcDbEntity
  8
METAL1
100
AcDbTrace
 10
13.26390003259312
 20
4.025430522268084
 30
0.0
 11
13.26390003259312
 21
10.48613052226808
 31
0.0
 12
13.51390003259312
 22
4.025430522268084
 32
0.0
 13
13.51390003259312
 23
10.48613052226808
 33
0.0
  0
SOLID
  5
64E
330
628
100
AcDbEntity
  8
METAL1
100
AcDbTrace
 10
13.51390003259312
 20
10.23613052226808
 30
0.0
 11
7.303200032593128
 21
10.23613052226808
 31
0.0
 12
13.51390003259312
 22
10.48613052226808
 32
0.0
 13
7.303200032593128
 23
10.48613052226808
 33
0.0
  0
SOLID
  5
64F
330
628
100
AcDbEntity
  8
METAL1
100
AcDbTrace
 10
7.553200032593128
 20
10.48613052226808
 30
0.0
 11
7.553200032593128
 21
4.525430522268084
 31
0.0
 12
7.303200032593128
 22
10.48613052226808
 32
0.0
 13
7.303200032593128
 23
4.525430522268084
 33
0.0
  0
SOLID
  5
650
330
628
100
AcDbEntity
  8
METAL1
100
AcDbTrace
 10
7.303200032593128
 20
4.775430522268084
 30
0.0
 11
13.01390003259312
 21
4.775430522268084
 31
0.0
 12
7.303200032593128
 22
4.525430522268084
 32
0.0
 13
13.01390003259312
 23
4.525430522268084
 33
0.0
  0
SOLID
  5
651
330
628
100
AcDbEntity
  8
METAL1
100
AcDbTrace
 10
12.76390003259312
 20
4.525430522268084
 30
0.0
 11
12.76390003259312
 21
5.025430522268084
 31
0.0
 12
13.01390003259312
 22
4.525430522268084
 32
0.0
 13
13.01390003259312
 23
5.025430522268084
 33
0.0
  0
SOLID
  5
652
330
628
100
AcDbEntity
  8
METAL1
100
AcDbTrace
 10
11.92607973206406
 20
4.574999988172155
 30
0.0
 11
11.92607973206406
 21
5.574999988172155
 31
0.0
 12
12.92607973206406
 22
4.574999988172155
 32
0.0
 13
12.92607973206406
 23
5.574999988172155
 33
0.0
  0
SOLID
  5
653
330
628
100
AcDbEntity
  8
METAL1
100
AcDbTrace
 10
13.01390003259312
 20
5.025430522268084
 30
0.0
 11
12.76390003259312
 21
5.025430522268084
 31
0.0
 12
13.01390003259312
 22
5.275430522268084
 32
0.0
 13
12.76390003259312
 23
5.275430522268084
 33
0.0
  0
SOLID
  5
654
330
628
100
AcDbEntity
  8
METAL1
100
AcDbTrace
 10
18.35107973206407
 20
4.399999988172154
 30
0.0
 11
17.55107973206406
 21
4.399999988172154
 31
0.0
 12
18.35107973206407
 22
5.999999988172154
 32
0.0
 13
17.55107973206406
 23
5.999999988172154
 33
0.0
  0
SOLID
  5
655
330
628
100
AcDbEntity
  8
METAL1
100
AcDbTrace
 10
18.35107973206407
 20
5.999999988172154
 30
0.0
 11
19.15107973206406
 21
5.999999988172154
 31
0.0
 12
18.35107973206407
 22
4.399999988172154
 32
0.0
 13
19.15107973206406
 23
4.399999988172154
 33
0.0
  0
SOLID
  5
656
330
628
100
AcDbEntity
  8
METAL1
100
AcDbTrace
 10
19.15107973206406
 20
5.199999988172155
 30
0.0
 11
19.15107973206406
 21
4.399999988172154
 31
0.0
 12
17.55107973206406
 22
5.199999988172155
 32
0.0
 13
17.55107973206406
 23
4.399999988172154
 33
0.0
  0
SOLID
  5
657
330
628
100
AcDbEntity
  8
METAL1
100
AcDbTrace
 10
22.60107973206407
 20
4.361799988172155
 30
0.0
 11
21.48347973206406
 21
4.361799988172155
 31
0.0
 12
22.60107973206407
 22
6.038199988172154
 32
0.0
 13
21.48347973206406
 23
6.038199988172154
 33
0.0
  0
SOLID
  5
658
330
628
100
AcDbEntity
  8
METAL1
100
AcDbTrace
 10
19.65107973206406
 20
4.361799988172155
 30
0.0
 11
18.53347973206407
 21
4.361799988172155
 31
0.0
 12
19.65107973206406
 22
6.038199988172154
 32
0.0
 13
18.53347973206407
 23
6.038199988172154
 33
0.0
  0
SOLID
  5
659
330
628
100
AcDbEntity
  8
METAL1
100
AcDbTrace
 10
22.75107973206407
 20
4.399999988172154
 30
0.0
 11
21.95107973206407
 21
4.399999988172154
 31
0.0
 12
22.75107973206407
 22
5.999999988172154
 32
0.0
 13
21.95107973206407
 23
5.999999988172154
 33
0.0
  0
SOLID
  5
65A
330
628
100
AcDbEntity
  8
METAL1
100
AcDbTrace
 10
22.75107973206407
 20
5.999999988172154
 30
0.0
 11
23.55107973206406
 21
5.999999988172154
 31
0.0
 12
22.75107973206407
 22
4.399999988172154
 32
0.0
 13
23.55107973206406
 23
4.399999988172154
 33
0.0
  0
SOLID
  5
65B
330
628
100
AcDbEntity
  8
METAL1
100
AcDbTrace
 10
23.55107973206406
 20
5.199999988172155
 30
0.0
 11
23.55107973206406
 21
4.399999988172154
 31
0.0
 12
21.95107973206407
 22
5.199999988172155
 32
0.0
 13
21.95107973206407
 23
4.399999988172154
 33
0.0
  0
SOLID
  5
65C
330
628
100
AcDbEntity
  8
METAL1
100
AcDbTrace
 10
23.58927973206407
 20
5.049999988172155
 30
0.0
 11
23.58927973206407
 21
3.932399988172154
 31
0.0
 12
21.91287973206407
 22
5.049999988172155
 32
0.0
 13
21.91287973206407
 23
3.932399988172154
 33
0.0
  0
SOLID
  5
65D
330
628
100
AcDbEntity
  8
METAL1
100
AcDbTrace
 10
23.58927973206407
 20
2.099999988172154
 30
0.0
 11
23.58927973206407
 21
0.9823999881721547
 31
0.0
 12
21.91287973206407
 22
2.099999988172154
 32
0.0
 13
21.91287973206407
 23
0.9823999881721547
 33
0.0
  0
SOLID
  5
65E
330
628
100
AcDbEntity
  8
METAL1
100
AcDbTrace
 10
23.55107973206406
 20
1.599999988172154
 30
0.0
 11
23.55107973206406
 21
-0.0000000118278436
 31
0.0
 12
21.95107973206407
 22
1.599999988172154
 32
0.0
 13
21.95107973206407
 23
-0.0000000118278436
 33
0.0
  0
SOLID
  5
65F
330
628
100
AcDbEntity
  8
METAL1
100
AcDbTrace
 10
19.18927973206407
 20
5.049999988172155
 30
0.0
 11
19.18927973206407
 21
3.932399988172154
 31
0.0
 12
17.51287973206407
 22
5.049999988172155
 32
0.0
 13
17.51287973206407
 23
3.932399988172154
 33
0.0
  0
SOLID
  5
660
330
628
100
AcDbEntity
  8
METAL1
100
AcDbTrace
 10
19.18927973206407
 20
2.099999988172154
 30
0.0
 11
19.18927973206407
 21
0.9823999881721547
 31
0.0
 12
17.51287973206407
 22
2.099999988172154
 32
0.0
 13
17.51287973206407
 23
0.9823999881721547
 33
0.0
  0
SOLID
  5
661
330
628
100
AcDbEntity
  8
METAL1
100
AcDbTrace
 10
19.15107973206406
 20
1.599999988172154
 30
0.0
 11
19.15107973206406
 21
-0.0000000118278436
 31
0.0
 12
17.55107973206406
 22
1.599999988172154
 32
0.0
 13
17.55107973206406
 23
-0.0000000118278436
 33
0.0
  0
SOLID
  5
662
330
628
100
AcDbEntity
  8
METAL1
100
AcDbTrace
 10
23.58347942387613
 20
11.39786184415012
 30
0.0
 11
23.58347942387613
 21
9.797861844150126
 31
0.0
 12
21.98347942387613
 22
11.39786184415012
 32
0.0
 13
21.98347942387613
 23
9.797861844150126
 33
0.0
  0
SOLID
  5
663
330
628
100
AcDbEntity
  8
METAL1
100
AcDbTrace
 10
23.53269169199384
 20
8.656339619497938
 30
0.0
 11
23.53269169199384
 21
7.05633961949794
 31
0.0
 12
21.93269169199385
 22
8.656339619497938
 32
0.0
 13
21.93269169199385
 23
7.05633961949794
 33
0.0
  0
ENDBLK
  5
665
330
628
100
AcDbEntity
  8
0
100
AcDbBlockEnd
  0
BLOCK
  5
6E5
330
6A3
100
AcDbEntity
  8
0
100
AcDbBlockBegin
  2
A$C11056497
 70
     0
 10
0.0
 20
0.0
 30
0.0
  3
A$C11056497
  1

  0
SOLID
  5
6A4
330
6A3
100
AcDbEntity
  8
METAL1
100
AcDbTrace
 10
9.579999929293258
 20
9.942400028907364
 30
0.0
 11
9.579999929293258
 21
13.94240002890736
 31
0.0
 12
9.829999929293258
 22
9.942400028907364
 32
0.0
 13
9.829999929293258
 23
13.94240002890736
 33
0.0
  0
SOLID
  5
6A5
330
6A3
100
AcDbEntity
  8
METAL1
100
AcDbTrace
 10
14.57239992929326
 20
4.575000028907361
 30
0.0
 11
14.57239992929326
 21
5.575000028907361
 31
0.0
 12
15.57239992929326
 22
4.575000028907361
 32
0.0
 13
15.57239992929326
 23
5.575000028907361
 33
0.0
  0
SOLID
  5
6A6
330
6A3
100
AcDbEntity
  8
METAL1
100
AcDbTrace
 10
14.94739992929326
 20
4.575000028907361
 30
0.0
 11
14.94739992929326
 21
5.075000028907361
 31
0.0
 12
15.19739992929326
 22
4.575000028907361
 32
0.0
 13
15.19739992929326
 23
5.075000028907361
 33
0.0
  0
SOLID
  5
6A7
330
6A3
100
AcDbEntity
  8
METAL1
100
AcDbTrace
 10
10.57999992929325
 20
4.825000028907361
 30
0.0
 11
15.19739992929326
 21
4.825000028907361
 31
0.0
 12
10.57999992929325
 22
4.575000028907361
 32
0.0
 13
15.19739992929326
 23
4.575000028907361
 33
0.0
  0
SOLID
  5
6A8
330
6A3
100
AcDbEntity
  8
METAL1
100
AcDbTrace
 10
10.82999992929325
 20
9.442400028907364
 30
0.0
 11
10.82999992929325
 21
4.575000028907361
 31
0.0
 12
10.57999992929325
 22
9.442400028907364
 32
0.0
 13
10.57999992929325
 23
4.575000028907361
 33
0.0
  0
SOLID
  5
6A9
330
6A3
100
AcDbEntity
  8
METAL1
100
AcDbTrace
 10
15.44739992929326
 20
4.075000028907361
 30
0.0
 11
15.44739992929326
 21
9.442400028907364
 31
0.0
 12
15.69739992929326
 22
4.075000028907361
 32
0.0
 13
15.69739992929326
 23
9.442400028907364
 33
0.0
  0
SOLID
  5
6AA
330
6A3
100
AcDbEntity
  8
METAL1
100
AcDbTrace
 10
10.32999992929325
 20
9.942400028907364
 30
0.0
 11
10.32999992929325
 21
4.075000028907361
 31
0.0
 12
10.07999992929325
 22
9.942400028907364
 32
0.0
 13
10.07999992929325
 23
4.075000028907361
 33
0.0
  0
SOLID
  5
6AB
330
6A3
100
AcDbEntity
  8
METAL1
100
AcDbTrace
 10
15.94739992929326
 20
4.075000028907361
 30
0.0
 11
15.94739992929326
 21
9.942400028907364
 31
0.0
 12
16.19739992929326
 22
4.075000028907361
 32
0.0
 13
16.19739992929326
 23
9.942400028907364
 33
0.0
  0
SOLID
  5
6AC
330
6A3
100
AcDbEntity
  8
METAL1
100
AcDbTrace
 10
9.829999929293258
 20
9.942400028907364
 30
0.0
 11
9.829999929293258
 21
3.575000028907361
 31
0.0
 12
9.579999929293258
 22
9.942400028907364
 32
0.0
 13
9.579999929293258
 23
3.575000028907361
 33
0.0
  0
SOLID
  5
6AD
330
6A3
100
AcDbEntity
  8
METAL1
100
AcDbTrace
 10
10.07999992929325
 20
4.325000028907361
 30
0.0
 11
15.69739992929326
 21
4.325000028907361
 31
0.0
 12
10.07999992929325
 22
4.075000028907361
 32
0.0
 13
15.69739992929326
 23
4.075000028907361
 33
0.0
  0
SOLID
  5
6AE
330
6A3
100
AcDbEntity
  8
METAL1
100
AcDbTrace
 10
10.07999992929325
 20
3.825000028907361
 30
0.0
 11
16.19739992929326
 21
3.825000028907361
 31
0.0
 12
10.07999992929325
 22
3.575000028907361
 32
0.0
 13
16.19739992929326
 23
3.575000028907361
 33
0.0
  0
SOLID
  5
6AF
330
6A3
100
AcDbEntity
  8
METAL1
100
AcDbTrace
 10
9.579999929293258
 20
3.825000028907361
 30
0.0
 11
10.32999992929325
 21
3.825000028907361
 31
0.0
 12
9.579999929293258
 22
3.575000028907361
 32
0.0
 13
10.32999992929325
 23
3.575000028907361
 33
0.0
  0
SOLID
  5
6B0
330
6A3
100
AcDbEntity
  8
METAL1
100
AcDbTrace
 10
15.94739992929326
 20
3.575000028907361
 30
0.0
 11
15.94739992929326
 21
4.325000028907361
 31
0.0
 12
16.19739992929326
 22
3.575000028907361
 32
0.0
 13
16.19739992929326
 23
4.325000028907361
 33
0.0
  0
SOLID
  5
6B1
330
6A3
100
AcDbEntity
  8
METAL1
100
AcDbTrace
 10
15.19739992929326
 20
5.075000028907361
 30
0.0
 11
14.94739992929326
 21
5.075000028907361
 31
0.0
 12
15.19739992929326
 22
5.325000028907361
 32
0.0
 13
14.94739992929326
 23
5.325000028907361
 33
0.0
  0
SOLID
  5
6B2
330
6A3
100
AcDbEntity
  8
METAL1
100
AcDbTrace
 10
15.69739992929326
 20
9.192400028907364
 30
0.0
 11
10.57999992929325
 21
9.192400028907364
 31
0.0
 12
15.69739992929326
 22
9.442400028907364
 32
0.0
 13
10.57999992929325
 23
9.442400028907364
 33
0.0
  0
SOLID
  5
6B3
330
6A3
100
AcDbEntity
  8
METAL1
100
AcDbTrace
 10
15.69739992929326
 20
9.692400028907364
 30
0.0
 11
10.07999992929325
 21
9.692400028907364
 31
0.0
 12
15.69739992929326
 22
9.942400028907364
 32
0.0
 13
10.07999992929325
 23
9.942400028907364
 33
0.0
  0
SOLID
  5
6B4
330
6A3
100
AcDbEntity
  8
METAL1
100
AcDbTrace
 10
16.19739992929326
 20
9.692400028907364
 30
0.0
 11
15.44739992929326
 21
9.692400028907364
 31
0.0
 12
16.19739992929326
 22
9.942400028907364
 32
0.0
 13
15.44739992929326
 23
9.942400028907364
 33
0.0
  0
SOLID
  5
6B5
330
6A3
100
AcDbEntity
  8
METAL1
100
AcDbTrace
 10
21.83559992929326
 20
5.050000028907362
 30
0.0
 11
21.83559992929326
 21
3.932400028907359
 31
0.0
 12
20.15919992929326
 22
5.050000028907362
 32
0.0
 13
20.15919992929326
 23
3.932400028907359
 33
0.0
  0
SOLID
  5
6B6
330
6A3
100
AcDbEntity
  8
METAL1
100
AcDbTrace
 10
26.23559992929326
 20
5.050000028907362
 30
0.0
 11
26.23559992929326
 21
3.932400028907359
 31
0.0
 12
24.55919992929326
 22
5.050000028907362
 32
0.0
 13
24.55919992929326
 23
3.932400028907359
 33
0.0
  0
SOLID
  5
6B7
330
6A3
100
AcDbEntity
  8
METAL1
100
AcDbTrace
 10
26.19739992929326
 20
5.200000028907361
 30
0.0
 11
26.19739992929326
 21
4.400000028907363
 31
0.0
 12
24.59739992929326
 22
5.200000028907361
 32
0.0
 13
24.59739992929326
 23
4.400000028907363
 33
0.0
  0
SOLID
  5
6B8
330
6A3
100
AcDbEntity
  8
METAL1
100
AcDbTrace
 10
25.39739992929326
 20
6.000000028907358
 30
0.0
 11
26.19739992929326
 21
6.000000028907358
 31
0.0
 12
25.39739992929326
 22
4.400000028907363
 32
0.0
 13
26.19739992929326
 23
4.400000028907363
 33
0.0
  0
SOLID
  5
6B9
330
6A3
100
AcDbEntity
  8
METAL1
100
AcDbTrace
 10
25.39739992929326
 20
4.400000028907363
 30
0.0
 11
24.59739992929326
 21
4.400000028907363
 31
0.0
 12
25.39739992929326
 22
6.000000028907358
 32
0.0
 13
24.59739992929326
 23
6.000000028907358
 33
0.0
  0
SOLID
  5
6BA
330
6A3
100
AcDbEntity
  8
METAL1
100
AcDbTrace
 10
22.29739992929326
 20
4.36180002890736
 30
0.0
 11
21.17979992929325
 21
4.36180002890736
 31
0.0
 12
22.29739992929326
 22
6.038200028907361
 32
0.0
 13
21.17979992929325
 23
6.038200028907361
 33
0.0
  0
SOLID
  5
6BB
330
6A3
100
AcDbEntity
  8
METAL1
100
AcDbTrace
 10
25.24739992929326
 20
4.36180002890736
 30
0.0
 11
24.12979992929326
 21
4.36180002890736
 31
0.0
 12
25.24739992929326
 22
6.038200028907361
 32
0.0
 13
24.12979992929326
 23
6.038200028907361
 33
0.0
  0
SOLID
  5
6BC
330
6A3
100
AcDbEntity
  8
METAL1
100
AcDbTrace
 10
21.79739992929326
 20
5.200000028907361
 30
0.0
 11
21.79739992929326
 21
4.400000028907363
 31
0.0
 12
20.19739992929326
 22
5.200000028907361
 32
0.0
 13
20.19739992929326
 23
4.400000028907363
 33
0.0
  0
SOLID
  5
6BD
330
6A3
100
AcDbEntity
  8
METAL1
100
AcDbTrace
 10
20.99739992929325
 20
6.000000028907358
 30
0.0
 11
21.79739992929326
 21
6.000000028907358
 31
0.0
 12
20.99739992929325
 22
4.400000028907363
 32
0.0
 13
21.79739992929326
 23
4.400000028907363
 33
0.0
  0
SOLID
  5
6BE
330
6A3
100
AcDbEntity
  8
METAL1
100
AcDbTrace
 10
20.99739992929325
 20
4.400000028907363
 30
0.0
 11
20.19739992929326
 21
4.400000028907363
 31
0.0
 12
20.99739992929325
 22
6.000000028907358
 32
0.0
 13
20.19739992929326
 23
6.000000028907358
 33
0.0
  0
LWPOLYLINE
  5
6BF
330
6A3
100
AcDbEntity
  8
METAL1
100
AcDbPolyline
 90
        2
 70
     0
 43
0.2
 10
20.99739992929325
 20
1.200000028907361
 42
1.0
 10
20.99739992929325
 20
0.400000028907364
  0
LWPOLYLINE
  5
6C0
330
6A3
100
AcDbEntity
  8
METAL1
100
AcDbPolyline
 90
        2
 70
     0
 43
0.2
 10
20.99739992929325
 20
0.400000028907364
 42
1.0
 10
20.99739992929325
 20
1.200000028907361
  0
SOLID
  5
6C1
330
6A3
100
AcDbEntity
  8
METAL1
100
AcDbTrace
 10
21.79739992929326
 20
1.600000028907359
 30
0.0
 11
21.79739992929326
 21
0.0000000289073583
 31
0.0
 12
20.19739992929326
 22
1.600000028907359
 32
0.0
 13
20.19739992929326
 23
0.0000000289073583
 33
0.0
  0
LWPOLYLINE
  5
6C2
330
6A3
100
AcDbEntity
  8
METAL1
100
AcDbPolyline
 90
        2
 70
     0
 43
0.2
 10
25.39739992929326
 20
1.200000028907361
 42
1.0
 10
25.39739992929326
 20
0.400000028907364
  0
LWPOLYLINE
  5
6C3
330
6A3
100
AcDbEntity
  8
METAL1
100
AcDbPolyline
 90
        2
 70
     0
 43
0.2
 10
25.39739992929326
 20
0.400000028907364
 42
1.0
 10
25.39739992929326
 20
1.200000028907361
  0
SOLID
  5
6C4
330
6A3
100
AcDbEntity
  8
METAL1
100
AcDbTrace
 10
26.19739992929326
 20
1.600000028907359
 30
0.0
 11
26.19739992929326
 21
0.0000000289073583
 31
0.0
 12
24.59739992929326
 22
1.600000028907359
 32
0.0
 13
24.59739992929326
 23
0.0000000289073583
 33
0.0
  0
SOLID
  5
6C5
330
6A3
100
AcDbEntity
  8
METAL1
100
AcDbTrace
 10
21.83559992929326
 20
2.100000028907359
 30
0.0
 11
21.83559992929326
 21
0.9824000289073637
 31
0.0
 12
20.15919992929326
 22
2.100000028907359
 32
0.0
 13
20.15919992929326
 23
0.9824000289073637
 33
0.0
  0
SOLID
  5
6C6
330
6A3
100
AcDbEntity
  8
METAL1
100
AcDbTrace
 10
26.23559992929326
 20
2.100000028907359
 30
0.0
 11
26.23559992929326
 21
0.9824000289073637
 31
0.0
 12
24.55919992929326
 22
2.100000028907359
 32
0.0
 13
24.55919992929326
 23
0.9824000289073637
 33
0.0
  0
SOLID
  5
6C7
330
6A3
100
AcDbEntity
  8
METAL1
100
AcDbTrace
 10
15.35417992929326
 20
18.01658002890736
 30
0.0
 11
30.35417992929327
 21
18.01658002890736
 31
0.0
 12
15.35417992929326
 22
15.31658002890736
 32
0.0
 13
30.35417992929327
 23
15.31658002890736
 33
0.0
  0
SOLID
  5
6C8
330
6A3
100
AcDbEntity
  8
METAL1
100
AcDbTrace
 10
1.661799929293259
 20
19.76658002890736
 30
0.0
 11
1.661799929293259
 21
20.88418002890736
 31
0.0
 12
3.33819992929326
 22
19.76658002890736
 32
0.0
 13
3.33819992929326
 23
20.88418002890736
 33
0.0
  0
SOLID
  5
6C9
330
6A3
100
AcDbEntity
  8
METAL1
100
AcDbTrace
 10
2.329999929293258
 20
20.18299002890736
 30
0.0
 11
2.329999929293258
 21
22.19076002890736
 31
0.0
 12
2.579999929293258
 22
20.18299002890736
 32
0.0
 13
2.579999929293258
 23
22.19076002890736
 33
0.0
  0
SOLID
  5
6CA
330
6A3
100
AcDbEntity
  8
METAL1
100
AcDbTrace
 10
1.661799929293259
 20
16.81658002890736
 30
0.0
 11
1.661799929293259
 21
17.93418002890736
 31
0.0
 12
3.33819992929326
 22
16.81658002890736
 32
0.0
 13
3.33819992929326
 23
17.93418002890736
 33
0.0
  0
SOLID
  5
6CB
330
6A3
100
AcDbEntity
  8
METAL1
100
AcDbTrace
 10
5.029999929293261
 20
16.06658002890736
 30
0.0
 11
3.629999929293262
 21
16.06658002890736
 31
0.0
 12
5.029999929293261
 22
17.26658002890736
 32
0.0
 13
3.629999929293262
 23
17.26658002890736
 33
0.0
  0
SOLID
  5
6CC
330
6A3
100
AcDbEntity
  8
METAL1
100
AcDbTrace
 10
3.299999929293264
 20
17.46658002890736
 30
0.0
 11
4.999999929293259
 21
17.46658002890736
 31
0.0
 12
3.299999929293264
 22
15.86658002890736
 32
0.0
 13
4.999999929293259
 23
15.86658002890736
 33
0.0
  0
SOLID
  5
6CD
330
6A3
100
AcDbEntity
  8
METAL1
100
AcDbTrace
 10
1.699999929293262
 20
16.66658002890736
 30
0.0
 11
1.699999929293262
 21
17.46658002890736
 31
0.0
 12
3.299999929293264
 22
16.66658002890736
 32
0.0
 13
3.299999929293264
 23
17.46658002890736
 33
0.0
  0
SOLID
  5
6CE
330
6A3
100
AcDbEntity
  8
METAL1
100
AcDbTrace
 10
2.499999929293259
 20
15.86658002890736
 30
0.0
 11
1.699999929293262
 21
15.86658002890736
 31
0.0
 12
2.499999929293259
 22
17.46658002890736
 32
0.0
 13
1.699999929293262
 23
17.46658002890736
 33
0.0
  0
SOLID
  5
6CF
330
6A3
100
AcDbEntity
  8
METAL1
100
AcDbTrace
 10
2.499999929293259
 20
17.46658002890736
 30
0.0
 11
3.299999929293264
 21
17.46658002890736
 31
0.0
 12
2.499999929293259
 22
15.86658002890736
 32
0.0
 13
3.299999929293264
 23
15.86658002890736
 33
0.0
  0
SOLID
  5
6D0
330
6A3
100
AcDbEntity
  8
METAL1
100
AcDbTrace
 10
2.199999929293262
 20
15.46658002890736
 30
0.0
 11
-0.00000007070674
 21
15.46658002890736
 31
0.0
 12
2.199999929293262
 22
17.86658002890736
 32
0.0
 13
-0.00000007070674
 23
17.86658002890736
 33
0.0
  0
SOLID
  5
6D1
330
6A3
100
AcDbEntity
  8
METAL1
100
AcDbTrace
 10
5.029999929293261
 20
13.76658002890736
 30
0.0
 11
3.629999929293262
 21
13.76658002890736
 31
0.0
 12
5.029999929293261
 22
14.96658002890736
 32
0.0
 13
3.629999929293262
 23
14.96658002890736
 33
0.0
  0
CIRCLE
  5
6D2
330
6A3
100
AcDbEntity
  8
ERROR
100
AcDbCircle
 10
2.499999929293259
 20
20.26658002890736
 30
0.0
 40
0.5
  0
TEXT
  5
6D3
330
6A3
100
AcDbEntity
  8
ERROR
100
AcDbText
 10
2.166666595959926
 20
20.14158002890736
 30
0.0
 40
0.25
  1
296
 72
     4
 11
2.499999929293259
 21
20.26658002890736
 31
0.0
100
AcDbText
  0
CIRCLE
  5
6D4
330
6A3
100
AcDbEntity
  8
ERROR
100
AcDbCircle
 10
2.454999929293258
 20
20.18299002890736
 30
0.0
 40
0.5
  0
TEXT
  5
6D5
330
6A3
100
AcDbEntity
  8
ERROR
100
AcDbText
 10
2.121666595959924
 20
20.05799002890736
 30
0.0
 40
0.25
  1
296
 72
     4
 11
2.454999929293258
 21
20.18299002890736
 31
0.0
100
AcDbText
  0
LWPOLYLINE
  5
6D6
330
6A3
100
AcDbEntity
  8
METAL1
100
AcDbPolyline
 90
        2
 70
     0
 43
0.2
 10
4.399999929293258
 20
19.36658002890736
 42
1.0
 10
4.399999929293258
 20
18.56658002890736
  0
LWPOLYLINE
  5
6D7
330
6A3
100
AcDbEntity
  8
METAL1
100
AcDbPolyline
 90
        2
 70
     0
 43
0.2
 10
4.399999929293258
 20
18.56658002890736
 42
1.0
 10
4.399999929293258
 20
19.36658002890736
  0
SOLID
  5
6D8
330
6A3
100
AcDbEntity
  8
METAL1
100
AcDbTrace
 10
4.999999929293259
 20
19.56658002890736
 30
0.0
 11
4.999999929293259
 21
18.36658002890736
 31
0.0
 12
3.799999929293264
 22
19.56658002890736
 32
0.0
 13
3.799999929293264
 23
18.36658002890736
 33
0.0
  0
SOLID
  5
6D9
330
6A3
100
AcDbEntity
  8
METAL1
100
AcDbTrace
 10
5.029999929293261
 20
18.41658002890736
 30
0.0
 11
3.629999929293262
 21
18.41658002890736
 31
0.0
 12
5.029999929293261
 22
19.61658002890736
 32
0.0
 13
3.629999929293262
 23
19.61658002890736
 33
0.0
  0
SOLID
  5
6DA
330
6A3
100
AcDbEntity
  8
METAL1
100
AcDbTrace
 10
14.85417992929326
 20
17.50478002890736
 30
0.0
 11
15.97177992929326
 21
17.50478002890736
 31
0.0
 12
14.85417992929326
 22
15.82838002890736
 32
0.0
 13
15.97177992929326
 23
15.82838002890736
 33
0.0
  0
SOLID
  5
6DB
330
6A3
100
AcDbEntity
  8
METAL1
100
AcDbTrace
 10
11.90417992929326
 20
17.50478002890736
 30
0.0
 11
13.02177992929326
 21
17.50478002890736
 31
0.0
 12
11.90417992929326
 22
15.82838002890736
 32
0.0
 13
13.02177992929326
 23
15.82838002890736
 33
0.0
  0
SOLID
  5
6DC
330
6A3
100
AcDbEntity
  8
METAL1
100
AcDbTrace
 10
9.829999929293258
 20
19.39076002890736
 30
0.0
 11
12.55417992929326
 21
19.39076002890736
 31
0.0
 12
9.829999929293258
 22
13.94240002890736
 32
0.0
 13
12.55417992929326
 23
13.94240002890736
 33
0.0
  0
SOLID
  5
6DD
330
6A3
100
AcDbEntity
  8
METAL1
100
AcDbTrace
 10
9.579999929293258
 20
19.39076002890736
 30
0.0
 11
9.829999929293258
 21
19.39076002890736
 31
0.0
 12
9.579999929293258
 22
13.94240002890736
 32
0.0
 13
9.829999929293258
 23
13.94240002890736
 33
0.0
  0
SOLID
  5
6DE
330
6A3
100
AcDbEntity
  8
METAL1
100
AcDbTrace
 10
9.579999929293258
 20
19.39076002890736
 30
0.0
 11
12.30417992929326
 21
19.39076002890736
 31
0.0
 12
9.579999929293258
 22
13.94240002890736
 32
0.0
 13
12.30417992929326
 23
13.94240002890736
 33
0.0
  0
SOLID
  5
6DF
330
6A3
100
AcDbEntity
  8
METAL1
100
AcDbTrace
 10
10.92999992929325
 20
14.96658002890736
 30
0.0
 11
9.529999929293261
 21
14.96658002890736
 31
0.0
 12
10.92999992929325
 22
18.46658002890736
 32
0.0
 13
9.529999929293261
 23
18.46658002890736
 33
0.0
  0
SOLID
  5
6E0
330
6A3
100
AcDbEntity
  8
METAL1
100
AcDbTrace
 10
8.866799929293264
 20
18.74076002890736
 30
0.0
 11
8.866799929293264
 21
19.85836002890736
 31
0.0
 12
10.54319992929325
 22
18.74076002890736
 32
0.0
 13
10.54319992929325
 23
19.85836002890736
 33
0.0
  0
SOLID
  5
6E1
330
6A3
100
AcDbEntity
  8
METAL1
100
AcDbTrace
 10
2.579999929293258
 20
22.44076002890736
 30
0.0
 11
9.579999929293258
 21
22.44076002890736
 31
0.0
 12
2.579999929293258
 22
22.19076002890736
 32
0.0
 13
9.579999929293258
 23
22.19076002890736
 33
0.0
  0
SOLID
  5
6E2
330
6A3
100
AcDbEntity
  8
METAL1
100
AcDbTrace
 10
2.579999929293258
 20
22.19076002890736
 30
0.0
 11
2.329999929293258
 21
22.19076002890736
 31
0.0
 12
2.579999929293258
 22
22.19076002890736
 32
0.0
 13
2.579999929293258
 23
22.44076002890736
 33
0.0
  0
SOLID
  5
6E3
330
6A3
100
AcDbEntity
  8
METAL1
100
AcDbTrace
 10
8.866799929293264
 20
21.69076002890736
 30
0.0
 11
8.866799929293264
 21
22.80836002890736
 31
0.0
 12
10.54319992929325
 22
21.69076002890736
 32
0.0
 13
10.54319992929325
 23
22.80836002890736
 33
0.0
  0
SOLID
  5
6E4
330
6A3
100
AcDbEntity
  8
METAL1
100
AcDbTrace
 10
9.579999929293258
 20
22.19076002890736
 30
0.0
 11
9.579999929293258
 21
22.44076002890736
 31
0.0
 12
9.579999929293258
 22
22.19076002890736
 32
0.0
 13
9.829999929293258
 23
22.19076002890736
 33
0.0
  0
ENDBLK
  5
6E6
330
6A3
100
AcDbEntity
  8
0
100
AcDbBlockEnd
  0
BLOCK
  5
72A
330
6E8
100
AcDbEntity
  8
0
100
AcDbBlockBegin
  2
A$C54300923
 70
     0
 10
0.0
 20
0.0
 30
0.0
  3
A$C54300923
  1

  0
SOLID
  5
6E9
330
6E8
100
AcDbEntity
  8
METAL1
100
AcDbTrace
 10
9.579999929293258
 20
9.942400028907364
 30
0.0
 11
9.579999929293258
 21
13.94240002890736
 31
0.0
 12
9.829999929293258
 22
9.942400028907364
 32
0.0
 13
9.829999929293258
 23
13.94240002890736
 33
0.0
  0
SOLID
  5
6EA
330
6E8
100
AcDbEntity
  8
METAL1
100
AcDbTrace
 10
14.57239992929326
 20
4.575000028907361
 30
0.0
 11
14.57239992929326
 21
5.575000028907361
 31
0.0
 12
15.57239992929326
 22
4.575000028907361
 32
0.0
 13
15.57239992929326
 23
5.575000028907361
 33
0.0
  0
SOLID
  5
6EB
330
6E8
100
AcDbEntity
  8
METAL1
100
AcDbTrace
 10
14.94739992929326
 20
4.575000028907361
 30
0.0
 11
14.94739992929326
 21
5.075000028907361
 31
0.0
 12
15.19739992929326
 22
4.575000028907361
 32
0.0
 13
15.19739992929326
 23
5.075000028907361
 33
0.0
  0
SOLID
  5
6EC
330
6E8
100
AcDbEntity
  8
METAL1
100
AcDbTrace
 10
10.57999992929325
 20
4.825000028907361
 30
0.0
 11
15.19739992929326
 21
4.825000028907361
 31
0.0
 12
10.57999992929325
 22
4.575000028907361
 32
0.0
 13
15.19739992929326
 23
4.575000028907361
 33
0.0
  0
SOLID
  5
6ED
330
6E8
100
AcDbEntity
  8
METAL1
100
AcDbTrace
 10
10.82999992929325
 20
9.442400028907364
 30
0.0
 11
10.82999992929325
 21
4.575000028907361
 31
0.0
 12
10.57999992929325
 22
9.442400028907364
 32
0.0
 13
10.57999992929325
 23
4.575000028907361
 33
0.0
  0
SOLID
  5
6EE
330
6E8
100
AcDbEntity
  8
METAL1
100
AcDbTrace
 10
15.44739992929326
 20
4.075000028907361
 30
0.0
 11
15.44739992929326
 21
9.442400028907364
 31
0.0
 12
15.69739992929326
 22
4.075000028907361
 32
0.0
 13
15.69739992929326
 23
9.442400028907364
 33
0.0
  0
SOLID
  5
6EF
330
6E8
100
AcDbEntity
  8
METAL1
100
AcDbTrace
 10
10.32999992929325
 20
9.942400028907364
 30
0.0
 11
10.32999992929325
 21
4.075000028907361
 31
0.0
 12
10.07999992929325
 22
9.942400028907364
 32
0.0
 13
10.07999992929325
 23
4.075000028907361
 33
0.0
  0
SOLID
  5
6F0
330
6E8
100
AcDbEntity
  8
METAL1
100
AcDbTrace
 10
15.94739992929326
 20
4.075000028907361
 30
0.0
 11
15.94739992929326
 21
9.942400028907364
 31
0.0
 12
16.19739992929326
 22
4.075000028907361
 32
0.0
 13
16.19739992929326
 23
9.942400028907364
 33
0.0
  0
SOLID
  5
6F1
330
6E8
100
AcDbEntity
  8
METAL1
100
AcDbTrace
 10
9.829999929293258
 20
9.942400028907364
 30
0.0
 11
9.829999929293258
 21
3.575000028907361
 31
0.0
 12
9.579999929293258
 22
9.942400028907364
 32
0.0
 13
9.579999929293258
 23
3.575000028907361
 33
0.0
  0
SOLID
  5
6F2
330
6E8
100
AcDbEntity
  8
METAL1
100
AcDbTrace
 10
10.07999992929325
 20
4.325000028907361
 30
0.0
 11
15.69739992929326
 21
4.325000028907361
 31
0.0
 12
10.07999992929325
 22
4.075000028907361
 32
0.0
 13
15.69739992929326
 23
4.075000028907361
 33
0.0
  0
SOLID
  5
6F3
330
6E8
100
AcDbEntity
  8
METAL1
100
AcDbTrace
 10
10.07999992929325
 20
3.825000028907361
 30
0.0
 11
16.19739992929326
 21
3.825000028907361
 31
0.0
 12
10.07999992929325
 22
3.575000028907361
 32
0.0
 13
16.19739992929326
 23
3.575000028907361
 33
0.0
  0
SOLID
  5
6F4
330
6E8
100
AcDbEntity
  8
METAL1
100
AcDbTrace
 10
9.579999929293258
 20
3.825000028907361
 30
0.0
 11
10.32999992929325
 21
3.825000028907361
 31
0.0
 12
9.579999929293258
 22
3.575000028907361
 32
0.0
 13
10.32999992929325
 23
3.575000028907361
 33
0.0
  0
SOLID
  5
6F5
330
6E8
100
AcDbEntity
  8
METAL1
100
AcDbTrace
 10
15.94739992929326
 20
3.575000028907361
 30
0.0
 11
15.94739992929326
 21
4.325000028907361
 31
0.0
 12
16.19739992929326
 22
3.575000028907361
 32
0.0
 13
16.19739992929326
 23
4.325000028907361
 33
0.0
  0
SOLID
  5
6F6
330
6E8
100
AcDbEntity
  8
METAL1
100
AcDbTrace
 10
15.19739992929326
 20
5.075000028907361
 30
0.0
 11
14.94739992929326
 21
5.075000028907361
 31
0.0
 12
15.19739992929326
 22
5.325000028907361
 32
0.0
 13
14.94739992929326
 23
5.325000028907361
 33
0.0
  0
SOLID
  5
6F7
330
6E8
100
AcDbEntity
  8
METAL1
100
AcDbTrace
 10
15.69739992929326
 20
9.192400028907364
 30
0.0
 11
10.57999992929325
 21
9.192400028907364
 31
0.0
 12
15.69739992929326
 22
9.442400028907364
 32
0.0
 13
10.57999992929325
 23
9.442400028907364
 33
0.0
  0
SOLID
  5
6F8
330
6E8
100
AcDbEntity
  8
METAL1
100
AcDbTrace
 10
15.69739992929326
 20
9.692400028907364
 30
0.0
 11
10.07999992929325
 21
9.692400028907364
 31
0.0
 12
15.69739992929326
 22
9.942400028907364
 32
0.0
 13
10.07999992929325
 23
9.942400028907364
 33
0.0
  0
SOLID
  5
6F9
330
6E8
100
AcDbEntity
  8
METAL1
100
AcDbTrace
 10
16.19739992929326
 20
9.692400028907364
 30
0.0
 11
15.44739992929326
 21
9.692400028907364
 31
0.0
 12
16.19739992929326
 22
9.942400028907364
 32
0.0
 13
15.44739992929326
 23
9.942400028907364
 33
0.0
  0
SOLID
  5
6FA
330
6E8
100
AcDbEntity
  8
METAL1
100
AcDbTrace
 10
21.83559992929326
 20
5.050000028907362
 30
0.0
 11
21.83559992929326
 21
3.932400028907359
 31
0.0
 12
20.15919992929326
 22
5.050000028907362
 32
0.0
 13
20.15919992929326
 23
3.932400028907359
 33
0.0
  0
SOLID
  5
6FB
330
6E8
100
AcDbEntity
  8
METAL1
100
AcDbTrace
 10
26.23559992929326
 20
5.050000028907362
 30
0.0
 11
26.23559992929326
 21
3.932400028907359
 31
0.0
 12
24.55919992929326
 22
5.050000028907362
 32
0.0
 13
24.55919992929326
 23
3.932400028907359
 33
0.0
  0
SOLID
  5
6FC
330
6E8
100
AcDbEntity
  8
METAL1
100
AcDbTrace
 10
26.19739992929326
 20
5.200000028907361
 30
0.0
 11
26.19739992929326
 21
4.400000028907363
 31
0.0
 12
24.59739992929326
 22
5.200000028907361
 32
0.0
 13
24.59739992929326
 23
4.400000028907363
 33
0.0
  0
SOLID
  5
6FD
330
6E8
100
AcDbEntity
  8
METAL1
100
AcDbTrace
 10
25.39739992929326
 20
6.000000028907358
 30
0.0
 11
26.19739992929326
 21
6.000000028907358
 31
0.0
 12
25.39739992929326
 22
4.400000028907363
 32
0.0
 13
26.19739992929326
 23
4.400000028907363
 33
0.0
  0
SOLID
  5
6FE
330
6E8
100
AcDbEntity
  8
METAL1
100
AcDbTrace
 10
25.39739992929326
 20
4.400000028907363
 30
0.0
 11
24.59739992929326
 21
4.400000028907363
 31
0.0
 12
25.39739992929326
 22
6.000000028907358
 32
0.0
 13
24.59739992929326
 23
6.000000028907358
 33
0.0
  0
SOLID
  5
6FF
330
6E8
100
AcDbEntity
  8
METAL1
100
AcDbTrace
 10
22.29739992929326
 20
4.36180002890736
 30
0.0
 11
21.17979992929325
 21
4.36180002890736
 31
0.0
 12
22.29739992929326
 22
6.038200028907361
 32
0.0
 13
21.17979992929325
 23
6.038200028907361
 33
0.0
  0
SOLID
  5
700
330
6E8
100
AcDbEntity
  8
METAL1
100
AcDbTrace
 10
25.24739992929326
 20
4.36180002890736
 30
0.0
 11
24.12979992929326
 21
4.36180002890736
 31
0.0
 12
25.24739992929326
 22
6.038200028907361
 32
0.0
 13
24.12979992929326
 23
6.038200028907361
 33
0.0
  0
SOLID
  5
701
330
6E8
100
AcDbEntity
  8
METAL1
100
AcDbTrace
 10
21.79739992929326
 20
5.200000028907361
 30
0.0
 11
21.79739992929326
 21
4.400000028907363
 31
0.0
 12
20.19739992929326
 22
5.200000028907361
 32
0.0
 13
20.19739992929326
 23
4.400000028907363
 33
0.0
  0
SOLID
  5
702
330
6E8
100
AcDbEntity
  8
METAL1
100
AcDbTrace
 10
20.99739992929325
 20
6.000000028907358
 30
0.0
 11
21.79739992929326
 21
6.000000028907358
 31
0.0
 12
20.99739992929325
 22
4.400000028907363
 32
0.0
 13
21.79739992929326
 23
4.400000028907363
 33
0.0
  0
SOLID
  5
703
330
6E8
100
AcDbEntity
  8
METAL1
100
AcDbTrace
 10
20.99739992929325
 20
4.400000028907363
 30
0.0
 11
20.19739992929326
 21
4.400000028907363
 31
0.0
 12
20.99739992929325
 22
6.000000028907358
 32
0.0
 13
20.19739992929326
 23
6.000000028907358
 33
0.0
  0
LWPOLYLINE
  5
704
330
6E8
100
AcDbEntity
  8
METAL1
100
AcDbPolyline
 90
        2
 70
     0
 43
0.2
 10
20.99739992929325
 20
1.200000028907361
 42
1.0
 10
20.99739992929325
 20
0.400000028907364
  0
LWPOLYLINE
  5
705
330
6E8
100
AcDbEntity
  8
METAL1
100
AcDbPolyline
 90
        2
 70
     0
 43
0.2
 10
20.99739992929325
 20
0.400000028907364
 42
1.0
 10
20.99739992929325
 20
1.200000028907361
  0
SOLID
  5
706
330
6E8
100
AcDbEntity
  8
METAL1
100
AcDbTrace
 10
21.79739992929326
 20
1.600000028907359
 30
0.0
 11
21.79739992929326
 21
0.0000000289073583
 31
0.0
 12
20.19739992929326
 22
1.600000028907359
 32
0.0
 13
20.19739992929326
 23
0.0000000289073583
 33
0.0
  0
LWPOLYLINE
  5
707
330
6E8
100
AcDbEntity
  8
METAL1
100
AcDbPolyline
 90
        2
 70
     0
 43
0.2
 10
25.39739992929326
 20
1.200000028907361
 42
1.0
 10
25.39739992929326
 20
0.400000028907364
  0
LWPOLYLINE
  5
708
330
6E8
100
AcDbEntity
  8
METAL1
100
AcDbPolyline
 90
        2
 70
     0
 43
0.2
 10
25.39739992929326
 20
0.400000028907364
 42
1.0
 10
25.39739992929326
 20
1.200000028907361
  0
SOLID
  5
709
330
6E8
100
AcDbEntity
  8
METAL1
100
AcDbTrace
 10
26.19739992929326
 20
1.600000028907359
 30
0.0
 11
26.19739992929326
 21
0.0000000289073583
 31
0.0
 12
24.59739992929326
 22
1.600000028907359
 32
0.0
 13
24.59739992929326
 23
0.0000000289073583
 33
0.0
  0
SOLID
  5
70A
330
6E8
100
AcDbEntity
  8
METAL1
100
AcDbTrace
 10
21.83559992929326
 20
2.100000028907359
 30
0.0
 11
21.83559992929326
 21
0.9824000289073637
 31
0.0
 12
20.15919992929326
 22
2.100000028907359
 32
0.0
 13
20.15919992929326
 23
0.9824000289073637
 33
0.0
  0
SOLID
  5
70B
330
6E8
100
AcDbEntity
  8
METAL1
100
AcDbTrace
 10
26.23559992929326
 20
2.100000028907359
 30
0.0
 11
26.23559992929326
 21
0.9824000289073637
 31
0.0
 12
24.55919992929326
 22
2.100000028907359
 32
0.0
 13
24.55919992929326
 23
0.9824000289073637
 33
0.0
  0
SOLID
  5
70C
330
6E8
100
AcDbEntity
  8
METAL1
100
AcDbTrace
 10
15.35417992929326
 20
18.01658002890736
 30
0.0
 11
30.35417992929327
 21
18.01658002890736
 31
0.0
 12
15.35417992929326
 22
15.31658002890736
 32
0.0
 13
30.35417992929327
 23
15.31658002890736
 33
0.0
  0
SOLID
  5
70D
330
6E8
100
AcDbEntity
  8
METAL1
100
AcDbTrace
 10
1.661799929293259
 20
19.76658002890736
 30
0.0
 11
1.661799929293259
 21
20.88418002890736
 31
0.0
 12
3.33819992929326
 22
19.76658002890736
 32
0.0
 13
3.33819992929326
 23
20.88418002890736
 33
0.0
  0
SOLID
  5
70E
330
6E8
100
AcDbEntity
  8
METAL1
100
AcDbTrace
 10
2.329999929293258
 20
20.18299002890736
 30
0.0
 11
2.329999929293258
 21
22.19076002890736
 31
0.0
 12
2.579999929293258
 22
20.18299002890736
 32
0.0
 13
2.579999929293258
 23
22.19076002890736
 33
0.0
  0
SOLID
  5
70F
330
6E8
100
AcDbEntity
  8
METAL1
100
AcDbTrace
 10
1.661799929293259
 20
16.81658002890736
 30
0.0
 11
1.661799929293259
 21
17.93418002890736
 31
0.0
 12
3.33819992929326
 22
16.81658002890736
 32
0.0
 13
3.33819992929326
 23
17.93418002890736
 33
0.0
  0
SOLID
  5
710
330
6E8
100
AcDbEntity
  8
METAL1
100
AcDbTrace
 10
5.029999929293261
 20
16.06658002890736
 30
0.0
 11
3.629999929293262
 21
16.06658002890736
 31
0.0
 12
5.029999929293261
 22
17.26658002890736
 32
0.0
 13
3.629999929293262
 23
17.26658002890736
 33
0.0
  0
SOLID
  5
711
330
6E8
100
AcDbEntity
  8
METAL1
100
AcDbTrace
 10
3.299999929293264
 20
17.46658002890736
 30
0.0
 11
4.999999929293259
 21
17.46658002890736
 31
0.0
 12
3.299999929293264
 22
15.86658002890736
 32
0.0
 13
4.999999929293259
 23
15.86658002890736
 33
0.0
  0
SOLID
  5
712
330
6E8
100
AcDbEntity
  8
METAL1
100
AcDbTrace
 10
1.699999929293262
 20
16.66658002890736
 30
0.0
 11
1.699999929293262
 21
17.46658002890736
 31
0.0
 12
3.299999929293264
 22
16.66658002890736
 32
0.0
 13
3.299999929293264
 23
17.46658002890736
 33
0.0
  0
SOLID
  5
713
330
6E8
100
AcDbEntity
  8
METAL1
100
AcDbTrace
 10
2.499999929293259
 20
15.86658002890736
 30
0.0
 11
1.699999929293262
 21
15.86658002890736
 31
0.0
 12
2.499999929293259
 22
17.46658002890736
 32
0.0
 13
1.699999929293262
 23
17.46658002890736
 33
0.0
  0
SOLID
  5
714
330
6E8
100
AcDbEntity
  8
METAL1
100
AcDbTrace
 10
2.499999929293259
 20
17.46658002890736
 30
0.0
 11
3.299999929293264
 21
17.46658002890736
 31
0.0
 12
2.499999929293259
 22
15.86658002890736
 32
0.0
 13
3.299999929293264
 23
15.86658002890736
 33
0.0
  0
SOLID
  5
715
330
6E8
100
AcDbEntity
  8
METAL1
100
AcDbTrace
 10
2.199999929293262
 20
15.46658002890736
 30
0.0
 11
-0.00000007070674
 21
15.46658002890736
 31
0.0
 12
2.199999929293262
 22
17.86658002890736
 32
0.0
 13
-0.00000007070674
 23
17.86658002890736
 33
0.0
  0
SOLID
  5
716
330
6E8
100
AcDbEntity
  8
METAL1
100
AcDbTrace
 10
5.029999929293261
 20
13.76658002890736
 30
0.0
 11
3.629999929293262
 21
13.76658002890736
 31
0.0
 12
5.029999929293261
 22
14.96658002890736
 32
0.0
 13
3.629999929293262
 23
14.96658002890736
 33
0.0
  0
CIRCLE
  5
717
330
6E8
100
AcDbEntity
  8
ERROR
100
AcDbCircle
 10
2.499999929293259
 20
20.26658002890736
 30
0.0
 40
0.5
  0
TEXT
  5
718
330
6E8
100
AcDbEntity
  8
ERROR
100
AcDbText
 10
2.166666595959926
 20
20.14158002890736
 30
0.0
 40
0.25
  1
296
 72
     4
 11
2.499999929293259
 21
20.26658002890736
 31
0.0
100
AcDbText
  0
CIRCLE
  5
719
330
6E8
100
AcDbEntity
  8
ERROR
100
AcDbCircle
 10
2.454999929293258
 20
20.18299002890736
 30
0.0
 40
0.5
  0
TEXT
  5
71A
330
6E8
100
AcDbEntity
  8
ERROR
100
AcDbText
 10
2.121666595959924
 20
20.05799002890736
 30
0.0
 40
0.25
  1
296
 72
     4
 11
2.454999929293258
 21
20.18299002890736
 31
0.0
100
AcDbText
  0
LWPOLYLINE
  5
71B
330
6E8
100
AcDbEntity
  8
METAL1
100
AcDbPolyline
 90
        2
 70
     0
 43
0.2
 10
4.399999929293258
 20
19.36658002890736
 42
1.0
 10
4.399999929293258
 20
18.56658002890736
  0
LWPOLYLINE
  5
71C
330
6E8
100
AcDbEntity
  8
METAL1
100
AcDbPolyline
 90
        2
 70
     0
 43
0.2
 10
4.399999929293258
 20
18.56658002890736
 42
1.0
 10
4.399999929293258
 20
19.36658002890736
  0
SOLID
  5
71D
330
6E8
100
AcDbEntity
  8
METAL1
100
AcDbTrace
 10
4.999999929293259
 20
19.56658002890736
 30
0.0
 11
4.999999929293259
 21
18.36658002890736
 31
0.0
 12
3.799999929293264
 22
19.56658002890736
 32
0.0
 13
3.799999929293264
 23
18.36658002890736
 33
0.0
  0
SOLID
  5
71E
330
6E8
100
AcDbEntity
  8
METAL1
100
AcDbTrace
 10
5.029999929293261
 20
18.41658002890736
 30
0.0
 11
3.629999929293262
 21
18.41658002890736
 31
0.0
 12
5.029999929293261
 22
19.61658002890736
 32
0.0
 13
3.629999929293262
 23
19.61658002890736
 33
0.0
  0
SOLID
  5
71F
330
6E8
100
AcDbEntity
  8
METAL1
100
AcDbTrace
 10
14.85417992929326
 20
17.50478002890736
 30
0.0
 11
15.97177992929326
 21
17.50478002890736
 31
0.0
 12
14.85417992929326
 22
15.82838002890736
 32
0.0
 13
15.97177992929326
 23
15.82838002890736
 33
0.0
  0
SOLID
  5
720
330
6E8
100
AcDbEntity
  8
METAL1
100
AcDbTrace
 10
11.90417992929326
 20
17.50478002890736
 30
0.0
 11
13.02177992929326
 21
17.50478002890736
 31
0.0
 12
11.90417992929326
 22
15.82838002890736
 32
0.0
 13
13.02177992929326
 23
15.82838002890736
 33
0.0
  0
SOLID
  5
721
330
6E8
100
AcDbEntity
  8
METAL1
100
AcDbTrace
 10
9.829999929293258
 20
19.39076002890736
 30
0.0
 11
12.55417992929326
 21
19.39076002890736
 31
0.0
 12
9.829999929293258
 22
13.94240002890736
 32
0.0
 13
12.55417992929326
 23
13.94240002890736
 33
0.0
  0
SOLID
  5
722
330
6E8
100
AcDbEntity
  8
METAL1
100
AcDbTrace
 10
9.579999929293258
 20
19.39076002890736
 30
0.0
 11
9.829999929293258
 21
19.39076002890736
 31
0.0
 12
9.579999929293258
 22
13.94240002890736
 32
0.0
 13
9.829999929293258
 23
13.94240002890736
 33
0.0
  0
SOLID
  5
723
330
6E8
100
AcDbEntity
  8
METAL1
100
AcDbTrace
 10
9.579999929293258
 20
19.39076002890736
 30
0.0
 11
12.30417992929326
 21
19.39076002890736
 31
0.0
 12
9.579999929293258
 22
13.94240002890736
 32
0.0
 13
12.30417992929326
 23
13.94240002890736
 33
0.0
  0
SOLID
  5
724
330
6E8
100
AcDbEntity
  8
METAL1
100
AcDbTrace
 10
10.92999992929325
 20
14.96658002890736
 30
0.0
 11
9.529999929293261
 21
14.96658002890736
 31
0.0
 12
10.92999992929325
 22
18.46658002890736
 32
0.0
 13
9.529999929293261
 23
18.46658002890736
 33
0.0
  0
SOLID
  5
725
330
6E8
100
AcDbEntity
  8
METAL1
100
AcDbTrace
 10
8.866799929293264
 20
18.74076002890736
 30
0.0
 11
8.866799929293264
 21
19.85836002890736
 31
0.0
 12
10.54319992929325
 22
18.74076002890736
 32
0.0
 13
10.54319992929325
 23
19.85836002890736
 33
0.0
  0
SOLID
  5
726
330
6E8
100
AcDbEntity
  8
METAL1
100
AcDbTrace
 10
2.579999929293258
 20
22.44076002890736
 30
0.0
 11
9.579999929293258
 21
22.44076002890736
 31
0.0
 12
2.579999929293258
 22
22.19076002890736
 32
0.0
 13
9.579999929293258
 23
22.19076002890736
 33
0.0
  0
SOLID
  5
727
330
6E8
100
AcDbEntity
  8
METAL1
100
AcDbTrace
 10
2.579999929293258
 20
22.19076002890736
 30
0.0
 11
2.329999929293258
 21
22.19076002890736
 31
0.0
 12
2.579999929293258
 22
22.19076002890736
 32
0.0
 13
2.579999929293258
 23
22.44076002890736
 33
0.0
  0
SOLID
  5
728
330
6E8
100
AcDbEntity
  8
METAL1
100
AcDbTrace
 10
8.866799929293264
 20
21.69076002890736
 30
0.0
 11
8.866799929293264
 21
22.80836002890736
 31
0.0
 12
10.54319992929325
 22
21.69076002890736
 32
0.0
 13
10.54319992929325
 23
22.80836002890736
 33
0.0
  0
SOLID
  5
729
330
6E8
100
AcDbEntity
  8
METAL1
100
AcDbTrace
 10
9.579999929293258
 20
22.19076002890736
 30
0.0
 11
9.579999929293258
 21
22.44076002890736
 31
0.0
 12
9.579999929293258
 22
22.19076002890736
 32
0.0
 13
9.829999929293258
 23
22.19076002890736
 33
0.0
  0
ENDBLK
  5
72B
330
6E8
100
AcDbEntity
  8
0
100
AcDbBlockEnd
  0
BLOCK
  5
76F
330
72D
100
AcDbEntity
  8
0
100
AcDbBlockBegin
  2
A$C57047F67
 70
     0
 10
0.0
 20
0.0
 30
0.0
  3
A$C57047F67
  1

  0
SOLID
  5
72E
330
72D
100
AcDbEntity
  8
METAL1
100
AcDbTrace
 10
9.579999929293258
 20
9.942400028907364
 30
0.0
 11
9.579999929293258
 21
13.94240002890736
 31
0.0
 12
9.829999929293258
 22
9.942400028907364
 32
0.0
 13
9.829999929293258
 23
13.94240002890736
 33
0.0
  0
SOLID
  5
72F
330
72D
100
AcDbEntity
  8
METAL1
100
AcDbTrace
 10
14.57239992929326
 20
4.575000028907361
 30
0.0
 11
14.57239992929326
 21
5.575000028907361
 31
0.0
 12
15.57239992929326
 22
4.575000028907361
 32
0.0
 13
15.57239992929326
 23
5.575000028907361
 33
0.0
  0
SOLID
  5
730
330
72D
100
AcDbEntity
  8
METAL1
100
AcDbTrace
 10
14.94739992929326
 20
4.575000028907361
 30
0.0
 11
14.94739992929326
 21
5.075000028907361
 31
0.0
 12
15.19739992929326
 22
4.575000028907361
 32
0.0
 13
15.19739992929326
 23
5.075000028907361
 33
0.0
  0
SOLID
  5
731
330
72D
100
AcDbEntity
  8
METAL1
100
AcDbTrace
 10
10.57999992929325
 20
4.825000028907361
 30
0.0
 11
15.19739992929326
 21
4.825000028907361
 31
0.0
 12
10.57999992929325
 22
4.575000028907361
 32
0.0
 13
15.19739992929326
 23
4.575000028907361
 33
0.0
  0
SOLID
  5
732
330
72D
100
AcDbEntity
  8
METAL1
100
AcDbTrace
 10
10.82999992929325
 20
9.442400028907364
 30
0.0
 11
10.82999992929325
 21
4.575000028907361
 31
0.0
 12
10.57999992929325
 22
9.442400028907364
 32
0.0
 13
10.57999992929325
 23
4.575000028907361
 33
0.0
  0
SOLID
  5
733
330
72D
100
AcDbEntity
  8
METAL1
100
AcDbTrace
 10
15.44739992929326
 20
4.075000028907361
 30
0.0
 11
15.44739992929326
 21
9.442400028907364
 31
0.0
 12
15.69739992929326
 22
4.075000028907361
 32
0.0
 13
15.69739992929326
 23
9.442400028907364
 33
0.0
  0
SOLID
  5
734
330
72D
100
AcDbEntity
  8
METAL1
100
AcDbTrace
 10
10.32999992929325
 20
9.942400028907364
 30
0.0
 11
10.32999992929325
 21
4.075000028907361
 31
0.0
 12
10.07999992929325
 22
9.942400028907364
 32
0.0
 13
10.07999992929325
 23
4.075000028907361
 33
0.0
  0
SOLID
  5
735
330
72D
100
AcDbEntity
  8
METAL1
100
AcDbTrace
 10
15.94739992929326
 20
4.075000028907361
 30
0.0
 11
15.94739992929326
 21
9.942400028907364
 31
0.0
 12
16.19739992929326
 22
4.075000028907361
 32
0.0
 13
16.19739992929326
 23
9.942400028907364
 33
0.0
  0
SOLID
  5
736
330
72D
100
AcDbEntity
  8
METAL1
100
AcDbTrace
 10
9.829999929293258
 20
9.942400028907364
 30
0.0
 11
9.829999929293258
 21
3.575000028907361
 31
0.0
 12
9.579999929293258
 22
9.942400028907364
 32
0.0
 13
9.579999929293258
 23
3.575000028907361
 33
0.0
  0
SOLID
  5
737
330
72D
100
AcDbEntity
  8
METAL1
100
AcDbTrace
 10
10.07999992929325
 20
4.325000028907361
 30
0.0
 11
15.69739992929326
 21
4.325000028907361
 31
0.0
 12
10.07999992929325
 22
4.075000028907361
 32
0.0
 13
15.69739992929326
 23
4.075000028907361
 33
0.0
  0
SOLID
  5
738
330
72D
100
AcDbEntity
  8
METAL1
100
AcDbTrace
 10
10.07999992929325
 20
3.825000028907361
 30
0.0
 11
16.19739992929326
 21
3.825000028907361
 31
0.0
 12
10.07999992929325
 22
3.575000028907361
 32
0.0
 13
16.19739992929326
 23
3.575000028907361
 33
0.0
  0
SOLID
  5
739
330
72D
100
AcDbEntity
  8
METAL1
100
AcDbTrace
 10
9.579999929293258
 20
3.825000028907361
 30
0.0
 11
10.32999992929325
 21
3.825000028907361
 31
0.0
 12
9.579999929293258
 22
3.575000028907361
 32
0.0
 13
10.32999992929325
 23
3.575000028907361
 33
0.0
  0
SOLID
  5
73A
330
72D
100
AcDbEntity
  8
METAL1
100
AcDbTrace
 10
15.94739992929326
 20
3.575000028907361
 30
0.0
 11
15.94739992929326
 21
4.325000028907361
 31
0.0
 12
16.19739992929326
 22
3.575000028907361
 32
0.0
 13
16.19739992929326
 23
4.325000028907361
 33
0.0
  0
SOLID
  5
73B
330
72D
100
AcDbEntity
  8
METAL1
100
AcDbTrace
 10
15.19739992929326
 20
5.075000028907361
 30
0.0
 11
14.94739992929326
 21
5.075000028907361
 31
0.0
 12
15.19739992929326
 22
5.325000028907361
 32
0.0
 13
14.94739992929326
 23
5.325000028907361
 33
0.0
  0
SOLID
  5
73C
330
72D
100
AcDbEntity
  8
METAL1
100
AcDbTrace
 10
15.69739992929326
 20
9.192400028907364
 30
0.0
 11
10.57999992929325
 21
9.192400028907364
 31
0.0
 12
15.69739992929326
 22
9.442400028907364
 32
0.0
 13
10.57999992929325
 23
9.442400028907364
 33
0.0
  0
SOLID
  5
73D
330
72D
100
AcDbEntity
  8
METAL1
100
AcDbTrace
 10
15.69739992929326
 20
9.692400028907364
 30
0.0
 11
10.07999992929325
 21
9.692400028907364
 31
0.0
 12
15.69739992929326
 22
9.942400028907364
 32
0.0
 13
10.07999992929325
 23
9.942400028907364
 33
0.0
  0
SOLID
  5
73E
330
72D
100
AcDbEntity
  8
METAL1
100
AcDbTrace
 10
16.19739992929326
 20
9.692400028907364
 30
0.0
 11
15.44739992929326
 21
9.692400028907364
 31
0.0
 12
16.19739992929326
 22
9.942400028907364
 32
0.0
 13
15.44739992929326
 23
9.942400028907364
 33
0.0
  0
SOLID
  5
73F
330
72D
100
AcDbEntity
  8
METAL1
100
AcDbTrace
 10
21.83559992929326
 20
5.050000028907362
 30
0.0
 11
21.83559992929326
 21
3.932400028907359
 31
0.0
 12
20.15919992929326
 22
5.050000028907362
 32
0.0
 13
20.15919992929326
 23
3.932400028907359
 33
0.0
  0
SOLID
  5
740
330
72D
100
AcDbEntity
  8
METAL1
100
AcDbTrace
 10
26.23559992929326
 20
5.050000028907362
 30
0.0
 11
26.23559992929326
 21
3.932400028907359
 31
0.0
 12
24.55919992929326
 22
5.050000028907362
 32
0.0
 13
24.55919992929326
 23
3.932400028907359
 33
0.0
  0
SOLID
  5
741
330
72D
100
AcDbEntity
  8
METAL1
100
AcDbTrace
 10
26.19739992929326
 20
5.200000028907361
 30
0.0
 11
26.19739992929326
 21
4.400000028907363
 31
0.0
 12
24.59739992929326
 22
5.200000028907361
 32
0.0
 13
24.59739992929326
 23
4.400000028907363
 33
0.0
  0
SOLID
  5
742
330
72D
100
AcDbEntity
  8
METAL1
100
AcDbTrace
 10
25.39739992929326
 20
6.000000028907358
 30
0.0
 11
26.19739992929326
 21
6.000000028907358
 31
0.0
 12
25.39739992929326
 22
4.400000028907363
 32
0.0
 13
26.19739992929326
 23
4.400000028907363
 33
0.0
  0
SOLID
  5
743
330
72D
100
AcDbEntity
  8
METAL1
100
AcDbTrace
 10
25.39739992929326
 20
4.400000028907363
 30
0.0
 11
24.59739992929326
 21
4.400000028907363
 31
0.0
 12
25.39739992929326
 22
6.000000028907358
 32
0.0
 13
24.59739992929326
 23
6.000000028907358
 33
0.0
  0
SOLID
  5
744
330
72D
100
AcDbEntity
  8
METAL1
100
AcDbTrace
 10
22.29739992929326
 20
4.36180002890736
 30
0.0
 11
21.17979992929325
 21
4.36180002890736
 31
0.0
 12
22.29739992929326
 22
6.038200028907361
 32
0.0
 13
21.17979992929325
 23
6.038200028907361
 33
0.0
  0
SOLID
  5
745
330
72D
100
AcDbEntity
  8
METAL1
100
AcDbTrace
 10
25.24739992929326
 20
4.36180002890736
 30
0.0
 11
24.12979992929326
 21
4.36180002890736
 31
0.0
 12
25.24739992929326
 22
6.038200028907361
 32
0.0
 13
24.12979992929326
 23
6.038200028907361
 33
0.0
  0
SOLID
  5
746
330
72D
100
AcDbEntity
  8
METAL1
100
AcDbTrace
 10
21.79739992929326
 20
5.200000028907361
 30
0.0
 11
21.79739992929326
 21
4.400000028907363
 31
0.0
 12
20.19739992929326
 22
5.200000028907361
 32
0.0
 13
20.19739992929326
 23
4.400000028907363
 33
0.0
  0
SOLID
  5
747
330
72D
100
AcDbEntity
  8
METAL1
100
AcDbTrace
 10
20.99739992929325
 20
6.000000028907358
 30
0.0
 11
21.79739992929326
 21
6.000000028907358
 31
0.0
 12
20.99739992929325
 22
4.400000028907363
 32
0.0
 13
21.79739992929326
 23
4.400000028907363
 33
0.0
  0
SOLID
  5
748
330
72D
100
AcDbEntity
  8
METAL1
100
AcDbTrace
 10
20.99739992929325
 20
4.400000028907363
 30
0.0
 11
20.19739992929326
 21
4.400000028907363
 31
0.0
 12
20.99739992929325
 22
6.000000028907358
 32
0.0
 13
20.19739992929326
 23
6.000000028907358
 33
0.0
  0
LWPOLYLINE
  5
749
330
72D
100
AcDbEntity
  8
METAL1
100
AcDbPolyline
 90
        2
 70
     0
 43
0.2
 10
20.99739992929325
 20
1.200000028907361
 42
1.0
 10
20.99739992929325
 20
0.400000028907364
  0
LWPOLYLINE
  5
74A
330
72D
100
AcDbEntity
  8
METAL1
100
AcDbPolyline
 90
        2
 70
     0
 43
0.2
 10
20.99739992929325
 20
0.400000028907364
 42
1.0
 10
20.99739992929325
 20
1.200000028907361
  0
SOLID
  5
74B
330
72D
100
AcDbEntity
  8
METAL1
100
AcDbTrace
 10
21.79739992929326
 20
1.600000028907359
 30
0.0
 11
21.79739992929326
 21
0.0000000289073583
 31
0.0
 12
20.19739992929326
 22
1.600000028907359
 32
0.0
 13
20.19739992929326
 23
0.0000000289073583
 33
0.0
  0
LWPOLYLINE
  5
74C
330
72D
100
AcDbEntity
  8
METAL1
100
AcDbPolyline
 90
        2
 70
     0
 43
0.2
 10
25.39739992929326
 20
1.200000028907361
 42
1.0
 10
25.39739992929326
 20
0.400000028907364
  0
LWPOLYLINE
  5
74D
330
72D
100
AcDbEntity
  8
METAL1
100
AcDbPolyline
 90
        2
 70
     0
 43
0.2
 10
25.39739992929326
 20
0.400000028907364
 42
1.0
 10
25.39739992929326
 20
1.200000028907361
  0
SOLID
  5
74E
330
72D
100
AcDbEntity
  8
METAL1
100
AcDbTrace
 10
26.19739992929326
 20
1.600000028907359
 30
0.0
 11
26.19739992929326
 21
0.0000000289073583
 31
0.0
 12
24.59739992929326
 22
1.600000028907359
 32
0.0
 13
24.59739992929326
 23
0.0000000289073583
 33
0.0
  0
SOLID
  5
74F
330
72D
100
AcDbEntity
  8
METAL1
100
AcDbTrace
 10
21.83559992929326
 20
2.100000028907359
 30
0.0
 11
21.83559992929326
 21
0.9824000289073637
 31
0.0
 12
20.15919992929326
 22
2.100000028907359
 32
0.0
 13
20.15919992929326
 23
0.9824000289073637
 33
0.0
  0
SOLID
  5
750
330
72D
100
AcDbEntity
  8
METAL1
100
AcDbTrace
 10
26.23559992929326
 20
2.100000028907359
 30
0.0
 11
26.23559992929326
 21
0.9824000289073637
 31
0.0
 12
24.55919992929326
 22
2.100000028907359
 32
0.0
 13
24.55919992929326
 23
0.9824000289073637
 33
0.0
  0
SOLID
  5
751
330
72D
100
AcDbEntity
  8
METAL1
100
AcDbTrace
 10
15.35417992929326
 20
18.01658002890736
 30
0.0
 11
30.35417992929327
 21
18.01658002890736
 31
0.0
 12
15.35417992929326
 22
15.31658002890736
 32
0.0
 13
30.35417992929327
 23
15.31658002890736
 33
0.0
  0
SOLID
  5
752
330
72D
100
AcDbEntity
  8
METAL1
100
AcDbTrace
 10
1.661799929293259
 20
19.76658002890736
 30
0.0
 11
1.661799929293259
 21
20.88418002890736
 31
0.0
 12
3.33819992929326
 22
19.76658002890736
 32
0.0
 13
3.33819992929326
 23
20.88418002890736
 33
0.0
  0
SOLID
  5
753
330
72D
100
AcDbEntity
  8
METAL1
100
AcDbTrace
 10
2.329999929293258
 20
20.18299002890736
 30
0.0
 11
2.329999929293258
 21
22.19076002890736
 31
0.0
 12
2.579999929293258
 22
20.18299002890736
 32
0.0
 13
2.579999929293258
 23
22.19076002890736
 33
0.0
  0
SOLID
  5
754
330
72D
100
AcDbEntity
  8
METAL1
100
AcDbTrace
 10
1.661799929293259
 20
16.81658002890736
 30
0.0
 11
1.661799929293259
 21
17.93418002890736
 31
0.0
 12
3.33819992929326
 22
16.81658002890736
 32
0.0
 13
3.33819992929326
 23
17.93418002890736
 33
0.0
  0
SOLID
  5
755
330
72D
100
AcDbEntity
  8
METAL1
100
AcDbTrace
 10
5.029999929293261
 20
16.06658002890736
 30
0.0
 11
3.629999929293262
 21
16.06658002890736
 31
0.0
 12
5.029999929293261
 22
17.26658002890736
 32
0.0
 13
3.629999929293262
 23
17.26658002890736
 33
0.0
  0
SOLID
  5
756
330
72D
100
AcDbEntity
  8
METAL1
100
AcDbTrace
 10
3.299999929293264
 20
17.46658002890736
 30
0.0
 11
4.999999929293259
 21
17.46658002890736
 31
0.0
 12
3.299999929293264
 22
15.86658002890736
 32
0.0
 13
4.999999929293259
 23
15.86658002890736
 33
0.0
  0
SOLID
  5
757
330
72D
100
AcDbEntity
  8
METAL1
100
AcDbTrace
 10
1.699999929293262
 20
16.66658002890736
 30
0.0
 11
1.699999929293262
 21
17.46658002890736
 31
0.0
 12
3.299999929293264
 22
16.66658002890736
 32
0.0
 13
3.299999929293264
 23
17.46658002890736
 33
0.0
  0
SOLID
  5
758
330
72D
100
AcDbEntity
  8
METAL1
100
AcDbTrace
 10
2.499999929293259
 20
15.86658002890736
 30
0.0
 11
1.699999929293262
 21
15.86658002890736
 31
0.0
 12
2.499999929293259
 22
17.46658002890736
 32
0.0
 13
1.699999929293262
 23
17.46658002890736
 33
0.0
  0
SOLID
  5
759
330
72D
100
AcDbEntity
  8
METAL1
100
AcDbTrace
 10
2.499999929293259
 20
17.46658002890736
 30
0.0
 11
3.299999929293264
 21
17.46658002890736
 31
0.0
 12
2.499999929293259
 22
15.86658002890736
 32
0.0
 13
3.299999929293264
 23
15.86658002890736
 33
0.0
  0
SOLID
  5
75A
330
72D
100
AcDbEntity
  8
METAL1
100
AcDbTrace
 10
2.199999929293262
 20
15.46658002890736
 30
0.0
 11
-0.00000007070674
 21
15.46658002890736
 31
0.0
 12
2.199999929293262
 22
17.86658002890736
 32
0.0
 13
-0.00000007070674
 23
17.86658002890736
 33
0.0
  0
SOLID
  5
75B
330
72D
100
AcDbEntity
  8
METAL1
100
AcDbTrace
 10
5.029999929293261
 20
13.76658002890736
 30
0.0
 11
3.629999929293262
 21
13.76658002890736
 31
0.0
 12
5.029999929293261
 22
14.96658002890736
 32
0.0
 13
3.629999929293262
 23
14.96658002890736
 33
0.0
  0
CIRCLE
  5
75C
330
72D
100
AcDbEntity
  8
ERROR
100
AcDbCircle
 10
2.499999929293259
 20
20.26658002890736
 30
0.0
 40
0.5
  0
TEXT
  5
75D
330
72D
100
AcDbEntity
  8
ERROR
100
AcDbText
 10
2.166666595959926
 20
20.14158002890736
 30
0.0
 40
0.25
  1
296
 72
     4
 11
2.499999929293259
 21
20.26658002890736
 31
0.0
100
AcDbText
  0
CIRCLE
  5
75E
330
72D
100
AcDbEntity
  8
ERROR
100
AcDbCircle
 10
2.454999929293258
 20
20.18299002890736
 30
0.0
 40
0.5
  0
TEXT
  5
75F
330
72D
100
AcDbEntity
  8
ERROR
100
AcDbText
 10
2.121666595959924
 20
20.05799002890736
 30
0.0
 40
0.25
  1
296
 72
     4
 11
2.454999929293258
 21
20.18299002890736
 31
0.0
100
AcDbText
  0
LWPOLYLINE
  5
760
330
72D
100
AcDbEntity
  8
METAL1
100
AcDbPolyline
 90
        2
 70
     0
 43
0.2
 10
4.399999929293258
 20
19.36658002890736
 42
1.0
 10
4.399999929293258
 20
18.56658002890736
  0
LWPOLYLINE
  5
761
330
72D
100
AcDbEntity
  8
METAL1
100
AcDbPolyline
 90
        2
 70
     0
 43
0.2
 10
4.399999929293258
 20
18.56658002890736
 42
1.0
 10
4.399999929293258
 20
19.36658002890736
  0
SOLID
  5
762
330
72D
100
AcDbEntity
  8
METAL1
100
AcDbTrace
 10
4.999999929293259
 20
19.56658002890736
 30
0.0
 11
4.999999929293259
 21
18.36658002890736
 31
0.0
 12
3.799999929293264
 22
19.56658002890736
 32
0.0
 13
3.799999929293264
 23
18.36658002890736
 33
0.0
  0
SOLID
  5
763
330
72D
100
AcDbEntity
  8
METAL1
100
AcDbTrace
 10
5.029999929293261
 20
18.41658002890736
 30
0.0
 11
3.629999929293262
 21
18.41658002890736
 31
0.0
 12
5.029999929293261
 22
19.61658002890736
 32
0.0
 13
3.629999929293262
 23
19.61658002890736
 33
0.0
  0
SOLID
  5
764
330
72D
100
AcDbEntity
  8
METAL1
100
AcDbTrace
 10
14.85417992929326
 20
17.50478002890736
 30
0.0
 11
15.97177992929326
 21
17.50478002890736
 31
0.0
 12
14.85417992929326
 22
15.82838002890736
 32
0.0
 13
15.97177992929326
 23
15.82838002890736
 33
0.0
  0
SOLID
  5
765
330
72D
100
AcDbEntity
  8
METAL1
100
AcDbTrace
 10
11.90417992929326
 20
17.50478002890736
 30
0.0
 11
13.02177992929326
 21
17.50478002890736
 31
0.0
 12
11.90417992929326
 22
15.82838002890736
 32
0.0
 13
13.02177992929326
 23
15.82838002890736
 33
0.0
  0
SOLID
  5
766
330
72D
100
AcDbEntity
  8
METAL1
100
AcDbTrace
 10
9.829999929293258
 20
19.39076002890736
 30
0.0
 11
12.55417992929326
 21
19.39076002890736
 31
0.0
 12
9.829999929293258
 22
13.94240002890736
 32
0.0
 13
12.55417992929326
 23
13.94240002890736
 33
0.0
  0
SOLID
  5
767
330
72D
100
AcDbEntity
  8
METAL1
100
AcDbTrace
 10
9.579999929293258
 20
19.39076002890736
 30
0.0
 11
9.829999929293258
 21
19.39076002890736
 31
0.0
 12
9.579999929293258
 22
13.94240002890736
 32
0.0
 13
9.829999929293258
 23
13.94240002890736
 33
0.0
  0
SOLID
  5
768
330
72D
100
AcDbEntity
  8
METAL1
100
AcDbTrace
 10
9.579999929293258
 20
19.39076002890736
 30
0.0
 11
12.30417992929326
 21
19.39076002890736
 31
0.0
 12
9.579999929293258
 22
13.94240002890736
 32
0.0
 13
12.30417992929326
 23
13.94240002890736
 33
0.0
  0
SOLID
  5
769
330
72D
100
AcDbEntity
  8
METAL1
100
AcDbTrace
 10
10.92999992929325
 20
14.96658002890736
 30
0.0
 11
9.529999929293261
 21
14.96658002890736
 31
0.0
 12
10.92999992929325
 22
18.46658002890736
 32
0.0
 13
9.529999929293261
 23
18.46658002890736
 33
0.0
  0
SOLID
  5
76A
330
72D
100
AcDbEntity
  8
METAL1
100
AcDbTrace
 10
8.866799929293264
 20
18.74076002890736
 30
0.0
 11
8.866799929293264
 21
19.85836002890736
 31
0.0
 12
10.54319992929325
 22
18.74076002890736
 32
0.0
 13
10.54319992929325
 23
19.85836002890736
 33
0.0
  0
SOLID
  5
76B
330
72D
100
AcDbEntity
  8
METAL1
100
AcDbTrace
 10
2.579999929293258
 20
22.44076002890736
 30
0.0
 11
9.579999929293258
 21
22.44076002890736
 31
0.0
 12
2.579999929293258
 22
22.19076002890736
 32
0.0
 13
9.579999929293258
 23
22.19076002890736
 33
0.0
  0
SOLID
  5
76C
330
72D
100
AcDbEntity
  8
METAL1
100
AcDbTrace
 10
2.579999929293258
 20
22.19076002890736
 30
0.0
 11
2.329999929293258
 21
22.19076002890736
 31
0.0
 12
2.579999929293258
 22
22.19076002890736
 32
0.0
 13
2.579999929293258
 23
22.44076002890736
 33
0.0
  0
SOLID
  5
76D
330
72D
100
AcDbEntity
  8
METAL1
100
AcDbTrace
 10
8.866799929293264
 20
21.69076002890736
 30
0.0
 11
8.866799929293264
 21
22.80836002890736
 31
0.0
 12
10.54319992929325
 22
21.69076002890736
 32
0.0
 13
10.54319992929325
 23
22.80836002890736
 33
0.0
  0
SOLID
  5
76E
330
72D
100
AcDbEntity
  8
METAL1
100
AcDbTrace
 10
9.579999929293258
 20
22.19076002890736
 30
0.0
 11
9.579999929293258
 21
22.44076002890736
 31
0.0
 12
9.579999929293258
 22
22.19076002890736
 32
0.0
 13
9.829999929293258
 23
22.19076002890736
 33
0.0
  0
ENDBLK
  5
770
330
72D
100
AcDbEntity
  8
0
100
AcDbBlockEnd
  0
BLOCK
  5
BBA
330
BAF
100
AcDbEntity
  8
0
100
AcDbBlockBegin
  2
*D11
 70
     1
 10
0.0
 20
0.0
 30
0.0
  3
*D11
  1

  0
LINE
  5
BE9
330
BAF
100
AcDbEntity
  8
METAL1
 62
     0
370
    -2
100
AcDbLine
 10
-12.87297433838978
 20
20.52441003194614
 30
0.0
 11
-12.87297433838978
 21
21.59243365953848
 31
0.0
  0
LINE
  5
BEA
330
BAF
100
AcDbEntity
  8
METAL1
 62
     0
370
    -2
100
AcDbLine
 10
47.08297368376628
 20
20.52441003194614
 30
0.0
 11
47.08297368376628
 21
21.59243365953848
 31
0.0
  0
LINE
  5
BEB
330
BAF
100
AcDbEntity
  8
METAL1
 62
     0
370
    -2
100
AcDbLine
 10
-11.07297433838978
 20
21.41243365953847
 30
0.0
 11
15.66499967268825
 21
21.41243365953847
 31
0.0
  0
LINE
  5
BEC
330
BAF
100
AcDbEntity
  8
METAL1
 62
     0
370
    -2
100
AcDbLine
 10
45.28297368376628
 20
21.41243365953847
 30
0.0
 11
18.54499967268825
 21
21.41243365953847
 31
0.0
  0
SOLID
  5
BED
330
BAF
100
AcDbEntity
  8
METAL1
 62
     0
100
AcDbTrace
 10
-11.07297433838978
 20
21.71243365953848
 30
0.0
 11
-11.07297433838978
 21
21.11243365953848
 31
0.0
 12
-12.87297433838978
 22
21.41243365953847
 32
0.0
 13
-12.87297433838978
 23
21.41243365953847
 33
0.0
  0
SOLID
  5
BEE
330
BAF
100
AcDbEntity
  8
METAL1
 62
     0
100
AcDbTrace
 10
45.28297368376628
 20
21.71243365953848
 30
0.0
 11
45.28297368376628
 21
21.11243365953848
 31
0.0
 12
47.08297368376628
 22
21.41243365953847
 32
0.0
 13
47.08297368376628
 23
21.41243365953847
 33
0.0
  0
MTEXT
  5
BEF
330
BAF
100
AcDbEntity
  8
METAL1
 62
     0
100
AcDbMText
 10
17.10499967268825
 20
21.41243365953847
 30
0.0
 40
1.8
 41
0.0
 71
     5
 72
     1
  1
\A1;60
 73
     1
 44
1.0
  0
POINT
  5
BF0
330
BAF
100
AcDbEntity
  8
Defpoints
 62
     0
100
AcDbPoint
 10
-12.87297433838978
 20
20.46191003194614
 30
0.0
  0
POINT
  5
BF1
330
BAF
100
AcDbEntity
  8
Defpoints
 62
     0
100
AcDbPoint
 10
47.08297368376628
 20
20.46191003194614
 30
0.0
  0
POINT
  5
BF2
330
BAF
100
AcDbEntity
  8
Defpoints
 62
     0
100
AcDbPoint
 10
47.08297368376628
 20
21.41243365953847
 30
0.0
  0
ENDBLK
  5
BBB
330
BAF
100
AcDbEntity
  8
0
100
AcDbBlockEnd
  0
BLOCK
  5
BDC
330
BD1
100
AcDbEntity
  8
0
100
AcDbBlockBegin
  2
*D12
 70
     1
 10
0.0
 20
0.0
 30
0.0
  3
*D12
  1

  0
LINE
  5
BF3
330
BD1
100
AcDbEntity
  8
METAL1
 62
     0
370
    -2
100
AcDbLine
 10
48.41165449852588
 20
19.24874263873034
 30
0.0
 11
49.93046216816274
 21
19.24874263873034
 31
0.0
  0
LINE
  5
BF4
330
BD1
100
AcDbEntity
  8
METAL1
 62
     0
370
    -2
100
AcDbLine
 10
48.51174794448167
 20
-20.67324648068372
 30
0.0
 11
49.93046216816273
 21
-20.67324648068372
 31
0.0
  0
LINE
  5
BF5
330
BD1
100
AcDbEntity
  8
METAL1
 62
     0
370
    -2
100
AcDbLine
 10
49.75046216816274
 20
17.44874263873034
 30
0.0
 11
49.75046216816274
 21
0.2777480790233089
 31
0.0
  0
LINE
  5
BF6
330
BD1
100
AcDbEntity
  8
METAL1
 62
     0
370
    -2
100
AcDbLine
 10
49.75046216816273
 20
-18.87324648068372
 30
0.0
 11
49.75046216816274
 21
-1.702251920976691
 31
0.0
  0
SOLID
  5
BF7
330
BD1
100
AcDbEntity
  8
METAL1
 62
     0
100
AcDbTrace
 10
49.45046216816274
 20
17.44874263873034
 30
0.0
 11
50.05046216816274
 21
17.44874263873034
 31
0.0
 12
49.75046216816274
 22
19.24874263873034
 32
0.0
 13
49.75046216816274
 23
19.24874263873034
 33
0.0
  0
SOLID
  5
BF8
330
BD1
100
AcDbEntity
  8
METAL1
 62
     0
100
AcDbTrace
 10
49.45046216816272
 20
-18.87324648068372
 30
0.0
 11
50.05046216816272
 21
-18.87324648068372
 31
0.0
 12
49.75046216816273
 22
-20.67324648068372
 32
0.0
 13
49.75046216816273
 23
-20.67324648068372
 33
0.0
  0
MTEXT
  5
BF9
330
BD1
100
AcDbEntity
  8
METAL1
 62
     0
100
AcDbMText
 10
49.75046216816274
 20
-0.7122519209766831
 30
0.0
 40
1.8
 41
0.0
 71
     5
 72
     1
  1
\A1;40
 73
     1
 44
1.0
  0
POINT
  5
BFA
330
BD1
100
AcDbEntity
  8
Defpoints
 62
     0
100
AcDbPoint
 10
48.34915449852587
 20
19.24874263873034
 30
0.0
  0
POINT
  5
BFB
330
BD1
100
AcDbEntity
  8
Defpoints
 62
     0
100
AcDbPoint
 10
48.44924794448167
 20
-20.67324648068372
 30
0.0
  0
POINT
  5
BFC
330
BD1
100
AcDbEntity
  8
Defpoints
 62
     0
100
AcDbPoint
 10
49.75046216816273
 20
-20.67324648068372
 30
0.0
  0
ENDBLK
  5
BDD
330
BD1
100
AcDbEntity
  8
0
100
AcDbBlockEnd
  0
ENDSEC
  0
SECTION
  2
ENTITIES
  0
SOLID
  5
24
330
1E
100
AcDbEntity
  8
METAL1
100
AcDbTrace
 10
4.583999163792615
 20
5.635752899450004
 30
0.0
 11
3.783999163792614
 21
5.635752899450004
 31
0.0
 12
4.583999163792615
 22
8.335752899450007
 32
0.0
 13
3.783999163792614
 23
8.335752899450007
 33
0.0
  0
SOLID
  5
25
330
1E
100
AcDbEntity
  8
METAL1
100
AcDbTrace
 10
4.583999163792615
 20
8.335752899450007
 30
0.0
 11
5.383999163792614
 21
8.335752899450007
 31
0.0
 12
4.583999163792615
 22
5.635752899450004
 32
0.0
 13
5.383999163792614
 23
5.635752899450004
 33
0.0
  0
SOLID
  5
26
330
1E
100
AcDbEntity
  8
METAL1
100
AcDbTrace
 10
5.383999163792614
 20
6.985752899450005
 30
0.0
 11
5.383999163792614
 21
5.635752899450004
 31
0.0
 12
3.783999163792614
 22
6.985752899450005
 32
0.0
 13
3.783999163792614
 23
5.635752899450004
 33
0.0
  0
SOLID
  5
53
330
1E
100
AcDbEntity
  8
METAL1
100
AcDbTrace
 10
13.99485632597346
 20
-1.238393016280777
 30
0.0
 11
11.79485632597346
 21
-1.238393016280777
 31
0.0
 12
13.99485632597346
 22
1.16160698371922
 32
0.0
 13
11.79485632597346
 23
1.16160698371922
 33
0.0
  0
SOLID
  5
54
330
1E
100
AcDbEntity
  8
METAL1
100
AcDbTrace
 10
22.1
 20
-1.199999999999999
 30
0.0
 11
19.9
 21
-1.199999999999999
 31
0.0
 12
22.1
 22
1.199999999999999
 32
0.0
 13
19.9
 23
1.199999999999999
 33
0.0
  0
SOLID
  5
108
330
1E
100
AcDbEntity
  8
METAL1
100
AcDbTrace
 10
3.745799163792614
 20
2.185752899450005
 30
0.0
 11
3.745799163792614
 21
3.303352899450004
 31
0.0
 12
5.422199163792615
 22
2.185752899450005
 32
0.0
 13
5.422199163792615
 23
3.303352899450004
 33
0.0
  0
SOLID
  5
109
330
1E
100
AcDbEntity
  8
METAL1
100
AcDbTrace
 10
3.745799163792614
 20
5.135752899450004
 30
0.0
 11
3.745799163792614
 21
6.253352899450007
 31
0.0
 12
5.422199163792615
 22
5.135752899450004
 32
0.0
 13
5.422199163792615
 23
6.253352899450007
 33
0.0
  0
SOLID
  5
10A
330
1E
100
AcDbEntity
  8
CONSTR
100
AcDbTrace
 10
3.783999163792614
 20
2.660752899450006
 30
0.0
 11
5.383999163792614
 21
2.660752899450006
 31
0.0
 12
3.783999163792614
 22
2.610752899450005
 32
0.0
 13
5.383999163792614
 23
2.610752899450005
 33
0.0
  0
SOLID
  5
10B
330
1E
100
AcDbEntity
  8
CONSTR
100
AcDbTrace
 10
3.758999163792614
 20
2.635752899450004
 30
0.0
 11
3.758999163792614
 21
5.835752899450007
 31
0.0
 12
3.808999163792615
 22
2.635752899450004
 32
0.0
 13
3.808999163792615
 23
5.835752899450007
 33
0.0
  0
SOLID
  5
10C
330
1E
100
AcDbEntity
  8
CONSTR
100
AcDbTrace
 10
5.358999163792613
 20
2.635752899450004
 30
0.0
 11
5.358999163792613
 21
5.835752899450007
 31
0.0
 12
5.408999163792614
 22
2.635752899450004
 32
0.0
 13
5.408999163792614
 23
5.835752899450007
 33
0.0
  0
SOLID
  5
10D
330
1E
100
AcDbEntity
  8
CONSTR
100
AcDbTrace
 10
3.783999163792614
 20
5.860752899450005
 30
0.0
 11
5.383999163792614
 21
5.860752899450005
 31
0.0
 12
3.783999163792614
 22
5.810752899450005
 32
0.0
 13
5.383999163792614
 23
5.810752899450005
 33
0.0
  0
SOLID
  5
10E
330
1E
100
AcDbEntity
  8
METAL1
100
AcDbTrace
 10
5.383999163792614
 20
1.235752899450005
 30
0.0
 11
3.783999163792614
 21
1.235752899450005
 31
0.0
 12
5.383999163792614
 22
2.835752899450007
 32
0.0
 13
3.783999163792614
 23
2.835752899450007
 33
0.0
  0
LWPOLYLINE
  5
10F
330
1E
100
AcDbEntity
  8
GND
100
AcDbPolyline
 90
        2
 70
     0
 43
0.2
 10
4.583999163792614
 20
1.635752899450006
 42
1.0
 10
4.583999163792614
 20
2.435752899450005
  0
LWPOLYLINE
  5
113
330
1E
100
AcDbEntity
  8
GND
100
AcDbPolyline
 90
        2
 70
     0
 43
0.2
 10
4.583999163792614
 20
2.435752899450005
 42
1.0
 10
4.583999163792614
 20
1.635752899450006
  0
CIRCLE
  5
15F
330
1E
100
AcDbEntity
  8
CONSTR
370
    30
100
AcDbCircle
 10
16.90513374174422
 20
-0.1087767021927704
 30
0.0
 40
1.136483575809477
  0
LWPOLYLINE
  5
160
330
1E
100
AcDbEntity
  8
CONSTR
370
    30
100
AcDbPolyline
 90
        2
 70
     0
 43
0.0
 10
15.81498059855177
 20
-0.1995889789701977
 10
17.94986374695922
 20
-0.1995889789701977
  0
LWPOLYLINE
  5
161
330
1E
100
AcDbEntity
  8
CONSTR
370
    30
100
AcDbPolyline
 90
        2
 70
     0
 43
0.0
 10
15.9058267469616
 20
-0.0179643373510174
 10
18.04070989536906
 20
-0.0179643373510174
  0
LWPOLYLINE
  5
162
330
1E
100
AcDbEntity
  8
CONSTR
100
AcDbPolyline
 90
        2
 70
     0
 43
0.0
 10
7.220756202085889
 20
8.613975344723355
 10
4.558887347616227
 20
5.052211331745073
  0
LWPOLYLINE
  5
163
330
1E
100
AcDbEntity
  8
CONSTR
100
AcDbPolyline
 90
        2
 70
     0
 43
0.0
 10
7.265015522656772
 20
5.403611598893624
 10
9.118367905414476
 20
6.747677520377491
  0
LWPOLYLINE
  5
164
330
1E
100
AcDbEntity
  8
CONSTR
100
AcDbPolyline
 90
        2
 70
     0
 43
0.0
 10
6.309983403717154
 20
6.32539202663431
 10
8.171518352699681
 20
7.678870239122254
  0
LWPOLYLINE
  5
165
330
1E
100
AcDbEntity
  8
CONSTR
100
AcDbPolyline
 90
        2
 70
     0
 43
0.0
 10
5.020572684922075
 20
4.59052599443922
 10
7.670702135454999
 20
8.156200994369243
  0
LWPOLYLINE
  5
166
330
1E
100
AcDbEntity
  8
CONSTR
100
AcDbPolyline
 90
        2
 70
     0
 43
0.0
 10
8.175432561192195
 20
7.682784447614768
 10
5.497906731939469
 20
4.105363319394161
  0
LWPOLYLINE
  5
167
330
1E
100
AcDbEntity
  8
CONSTR
100
AcDbPolyline
 90
        2
 70
     0
 43
0.0
 10
8.629291127398234
 20
7.221097464423701
 10
5.943938456816076
 20
3.64367476054752
  0
LWPOLYLINE
  5
168
330
1E
100
AcDbEntity
  8
CONSTR
100
AcDbPolyline
 90
        2
 70
     0
 43
0.0
 10
7.30295013508787
 20
8.672693761622285
 10
5.043764309918495
 20
7.049870478538648
  0
ARC
  5
169
330
1E
100
AcDbEntity
  8
CONSTR
100
AcDbCircle
 10
7.44385640960837
 20
8.382103286687506
 30
0.0
 40
0.3256099016146134
100
AcDbArc
 50
314.9495733215438
 51
135.0504266784561
  0
ARC
  5
16A
330
1E
100
AcDbEntity
  8
CONSTR
100
AcDbCircle
 10
8.401665852961262
 20
7.451959281057121
 30
0.0
 40
0.3256099016146134
100
AcDbArc
 50
311.5051155470028
 51
138.4948844529971
  0
ARC
  5
16B
330
1E
100
AcDbEntity
  8
CONSTR
100
AcDbCircle
 10
9.33773015255338
 20
6.504996488507661
 30
0.0
 40
0.3256099016146134
100
AcDbArc
 50
312.8628392357289
 51
317.6627418064885
  0
LWPOLYLINE
  5
16C
330
1E
100
AcDbEntity
  8
CONSTR
100
AcDbPolyline
 90
        4
 70
     1
 43
0.0
 10
10.7581341712969
 20
5.513978801674505
 10
10.7581341712969
 20
5.513978801674505
 10
10.7581341712969
 20
5.513978801674505
 10
10.7581341712969
 20
5.513978801674505
  0
LWPOLYLINE
  5
16D
330
1E
100
AcDbEntity
  8
CONSTR
100
AcDbPolyline
 90
        2
 70
     0
 43
0.0
 10
5.020572684922075
 20
4.59052599443922
 10
6.870990194052907
 20
5.939929296128676
  0
LINE
  5
16E
330
1E
100
AcDbEntity
  8
CONSTR
100
AcDbLine
 10
5.502225391220342
 20
6.592720671792474
 30
0.0
 11
5.951276876254071
 21
6.915324500082633
 31
0.0
  0
ARC
  5
16F
330
1E
100
AcDbEntity
  8
CONSTR
100
AcDbCircle
 10
4.791550861610971
 20
4.824762363797148
 30
0.0
 40
0.3256099016146134
100
AcDbArc
 50
135.6813662363378
 51
314.3186337636621
  0
LWPOLYLINE
  5
170
330
1E
100
AcDbEntity
  8
CONSTR
100
AcDbPolyline
 90
        2
 70
     0
 43
0.0
 10
5.959595396307438
 20
3.659331700038883
 10
7.798502404808578
 20
4.996357608269345
  0
ARC
  5
171
330
1E
100
AcDbEntity
  8
CONSTR
100
AcDbCircle
 10
5.73010597661678
 20
3.88620724879134
 30
0.0
 40
0.3256099016146134
100
AcDbArc
 50
135.6813662363378
 51
314.3186337636621
  0
LWPOLYLINE
  5
172
330
1E
100
AcDbEntity
  8
CONSTR
100
AcDbPolyline
 90
        2
 70
     0
 43
0.0
 10
9.145485990375899
 20
6.750071550332825
 10
6.483617135906236
 20
3.188307537354544
  0
LWPOLYLINE
  5
173
330
1E
100
AcDbEntity
  8
CONSTR
100
AcDbPolyline
 90
        2
 70
     0
 43
0.0
 10
9.189745310946786
 20
3.539707804503098
 10
11.04309769370448
 20
4.883773725986966
  0
LWPOLYLINE
  5
174
330
1E
100
AcDbEntity
  8
CONSTR
100
AcDbPolyline
 90
        2
 70
     0
 43
0.0
 10
8.234713192007166
 20
4.461488232243782
 10
10.09624814098969
 20
5.814966444731727
  0
LWPOLYLINE
  5
175
330
1E
100
AcDbEntity
  8
CONSTR
100
AcDbPolyline
 90
        2
 70
     0
 43
0.0
 10
6.945302473212088
 20
2.726622200048693
 10
9.59543192374501
 20
6.292297199978713
  0
LWPOLYLINE
  5
176
330
1E
100
AcDbEntity
  8
CONSTR
100
AcDbPolyline
 90
        2
 70
     0
 43
0.0
 10
10.1001623494822
 20
5.81888065322424
 10
7.422636520229483
 20
2.241459525003631
  0
LWPOLYLINE
  5
177
330
1E
100
AcDbEntity
  8
CONSTR
100
AcDbPolyline
 90
        2
 70
     0
 43
0.0
 10
10.55402091568824
 20
5.357193670033175
 10
7.868668245106093
 20
1.779770966156993
  0
ARC
  5
178
330
1E
100
AcDbEntity
  8
CONSTR
100
AcDbCircle
 10
9.368586197898382
 20
6.518199492296979
 30
0.0
 40
0.3256099016146134
100
AcDbArc
 50
314.9495733215438
 51
135.0504266784561
  0
ARC
  5
179
330
1E
100
AcDbEntity
  8
CONSTR
100
AcDbCircle
 10
10.32639564125127
 20
5.588055486666597
 30
0.0
 40
0.3256099016146134
100
AcDbArc
 50
311.5051155470028
 51
138.4948844529971
  0
LWPOLYLINE
  5
17A
330
1E
100
AcDbEntity
  8
CONSTR
100
AcDbPolyline
 90
        2
 70
     0
 43
0.0
 10
6.945302473212088
 20
2.726622200048693
 10
8.795719982342919
 20
4.076025501738148
  0
ARC
  5
17B
330
1E
100
AcDbEntity
  8
CONSTR
100
AcDbCircle
 10
6.716280649900985
 20
2.960858569406617
 30
0.0
 40
0.3256099016146134
100
AcDbArc
 50
135.6813662363378
 51
314.3186337636621
  0
LWPOLYLINE
  5
17C
330
1E
100
AcDbEntity
  8
CONSTR
100
AcDbPolyline
 90
        2
 70
     0
 43
0.0
 10
7.884325184597452
 20
1.795427905648352
 10
9.72323219309859
 20
3.132453813878817
  0
ARC
  5
17D
330
1E
100
AcDbEntity
  8
CONSTR
100
AcDbCircle
 10
7.65483576490679
 20
2.022303454400812
 30
0.0
 40
0.3256099016146134
100
AcDbArc
 50
135.6813662363378
 51
314.3186337636621
  0
LWPOLYLINE
  5
17E
330
1E
100
AcDbEntity
  8
CONSTR
100
AcDbPolyline
 90
        2
 70
     0
 43
0.0
 10
10.14274440770652
 20
2.59897810429445
 10
11.99609679046422
 20
3.943044025778316
  0
LWPOLYLINE
  5
17F
330
1E
100
AcDbEntity
  8
CONSTR
100
AcDbPolyline
 90
        2
 70
     0
 43
0.0
 10
11.05316144624194
 20
4.878150953015593
 10
8.375635616989219
 20
1.300729824794984
  0
LWPOLYLINE
  5
180
330
1E
100
AcDbEntity
  8
CONSTR
100
AcDbPolyline
 90
        2
 70
     0
 43
0.0
 10
11.50702001244797
 20
4.416463969824526
 10
8.821667341865826
 20
0.839041265948345
  0
ARC
  5
181
330
1E
100
AcDbEntity
  8
CONSTR
100
AcDbCircle
 10
11.27939473801101
 20
4.647325786457948
 30
0.0
 40
0.3256099016146134
100
AcDbArc
 50
311.5051155470028
 51
138.4948844529971
  0
ARC
  5
182
330
1E
100
AcDbEntity
  8
CONSTR
100
AcDbCircle
 10
12.21545903760312
 20
3.700362993908484
 30
0.0
 40
0.3256099016146134
100
AcDbArc
 50
312.8628392357289
 51
317.6627418064885
  0
LWPOLYLINE
  5
183
330
1E
100
AcDbEntity
  8
CONSTR
100
AcDbPolyline
 90
        4
 70
     1
 43
0.0
 10
13.63586305634665
 20
2.709345307075329
 10
13.63586305634665
 20
2.709345307075329
 10
13.63586305634665
 20
2.709345307075329
 10
13.63586305634665
 20
2.709345307075329
  0
LWPOLYLINE
  5
184
330
1E
100
AcDbEntity
  8
CONSTR
100
AcDbPolyline
 90
        2
 70
     0
 43
0.0
 10
8.83732428135719
 20
0.8546982054397069
 10
10.67623128985832
 20
2.191724113670169
  0
ARC
  5
185
330
1E
100
AcDbEntity
  8
CONSTR
100
AcDbCircle
 10
8.607834861666523
 20
1.081573754192165
 30
0.0
 40
0.3256099016146134
100
AcDbArc
 50
135.6813662363378
 51
314.3186337636621
  0
LWPOLYLINE
  5
186
330
1E
100
AcDbEntity
  8
CONSTR
100
AcDbPolyline
 90
        2
 70
     0
 43
0.0
 10
12.02321487542564
 20
3.945438055733655
 10
9.361346020955988
 20
0.3836740427553682
  0
LWPOLYLINE
  5
187
330
1E
100
AcDbEntity
  8
CONSTR
100
AcDbPolyline
 90
        2
 70
     0
 43
0.0
 10
12.06747419599653
 20
0.7350743099039248
 10
13.92082657875423
 20
2.079140231387789
  0
LWPOLYLINE
  5
188
330
1E
100
AcDbEntity
  8
CONSTR
100
AcDbPolyline
 90
        2
 70
     0
 43
0.0
 10
11.11244207705691
 20
1.656854737644606
 10
12.97397702603944
 20
3.010332950132554
  0
LWPOLYLINE
  5
189
330
1E
100
AcDbEntity
  8
CONSTR
100
AcDbPolyline
 90
        2
 70
     0
 43
0.0
 10
9.82303135826184
 20
-0.0780112945504836
 10
12.47316080879476
 20
3.48766370537954
  0
LWPOLYLINE
  5
18A
330
1E
100
AcDbEntity
  8
CONSTR
100
AcDbPolyline
 90
        2
 70
     0
 43
0.0
 10
12.97789123453195
 20
3.014247158625067
 10
10.30036540527923
 20
-0.5631739695955425
  0
LWPOLYLINE
  5
18B
330
1E
100
AcDbEntity
  8
CONSTR
100
AcDbPolyline
 90
        2
 70
     0
 43
0.0
 10
13.43174980073799
 20
2.552560175434001
 10
10.74639713015584
 20
-1.024862528442183
  0
ARC
  5
18C
330
1E
100
AcDbEntity
  8
CONSTR
100
AcDbCircle
 10
12.24631508294812
 20
3.713565997697806
 30
0.0
 40
0.3256099016146134
100
AcDbArc
 50
314.9495733215438
 51
135.0504266784561
  0
ARC
  5
18D
330
1E
100
AcDbEntity
  8
CONSTR
100
AcDbCircle
 10
13.20412452630102
 20
2.783421992067424
 30
0.0
 40
0.3256099016146134
100
AcDbArc
 50
311.5051155470028
 51
138.4948844529971
  0
LWPOLYLINE
  5
18E
330
1E
100
AcDbEntity
  8
CONSTR
100
AcDbPolyline
 90
        2
 70
     0
 43
0.0
 10
9.82303135826184
 20
-0.0780112945504836
 10
11.67344886739266
 20
1.271392007138975
  0
ARC
  5
18F
330
1E
100
AcDbEntity
  8
CONSTR
100
AcDbCircle
 10
9.594009534950728
 20
0.1562250748074447
 30
0.0
 40
0.3256099016146134
100
AcDbArc
 50
135.6813662363378
 51
314.3186337636621
  0
LWPOLYLINE
  5
190
330
1E
100
AcDbEntity
  8
CONSTR
100
AcDbPolyline
 90
        2
 70
     0
 43
0.0
 10
10.7620540696472
 20
-1.00920558895082
 10
12.60096107814833
 20
0.3278203192796472
  0
ARC
  5
191
330
1E
100
AcDbEntity
  8
CONSTR
100
AcDbCircle
 10
10.53256464995653
 20
-0.7823300401983638
 30
0.0
 40
0.3256099016146134
100
AcDbArc
 50
135.6813662363378
 51
314.3186337636621
  0
LWPOLYLINE
  5
192
330
1E
100
AcDbEntity
  8
CONSTR
100
AcDbPolyline
 90
        2
 70
     0
 43
0.0
 10
13.93192885035023
 20
2.103287608607212
 10
12.25350161020317
 20
-0.1392457800469238
  0
LWPOLYLINE
  5
193
330
1E
100
AcDbEntity
  8
CONSTR
100
AcDbPolyline
 90
        2
 70
     0
 43
0.0
 10
14.38578741655627
 20
1.641600625416145
 10
12.70847265144579
 20
-0.5929155288259463
  0
ARC
  5
194
330
1E
100
AcDbEntity
  8
CONSTR
100
AcDbCircle
 10
14.1581621421193
 20
1.872462442049565
 30
0.0
 40
0.3256099016146134
100
AcDbArc
 50
311.5051155470028
 51
138.4948844529971
  0
ARC
  5
195
330
1E
100
AcDbEntity
  8
CONSTR
100
AcDbCircle
 10
5.263567503492577
 20
6.849104574278108
 30
0.0
 40
0.3256099016146134
100
AcDbArc
 50
135.6813662363378
 51
314.3186337636621
  0
ARC
  5
196
330
1E
100
AcDbEntity
  8
CONSTR
100
AcDbCircle
 10
12.55064473784289
 20
-0.3280196038295955
 30
0.0
 40
0.3256099016146134
100
AcDbArc
 50
135.6813662363378
 51
314.3186337636621
  0
MTEXT
  5
1A2
330
1E
100
AcDbEntity
  8
CONSTR
100
AcDbMText
 10
-1.956311829834035
 20
-3.878154427282936
 30
0.0
 40
0.8
 41
13.3098
 71
     1
 72
     5
  1
n=8zav.\PD=8mm\Pl=10mm\Pd=1mm CuAg
 73
     1
 44
1.0
  0
MTEXT
  5
1C7
330
1E
100
AcDbEntity
  8
CONSTR
100
AcDbMText
 10
4.198780734032155
 20
3.339326362760147
 30
0.0
 40
0.6
 41
3.3612
 71
     1
 72
     5
  1
{\fTahoma|b0|i0|c238|p32;47pF}
 11
0.0000000000000001
 21
1.0
 31
0.0
 73
     1
 44
1.0
  0
MTEXT
  5
1E7
330
1E
100
AcDbEntity
  8
CONSTR
100
AcDbMText
 10
-12.53620528150366
 20
-2.513773743878218
 30
0.0
 40
1.6
 41
10.6296
 71
     1
 72
     5
  1
Ant
 73
     1
 44
1.0
  0
MTEXT
  5
1EE
330
1E
100
AcDbEntity
  8
CONSTR
100
AcDbMText
 10
10.01484683137117
 20
9.189352318073163
 30
0.0
 40
1.199999999999999
 41
3.8612
 71
     1
 72
     5
  1
L
 73
     1
 44
1.0
  0
MTEXT
  5
1EF
330
1E
100
AcDbEntity
  8
CONSTR
100
AcDbMText
 10
14.81715746719109
 20
6.097903022212747
 30
0.0
 40
1.199999999999999
 41
7.449799999999999
 71
     1
 72
     5
  1
C{\H0.5x;trimer}
 73
     1
 44
1.0
  0
MTEXT
  5
1F0
330
1E
100
AcDbEntity
  8
CONSTR
100
AcDbMText
 10
15.35055299483036
 20
-4.126918926343066
 30
0.0
 40
0.6
 41
5.1303
 71
     1
 72
     5
  1
2-10pF\P(4.3pf)
 73
     1
 44
1.0
  0
LWPOLYLINE
  5
1F1
330
1E
100
AcDbEntity
  8
METAL1
100
AcDbPolyline
 90
        4
 70
     1
 43
0.0
 10
-12.89511463513888
 20
19.29576133801198
 10
47.10488536486112
 20
19.29576133801198
 10
47.10488536486112
 20
-20.70423866198801
 10
-12.89511463513888
 20
-20.70423866198801
  0
MTEXT
  5
297
330
1E
100
AcDbEntity
  8
METAL1
370
    30
100
AcDbMText
 10
21.18560252701762
 20
15.769614066559
 30
0.0
 40
1.8
 41
57.7028
 71
     5
 72
     5
  1
BFG135a HI-DYNAMIC 144 MHz LNA YU1AW
 73
     1
 44
1.0
  0
CIRCLE
  5
29A
330
1E
100
AcDbEntity
  8
CONSTR
370
    30
100
AcDbCircle
 10
16.85604593658354
 20
-0.0668143783277628
 30
0.0
 40
3.12552617030451
  0
LWPOLYLINE
  5
350
330
1E
100
AcDbEntity
  8
CONSTR
100
AcDbPolyline
 90
        2
 70
     0
 43
0.0
 10
-11.73113203610169
 20
1.60977659977869
 10
-8.169368023123414
 20
-1.052092254690968
  0
LWPOLYLINE
  5
351
330
1E
100
AcDbEntity
  8
CONSTR
100
AcDbPolyline
 90
        2
 70
     0
 43
0.0
 10
-8.520768290271965
 20
1.654035920349574
 10
-9.864834211755832
 20
3.50738830310728
  0
LWPOLYLINE
  5
352
330
1E
100
AcDbEntity
  8
CONSTR
100
AcDbPolyline
 90
        2
 70
     0
 43
0.0
 10
-9.442548718012652
 20
0.6990038014099583
 10
-10.79602693050059
 20
2.560538750392485
  0
LWPOLYLINE
  5
353
330
1E
100
AcDbEntity
  8
CONSTR
100
AcDbPolyline
 90
        2
 70
     0
 43
0.0
 10
-7.707682685817561
 20
-0.5904069173851206
 10
-11.27335768574758
 20
2.059722533147802
  0
LWPOLYLINE
  5
354
330
1E
100
AcDbEntity
  8
CONSTR
100
AcDbPolyline
 90
        2
 70
     0
 43
0.0
 10
-10.7999411389931
 20
2.564452958884999
 10
-7.222520010772502
 20
-0.1130728703677271
  0
LWPOLYLINE
  5
355
330
1E
100
AcDbEntity
  8
CONSTR
100
AcDbPolyline
 90
        2
 70
     0
 43
0.0
 10
-10.33825415580204
 20
3.018311525091036
 10
-6.760831451925861
 20
0.3329588545088811
  0
LWPOLYLINE
  5
356
330
1E
100
AcDbEntity
  8
CONSTR
100
AcDbPolyline
 90
        2
 70
     0
 43
0.0
 10
-11.78985045300062
 20
1.691970532780672
 10
-10.16702716991698
 20
-0.5672152923887026
  0
ARC
  5
357
330
1E
100
AcDbEntity
  8
CONSTR
100
AcDbCircle
 10
-11.49925997806584
 20
1.832876807301175
 30
0.0
 40
0.3256099016146134
100
AcDbArc
 50
44.94957332154391
 51
225.0504266784561
  0
ARC
  5
358
330
1E
100
AcDbEntity
  8
CONSTR
100
AcDbCircle
 10
-10.56911597243546
 20
2.790686250654065
 30
0.0
 40
0.3256099016146134
100
AcDbArc
 50
41.50511554700281
 51
228.4948844529971
  0
ARC
  5
359
330
1E
100
AcDbEntity
  8
CONSTR
100
AcDbCircle
 10
-9.622153179886002
 20
3.726750550246183
 30
0.0
 40
0.3256099016146134
100
AcDbArc
 50
42.86283923572905
 51
47.66274180648848
  0
LWPOLYLINE
  5
35A
330
1E
100
AcDbEntity
  8
CONSTR
100
AcDbPolyline
 90
        4
 70
     1
 43
0.0
 10
-8.631135493052845
 20
5.147154568989709
 10
-8.631135493052845
 20
5.147154568989709
 10
-8.631135493052845
 20
5.147154568989709
 10
-8.631135493052845
 20
5.147154568989709
  0
LWPOLYLINE
  5
35B
330
1E
100
AcDbEntity
  8
CONSTR
100
AcDbPolyline
 90
        2
 70
     0
 43
0.0
 10
-7.707682685817561
 20
-0.5904069173851206
 10
-9.057085987507017
 20
1.260010591745711
  0
LINE
  5
35C
330
1E
100
AcDbEntity
  8
CONSTR
100
AcDbLine
 10
-9.709877363170814
 20
-0.108754211086854
 30
0.0
 11
-10.03248119146097
 21
0.3402972739468737
 31
0.0
  0
ARC
  5
35D
330
1E
100
AcDbEntity
  8
CONSTR
100
AcDbCircle
 10
-7.941919055175487
 20
-0.8194287406962246
 30
0.0
 40
0.3256099016146134
100
AcDbArc
 50
225.6813662363378
 51
44.31863376366203
  0
LWPOLYLINE
  5
35E
330
1E
100
AcDbEntity
  8
CONSTR
100
AcDbPolyline
 90
        2
 70
     0
 43
0.0
 10
-6.776488391417224
 20
0.3486157940002421
 10
-8.113514299647686
 20
2.18752280250138
  0
ARC
  5
35F
330
1E
100
AcDbEntity
  8
CONSTR
100
AcDbCircle
 10
-7.003363940169681
 20
0.1191263743095838
 30
0.0
 40
0.3256099016146134
100
AcDbArc
 50
225.6813662363378
 51
44.31863376366203
  0
LWPOLYLINE
  5
360
330
1E
100
AcDbEntity
  8
CONSTR
100
AcDbPolyline
 90
        2
 70
     0
 43
0.0
 10
-9.867228241711167
 20
3.534506388068702
 10
-6.305464228732885
 20
0.8726375335990397
  0
LWPOLYLINE
  5
361
330
1E
100
AcDbEntity
  8
CONSTR
100
AcDbPolyline
 90
        2
 70
     0
 43
0.0
 10
-6.656864495881439
 20
3.57876570863959
 10
-8.000930417365307
 20
5.432118091397292
  0
LWPOLYLINE
  5
362
330
1E
100
AcDbEntity
  8
CONSTR
100
AcDbPolyline
 90
        2
 70
     0
 43
0.0
 10
-7.578644923622123
 20
2.62373358969997
 10
-8.932123136110067
 20
4.485268538682497
  0
LWPOLYLINE
  5
363
330
1E
100
AcDbEntity
  8
CONSTR
100
AcDbPolyline
 90
        2
 70
     0
 43
0.0
 10
-5.843778891427033
 20
1.334322870904891
 10
-9.409453891357053
 20
3.984452321437814
  0
LWPOLYLINE
  5
364
330
1E
100
AcDbEntity
  8
CONSTR
100
AcDbPolyline
 90
        2
 70
     0
 43
0.0
 10
-8.936037344602581
 20
4.489182747175007
 10
-5.358616216381971
 20
1.811656917922285
  0
LWPOLYLINE
  5
365
330
1E
100
AcDbEntity
  8
CONSTR
100
AcDbPolyline
 90
        2
 70
     0
 43
0.0
 10
-8.474350361411516
 20
4.943041313381048
 10
-4.896927657535334
 20
2.257688642798896
  0
ARC
  5
366
330
1E
100
AcDbEntity
  8
CONSTR
100
AcDbCircle
 10
-9.63535618367532
 20
3.757606595591184
 30
0.0
 40
0.3256099016146134
100
AcDbArc
 50
44.94957332154391
 51
225.0504266784561
  0
ARC
  5
367
330
1E
100
AcDbEntity
  8
CONSTR
100
AcDbCircle
 10
-8.705212178044938
 20
4.715416038944077
 30
0.0
 40
0.3256099016146134
100
AcDbArc
 50
41.50511554700281
 51
228.4948844529971
  0
LWPOLYLINE
  5
368
330
1E
100
AcDbEntity
  8
CONSTR
100
AcDbPolyline
 90
        2
 70
     0
 43
0.0
 10
-5.843778891427033
 20
1.334322870904891
 10
-7.193182193116488
 20
3.184740380035723
  0
ARC
  5
369
330
1E
100
AcDbEntity
  8
CONSTR
100
AcDbCircle
 10
-6.078015260784958
 20
1.10530104759379
 30
0.0
 40
0.3256099016146134
100
AcDbArc
 50
225.6813662363378
 51
44.31863376366203
  0
LWPOLYLINE
  5
36A
330
1E
100
AcDbEntity
  8
CONSTR
100
AcDbPolyline
 90
        2
 70
     0
 43
0.0
 10
-4.912584597026693
 20
2.273345582290254
 10
-6.249610505257159
 20
4.112252590791392
  0
ARC
  5
36B
330
1E
100
AcDbEntity
  8
CONSTR
100
AcDbCircle
 10
-5.139460145779153
 20
2.043856162599595
 30
0.0
 40
0.3256099016146134
100
AcDbArc
 50
225.6813662363378
 51
44.31863376366203
  0
LWPOLYLINE
  5
36C
330
1E
100
AcDbEntity
  8
CONSTR
100
AcDbPolyline
 90
        2
 70
     0
 43
0.0
 10
-5.71613479567279
 20
4.531764805399323
 10
-7.060200717156657
 20
6.385117188157025
  0
LWPOLYLINE
  5
36D
330
1E
100
AcDbEntity
  8
CONSTR
100
AcDbPolyline
 90
        2
 70
     0
 43
0.0
 10
-7.995307644393934
 20
5.442181843934744
 10
-4.417886516173325
 20
2.764656014682021
  0
LWPOLYLINE
  5
36E
330
1E
100
AcDbEntity
  8
CONSTR
100
AcDbPolyline
 90
        2
 70
     0
 43
0.0
 10
-7.533620661202867
 20
5.896040410140781
 10
-3.956197957326686
 20
3.210687739558629
  0
ARC
  5
36F
330
1E
100
AcDbEntity
  8
CONSTR
100
AcDbCircle
 10
-7.764482477836288
 20
5.668415135703813
 30
0.0
 40
0.3256099016146134
100
AcDbArc
 50
41.50511554700281
 51
228.4948844529971
  0
ARC
  5
370
330
1E
100
AcDbEntity
  8
CONSTR
100
AcDbCircle
 10
-6.817519685286825
 20
6.604479435295928
 30
0.0
 40
0.3256099016146134
100
AcDbArc
 50
42.86283923572905
 51
47.66274180648848
  0
LWPOLYLINE
  5
371
330
1E
100
AcDbEntity
  8
CONSTR
100
AcDbPolyline
 90
        4
 70
     1
 43
0.0
 10
-5.82650199845367
 20
8.024883454039454
 10
-5.82650199845367
 20
8.024883454039454
 10
-5.82650199845367
 20
8.024883454039454
 10
-5.82650199845367
 20
8.024883454039454
  0
LWPOLYLINE
  5
372
330
1E
100
AcDbEntity
  8
CONSTR
100
AcDbPolyline
 90
        2
 70
     0
 43
0.0
 10
-3.971854896818047
 20
3.226344679049994
 10
-5.308880805048509
 20
5.065251687551128
  0
ARC
  5
373
330
1E
100
AcDbEntity
  8
CONSTR
100
AcDbCircle
 10
-4.198730445570504
 20
2.996855259359328
 30
0.0
 40
0.3256099016146134
100
AcDbArc
 50
225.6813662363378
 51
44.31863376366203
  0
LWPOLYLINE
  5
374
330
1E
100
AcDbEntity
  8
CONSTR
100
AcDbPolyline
 90
        2
 70
     0
 43
0.0
 10
-7.062594747111996
 20
6.412235273118453
 10
-3.500830734133709
 20
3.750366418648791
  0
LWPOLYLINE
  5
375
330
1E
100
AcDbEntity
  8
CONSTR
100
AcDbPolyline
 90
        2
 70
     0
 43
0.0
 10
-3.852231001282266
 20
6.456494593689338
 10
-5.19629692276613
 20
8.309846976447037
  0
LWPOLYLINE
  5
376
330
1E
100
AcDbEntity
  8
CONSTR
100
AcDbPolyline
 90
        2
 70
     0
 43
0.0
 10
-4.774011429022948
 20
5.501462474749715
 10
-6.127489641510894
 20
7.362997423732242
  0
LWPOLYLINE
  5
377
330
1E
100
AcDbEntity
  8
CONSTR
100
AcDbPolyline
 90
        2
 70
     0
 43
0.0
 10
-3.039145396827857
 20
4.212051755954643
 10
-6.60482039675788
 20
6.862181206487562
  0
LWPOLYLINE
  5
378
330
1E
100
AcDbEntity
  8
CONSTR
100
AcDbPolyline
 90
        2
 70
     0
 43
0.0
 10
-6.131403850003408
 20
7.366911632224756
 10
-2.553982721782798
 20
4.689385802972036
  0
LWPOLYLINE
  5
379
330
1E
100
AcDbEntity
  8
CONSTR
100
AcDbPolyline
 90
        2
 70
     0
 43
0.0
 10
-5.669716866812342
 20
7.820770198430796
 10
-2.092294162936157
 20
5.135417527848641
  0
ARC
  5
37A
330
1E
100
AcDbEntity
  8
CONSTR
100
AcDbCircle
 10
-6.830722689076146
 20
6.635335480640932
 30
0.0
 40
0.3256099016146134
100
AcDbArc
 50
44.94957332154391
 51
225.0504266784561
  0
ARC
  5
37B
330
1E
100
AcDbEntity
  8
CONSTR
100
AcDbCircle
 10
-5.900578683445765
 20
7.593144923993826
 30
0.0
 40
0.3256099016146134
100
AcDbArc
 50
41.50511554700281
 51
228.4948844529971
  0
LWPOLYLINE
  5
37C
330
1E
100
AcDbEntity
  8
CONSTR
100
AcDbPolyline
 90
        2
 70
     0
 43
0.0
 10
-3.039145396827857
 20
4.212051755954643
 10
-4.388548698517315
 20
6.062469265085471
  0
ARC
  5
37D
330
1E
100
AcDbEntity
  8
CONSTR
100
AcDbCircle
 10
-3.273381766185785
 20
3.983029932643532
 30
0.0
 40
0.3256099016146134
100
AcDbArc
 50
225.6813662363378
 51
44.31863376366203
  0
LWPOLYLINE
  5
37E
330
1E
100
AcDbEntity
  8
CONSTR
100
AcDbPolyline
 90
        2
 70
     0
 43
0.0
 10
-2.10795110242752
 20
5.151074467340006
 10
-3.444977010657988
 20
6.98998147584114
  0
ARC
  5
37F
330
1E
100
AcDbEntity
  8
CONSTR
100
AcDbCircle
 10
-2.334826651179977
 20
4.921585047649337
 30
0.0
 40
0.3256099016146134
100
AcDbArc
 50
225.6813662363378
 51
44.31863376366203
  0
LWPOLYLINE
  5
380
330
1E
100
AcDbEntity
  8
CONSTR
100
AcDbPolyline
 90
        2
 70
     0
 43
0.0
 10
-5.220444299985553
 20
8.320949248043035
 10
-2.977910911331417
 20
6.64252200789598
  0
LWPOLYLINE
  5
381
330
1E
100
AcDbEntity
  8
CONSTR
100
AcDbPolyline
 90
        2
 70
     0
 43
0.0
 10
-4.758757316794486
 20
8.774807814249076
 10
-2.524241162552394
 20
7.097493049138599
  0
ARC
  5
382
330
1E
100
AcDbEntity
  8
CONSTR
100
AcDbCircle
 10
-4.989619133427904
 20
8.547182539812105
 30
0.0
 40
0.3256099016146134
100
AcDbArc
 50
41.50511554700281
 51
228.4948844529971
  0
ARC
  5
383
330
1E
100
AcDbEntity
  8
CONSTR
100
AcDbCircle
 10
-9.966261265656449
 20
-0.347412098814619
 30
0.0
 40
0.3256099016146134
100
AcDbArc
 50
225.6813662363378
 51
44.31863376366203
  0
ARC
  5
384
330
1E
100
AcDbEntity
  8
CONSTR
100
AcDbCircle
 10
-2.789137087548745
 20
6.939665135535694
 30
0.0
 40
0.3256099016146134
100
AcDbArc
 50
225.6813662363378
 51
44.31863376366203
  0
MTEXT
  5
385
330
1E
100
AcDbEntity
  8
CONSTR
100
AcDbMText
 10
-9.728751352659374
 20
7.98706956611366
 30
0.0
 40
1.199999999999999
 41
3.8612
 71
     1
 72
     5
  1
L
 73
     1
 44
1.0
  0
TEXT
  5
39C
330
1E
100
AcDbEntity
  8
CONSTR
100
AcDbText
 10
-2.240100244057009
 20
6.24356431533722
 30
0.0
 40
0.3
  1
C
100
AcDbText
  0
SOLID
  5
39D
330
1E
100
AcDbEntity
  8
METAL1
100
AcDbTrace
 10
-2.090100244057008
 20
5.843564315337221
 30
0.0
 11
-4.290100244057009
 21
5.843564315337221
 31
0.0
 12
-2.090100244057008
 22
8.24356431533722
 32
0.0
 13
-4.290100244057009
 23
8.24356431533722
 33
0.0
  0
SOLID
  5
39E
330
1E
100
AcDbEntity
  8
METAL1
100
AcDbTrace
 10
6.01504342996953
 20
5.881957331618
 30
0.0
 11
3.815043429969527
 21
5.881957331618
 31
0.0
 12
6.01504342996953
 22
8.281957331617999
 32
0.0
 13
3.815043429969527
 23
8.281957331617999
 33
0.0
  0
CIRCLE
  5
39F
330
1E
100
AcDbEntity
  8
CONSTR
370
    30
100
AcDbCircle
 10
0.8201771717137518
 20
6.973180629425229
 30
0.0
 40
1.136483575809477
  0
LWPOLYLINE
  5
3A0
330
1E
100
AcDbEntity
  8
CONSTR
370
    30
100
AcDbPolyline
 90
        2
 70
     0
 43
0.0
 10
-0.2699759714787007
 20
6.882368352647802
 10
1.864907176928753
 20
6.882368352647802
  0
LWPOLYLINE
  5
3A1
330
1E
100
AcDbEntity
  8
CONSTR
370
    30
100
AcDbPolyline
 90
        2
 70
     0
 43
0.0
 10
-0.1791298230688625
 20
7.063992994266982
 10
1.955753325338591
 20
7.063992994266982
  0
MTEXT
  5
3A2
330
1E
100
AcDbEntity
  8
CONSTR
100
AcDbMText
 10
-1.765793586388241
 20
13.17986035383074
 30
0.0
 40
1.199999999999999
 41
7.449799999999999
 71
     1
 72
     5
  1
C{\H0.5x;trimer}
 73
     1
 44
1.0
  0
MTEXT
  5
3A3
330
1E
100
AcDbEntity
  8
CONSTR
100
AcDbMText
 10
-0.7344035752001048
 20
2.955038405274933
 30
0.0
 40
0.6
 41
5.1303
 71
     1
 72
     5
  1
2-10pF\P(4.3pf)
 73
     1
 44
1.0
  0
CIRCLE
  5
3A4
330
1E
100
AcDbEntity
  8
CONSTR
370
    30
100
AcDbCircle
 10
0.7710893665530705
 20
7.015142953290236
 30
0.0
 40
3.12552617030451
  0
SOLID
  5
3AB
330
1E
100
AcDbEntity
  8
METAL1
100
AcDbTrace
 10
-9.105736329712492
 20
-1.61037334317174
 30
0.0
 11
-12.44614939450485
 21
-1.63370261149366
 31
0.0
 12
-9.105736329712492
 22
0.7896266568282578
 32
0.0
 13
-12.44614939450485
 23
0.7922567790031252
 33
0.0
  0
MTEXT
  5
3B4
330
1E
100
AcDbEntity
  8
CONSTR
100
AcDbMText
 10
-2.120504009462324
 20
-1.737770946110968
 30
0.0
 40
1.199999999999999
 41
3.8612
 71
     1
 72
     5
  1
L
 73
     1
 44
1.0
  0
SOLID
  5
9AE
330
1E
100
AcDbEntity
  8
METAL1
100
AcDbTrace
 10
28.1273895246778
 20
-6.731520709199308
 30
0.0
 11
28.1273895246778
 21
-2.731520709199308
 31
0.0
 12
28.3773895246778
 22
-6.731520709199308
 32
0.0
 13
28.3773895246778
 23
-2.731520709199308
 33
0.0
  0
SOLID
  5
9AF
330
1E
100
AcDbEntity
  8
CONSTR
100
AcDbTrace
 10
33.7447895246778
 20
-11.22392070919931
 30
0.0
 11
38.7447895246778
 21
-11.22392070919931
 31
0.0
 12
33.7447895246778
 22
-11.72392070919931
 32
0.0
 13
38.7447895246778
 23
-11.72392070919931
 33
0.0
  0
SOLID
  5
9B0
330
1E
100
AcDbEntity
  8
METAL1
100
AcDbTrace
 10
32.75231826294592
 20
-12.09892070919931
 30
0.0
 11
32.75231826294592
 21
-11.09892070919931
 31
0.0
 12
33.75231826294593
 22
-12.09892070919931
 32
0.0
 13
33.75231826294593
 23
-11.09892070919931
 33
0.0
  0
SOLID
  5
9B1
330
1E
100
AcDbEntity
  8
METAL1
100
AcDbTrace
 10
33.4947895246778
 20
-12.09892070919931
 30
0.0
 11
33.4947895246778
 21
-11.59892070919931
 31
0.0
 12
33.7447895246778
 22
-12.09892070919931
 32
0.0
 13
33.7447895246778
 23
-11.59892070919931
 33
0.0
  0
SOLID
  5
9B2
330
1E
100
AcDbEntity
  8
METAL1
100
AcDbTrace
 10
29.1273895246778
 20
-11.84892070919931
 30
0.0
 11
33.7447895246778
 21
-11.84892070919931
 31
0.0
 12
29.1273895246778
 22
-12.09892070919931
 32
0.0
 13
33.7447895246778
 23
-12.09892070919931
 33
0.0
  0
SOLID
  5
9B3
330
1E
100
AcDbEntity
  8
METAL1
100
AcDbTrace
 10
29.3773895246778
 20
-7.231520709199308
 30
0.0
 11
29.3773895246778
 21
-12.09892070919931
 31
0.0
 12
29.1273895246778
 22
-7.231520709199308
 32
0.0
 13
29.1273895246778
 23
-12.09892070919931
 33
0.0
  0
SOLID
  5
9B4
330
1E
100
AcDbEntity
  8
METAL1
100
AcDbTrace
 10
33.9947895246778
 20
-12.59892070919931
 30
0.0
 11
33.9947895246778
 21
-7.231520709199308
 31
0.0
 12
34.2447895246778
 22
-12.59892070919931
 32
0.0
 13
34.2447895246778
 23
-7.231520709199308
 33
0.0
  0
SOLID
  5
9B5
330
1E
100
AcDbEntity
  8
METAL1
100
AcDbTrace
 10
28.8773895246778
 20
-6.731520709199308
 30
0.0
 11
28.8773895246778
 21
-12.59892070919931
 31
0.0
 12
28.6273895246778
 22
-6.731520709199308
 32
0.0
 13
28.6273895246778
 23
-12.59892070919931
 33
0.0
  0
SOLID
  5
9B6
330
1E
100
AcDbEntity
  8
METAL1
100
AcDbTrace
 10
34.4947895246778
 20
-12.59892070919931
 30
0.0
 11
34.4947895246778
 21
-6.731520709199308
 31
0.0
 12
34.7447895246778
 22
-12.59892070919931
 32
0.0
 13
34.7447895246778
 23
-6.731520709199308
 33
0.0
  0
SOLID
  5
9B7
330
1E
100
AcDbEntity
  8
METAL1
100
AcDbTrace
 10
28.3773895246778
 20
-6.731520709199308
 30
0.0
 11
28.3773895246778
 21
-13.09892070919931
 31
0.0
 12
28.1273895246778
 22
-6.731520709199308
 32
0.0
 13
28.1273895246778
 23
-13.09892070919931
 33
0.0
  0
SOLID
  5
9B8
330
1E
100
AcDbEntity
  8
METAL1
100
AcDbTrace
 10
28.6273895246778
 20
-12.34892070919931
 30
0.0
 11
34.2447895246778
 21
-12.34892070919931
 31
0.0
 12
28.6273895246778
 22
-12.59892070919931
 32
0.0
 13
34.2447895246778
 23
-12.59892070919931
 33
0.0
  0
SOLID
  5
9B9
330
1E
100
AcDbEntity
  8
METAL1
100
AcDbTrace
 10
28.6273895246778
 20
-12.84892070919931
 30
0.0
 11
34.7447895246778
 21
-12.84892070919931
 31
0.0
 12
28.6273895246778
 22
-13.09892070919931
 32
0.0
 13
34.7447895246778
 23
-13.09892070919931
 33
0.0
  0
SOLID
  5
9BA
330
1E
100
AcDbEntity
  8
METAL1
100
AcDbTrace
 10
28.1273895246778
 20
-12.84892070919931
 30
0.0
 11
28.8773895246778
 21
-12.84892070919931
 31
0.0
 12
28.1273895246778
 22
-13.09892070919931
 32
0.0
 13
28.8773895246778
 23
-13.09892070919931
 33
0.0
  0
SOLID
  5
9BB
330
1E
100
AcDbEntity
  8
METAL1
100
AcDbTrace
 10
34.4947895246778
 20
-13.09892070919931
 30
0.0
 11
34.4947895246778
 21
-12.34892070919931
 31
0.0
 12
34.7447895246778
 22
-13.09892070919931
 32
0.0
 13
34.7447895246778
 23
-12.34892070919931
 33
0.0
  0
SOLID
  5
9BC
330
1E
100
AcDbEntity
  8
METAL1
100
AcDbTrace
 10
33.7447895246778
 20
-11.59892070919931
 30
0.0
 11
33.4947895246778
 21
-11.59892070919931
 31
0.0
 12
33.7447895246778
 22
-11.34892070919931
 32
0.0
 13
33.4947895246778
 23
-11.34892070919931
 33
0.0
  0
SOLID
  5
9BD
330
1E
100
AcDbEntity
  8
METAL1
100
AcDbTrace
 10
34.2447895246778
 20
-7.481520709199308
 30
0.0
 11
29.1273895246778
 21
-7.481520709199308
 31
0.0
 12
34.2447895246778
 22
-7.231520709199308
 32
0.0
 13
29.1273895246778
 23
-7.231520709199308
 33
0.0
  0
SOLID
  5
9BE
330
1E
100
AcDbEntity
  8
METAL1
100
AcDbTrace
 10
34.2447895246778
 20
-6.981520709199308
 30
0.0
 11
28.6273895246778
 21
-6.981520709199308
 31
0.0
 12
34.2447895246778
 22
-6.731520709199308
 32
0.0
 13
28.6273895246778
 23
-6.731520709199308
 33
0.0
  0
SOLID
  5
9BF
330
1E
100
AcDbEntity
  8
METAL1
100
AcDbTrace
 10
34.7447895246778
 20
-6.981520709199308
 30
0.0
 11
33.9947895246778
 21
-6.981520709199308
 31
0.0
 12
34.7447895246778
 22
-6.731520709199308
 32
0.0
 13
33.9947895246778
 23
-6.731520709199308
 33
0.0
  0
SOLID
  5
9C0
330
1E
100
AcDbEntity
  8
METAL1
100
AcDbTrace
 10
40.3829895246778
 20
-11.62392070919931
 30
0.0
 11
40.3829895246778
 21
-12.74152070919931
 31
0.0
 12
38.7065895246778
 22
-11.62392070919931
 32
0.0
 13
38.7065895246778
 23
-12.74152070919931
 33
0.0
  0
SOLID
  5
9C1
330
1E
100
AcDbEntity
  8
METAL1
100
AcDbTrace
 10
44.7829895246778
 20
-11.62392070919931
 30
0.0
 11
44.7829895246778
 21
-12.74152070919931
 31
0.0
 12
43.10658952467781
 22
-11.62392070919931
 32
0.0
 13
43.10658952467781
 23
-12.74152070919931
 33
0.0
  0
SOLID
  5
9C2
330
1E
100
AcDbEntity
  8
METAL1
100
AcDbTrace
 10
44.7447895246778
 20
-11.47392070919931
 30
0.0
 11
44.7447895246778
 21
-12.27392070919931
 31
0.0
 12
43.1447895246778
 22
-11.47392070919931
 32
0.0
 13
43.1447895246778
 23
-12.27392070919931
 33
0.0
  0
SOLID
  5
9C3
330
1E
100
AcDbEntity
  8
METAL1
100
AcDbTrace
 10
43.94478952467781
 20
-10.67392070919931
 30
0.0
 11
44.7447895246778
 21
-10.67392070919931
 31
0.0
 12
43.94478952467781
 22
-12.27392070919931
 32
0.0
 13
44.7447895246778
 23
-12.27392070919931
 33
0.0
  0
SOLID
  5
9C4
330
1E
100
AcDbEntity
  8
METAL1
100
AcDbTrace
 10
43.94478952467781
 20
-12.27392070919931
 30
0.0
 11
43.1447895246778
 21
-12.27392070919931
 31
0.0
 12
43.94478952467781
 22
-10.67392070919931
 32
0.0
 13
43.1447895246778
 23
-10.67392070919931
 33
0.0
  0
SOLID
  5
9C5
330
1E
100
AcDbEntity
  8
CONSTR
100
AcDbTrace
 10
40.11978952467781
 20
-12.27392070919931
 30
0.0
 11
40.11978952467781
 21
-10.67392070919931
 31
0.0
 12
40.1697895246778
 22
-12.27392070919931
 32
0.0
 13
40.1697895246778
 23
-10.67392070919931
 33
0.0
  0
SOLID
  5
9C6
330
1E
100
AcDbEntity
  8
CONSTR
100
AcDbTrace
 10
43.31978952467781
 20
-12.27392070919931
 30
0.0
 11
43.31978952467781
 21
-10.67392070919931
 31
0.0
 12
43.3697895246778
 22
-12.27392070919931
 32
0.0
 13
43.3697895246778
 23
-10.67392070919931
 33
0.0
  0
SOLID
  5
9C7
330
1E
100
AcDbEntity
  8
METAL1
100
AcDbTrace
 10
40.8447895246778
 20
-12.31212070919931
 30
0.0
 11
39.7271895246778
 21
-12.31212070919931
 31
0.0
 12
40.8447895246778
 22
-10.63572070919931
 32
0.0
 13
39.7271895246778
 23
-10.63572070919931
 33
0.0
  0
SOLID
  5
9C8
330
1E
100
AcDbEntity
  8
METAL1
100
AcDbTrace
 10
43.7947895246778
 20
-12.31212070919931
 30
0.0
 11
42.6771895246778
 21
-12.31212070919931
 31
0.0
 12
43.7947895246778
 22
-10.63572070919931
 32
0.0
 13
42.6771895246778
 23
-10.63572070919931
 33
0.0
  0
SOLID
  5
9C9
330
1E
100
AcDbEntity
  8
METAL1
100
AcDbTrace
 10
40.34478952467781
 20
-11.47392070919931
 30
0.0
 11
40.34478952467781
 21
-12.27392070919931
 31
0.0
 12
38.7447895246778
 22
-11.47392070919931
 32
0.0
 13
38.7447895246778
 23
-12.27392070919931
 33
0.0
  0
SOLID
  5
9CA
330
1E
100
AcDbEntity
  8
METAL1
100
AcDbTrace
 10
39.5447895246778
 20
-10.67392070919931
 30
0.0
 11
40.34478952467781
 21
-10.67392070919931
 31
0.0
 12
39.5447895246778
 22
-12.27392070919931
 32
0.0
 13
40.34478952467781
 23
-12.27392070919931
 33
0.0
  0
SOLID
  5
9CB
330
1E
100
AcDbEntity
  8
METAL1
100
AcDbTrace
 10
39.5447895246778
 20
-12.27392070919931
 30
0.0
 11
38.7447895246778
 21
-12.27392070919931
 31
0.0
 12
39.5447895246778
 22
-10.67392070919931
 32
0.0
 13
38.7447895246778
 23
-10.67392070919931
 33
0.0
  0
LWPOLYLINE
  5
9CC
330
1E
100
AcDbEntity
  8
GND
100
AcDbPolyline
 90
        2
 70
     0
 43
0.2
 10
39.5447895246778
 20
-15.47392070919931
 42
1.0
 10
39.5447895246778
 20
-16.2739207091993
  0
LWPOLYLINE
  5
9CD
330
1E
100
AcDbEntity
  8
METAL1
100
AcDbPolyline
 90
        2
 70
     0
 43
0.2
 10
39.5447895246778
 20
-15.47392070919931
 42
1.0
 10
39.5447895246778
 20
-16.2739207091993
  0
LWPOLYLINE
  5
9CE
330
1E
100
AcDbEntity
  8
GND
100
AcDbPolyline
 90
        2
 70
     0
 43
0.2
 10
39.5447895246778
 20
-16.2739207091993
 42
1.0
 10
39.5447895246778
 20
-15.47392070919931
  0
LWPOLYLINE
  5
9CF
330
1E
100
AcDbEntity
  8
METAL1
100
AcDbPolyline
 90
        2
 70
     0
 43
0.2
 10
39.5447895246778
 20
-16.2739207091993
 42
1.0
 10
39.5447895246778
 20
-15.47392070919931
  0
SOLID
  5
9D0
330
1E
100
AcDbEntity
  8
METAL1
100
AcDbTrace
 10
40.34478952467781
 20
-15.07392070919931
 30
0.0
 11
40.34478952467781
 21
-16.67392070919931
 31
0.0
 12
38.7447895246778
 22
-15.07392070919931
 32
0.0
 13
38.7447895246778
 23
-16.67392070919931
 33
0.0
  0
LWPOLYLINE
  5
9D1
330
1E
100
AcDbEntity
  8
GND
100
AcDbPolyline
 90
        2
 70
     0
 43
0.2
 10
43.94478952467781
 20
-15.47392070919931
 42
1.0
 10
43.94478952467781
 20
-16.2739207091993
  0
LWPOLYLINE
  5
9D2
330
1E
100
AcDbEntity
  8
METAL1
100
AcDbPolyline
 90
        2
 70
     0
 43
0.2
 10
43.94478952467781
 20
-15.47392070919931
 42
1.0
 10
43.94478952467781
 20
-16.2739207091993
  0
LWPOLYLINE
  5
9D3
330
1E
100
AcDbEntity
  8
GND
100
AcDbPolyline
 90
        2
 70
     0
 43
0.2
 10
43.94478952467781
 20
-16.2739207091993
 42
1.0
 10
43.94478952467781
 20
-15.47392070919931
  0
LWPOLYLINE
  5
9D4
330
1E
100
AcDbEntity
  8
METAL1
100
AcDbPolyline
 90
        2
 70
     0
 43
0.2
 10
43.94478952467781
 20
-16.2739207091993
 42
1.0
 10
43.94478952467781
 20
-15.47392070919931
  0
SOLID
  5
9D5
330
1E
100
AcDbEntity
  8
METAL1
100
AcDbTrace
 10
44.7447895246778
 20
-15.07392070919931
 30
0.0
 11
44.7447895246778
 21
-16.67392070919931
 31
0.0
 12
43.1447895246778
 22
-15.07392070919931
 32
0.0
 13
43.1447895246778
 23
-16.67392070919931
 33
0.0
  0
SOLID
  5
9D6
330
1E
100
AcDbEntity
  8
CONSTR
100
AcDbTrace
 10
43.3447895246778
 20
-12.29892070919931
 30
0.0
 11
40.1447895246778
 21
-12.29892070919931
 31
0.0
 12
43.3447895246778
 22
-12.24892070919931
 32
0.0
 13
40.1447895246778
 23
-12.24892070919931
 33
0.0
  0
SOLID
  5
9D7
330
1E
100
AcDbEntity
  8
CONSTR
100
AcDbTrace
 10
38.7697895246778
 20
-12.07392070919931
 30
0.0
 11
38.7697895246778
 21
-15.27392070919931
 31
0.0
 12
38.71978952467781
 22
-12.07392070919931
 32
0.0
 13
38.71978952467781
 23
-15.27392070919931
 33
0.0
  0
SOLID
  5
9D8
330
1E
100
AcDbEntity
  8
CONSTR
100
AcDbTrace
 10
40.3697895246778
 20
-12.07392070919931
 30
0.0
 11
40.3697895246778
 21
-15.27392070919931
 31
0.0
 12
40.3197895246778
 22
-12.07392070919931
 32
0.0
 13
40.3197895246778
 23
-15.27392070919931
 33
0.0
  0
SOLID
  5
9D9
330
1E
100
AcDbEntity
  8
CONSTR
100
AcDbTrace
 10
40.34478952467781
 20
-15.29892070919931
 30
0.0
 11
38.7447895246778
 21
-15.29892070919931
 31
0.0
 12
40.34478952467781
 22
-15.24892070919931
 32
0.0
 13
38.7447895246778
 23
-15.24892070919931
 33
0.0
  0
SOLID
  5
9DA
330
1E
100
AcDbEntity
  8
METAL1
100
AcDbTrace
 10
40.3829895246778
 20
-14.57392070919931
 30
0.0
 11
40.3829895246778
 21
-15.69152070919931
 31
0.0
 12
38.7065895246778
 22
-14.57392070919931
 32
0.0
 13
38.7065895246778
 23
-15.69152070919931
 33
0.0
  0
SOLID
  5
9DB
330
1E
100
AcDbEntity
  8
CONSTR
100
AcDbTrace
 10
40.34478952467781
 20
-12.09892070919931
 30
0.0
 11
38.7447895246778
 21
-12.09892070919931
 31
0.0
 12
40.34478952467781
 22
-12.04892070919931
 32
0.0
 13
38.7447895246778
 23
-12.04892070919931
 33
0.0
  0
SOLID
  5
9DC
330
1E
100
AcDbEntity
  8
CONSTR
100
AcDbTrace
 10
43.1697895246778
 20
-12.07392070919931
 30
0.0
 11
43.1697895246778
 21
-15.27392070919931
 31
0.0
 12
43.1197895246778
 22
-12.07392070919931
 32
0.0
 13
43.1197895246778
 23
-15.27392070919931
 33
0.0
  0
SOLID
  5
9DD
330
1E
100
AcDbEntity
  8
CONSTR
100
AcDbTrace
 10
44.7697895246778
 20
-12.07392070919931
 30
0.0
 11
44.7697895246778
 21
-15.27392070919931
 31
0.0
 12
44.71978952467781
 22
-12.07392070919931
 32
0.0
 13
44.71978952467781
 23
-15.27392070919931
 33
0.0
  0
SOLID
  5
9DE
330
1E
100
AcDbEntity
  8
CONSTR
100
AcDbTrace
 10
44.7447895246778
 20
-15.29892070919931
 30
0.0
 11
43.1447895246778
 21
-15.29892070919931
 31
0.0
 12
44.7447895246778
 22
-15.24892070919931
 32
0.0
 13
43.1447895246778
 23
-15.24892070919931
 33
0.0
  0
SOLID
  5
9DF
330
1E
100
AcDbEntity
  8
METAL1
100
AcDbTrace
 10
44.7829895246778
 20
-14.57392070919931
 30
0.0
 11
44.7829895246778
 21
-15.69152070919931
 31
0.0
 12
43.10658952467781
 22
-14.57392070919931
 32
0.0
 13
43.10658952467781
 23
-15.69152070919931
 33
0.0
  0
SOLID
  5
9E0
330
1E
100
AcDbEntity
  8
CONSTR
100
AcDbTrace
 10
44.7447895246778
 20
-12.09892070919931
 30
0.0
 11
43.1447895246778
 21
-12.09892070919931
 31
0.0
 12
44.7447895246778
 22
-12.04892070919931
 32
0.0
 13
43.1447895246778
 23
-12.04892070919931
 33
0.0
  0
SOLID
  5
9E1
330
1E
100
AcDbEntity
  8
CONSTR
100
AcDbTrace
 10
43.3447895246778
 20
-10.69892070919931
 30
0.0
 11
40.1447895246778
 21
-10.69892070919931
 31
0.0
 12
43.3447895246778
 22
-10.6489207091993
 32
0.0
 13
40.1447895246778
 23
-10.6489207091993
 33
0.0
  0
SOLID
  5
9E2
330
1E
100
AcDbEntity
  8
METAL1
100
AcDbTrace
 10
33.9015695246778
 20
1.342659290800689
 30
0.0
 11
46.287763036786
 21
1.338484143541521
 31
0.0
 12
33.9015695246778
 22
-1.357340709199313
 32
0.0
 13
46.29007264500751
 23
-1.383583864547404
 33
0.0
  0
SOLID
  5
9E3
330
1E
100
AcDbEntity
  8
METAL1
100
AcDbTrace
 10
20.2091895246778
 20
3.092659290800689
 30
0.0
 11
20.2091895246778
 21
4.210259290800689
 31
0.0
 12
21.8855895246778
 22
3.092659290800689
 32
0.0
 13
21.8855895246778
 23
4.210259290800689
 33
0.0
  0
SOLID
  5
9E4
330
1E
100
AcDbEntity
  8
METAL1
100
AcDbTrace
 10
20.8773895246778
 20
3.509069290800688
 30
0.0
 11
20.8773895246778
 21
5.516839290800689
 31
0.0
 12
21.1273895246778
 22
3.509069290800688
 32
0.0
 13
21.1273895246778
 23
5.516839290800689
 33
0.0
  0
SOLID
  5
9E5
330
1E
100
AcDbEntity
  8
CONSTR
100
AcDbTrace
 10
29.0273895246778
 20
2.516839290800689
 30
0.0
 11
29.0273895246778
 21
5.716839290800688
 31
0.0
 12
29.0773895246778
 22
2.516839290800689
 32
0.0
 13
29.0773895246778
 23
5.716839290800688
 33
0.0
  0
SOLID
  5
9E6
330
1E
100
AcDbEntity
  8
CONSTR
100
AcDbTrace
 10
27.4273895246778
 20
2.516839290800689
 30
0.0
 11
27.4273895246778
 21
5.716839290800688
 31
0.0
 12
27.4773895246778
 22
2.516839290800689
 32
0.0
 13
27.4773895246778
 23
5.716839290800688
 33
0.0
  0
SOLID
  5
9E8
330
1E
100
AcDbEntity
  8
CONSTR
100
AcDbTrace
 10
27.5773895246778
 20
-3.28234070919931
 30
0.0
 11
24.0773895246778
 21
-3.28234070919931
 31
0.0
 12
27.5773895246778
 22
-3.232340709199313
 32
0.0
 13
24.0773895246778
 23
-3.232340709199313
 33
0.0
  0
SOLID
  5
9E9
330
1E
100
AcDbEntity
  8
CONSTR
100
AcDbTrace
 10
24.0773895246778
 20
3.267659290800686
 30
0.0
 11
27.5773895246778
 21
3.267659290800686
 31
0.0
 12
24.0773895246778
 22
3.217659290800689
 32
0.0
 13
27.5773895246778
 23
3.217659290800689
 33
0.0
  0
SOLID
  5
9EA
330
1E
100
AcDbEntity
  8
METAL1
100
AcDbTrace
 10
20.2091895246778
 20
0.1426592908006867
 30
0.0
 11
20.2091895246778
 21
1.260259290800689
 31
0.0
 12
21.8855895246778
 22
0.1426592908006867
 32
0.0
 13
21.8855895246778
 23
1.260259290800689
 33
0.0
  0
SOLID
  5
9EB
330
1E
100
AcDbEntity
  8
METAL1
100
AcDbTrace
 10
23.5773895246778
 20
-0.6073407091993133
 30
0.0
 11
22.1773895246778
 21
-0.6073407091993133
 31
0.0
 12
23.5773895246778
 22
0.5926592908006896
 32
0.0
 13
22.1773895246778
 23
0.5926592908006896
 33
0.0
  0
SOLID
  5
9EC
330
1E
100
AcDbEntity
  8
CONSTR
100
AcDbTrace
 10
24.0773895246778
 20
-0.3073407091993126
 30
0.0
 11
22.4773895246778
 21
-0.3073407091993126
 31
0.0
 12
24.0773895246778
 22
0.2926592908006889
 32
0.0
 13
22.4773895246778
 23
0.2926592908006889
 33
0.0
  0
SOLID
  5
9ED
330
1E
100
AcDbEntity
  8
CONSTR
100
AcDbTrace
 10
24.0523895246778
 20
-3.257340709199311
 30
0.0
 11
24.0523895246778
 21
3.242659290800688
 31
0.0
 12
24.1023895246778
 22
-3.257340709199311
 32
0.0
 13
24.1023895246778
 23
3.242659290800688
 33
0.0
  0
SOLID
  5
9EE
330
1E
100
AcDbEntity
  8
METAL1
100
AcDbTrace
 10
21.8473895246778
 20
0.7926592908006889
 30
0.0
 11
23.5473895246778
 21
0.7926592908006889
 31
0.0
 12
21.8473895246778
 22
-0.8073407091993125
 32
0.0
 13
23.5473895246778
 23
-0.8073407091993125
 33
0.0
  0
SOLID
  5
9EF
330
1E
100
AcDbEntity
  8
METAL1
100
AcDbTrace
 10
20.2473895246778
 20
-0.0073407091993118
 30
0.0
 11
20.2473895246778
 21
0.7926592908006889
 31
0.0
 12
21.8473895246778
 22
-0.0073407091993118
 32
0.0
 13
21.8473895246778
 23
0.7926592908006889
 33
0.0
  0
SOLID
  5
9F0
330
1E
100
AcDbEntity
  8
METAL1
100
AcDbTrace
 10
21.0473895246778
 20
-0.8073407091993125
 30
0.0
 11
20.2473895246778
 21
-0.8073407091993125
 31
0.0
 12
21.0473895246778
 22
0.7926592908006889
 32
0.0
 13
20.2473895246778
 23
0.7926592908006889
 33
0.0
  0
SOLID
  5
9F1
330
1E
100
AcDbEntity
  8
METAL1
100
AcDbTrace
 10
21.0473895246778
 20
0.7926592908006889
 30
0.0
 11
21.8473895246778
 21
0.7926592908006889
 31
0.0
 12
21.0473895246778
 22
-0.8073407091993125
 32
0.0
 13
21.8473895246778
 23
-0.8073407091993125
 33
0.0
  0
SOLID
  5
9F2
330
1E
100
AcDbEntity
  8
METAL1
100
AcDbTrace
 10
22.09747931550959
 20
-1.207340709199311
 30
0.0
 11
19.89747931550959
 21
-1.207340709199311
 31
0.0
 12
22.09747931550959
 22
1.192659290800687
 32
0.0
 13
19.89747931550959
 23
1.192659290800687
 33
0.0
  0
SOLID
  5
A02
330
1E
100
AcDbEntity
  8
METAL1
100
AcDbTrace
 10
23.5773895246778
 20
-2.90734070919931
 30
0.0
 11
22.1773895246778
 21
-2.90734070919931
 31
0.0
 12
23.5773895246778
 22
-1.707340709199311
 32
0.0
 13
22.1773895246778
 23
-1.707340709199311
 33
0.0
  0
SOLID
  5
A03
330
1E
100
AcDbEntity
  8
CONSTR
100
AcDbTrace
 10
24.0773895246778
 20
-2.607340709199313
 30
0.0
 11
22.4773895246778
 21
-2.607340709199313
 31
0.0
 12
24.0773895246778
 22
-2.007340709199311
 32
0.0
 13
22.4773895246778
 23
-2.007340709199311
 33
0.0
  0
SOLID
  5
A09
330
1E
100
AcDbEntity
  8
CONSTR
100
AcDbTrace
 10
20.2473895246778
 20
3.817659290800687
 30
0.0
 11
21.8473895246778
 21
3.817659290800687
 31
0.0
 12
20.2473895246778
 22
3.767659290800686
 32
0.0
 13
21.8473895246778
 23
3.767659290800686
 33
0.0
  0
SOLID
  5
A0A
330
1E
100
AcDbEntity
  8
CONSTR
100
AcDbTrace
 10
20.2473895246778
 20
0.6176592908006882
 30
0.0
 11
21.8473895246778
 21
0.6176592908006882
 31
0.0
 12
20.2473895246778
 22
0.5676592908006875
 32
0.0
 13
21.8473895246778
 23
0.5676592908006875
 33
0.0
  0
SOLID
  5
A0B
330
1E
100
AcDbEntity
  8
CONSTR
100
AcDbTrace
 10
20.2223895246778
 20
0.5926592908006896
 30
0.0
 11
20.2223895246778
 21
3.792659290800688
 31
0.0
 12
20.2723895246778
 22
0.5926592908006896
 32
0.0
 13
20.2723895246778
 23
3.792659290800688
 33
0.0
  0
LWPOLYLINE
  5
A0D
330
1E
100
AcDbEntity
  8
GND
100
AcDbPolyline
 90
        2
 70
     0
 43
0.2
 10
22.9473895246778
 20
2.692659290800687
 42
1.0
 10
22.9473895246778
 20
1.892659290800686
  0
LWPOLYLINE
  5
A0E
330
1E
100
AcDbEntity
  8
METAL1
100
AcDbPolyline
 90
        2
 70
     0
 43
0.2
 10
22.9473895246778
 20
2.692659290800687
 42
1.0
 10
22.9473895246778
 20
1.892659290800686
  0
LWPOLYLINE
  5
A0F
330
1E
100
AcDbEntity
  8
GND
100
AcDbPolyline
 90
        2
 70
     0
 43
0.2
 10
22.9473895246778
 20
1.892659290800686
 42
1.0
 10
22.9473895246778
 20
2.692659290800687
  0
LWPOLYLINE
  5
A10
330
1E
100
AcDbEntity
  8
METAL1
100
AcDbPolyline
 90
        2
 70
     0
 43
0.2
 10
22.9473895246778
 20
1.892659290800686
 42
1.0
 10
22.9473895246778
 20
2.692659290800687
  0
SOLID
  5
A11
330
1E
100
AcDbEntity
  8
METAL1
100
AcDbTrace
 10
23.5473895246778
 20
2.892659290800686
 30
0.0
 11
23.5473895246778
 21
1.692659290800687
 31
0.0
 12
22.3473895246778
 22
2.892659290800686
 32
0.0
 13
22.3473895246778
 23
1.692659290800687
 33
0.0
  0
SOLID
  5
A12
330
1E
100
AcDbEntity
  8
CONSTR
100
AcDbTrace
 10
21.8223895246778
 20
0.5926592908006896
 30
0.0
 11
21.8223895246778
 21
3.792659290800688
 31
0.0
 12
21.8723895246778
 22
0.5926592908006896
 32
0.0
 13
21.8723895246778
 23
3.792659290800688
 33
0.0
  0
SOLID
  5
A13
330
1E
100
AcDbEntity
  8
METAL1
100
AcDbTrace
 10
23.5773895246778
 20
1.742659290800688
 30
0.0
 11
22.1773895246778
 21
1.742659290800688
 31
0.0
 12
23.5773895246778
 22
2.942659290800687
 32
0.0
 13
22.1773895246778
 23
2.942659290800687
 33
0.0
  0
SOLID
  5
A14
330
1E
100
AcDbEntity
  8
CONSTR
100
AcDbTrace
 10
24.0773895246778
 20
1.992659290800688
 30
0.0
 11
22.4773895246778
 21
1.992659290800688
 31
0.0
 12
24.0773895246778
 22
2.592659290800689
 32
0.0
 13
22.4773895246778
 23
2.592659290800689
 33
0.0
  0
SOLID
  5
A33
330
1E
100
AcDbEntity
  8
CONSTR
100
AcDbTrace
 10
34.1265695246778
 20
0.7926592908006889
 30
0.0
 11
34.1265695246778
 21
-0.8073407091993125
 31
0.0
 12
34.0765695246778
 22
0.7926592908006889
 32
0.0
 13
34.0765695246778
 23
-0.8073407091993125
 33
0.0
  0
SOLID
  5
A34
330
1E
100
AcDbEntity
  8
CONSTR
100
AcDbTrace
 10
30.9265695246778
 20
0.7926592908006889
 30
0.0
 11
30.9265695246778
 21
-0.8073407091993125
 31
0.0
 12
30.8765695246778
 22
0.7926592908006889
 32
0.0
 13
30.8765695246778
 23
-0.8073407091993125
 33
0.0
  0
SOLID
  5
A35
330
1E
100
AcDbEntity
  8
METAL1
100
AcDbTrace
 10
33.4015695246778
 20
0.8308592908006886
 30
0.0
 11
34.5191695246778
 21
0.8308592908006886
 31
0.0
 12
33.4015695246778
 22
-0.8455407091993123
 32
0.0
 13
34.5191695246778
 23
-0.8455407091993123
 33
0.0
  0
SOLID
  5
A36
330
1E
100
AcDbEntity
  8
METAL1
100
AcDbTrace
 10
30.45156952467781
 20
0.8308592908006886
 30
0.0
 11
31.5691695246778
 21
0.8308592908006886
 31
0.0
 12
30.45156952467781
 22
-0.8455407091993123
 32
0.0
 13
31.5691695246778
 23
-0.8455407091993123
 33
0.0
  0
SOLID
  5
A37
330
1E
100
AcDbEntity
  8
METAL1
100
AcDbTrace
 10
28.3773895246778
 20
2.716839290800688
 30
0.0
 11
31.10156952467781
 21
2.716839290800688
 31
0.0
 12
28.3773895246778
 22
-2.731520709199308
 32
0.0
 13
31.10156952467781
 23
-2.731520709199308
 33
0.0
  0
SOLID
  5
A38
330
1E
100
AcDbEntity
  8
METAL1
100
AcDbTrace
 10
28.1273895246778
 20
2.716839290800688
 30
0.0
 11
28.3773895246778
 21
2.716839290800688
 31
0.0
 12
28.1273895246778
 22
-2.731520709199308
 32
0.0
 13
28.3773895246778
 23
-2.731520709199308
 33
0.0
  0
SOLID
  5
A39
330
1E
100
AcDbEntity
  8
METAL1
100
AcDbTrace
 10
28.1273895246778
 20
2.716839290800688
 30
0.0
 11
30.8515695246778
 21
2.716839290800688
 31
0.0
 12
28.1273895246778
 22
-2.731520709199308
 32
0.0
 13
30.8515695246778
 23
-2.731520709199308
 33
0.0
  0
SOLID
  5
A3A
330
1E
100
AcDbEntity
  8
METAL1
100
AcDbTrace
 10
29.4773895246778
 20
-1.707340709199311
 30
0.0
 11
28.0773895246778
 21
-1.707340709199311
 31
0.0
 12
29.4773895246778
 22
1.792659290800688
 32
0.0
 13
28.0773895246778
 23
1.792659290800688
 33
0.0
  0
SOLID
  5
A3B
330
1E
100
AcDbEntity
  8
CONSTR
100
AcDbTrace
 10
27.5773895246778
 20
1.492659290800688
 30
0.0
 11
29.17738952467781
 21
1.492659290800688
 31
0.0
 12
27.5773895246778
 22
-1.507340709199311
 32
0.0
 13
29.17738952467781
 23
-1.507340709199311
 33
0.0
  0
SOLID
  5
A3C
330
1E
100
AcDbEntity
  8
CONSTR
100
AcDbTrace
 10
27.6023895246778
 20
3.242659290800688
 30
0.0
 11
27.6023895246778
 21
-3.257340709199311
 31
0.0
 12
27.5523895246778
 22
3.242659290800688
 32
0.0
 13
27.5523895246778
 23
-3.257340709199311
 33
0.0
  0
SOLID
  5
A3D
330
1E
100
AcDbEntity
  8
CONSTR
100
AcDbTrace
 10
30.9015695246778
 20
-0.7823407091993105
 30
0.0
 11
34.1015695246778
 21
-0.7823407091993105
 31
0.0
 12
30.9015695246778
 22
-0.8323407091993111
 32
0.0
 13
34.1015695246778
 23
-0.8323407091993111
 33
0.0
  0
SOLID
  5
A3E
330
1E
100
AcDbEntity
  8
CONSTR
100
AcDbTrace
 10
30.9015695246778
 20
0.8176592908006874
 30
0.0
 11
34.1015695246778
 21
0.8176592908006874
 31
0.0
 12
30.9015695246778
 22
0.7676592908006868
 32
0.0
 13
34.1015695246778
 23
0.7676592908006868
 33
0.0
  0
SOLID
  5
A3F
330
1E
100
AcDbEntity
  8
METAL1
100
AcDbTrace
 10
27.41418952467781
 20
2.066839290800686
 30
0.0
 11
27.41418952467781
 21
3.184439290800689
 31
0.0
 12
29.0905895246778
 22
2.066839290800686
 32
0.0
 13
29.0905895246778
 23
3.184439290800689
 33
0.0
  0
SOLID
  5
A4E
330
1E
100
AcDbEntity
  8
CONSTR
100
AcDbTrace
 10
27.4523895246778
 20
2.541839290800687
 30
0.0
 11
29.0523895246778
 21
2.541839290800687
 31
0.0
 12
27.4523895246778
 22
2.491839290800687
 32
0.0
 13
29.0523895246778
 23
2.491839290800687
 33
0.0
  0
SOLID
  5
A4F
330
1E
100
AcDbEntity
  8
METAL1
100
AcDbTrace
 10
21.1273895246778
 20
5.766839290800689
 30
0.0
 11
28.1273895246778
 21
5.766839290800689
 31
0.0
 12
21.1273895246778
 22
5.516839290800689
 32
0.0
 13
28.1273895246778
 23
5.516839290800689
 33
0.0
  0
SOLID
  5
A50
330
1E
100
AcDbEntity
  8
METAL1
100
AcDbTrace
 10
21.1273895246778
 20
5.516839290800689
 30
0.0
 11
20.8773895246778
 21
5.516839290800689
 31
0.0
 12
21.1273895246778
 22
5.516839290800689
 32
0.0
 13
21.1273895246778
 23
5.766839290800689
 33
0.0
  0
SOLID
  5
A51
330
1E
100
AcDbEntity
  8
CONSTR
100
AcDbTrace
 10
27.4523895246778
 20
5.741839290800687
 30
0.0
 11
29.0523895246778
 21
5.741839290800687
 31
0.0
 12
27.4523895246778
 22
5.691839290800686
 32
0.0
 13
29.0523895246778
 23
5.691839290800686
 33
0.0
  0
SOLID
  5
A52
330
1E
100
AcDbEntity
  8
METAL1
100
AcDbTrace
 10
27.41418952467781
 20
5.016839290800689
 30
0.0
 11
27.41418952467781
 21
6.134439290800688
 31
0.0
 12
29.0905895246778
 22
5.016839290800689
 32
0.0
 13
29.0905895246778
 23
6.134439290800688
 33
0.0
  0
SOLID
  5
A53
330
1E
100
AcDbEntity
  8
METAL1
100
AcDbTrace
 10
28.1273895246778
 20
5.516839290800689
 30
0.0
 11
28.1273895246778
 21
5.766839290800689
 31
0.0
 12
28.1273895246778
 22
5.516839290800689
 32
0.0
 13
28.3773895246778
 23
5.516839290800689
 33
0.0
  0
LWPOLYLINE
  5
A5B
330
1E
100
AcDbEntity
  8
GND
100
AcDbPolyline
 90
        2
 70
     0
 43
0.2
 10
22.97738954140652
 20
-2.807340723079013
 42
1.0
 10
22.97738954140652
 20
-2.007340723079012
  0
LWPOLYLINE
  5
A5C
330
1E
100
AcDbEntity
  8
GND
100
AcDbPolyline
 90
        2
 70
     0
 43
0.2
 10
22.97738954140652
 20
-2.007340723079012
 42
1.0
 10
22.97738954140652
 20
-2.807340723079013
  0
MTEXT
  5
AAA
330
1E
100
AcDbEntity
  8
CONSTR
100
AcDbMText
 10
42.78825107044744
 20
4.078136616001838
 30
0.0
 40
1.6
 41
8.2675
 71
     1
 72
     5
  1
Rx
 73
     1
 44
1.0
  0
LWPOLYLINE
  5
AAB
330
1E
100
AcDbEntity
  8
GND
100
AcDbPolyline
 90
        2
 70
     0
 43
0.2
 10
43.90076267312871
 20
-9.055061876230954
 42
1.0
 10
43.90076267312871
 20
-8.255061876230953
  0
LWPOLYLINE
  5
AAC
330
1E
100
AcDbEntity
  8
GND
100
AcDbPolyline
 90
        2
 70
     0
 43
0.2
 10
43.90076267312871
 20
-8.255061876230953
 42
1.0
 10
43.90076267312871
 20
-9.055061876230954
  0
INSERT
  5
AAD
330
1E
100
AcDbEntity
  8
CONSTR
100
AcDbBlockReference
  2
elkon
 10
37.23568799527324
 20
-17.35248215986937
 30
0.0
  0
INSERT
  5
AAE
330
1E
100
AcDbEntity
  8
CONSTR
100
AcDbBlockReference
  2
elkon
 10
49.2264912970275
 20
0.1436009475721605
 30
0.0
 50
180.0
  0
INSERT
  5
AAF
330
1E
100
AcDbEntity
  8
CONSTR
100
AcDbBlockReference
  2
rfc
 10
73.53502624403552
 20
23.74922279142438
 30
0.0
 41
5.747672421525734
 42
5.747672421525731
 43
5.747672421525731
 50
180.0
  0
LWPOLYLINE
  5
AB0
330
1E
100
AcDbEntity
  8
CONSTR
100
AcDbPolyline
 90
        2
 70
     0
 43
0.0
 10
43.97651126164086
 20
-2.055697799511673
 10
43.97651126164086
 20
-0.7989120878599714
  0
LWPOLYLINE
  5
AB1
330
1E
100
AcDbEntity
  8
CONSTR
100
AcDbPolyline
 90
        2
 70
     0
 43
0.0
 10
43.97651126164086
 20
-4.541947774451731
 10
43.97651126164086
 20
-5.60748347349963
  0
LWPOLYLINE
  5
AB2
330
1E
100
AcDbEntity
  8
CONSTR
100
AcDbPolyline
 90
        2
 70
     0
 43
0.0
 10
44.75737297762768
 20
-6.623545270327348
 10
44.87313357851034
 20
-7.24160418712114
  0
LWPOLYLINE
  5
AB3
330
1E
100
AcDbEntity
  8
CONSTR
100
AcDbPolyline
 90
        2
 70
     0
 43
0.0
 10
44.6389904355983
 20
-10.64822747783727
 10
44.83227963721743
 20
-9.991473320805056
  0
LWPOLYLINE
  5
AB4
330
1E
100
AcDbEntity
  8
CONSTR
100
AcDbPolyline
 90
        2
 70
     0
 43
0.0
 10
44.94789282044318
 20
-8.706704356575919
 10
44.48433846079539
 20
-8.668171676253795
  0
MTEXT
  5
AB5
330
1E
100
AcDbEntity
  8
CONSTR
100
AcDbMText
 10
41.04384495244756
 20
-6.149012087919114
 30
0.0
 40
0.6
 41
1.6775
 71
     1
 72
     5
  1
1uF
 73
     1
 44
1.0
  0
MTEXT
  5
AB6
330
1E
100
AcDbEntity
  8
CONSTR
100
AcDbMText
 10
42.56566565237892
 20
-4.524037842626658
 30
0.0
 40
0.6
 41
2.423099999999999
 71
     1
 72
     5
  1
10uH
 11
0.0000000000000001
 21
1.0
 31
0.0
 73
     1
 44
1.0
  0
MTEXT
  5
AB7
330
1E
100
AcDbEntity
  8
CONSTR
100
AcDbMText
 10
41.37415065908717
 20
-8.660226621437924
 30
0.0
 40
0.6
 41
1.6775
 71
     1
 72
     5
  1
1uF
 73
     1
 44
1.0
  0
MTEXT
  5
AB8
330
1E
100
AcDbEntity
  8
CONSTR
100
AcDbMText
 10
46.39486838240908
 20
-10.25265152001898
 30
0.0
 40
0.5999999999999999
 41
3.075399999999999
 71
     1
 72
     5
  1
78L10
 11
-0.0031168054897748
 21
0.999995142749973
 31
0.0
 73
     1
 44
1.0
  0
INSERT
  5
AB9
330
1E
100
AcDbEntity
  8
CONSTR
100
AcDbBlockReference
  2
tri
 10
45.19184502042504
 20
-19.71248886078147
 30
0.0
 50
45.00000000000007
  0
LWPOLYLINE
  5
ABA
330
1E
100
AcDbEntity
  8
CONSTR
100
AcDbPolyline
 90
        2
 70
     0
 43
0.0
 10
44.86344727309933
 20
-10.01043045079125
 10
45.05673647471847
 20
-9.353676293759036
  0
LWPOLYLINE
  5
ABB
330
1E
100
AcDbEntity
  8
CONSTR
100
AcDbPolyline
 90
        2
 70
     0
 43
0.0
 10
44.89018151423506
 20
-7.271884451545055
 10
45.00594211511771
 20
-7.889943368338848
  0
MTEXT
  5
ABD
330
1E
100
AcDbEntity
  8
CONSTR
100
AcDbMText
 10
35.87399404115277
 20
-9.129827867984776
 30
0.0
 40
0.6
 41
6.372399999999999
 71
     1
 72
     5
  1
0.3-0.4mm\PCul
 73
     1
 44
1.0
  0
SOLID
  5
AC5
330
1E
100
AcDbEntity
  8
METAL1
100
AcDbTrace
 10
44.70258291893276
 20
-5.043294373699925
 30
0.0
 11
44.70258291893276
 21
-6.643294373699923
 31
0.0
 12
43.10258291893276
 22
-5.043294373699925
 32
0.0
 13
43.10258291893276
 23
-6.643294373699923
 33
0.0
  0
SOLID
  5
AC6
330
1E
100
AcDbEntity
  8
METAL1
100
AcDbTrace
 10
44.65179518705048
 20
-7.784816598352112
 30
0.0
 11
44.65179518705048
 21
-9.384816598352109
 31
0.0
 12
43.05179518705048
 22
-7.784816598352112
 32
0.0
 13
43.05179518705048
 23
-9.384816598352109
 33
0.0
  0
MTEXT
  5
ACF
330
1E
100
AcDbEntity
  8
CONSTR
100
AcDbMText
 10
41.0313847224562
 20
-11.04148861234373
 30
0.0
 40
0.6
 41
3.8919
 71
     1
 72
     5
  1
{\fTahoma|b0|i0|c238|p32;33}
 73
     1
 44
1.0
  0
MTEXT
  5
AD0
330
1E
100
AcDbEntity
  8
CONSTR
100
AcDbMText
 10
39.05990734563983
 20
-14.66202747012894
 30
0.0
 40
0.5
 41
5.9263
 71
     1
 72
     5
  1
680pF
 11
0.0000000000000001
 21
1.0
 31
0.0
 73
     1
 44
1.0
  0
MTEXT
  5
AD1
330
1E
100
AcDbEntity
  8
CONSTR
100
AcDbMText
 10
43.52677064910624
 20
-14.61781745700265
 30
0.0
 40
0.6
 41
5.8379
 71
     1
 72
     5
  1
20nF
 11
0.0000000000000001
 21
1.0
 31
0.0
 73
     1
 44
1.0
  0
MTEXT
  5
ADB
330
1E
100
AcDbEntity
  8
CONSTR
100
AcDbMText
 10
20.69951899124121
 20
1.415233105908953
 30
0.0
 40
0.6
 41
3.4054
 71
     1
 72
     5
  1
1k
 11
0.0000000000000001
 21
1.0
 31
0.0
 73
     1
 44
1.0
  0
MTEXT
  5
ADC
330
1E
100
AcDbEntity
  8
CONSTR
100
AcDbMText
 10
31.74355923102348
 20
0.4087336875845296
 30
0.0
 40
0.6
 41
5.1303
 71
     1
 72
     5
  1
{\fTahoma|b0|i0|c238|p32;15pF}
 73
     1
 44
1.0
  0
MTEXT
  5
ADD
330
1E
100
AcDbEntity
  8
CONSTR
100
AcDbMText
 10
25.62840308020717
 20
-1.275312859127481
 30
0.0
 40
0.5
 41
2.816399999999999
 71
     1
 72
     5
  1
{\fTahoma|b0|i0|c0|p32;B\fTahoma|b0|i0|c238|p32;FG135a}
 11
0.0000000000000001
 21
1.0
 31
0.0
 73
     1
 44
1.0
  0
MTEXT
  5
AE5
330
1E
100
AcDbEntity
  8
CONSTR
100
AcDbMText
 10
27.64716836060611
 20
3.265756405344561
 30
0.0
 40
0.5
 41
2.770999999999999
 71
     1
 72
     5
  1
{\fTahoma|b0|i0|c238|p32;12k+\P1nF}
 11
0.0000000000000001
 21
1.0
 31
0.0
 73
     1
 44
1.0
  0
DIMENSION
  5
BAE
330
1E
100
AcDbEntity
  8
METAL1
100
AcDbDimension
  2
*D11
 10
47.08297368376628
 20
21.41243365953847
 30
0.0
 11
17.10499967268825
 21
21.41243365953847
 31
0.0
 70
    32
 71
     5
 42
59.95594802215606
  3
Standard
100
AcDbAlignedDimension
 13
-12.87297433838978
 23
20.46191003194614
 33
0.0
 14
47.08297368376628
 24
20.46191003194614
 34
0.0
100
AcDbRotatedDimension
1001
ACAD
1000
DSTYLE
1002
{
1070
   271
1070
     0
1002
}
  0
DIMENSION
  5
BD0
330
1E
100
AcDbEntity
  8
METAL1
100
AcDbDimension
  2
*D12
 10
49.75046216816273
 20
-20.67324648068372
 30
0.0
 11
49.75046216816274
 21
-0.7122519209766831
 31
0.0
 70
    32
 71
     5
 42
39.92198911941407
  3
Standard
100
AcDbAlignedDimension
 13
48.34915449852587
 23
19.24874263873034
 33
0.0
 14
48.44924794448167
 24
-20.67324648068372
 34
0.0
 50
90.0
100
AcDbRotatedDimension
1001
ACAD
1000
DSTYLE
1002
{
1070
   271
1070
     0
1002
}
  0
SOLID
  5
C09
330
1E
100
AcDbEntity
  8
METAL1
100
AcDbTrace
 10
25.3492534031359
 20
2.785273550683097
 30
0.0
 11
28.0734334031359
 21
2.785273550683097
 31
0.0
 12
25.3492534031359
 22
-2.663086449316899
 32
0.0
 13
28.0734334031359
 23
-2.663086449316899
 33
0.0
  0
VIEWPORT
  5
3C4
330
1A
100
AcDbEntity
 67
     1
  8
0
100
AcDbViewport
 10
5.249999639556163
 20
3.999999883606677
 30
0.0
 40
13.74314832942846
 41
8.992999745766947
 68
     1
 69
     1
 12
5.249999639556163
 22
3.999999883606677
 13
0.0
 23
0.0
 14
10.0
 24
10.0
 15
10.0
 25
10.0
 16
0.0
 26
0.0
 36
1.0
 17
0.0
 27
0.0
 37
0.0
 42
50.0
 43
0.0
 44
0.0
 45
8.992999745766947
 50
0.0
 51
0.0
 72
   100
 90
    32800
  1

281
     0
 71
     1
 74
     0
110
0.0
120
0.0
130
0.0
111
1.0
121
0.0
131
0.0
112
0.0
122
1.0
132
0.0
 79
     0
146
0.0
  0
VIEWPORT
  5
3C6
330
1A
100
AcDbEntity
 67
     1
  8
CONSTR
100
AcDbViewport
 10
5.24999976158142
 20
3.99999976158142
 30
0.0
 40
8.399999618530271
 41
6.399999618530272
 68
     2
 69
     2
 12
17.24658406932159
 22
-0.7042386619880148
 13
0.0
 23
0.0
 14
1.0
 24
1.0
 15
0.0
 25
0.0
 16
0.0
 26
0.0
 36
1.0
 17
0.0
 27
0.0
 37
0.0
 42
50.0
 43
0.0
 44
0.0
 45
46.30927325462263
 50
0.0
 51
0.0
 72
   100
 90
    32832
  1

281
     0
 71
     1
 74
     0
110
0.0
120
0.0
130
0.0
111
1.0
121
0.0
131
0.0
112
0.0
122
1.0
132
0.0
 79
     0
146
0.0
  0
ENDSEC
  0
SECTION
  2
OBJECTS
  0
DICTIONARY
  5
C
330
0
100
AcDbDictionary
281
     1
  3
ACAD_GROUP
350
D
  3
ACAD_LAYOUT
350
19
  3
ACAD_MLINESTYLE
350
16
  3
ACAD_PLOTSETTINGS
350
18
  3
ACAD_PLOTSTYLENAME
350
E
  3
AcDbVariableDictionary
350
11C
  0
DICTIONARY
  5
11E
330
1E
100
AcDbDictionary
280
     1
281
     1
  3
ACAD_SORTENTS
360
11F
  0
DICTIONARY
  5
D
102
{ACAD_REACTORS
330
C
102
}
330
C
100
AcDbDictionary
281
     1
  0
DICTIONARY
  5
19
102
{ACAD_REACTORS
330
C
102
}
330
C
100
AcDbDictionary
281
     1
  3
Layout1
350
1D
  3
Model
350
21
  0
DICTIONARY
  5
16
102
{ACAD_REACTORS
330
C
102
}
330
C
100
AcDbDictionary
281
     1
  3
Standard
350
17
  0
DICTIONARY
  5
18
102
{ACAD_REACTORS
330
C
102
}
330
C
100
AcDbDictionary
281
     1
  0
ACDBDICTIONARYWDFLT
  5
E
102
{ACAD_REACTORS
330
C
102
}
330
C
100
AcDbDictionary
281
     1
  3
Normal
350
F
100
AcDbDictionaryWithDefault
340
F
  0
DICTIONARY
  5
11C
102
{ACAD_REACTORS
330
C
102
}
330
C
100
AcDbDictionary
281
     1
  3
DIMASSOC
350
3BD
  3
SORTENTS
350
11D
  0
SORTENTSTABLE
  5
11F
102
{ACAD_REACTORS
330
11E
102
}
330
11E
100
AcDbSortentsTable
330
1E
331
25
  5
25
331
16C
  5
9C
331
174
  5
A4
331
359
  5
E2
331
9D2
  5
B9C
331
17C
  5
AC
331
361
  5
FF
331
A11
  5
2AC
331
AB8
  5
B8E
331
9DA
  5
1CB
331
10D
  5
D0
331
369
  5
10D
331
9E2
  5
23
331
371
  5
163
331
A39
  5
2D9
331
184
  5
B4
331
29A
  5
CD
331
379
  5
16B
331
9B3
  5
184
331
18C
  5
BC
331
381
  5
173
331
9EA
  5
1EF
331
A51
  5
B81
331
AD0
  5
B94
331
9BB
  5
18C
331
194
  5
C4
331
165
  5
95
331
9F2
  5
20A
331
9C3
  5
194
331
3A1
  5
17B
331
352
  5
D4
331
A02
  5
24B
331
9CB
  5
1C8
331
A0A
  5
B76
331
AB1
  5
B87
331
26
  5
3D
331
16D
  5
9D
331
175
  5
A5
331
35A
  5
E3
331
9D3
  5
BA1
331
17D
  5
AD
331
362
  5
100
331
A12
  5
B78
331
AB9
  5
B8F
331
9DB
  5
B68
331
10E
  5
65
331
36A
  5
10E
331
9E3
  5
1D8
331
372
  5
164
331
A3A
  5
2DA
331
185
  5
B5
331
37A
  5
16C
331
9B4
  5
185
331
18D
  5
BD
331
382
  5
174
331
9EB
  5
1F0
331
A52
  5
2DE
331
AD1
  5
B95
331
9BC
  5
18D
331
195
  5
C5
331
166
  5
96
331
9C4
  5
195
331
3A2
  5
17C
331
353
  5
D5
331
A03
  5
B74
331
AAA
  5
B82
331
9CC
  5
B9E
331
A0B
  5
B77
331
AB2
  5
B88
331
16E
  5
9E
331
176
  5
A6
331
35B
  5
E4
331
9D4
  5
B9D
331
17E
  5
AE
331
363
  5
104
331
A13
  5
2B5
331
ABA
  5
B90
331
9DC
  5
B69
331
10F
  5
7A
331
36B
  5
10F
331
A33
  5
B7A
331
9E4
  5
1EE
331
373
  5
165
331
A3B
  5
B7C
331
186
  5
B6
331
37B
  5
16D
331
9B5
  5
186
331
18E
  5
BE
331
15F
  5
7C
331
383
  5
175
331
9EC
  5
B72
331
A53
  5
2DF
331
9BD
  5
18E
331
196
  5
C6
331
167
  5
97
331
A5B
  5
BA4
331
9C5
  5
B62
331
3A3
  5
17D
331
354
  5
D6
331
AAB
  5
BA6
331
9CD
  5
B9A
331
AB3
  5
B89
331
16F
  5
9F
331
177
  5
A7
331
35C
  5
E5
331
3AB
  5
79
331
9D5
  5
1CA
331
108
  5
52
331
17F
  5
AF
331
364
  5
108
331
A14
  5
B79
331
ABB
  5
B91
331
9DD
  5
B6A
331
36C
  5
113
331
A34
  5
B7B
331
9E5
  5
B6E
331
374
  5
166
331
A3C
  5
B7D
331
9AE
  5
180
331
187
  5
B7
331
37C
  5
16E
331
9B6
  5
187
331
18F
  5
BF
331
160
  5
7E
331
384
  5
176
331
9ED
  5
B73
331
9BE
  5
18F
331
39C
  5
178
331
A5C
  5
BA5
331
ADB
  5
B96
331
9C6
  5
B63
331
3A4
  5
17E
331
1EE
  5
CA
331
355
  5
D7
331
AAC
  5
BA7
331
9CE
  5
B9F
331
A0D
  5
BA2
331
AB4
  5
B8A
331
168
  5
98
331
170
  5
A0
331
178
  5
A8
331
35D
  5
E6
331
3B4
  5
17F
331
365
  5
109
331
109
  5
64
331
9D6
  5
B64
331
36D
  5
15E
331
9DE
  5
B6B
331
A35
  5
2B7
331
375
  5
167
331
1C7
  5
C8
331
9E6
  5
B6F
331
A3D
  5
B7E
331
9AF
  5
B61
331
180
  5
B0
331
37D
  5
16F
331
188
  5
B8
331
385
  5
177
331
190
  5
C0
331
161
  5
80
331
9B7
  5
188
331
9EE
  5
1F1
331
39D
  5
77
331
1E7
  5
C9
331
9BF
  5
190
331
ADC
  5
B97
331
356
  5
D9
331
1EF
  5
CB
331
9C7
  5
196
331
AAD
  5
B83
331
9CF
  5
B9B
331
A0E
  5
297
331
AB5
  5
B8B
331
169
  5
99
331
171
  5
A1
331
35E
  5
E7
331
179
  5
A9
331
366
  5
10A
331
10A
  5
D1
331
9D7
  5
B65
331
ABD
  5
B92
331
297
  5
67
331
36E
  5
15F
331
9DF
  5
1CC
331
A36
  5
2D6
331
AC5
  5
2E2
331
376
  5
168
331
A3E
  5
B7F
331
A4E
  5
B80
331
181
  5
B1
331
189
  5
B9
331
37E
  5
170
331
9B0
  5
181
331
191
  5
C1
331
162
  5
82
331
9B8
  5
189
331
9EF
  5
206
331
39E
  5
78
331
9C0
  5
191
331
ADD
  5
B98
331
AE5
  5
B99
331
357
  5
DD
331
9C8
  5
1A2
331
AAE
  5
B84
331
A0F
  5
BA3
331
AB6
  5
B8C
331
16A
  5
9A
331
1F0
  5
CC
331
172
  5
A2
331
53
  5
3E
331
17A
  5
AA
331
35F
  5
E8
331
9D0
  5
1C9
331
10B
  5
CE
331
367
  5
10B
331
9D8
  5
B66
331
AC6
  5
2E9
331
36F
  5
161
331
9E0
  5
B6C
331
A37
  5
2D7
331
377
  5
169
331
A3F
  5
2DB
331
A4F
  5
2DC
331
113
  5
7B
331
182
  5
B2
331
18A
  5
BA
331
37F
  5
171
331
9B1
  5
182
331
9E8
  5
B70
331
192
  5
C2
331
163
  5
93
331
9B9
  5
18A
331
9F0
  5
207
331
39F
  5
179
331
1A2
  5
C7
331
350
  5
D2
331
9C1
  5
192
331
AAF
  5
B85
331
9C9
  5
1C2
331
AB7
  5
B8D
331
16B
  5
9B
331
24
  5
24
331
173
  5
A3
331
54
  5
4D
331
1F1
  5
66
331
358
  5
E1
331
17B
  5
AB
331
360
  5
EC
331
9D1
  5
BA0
331
A10
  5
29A
331
10C
  5
CF
331
368
  5
10C
331
9D9
  5
B67
331
370
  5
162
331
9E1
  5
B6D
331
A38
  5
2D8
331
ACF
  5
B93
331
183
  5
B3
331
378
  5
16A
331
A50
  5
2DD
331
18B
  5
BB
331
380
  5
172
331
9B2
  5
183
331
9E9
  5
B71
331
193
  5
C3
331
164
  5
94
331
9BA
  5
18B
331
9F1
  5
208
331
3A0
  5
17A
331
351
  5
D3
331
9C2
  5
193
331
9CA
  5
1C7
331
A09
  5
B75
331
AB0
  5
B86
  0
LAYOUT
  5
1D
102
{ACAD_REACTORS
330
19
102
}
330
19
100
AcDbPlotSettings
  1

  2
none_device
  4
Letter_(8.50_x_11.00_Inches)
  6

 40
6.349999904632568
 41
6.349999904632568
 42
6.350006103515625
 43
6.350006103515625
 44
215.8999938964843
 45
279.3999938964843
 46
0.0
 47
0.0
 48
0.0
 49
0.0
140
0.0
141
0.0
142
1.0
143
1.0
 70
   688
 72
     0
 73
     1
 74
     5
  7

 75
    16
147
1.0
148
0.0
149
0.0
100
AcDbLayout
  1
Layout1
 70
     1
 71
     1
 10
-0.2500002402958907
 20
-0.2499999962453767
 11
10.74999951940821
 21
8.249999763458731
 12
0.0
 22
0.0
 32
0.0
 14
1.049999952316284
 24
0.7999999523162842
 34
0.0
 15
9.449999570846555
 25
7.199999570846556
 35
0.0
146
0.0
 13
0.0
 23
0.0
 33
0.0
 16
1.0
 26
0.0
 36
0.0
 17
0.0
 27
1.0
 37
0.0
 76
     0
330
1A
331
3C4
  0
LAYOUT
  5
21
102
{ACAD_REACTORS
330
19
102
}
330
19
100
AcDbPlotSettings
  1

  2
HP LaserJet 5L PCL
  4
A4
  6

 40
6.297083377838134
 41
7.143756389617919
 42
7.397750854492187
 43
7.14373779296875
 44
210.0579986572265
 45
296.9259948730469
 46
0.0
 47
0.0
 48
0.0
 49
0.0
140
0.0
141
0.0
142
1.0
143
0.2213375977064907
 70
 11952
 72
     1
 73
     1
 74
     0
  7

 75
     0
147
4.517985242281659
148
9.615682192682278
149
21.57685537062987
100
AcDbLayout
  1
Model
 70
     1
 71
     0
 10
0.0
 20
0.0
 11
12.0
 21
9.0
 12
0.0
 22
0.0
 32
0.0
 14
0.0
 24
0.0
 34
0.0
 15
0.0
 25
0.0
 35
0.0
146
0.0
 13
0.0
 23
0.0
 33
0.0
 16
1.0
 26
0.0
 36
0.0
 17
0.0
 27
1.0
 37
0.0
 76
     0
330
1E
  0
MLINESTYLE
  5
17
102
{ACAD_REACTORS
330
16
102
}
330
16
100
AcDbMlineStyle
  2
STANDARD
 70
     0
  3

 62
   256
 51
90.0
 52
90.0
 71
     2
 49
0.5
 62
   256
  6
BYLAYER
 49
-0.5
 62
   256
  6
BYLAYER
  0
ACDBPLACEHOLDER
  5
F
102
{ACAD_REACTORS
330
E
102
}
330
E
  0
DICTIONARYVAR
  5
3BD
102
{ACAD_REACTORS
330
11C
102
}
330
11C
100
DictionaryVariables
280
     0
  1
1
  0
DICTIONARYVAR
  5
11D
102
{ACAD_REACTORS
330
11C
102
}
330
11C
100
DictionaryVariables
280
     0
  1
127
  0
ENDSEC
  0
EOF
