  0
SECTION
  2
HEADER
  9
$ACADVER
  1
AC1015
  9
$ACADMAINTVER
 70
    13
  9
$DWGCODEPAGE
  3
ANSI_1252
  9
$INSBASE
 10
0.0
 20
0.0
 30
0.0
  9
$EXTMIN
 10
-121.6387239288865
 20
-16.51076267814121
 30
-0.0015258207003583
  9
$EXTMAX
 10
17.81845303963604
 20
21.62983796042144
 30
0.0000000349246037
  9
$LIMMIN
 10
0.0
 20
0.0
  9
$LIMMAX
 10
12.0
 20
9.0
  9
$ORTHOMODE
 70
     0
  9
$REGENMODE
 70
     1
  9
$FILLMODE
 70
     1
  9
$QTEXTMODE
 70
     0
  9
$MIRRTEXT
 70
     1
  9
$LTSCALE
 40
1.0
  9
$ATTMODE
 70
     1
  9
$TEXTSIZE
 40
0.5
  9
$TRACEWID
 40
0.05
  9
$TEXTSTYLE
  7
Standard
  9
$CLAYER
  8
0
  9
$CELTYPE
  6
ByLayer
  9
$CECOLOR
 62
   256
  9
$CELTSCALE
 40
1.0
  9
$DISPSILH
 70
     0
  9
$DIMSCALE
 40
1.0
  9
$DIMASZ
 40
1.8
  9
$DIMEXO
 40
0.0625
  9
$DIMDLI
 40
0.38
  9
$DIMRND
 40
0.0
  9
$DIMDLE
 40
0.0
  9
$DIMEXE
 40
0.18
  9
$DIMTP
 40
0.0
  9
$DIMTM
 40
0.0
  9
$DIMTXT
 40
1.8
  9
$DIMCEN
 40
0.09
  9
$DIMTSZ
 40
0.0
  9
$DIMTOL
 70
     0
  9
$DIMLIM
 70
     0
  9
$DIMTIH
 70
     1
  9
$DIMTOH
 70
     1
  9
$DIMSE1
 70
     0
  9
$DIMSE2
 70
     0
  9
$DIMTAD
 70
     0
  9
$DIMZIN
 70
     0
  9
$DIMBLK
  1

  9
$DIMASO
 70
     1
  9
$DIMSHO
 70
     1
  9
$DIMPOST
  1

  9
$DIMAPOST
  1

  9
$DIMALT
 70
     0
  9
$DIMALTD
 70
     2
  9
$DIMALTF
 40
25.4
  9
$DIMLFAC
 40
1.0
  9
$DIMTOFL
 70
     0
  9
$DIMTVP
 40
0.0
  9
$DIMTIX
 70
     0
  9
$DIMSOXD
 70
     0
  9
$DIMSAH
 70
     0
  9
$DIMBLK1
  1

  9
$DIMBLK2
  1

  9
$DIMSTYLE
  2
Standard
  9
$DIMCLRD
 70
     0
  9
$DIMCLRE
 70
     0
  9
$DIMCLRT
 70
     0
  9
$DIMTFAC
 40
1.0
  9
$DIMGAP
 40
0.09
  9
$DIMJUST
 70
     0
  9
$DIMSD1
 70
     0
  9
$DIMSD2
 70
     0
  9
$DIMTOLJ
 70
     1
  9
$DIMTZIN
 70
     0
  9
$DIMALTZ
 70
     0
  9
$DIMALTTZ
 70
     0
  9
$DIMUPT
 70
     0
  9
$DIMDEC
 70
     1
  9
$DIMTDEC
 70
     1
  9
$DIMALTU
 70
     2
  9
$DIMALTTD
 70
     2
  9
$DIMTXSTY
  7
Standard
  9
$DIMAUNIT
 70
     0
  9
$DIMADEC
 70
     0
  9
$DIMALTRND
 40
0.0
  9
$DIMAZIN
 70
     0
  9
$DIMDSEP
 70
    46
  9
$DIMATFIT
 70
     3
  9
$DIMFRAC
 70
     0
  9
$DIMLDRBLK
  1

  9
$DIMLUNIT
 70
     2
  9
$DIMLWD
 70
    -2
  9
$DIMLWE
 70
    -2
  9
$DIMTMOVE
 70
     0
  9
$LUNITS
 70
     2
  9
$LUPREC
 70
     4
  9
$SKETCHINC
 40
0.1
  9
$FILLETRAD
 40
0.0
  9
$AUNITS
 70
     0
  9
$AUPREC
 70
     0
  9
$MENU
  1
.
  9
$ELEVATION
 40
0.0
  9
$PELEVATION
 40
0.0
  9
$THICKNESS
 40
0.0
  9
$LIMCHECK
 70
     0
  9
$CHAMFERA
 40
0.0
  9
$CHAMFERB
 40
0.0
  9
$CHAMFERC
 40
0.0
  9
$CHAMFERD
 40
0.0
  9
$SKPOLY
 70
     0
  9
$TDCREATE
 40
2452362.799734977
  9
$TDUCREATE
 40
2452362.758068310
  9
$TDUPDATE
 40
2452713.529969247
  9
$TDUUPDATE
 40
2452713.488302581
  9
$TDINDWG
 40
0.6249754051
  9
$TDUSRTIMER
 40
0.6249754051
  9
$USRTIMER
 70
     1
  9
$ANGBASE
 50
0.0
  9
$ANGDIR
 70
     0
  9
$PDMODE
 70
     0
  9
$PDSIZE
 40
0.0
  9
$PLINEWID
 40
0.0
  9
$SPLFRAME
 70
     0
  9
$SPLINETYPE
 70
     6
  9
$SPLINESEGS
 70
     8
  9
$HANDSEED
  5
9DD
  9
$SURFTAB1
 70
     6
  9
$SURFTAB2
 70
     6
  9
$SURFTYPE
 70
     6
  9
$SURFU
 70
     6
  9
$SURFV
 70
     6
  9
$UCSBASE
  2

  9
$UCSNAME
  2

  9
$UCSORG
 10
0.0
 20
0.0
 30
0.0
  9
$UCSXDIR
 10
1.0
 20
0.0
 30
0.0
  9
$UCSYDIR
 10
0.0
 20
1.0
 30
0.0
  9
$UCSORTHOREF
  2

  9
$UCSORTHOVIEW
 70
     0
  9
$UCSORGTOP
 10
0.0
 20
0.0
 30
0.0
  9
$UCSORGBOTTOM
 10
0.0
 20
0.0
 30
0.0
  9
$UCSORGLEFT
 10
0.0
 20
0.0
 30
0.0
  9
$UCSORGRIGHT
 10
0.0
 20
0.0
 30
0.0
  9
$UCSORGFRONT
 10
0.0
 20
0.0
 30
0.0
  9
$UCSORGBACK
 10
0.0
 20
0.0
 30
0.0
  9
$PUCSBASE
  2

  9
$PUCSNAME
  2

  9
$PUCSORG
 10
0.0
 20
0.0
 30
0.0
  9
$PUCSXDIR
 10
1.0
 20
0.0
 30
0.0
  9
$PUCSYDIR
 10
0.0
 20
1.0
 30
0.0
  9
$PUCSORTHOREF
  2

  9
$PUCSORTHOVIEW
 70
     0
  9
$PUCSORGTOP
 10
0.0
 20
0.0
 30
0.0
  9
$PUCSORGBOTTOM
 10
0.0
 20
0.0
 30
0.0
  9
$PUCSORGLEFT
 10
0.0
 20
0.0
 30
0.0
  9
$PUCSORGRIGHT
 10
0.0
 20
0.0
 30
0.0
  9
$PUCSORGFRONT
 10
0.0
 20
0.0
 30
0.0
  9
$PUCSORGBACK
 10
0.0
 20
0.0
 30
0.0
  9
$USERI1
 70
     0
  9
$USERI2
 70
     0
  9
$USERI3
 70
     0
  9
$USERI4
 70
     0
  9
$USERI5
 70
     0
  9
$USERR1
 40
0.0
  9
$USERR2
 40
0.0
  9
$USERR3
 40
0.0
  9
$USERR4
 40
0.0
  9
$USERR5
 40
0.0
  9
$WORLDVIEW
 70
     1
  9
$SHADEDGE
 70
     3
  9
$SHADEDIF
 70
    70
  9
$TILEMODE
 70
     1
  9
$MAXACTVP
 70
    64
  9
$PINSBASE
 10
0.0
 20
0.0
 30
0.0
  9
$PLIMCHECK
 70
     0
  9
$PEXTMIN
 10
1.000000000000000E+20
 20
1.000000000000000E+20
 30
1.000000000000000E+20
  9
$PEXTMAX
 10
-1.000000000000000E+20
 20
-1.000000000000000E+20
 30
-1.000000000000000E+20
  9
$PLIMMIN
 10
0.0
 20
0.0
  9
$PLIMMAX
 10
12.0
 20
9.0
  9
$UNITMODE
 70
     0
  9
$VISRETAIN
 70
     1
  9
$PLINEGEN
 70
     0
  9
$PSLTSCALE
 70
     1
  9
$TREEDEPTH
 70
  3020
  9
$CMLSTYLE
  2
Standard
  9
$CMLJUST
 70
     0
  9
$CMLSCALE
 40
1.0
  9
$PROXYGRAPHICS
 70
     1
  9
$MEASUREMENT
 70
     0
  9
$CELWEIGHT
370
    -1
  9
$ENDCAPS
280
     0
  9
$JOINSTYLE
280
     0
  9
$LWDISPLAY
290
     1
  9
$INSUNITS
 70
     0
  9
$HYPERLINKBASE
  1

  9
$STYLESHEET
  1

  9
$XEDIT
290
     1
  9
$CEPSNTYPE
380
     0
  9
$PSTYLEMODE
290
     0
  9
$FINGERPRINTGUID
  2
{8C2596C1-33CC-409B-9319-FA1A1B241147}
  9
$VERSIONGUID
  2
{07F33102-F75C-4C87-8300-088A095747E8}
  9
$EXTNAMES
290
     1
  9
$PSVPSCALE
 40
0.0
  9
$OLESTARTUP
290
     0
  0
ENDSEC
  0
SECTION
  2
CLASSES
  0
CLASS
  1
ACDBDICTIONARYWDFLT
  2
AcDbDictionaryWithDefault
  3
AutoCAD 2000
 90
        0
280
     0
281
     0
  0
CLASS
  1
ACDBPLACEHOLDER
  2
AcDbPlaceHolder
  3
AutoCAD 2000
 90
        0
280
     0
281
     0
  0
CLASS
  1
LAYOUT
  2
AcDbLayout
  3
AutoCAD 2000
 90
        0
280
     0
281
     0
  0
CLASS
  1
DICTIONARYVAR
  2
AcDbDictionaryVar
  3
AutoCAD 2000
 90
        0
280
     0
281
     0
  0
CLASS
  1
SORTENTSTABLE
  2
AcDbSortentsTable
  3
AutoCAD 2000
 90
        0
280
     0
281
     0
  0
ENDSEC
  0
SECTION
  2
TABLES
  0
TABLE
  2
VPORT
  5
8
330
0
100
AcDbSymbolTable
 70
     4
  0
VPORT
  5
9DC
330
8
100
AcDbSymbolTableRecord
100
AcDbViewportTableRecord
  2
*Active
 70
     0
 10
0.0
 20
0.0
 11
1.0
 21
1.0
 12
-94.00819887242494
 22
1.180114452043312
 13
0.0
 23
0.0
 14
1.0
 24
1.0
 15
0.0
 25
0.0
 16
0.0
 26
0.0
 36
1.0
 17
0.0
 27
0.0
 37
0.0
 40
38.10602076805571
 41
1.448317307692307
 42
50.0
 43
0.0
 44
0.0
 50
0.0
 51
0.0
 71
     0
 72
   100
 73
     1
 74
     2
 75
     0
 76
     0
 77
     0
 78
     0
281
     0
 65
     1
110
0.0
120
0.0
130
0.0
111
1.0
121
0.0
131
0.0
112
0.0
122
1.0
132
0.0
 79
     0
146
0.0
  0
ENDTAB
  0
TABLE
  2
LTYPE
  5
5
330
0
100
AcDbSymbolTable
 70
     2
  0
LTYPE
  5
13
330
5
100
AcDbSymbolTableRecord
100
AcDbLinetypeTableRecord
  2
ByBlock
 70
     0
  3

 72
    65
 73
     0
 40
0.0
  0
LTYPE
  5
14
330
5
100
AcDbSymbolTableRecord
100
AcDbLinetypeTableRecord
  2
ByLayer
 70
     0
  3

 72
    65
 73
     0
 40
0.0
  0
LTYPE
  5
15
330
5
100
AcDbSymbolTableRecord
100
AcDbLinetypeTableRecord
  2
Continuous
 70
     0
  3
Solid line
 72
    65
 73
     0
 40
0.0
  0
LTYPE
  5
85F
330
5
100
AcDbSymbolTableRecord
100
AcDbLinetypeTableRecord
  2
DASHED
 70
     0
  3
Dashed __ __ __ __ __ __ __ __ __ __ __ __ __ _
 72
    65
 73
     2
 40
0.75
 49
0.5
 74
     0
 49
-0.25
 74
     0
  0
ENDTAB
  0
TABLE
  2
LAYER
  5
2
330
0
100
AcDbSymbolTable
 70
     7
  0
LAYER
  5
10
330
2
100
AcDbSymbolTableRecord
100
AcDbLayerTableRecord
  2
0
 70
     0
 62
     7
  6
Continuous
370
    -3
390
F
  0
LAYER
  5
22
330
2
100
AcDbSymbolTableRecord
100
AcDbLayerTableRecord
  2
METAL1
 70
     0
 62
     7
  6
Continuous
370
    -3
390
F
  0
LAYER
  5
24
330
2
100
AcDbSymbolTableRecord
100
AcDbLayerTableRecord
  2
CONSTR
 70
     0
 62
  -122
  6
Continuous
370
    -3
390
F
  0
LAYER
  5
44
330
2
100
AcDbSymbolTableRecord
100
AcDbLayerTableRecord
  2
GND
 70
     0
 62
     9
  6
Continuous
370
    -3
390
F
  0
LAYER
  5
5D
330
2
100
AcDbSymbolTableRecord
100
AcDbLayerTableRecord
  2
DRILL
 70
     0
 62
     2
  6
Continuous
370
    -3
390
F
  0
LAYER
  5
17F
330
2
100
AcDbSymbolTableRecord
100
AcDbLayerTableRecord
  2
NODRAW
 70
     0
 62
     7
  6
Continuous
370
    -3
390
F
  0
LAYER
  5
34E
330
2
100
AcDbSymbolTableRecord
100
AcDbLayerTableRecord
  2
Defpoints
 70
     0
 62
     1
  6
Continuous
290
     0
370
    -3
390
F
  0
ENDTAB
  0
TABLE
  2
STYLE
  5
3
330
0
100
AcDbSymbolTable
 70
     2
  0
STYLE
  5
11
330
3
100
AcDbSymbolTableRecord
100
AcDbTextStyleTableRecord
  2
Standard
 70
     0
 40
0.5
 41
1.0
 50
0.0
 71
     0
 42
0.5
  3
txt.shx
  4

  0
STYLE
  5
85E
330
3
100
AcDbSymbolTableRecord
100
AcDbTextStyleTableRecord
  2

 70
     1
 40
0.0
 41
1.0
 50
0.0
 71
     0
 42
0.5
  3
ltypeshp.shx
  4

  0
ENDTAB
  0
TABLE
  2
VIEW
  5
6
330
0
100
AcDbSymbolTable
 70
     0
  0
ENDTAB
  0
TABLE
  2
UCS
  5
7
330
0
100
AcDbSymbolTable
 70
     0
  0
ENDTAB
  0
TABLE
  2
APPID
  5
9
330
0
100
AcDbSymbolTable
 70
     1
  0
APPID
  5
12
330
9
100
AcDbSymbolTableRecord
100
AcDbRegAppTableRecord
  2
ACAD
 70
     0
  0
ENDTAB
  0
TABLE
  2
DIMSTYLE
  5
A
330
0
100
AcDbSymbolTable
 70
     1
100
AcDbDimStyleTable
 71
     1
340
1F0
  0
DIMSTYLE
105
1F0
102
{ACAD_REACTORS
330
76D
330
845
330
975
102
}
330
A
100
AcDbSymbolTableRecord
100
AcDbDimStyleTableRecord
  2
Standard
 70
     0
 41
1.8
140
1.8
271
     1
272
     1
340
11
  0
ENDTAB
  0
TABLE
  2
BLOCK_RECORD
  5
1
330
0
100
AcDbSymbolTable
 70
     7
  0
BLOCK_RECORD
  5
1E
102
{ACAD_XDICTIONARY
360
23A
102
}
330
1
100
AcDbSymbolTableRecord
100
AcDbBlockTableRecord
  2
*Model_Space
340
21
  0
BLOCK_RECORD
  5
1A
330
1
100
AcDbSymbolTableRecord
100
AcDbBlockTableRecord
  2
*Paper_Space
340
1D
  0
BLOCK_RECORD
  5
1F6
330
1
100
AcDbSymbolTableRecord
100
AcDbBlockTableRecord
  2
A$C667F5126
340
0
  0
BLOCK_RECORD
  5
3E6
330
1
100
AcDbSymbolTableRecord
100
AcDbBlockTableRecord
  2
A$C35BA321B
340
0
  0
BLOCK_RECORD
  5
76E
330
1
100
AcDbSymbolTableRecord
100
AcDbBlockTableRecord
  2
*D2
340
0
  0
BLOCK_RECORD
  5
846
330
1
100
AcDbSymbolTableRecord
100
AcDbBlockTableRecord
  2
*D3
340
0
  0
BLOCK_RECORD
  5
8A2
330
1
100
AcDbSymbolTableRecord
100
AcDbBlockTableRecord
  2
A$C7F5B3850
340
0
102
{BLKREFS
331
8AE
331
8AF
331
8B0
331
8B1
331
8B2
331
8B7
331
8B8
331
8B9
331
8BA
102
}
  0
BLOCK_RECORD
  5
8A9
330
1
100
AcDbSymbolTableRecord
100
AcDbBlockTableRecord
  2
A$C06BE52D8
340
0
102
{BLKREFS
331
913
102
}
  0
BLOCK_RECORD
  5
976
330
1
100
AcDbSymbolTableRecord
100
AcDbBlockTableRecord
  2
*D6
340
0
  0
ENDTAB
  0
ENDSEC
  0
SECTION
  2
BLOCKS
  0
BLOCK
  5
1F
330
1E
100
AcDbEntity
  8
0
100
AcDbBlockBegin
  2
*Model_Space
 70
     0
 10
0.0
 20
0.0
 30
0.0
  3
*Model_Space
  1

  0
ENDBLK
  5
20
330
1E
100
AcDbEntity
  8
0
100
AcDbBlockEnd
  0
BLOCK
  5
1B
330
1A
100
AcDbEntity
 67
     1
  8
0
100
AcDbBlockBegin
  2
*Paper_Space
 70
     0
 10
0.0
 20
0.0
 30
0.0
  3
*Paper_Space
  1

  0
ENDBLK
  5
1C
330
1A
100
AcDbEntity
 67
     1
  8
0
100
AcDbBlockEnd
  0
BLOCK
  5
1FA
330
1F6
100
AcDbEntity
  8
0
100
AcDbBlockBegin
  2
A$C667F5126
 70
     0
 10
0.0
 20
0.0
 30
0.0
  3
A$C667F5126
  1

  0
LWPOLYLINE
  5
1F7
330
1F6
100
AcDbEntity
  8
METAL1
100
AcDbPolyline
 90
        4
 70
     1
 43
0.0
 10
-0.0000000000000142
 20
-0.0000000000000071
 10
29.99999999999998
 20
-0.0000000000000071
 10
29.99999999999998
 20
36.99999999999999
 10
-0.0000000000000142
 20
36.99999999999999
  0
LWPOLYLINE
  5
1F8
330
1F6
100
AcDbEntity
  8
METAL1
100
AcDbPolyline
 90
        4
 70
     1
 43
0.0
 10
0.029532603879531
 20
0.0226652060472574
 10
15.02953260387953
 20
0.0226652060472574
 10
15.02953260387953
 20
37.02266520604725
 10
0.029532603879531
 20
37.02266520604725
  0
LWPOLYLINE
  5
1F9
330
1F6
100
AcDbEntity
  8
METAL1
100
AcDbPolyline
 90
        4
 70
     1
 43
0.0
 10
0.0162045678873
 20
25.01745667079179
 10
15.0162045678873
 20
25.01745667079179
 10
15.0162045678873
 20
20.61745667079179
 10
0.0162045678873
 20
20.61745667079179
  0
ENDBLK
  5
1FB
330
1F6
100
AcDbEntity
  8
0
100
AcDbBlockEnd
  0
BLOCK
  5
3E8
330
3E6
100
AcDbEntity
  8
0
100
AcDbBlockBegin
  2
A$C35BA321B
 70
     0
 10
0.0
 20
0.0
 30
0.0
  3
A$C35BA321B
  1

  0
SOLID
  5
3E7
330
3E6
100
AcDbEntity
  8
METAL1
100
AcDbTrace
 10
3.000000022854344
 20
-0.0000000426724327
 30
0.0
 11
3.000000022854344
 21
2.999999957327567
 31
0.0
 12
0.000000022854346
 22
-0.0000000426724327
 32
0.0
 13
0.000000022854346
 23
2.999999957327567
 33
0.0
  0
ENDBLK
  5
3E9
330
3E6
100
AcDbEntity
  8
0
100
AcDbBlockEnd
  0
BLOCK
  5
779
330
76E
100
AcDbEntity
  8
0
100
AcDbBlockBegin
  2
*D2
 70
     1
 10
0.0
 20
0.0
 30
0.0
  3
*D2
  1

  0
LINE
  5
947
330
76E
100
AcDbEntity
  8
0
 62
     0
370
    -2
100
AcDbLine
 10
-118.0680377084672
 20
-16.50108014012613
 30
0.0
 11
-121.439468618011
 21
-16.50108014012613
 31
0.0
  0
LINE
  5
948
330
76E
100
AcDbEntity
  8
0
 62
     0
370
    -2
100
AcDbLine
 10
-118.0680377084672
 20
13.49891985987386
 30
0.0
 11
-121.439468618011
 21
13.49891985987386
 31
0.0
  0
LINE
  5
949
330
76E
100
AcDbEntity
  8
0
 62
     0
370
    -2
100
AcDbLine
 10
-121.259468618011
 20
-14.70108014012613
 30
0.0
 11
-121.259468618011
 21
-1.841080140126133
 31
0.0
  0
LINE
  5
94A
330
76E
100
AcDbEntity
  8
0
 62
     0
370
    -2
100
AcDbLine
 10
-121.259468618011
 20
11.69891985987386
 30
0.0
 11
-121.259468618011
 21
-1.161080140126133
 31
0.0
  0
SOLID
  5
94B
330
76E
100
AcDbEntity
  8
0
 62
     0
100
AcDbTrace
 10
-121.559468618011
 20
-14.70108014012613
 30
0.0
 11
-120.959468618011
 21
-14.70108014012613
 31
0.0
 12
-121.259468618011
 22
-16.50108014012613
 32
0.0
 13
-121.259468618011
 23
-16.50108014012613
 33
0.0
  0
SOLID
  5
94C
330
76E
100
AcDbEntity
  8
0
 62
     0
100
AcDbTrace
 10
-121.559468618011
 20
11.69891985987386
 30
0.0
 11
-120.959468618011
 21
11.69891985987386
 31
0.0
 12
-121.259468618011
 22
13.49891985987386
 32
0.0
 13
-121.259468618011
 23
13.49891985987386
 33
0.0
  0
MTEXT
  5
94D
330
76E
100
AcDbEntity
  8
0
 62
     0
100
AcDbMText
 10
-121.259468618011
 20
-1.501080140126153
 30
0.0
 40
0.5
 41
0.0
 71
     5
 72
     1
  1
\A1;30
 73
     1
 44
1.0
  0
POINT
  5
94E
330
76E
100
AcDbEntity
  8
Defpoints
 62
     0
100
AcDbPoint
 10
-118.0055377084672
 20
-16.50108014012613
 30
0.0
  0
POINT
  5
94F
330
76E
100
AcDbEntity
  8
Defpoints
 62
     0
100
AcDbPoint
 10
-118.0055377084672
 20
13.49891985987386
 30
0.0
  0
POINT
  5
950
330
76E
100
AcDbEntity
  8
Defpoints
 62
     0
100
AcDbPoint
 10
-121.259468618011
 20
13.49891985987386
 30
0.0
  0
ENDBLK
  5
77A
330
76E
100
AcDbEntity
  8
0
100
AcDbBlockEnd
  0
BLOCK
  5
851
330
846
100
AcDbEntity
  8
0
100
AcDbBlockBegin
  2
*D3
 70
     1
 10
0.0
 20
0.0
 30
0.0
  3
*D3
  1

  0
LINE
  5
951
330
846
100
AcDbEntity
  8
Defpoints
  6
DASHED
 62
     0
370
    -2
100
AcDbLine
 10
-116.7156669687269
 20
13.55293379843249
 30
0.0
 11
-116.7156669687269
 21
15.7584244207212
 31
0.0
  0
LINE
  5
952
330
846
100
AcDbEntity
  8
Defpoints
  6
DASHED
 62
     0
370
    -2
100
AcDbLine
 10
-66.71566696872696
 20
13.55293379843249
 30
0.0
 11
-66.71566696872696
 21
15.7584244207212
 31
0.0
  0
LINE
  5
953
330
846
100
AcDbEntity
  8
Defpoints
  6
DASHED
 62
     0
370
    -2
100
AcDbLine
 10
-114.9156669687269
 20
15.5784244207212
 30
0.0
 11
-92.47233363539363
 21
15.5784244207212
 31
0.0
  0
LINE
  5
954
330
846
100
AcDbEntity
  8
Defpoints
  6
DASHED
 62
     0
370
    -2
100
AcDbLine
 10
-68.51566696872696
 20
15.5784244207212
 30
0.0
 11
-90.95900030206029
 21
15.5784244207212
 31
0.0
  0
SOLID
  5
955
330
846
100
AcDbEntity
  8
Defpoints
  6
DASHED
 62
     0
100
AcDbTrace
 10
-114.9156669687269
 20
15.8784244207212
 30
0.0
 11
-114.9156669687269
 21
15.2784244207212
 31
0.0
 12
-116.7156669687269
 22
15.5784244207212
 32
0.0
 13
-116.7156669687269
 23
15.5784244207212
 33
0.0
  0
SOLID
  5
956
330
846
100
AcDbEntity
  8
Defpoints
  6
DASHED
 62
     0
100
AcDbTrace
 10
-68.51566696872696
 20
15.8784244207212
 30
0.0
 11
-68.51566696872696
 21
15.2784244207212
 31
0.0
 12
-66.71566696872696
 22
15.5784244207212
 32
0.0
 13
-66.71566696872696
 23
15.5784244207212
 33
0.0
  0
MTEXT
  5
957
330
846
100
AcDbEntity
  8
Defpoints
  6
DASHED
 62
     0
100
AcDbMText
 10
-91.71566696872696
 20
15.5784244207212
 30
0.0
 40
0.5
 41
0.0
 71
     5
 72
     1
  1
\A1;50.0
 73
     1
 44
1.0
  0
POINT
  5
958
330
846
100
AcDbEntity
  8
Defpoints
  6
DASHED
 62
     0
100
AcDbPoint
 10
-116.7156669687269
 20
13.49043379843249
 30
0.0
  0
POINT
  5
959
330
846
100
AcDbEntity
  8
Defpoints
  6
DASHED
 62
     0
100
AcDbPoint
 10
-66.71566696872696
 20
13.49043379843249
 30
0.0
  0
POINT
  5
95A
330
846
100
AcDbEntity
  8
Defpoints
  6
DASHED
 62
     0
100
AcDbPoint
 10
-66.71566696872696
 20
15.5784244207212
 30
0.0
  0
ENDBLK
  5
852
330
846
100
AcDbEntity
  8
0
100
AcDbBlockEnd
  0
BLOCK
  5
8A7
330
8A2
100
AcDbEntity
  8
0
100
AcDbBlockBegin
  2
A$C7F5B3850
 70
     0
 10
0.0
 20
0.0
 30
0.0
  3
A$C7F5B3850
  1

  0
ARC
  5
8A3
330
8A2
100
AcDbEntity
  8
CONSTR
  6
DASHED
100
AcDbCircle
 10
0.2989705366022122
 20
0.1443359241437809
 30
0.0
 40
0.1444277739574447
100
AcDbArc
 50
179.9551739112651
 51
4.134120587586902
  0
ARC
  5
8A4
330
8A2
100
AcDbEntity
  8
CONSTR
  6
DASHED
100
AcDbCircle
 10
0.1444277297558756
 20
4.851212641492161
 30
0.0
 40
0.1444277739574447
100
AcDbArc
 50
355.8658794124129
 51
180.0448260887349
  0
LWPOLYLINE
  5
8A5
330
8A2
100
AcDbEntity
  8
CONSTR
100
AcDbPolyline
 90
        2
 70
     0
 43
0.0
 10
0.0026085461590242
 20
4.832665928043525
 10
0.1545813162707645
 20
0.1628932215950272
  0
LWPOLYLINE
  5
8A6
330
8A2
100
AcDbEntity
  8
CONSTR
100
AcDbPolyline
 90
        2
 70
     0
 43
0.0
 10
0.2867314536172216
 20
4.83927086197923
 10
0.4453113941061702
 20
0.1562880295128366
  0
ENDBLK
  5
8A8
330
8A2
100
AcDbEntity
  8
0
100
AcDbBlockEnd
  0
BLOCK
  5
8BF
330
8A9
100
AcDbEntity
  8
0
100
AcDbBlockBegin
  2
A$C06BE52D8
 70
     0
 10
0.0
 20
0.0
 30
0.0
  3
A$C06BE52D8
  1

  0
ARC
  5
8AA
330
8A9
100
AcDbEntity
  8
CONSTR
  6
DASHED
100
AcDbCircle
 10
0.9571130510532839
 20
0.1597792747172724
 30
0.0
 40
0.1444277739574447
100
AcDbArc
 50
179.9551739112651
 51
4.134120587586902
  0
ARC
  5
8AB
330
8A9
100
AcDbEntity
  8
CONSTR
  6
DASHED
100
AcDbCircle
 10
0.8025702442069473
 20
4.866655992065653
 30
0.0
 40
0.1444277739574447
100
AcDbArc
 50
355.8658794124129
 51
180.0448260887349
  0
LWPOLYLINE
  5
8AC
330
8A9
100
AcDbEntity
  8
CONSTR
100
AcDbPolyline
 90
        2
 70
     0
 43
0.0
 10
0.660751060610096
 20
4.848109278617016
 10
0.8127238307218362
 20
0.1783365721685186
  0
LWPOLYLINE
  5
8AD
330
8A9
100
AcDbEntity
  8
CONSTR
100
AcDbPolyline
 90
        2
 70
     0
 43
0.0
 10
0.9448739680682933
 20
4.854714212552721
 10
1.103453908557241
 20
0.171731380086328
  0
INSERT
  5
8AE
330
8A9
100
AcDbEntity
  8
CONSTR
100
AcDbBlockReference
  2
A$C7F5B3850
 10
0.9514815123233688
 20
0.0198153181000862
 30
0.0
  0
INSERT
  5
8AF
330
8A9
100
AcDbEntity
  8
CONSTR
100
AcDbBlockReference
  2
A$C7F5B3850
 10
1.242211590158774
 20
0.0066051920821906
 30
0.0
  0
INSERT
  5
8B0
330
8A9
100
AcDbEntity
  8
CONSTR
100
AcDbBlockReference
  2
A$C7F5B3850
 10
1.532942041872104
 20
0.0066051920821906
 30
0.0
  0
INSERT
  5
8B1
330
8A9
100
AcDbEntity
  8
CONSTR
100
AcDbBlockReference
  2
A$C7F5B3850
 10
1.830280037840509
 20
0.0
 30
0.0
  0
INSERT
  5
8B2
330
8A9
100
AcDbEntity
  8
CONSTR
100
AcDbBlockReference
  2
A$C7F5B3850
 10
2.127618033808914
 20
0.0066051920821906
 30
0.0
  0
ARC
  5
8B3
330
8A9
100
AcDbEntity
  8
CONSTR
  6
DASHED
100
AcDbCircle
 10
2.717318648246532
 20
0.1597792747172724
 30
0.0
 40
0.1444277739574447
100
AcDbArc
 50
179.9551739112651
 51
4.134120587586947
  0
ARC
  5
8B4
330
8A9
100
AcDbEntity
  8
CONSTR
  6
DASHED
100
AcDbCircle
 10
2.562775841400195
 20
4.866655992065653
 30
0.0
 40
0.1444277739574447
100
AcDbArc
 50
355.8658794124128
 51
180.0448260887349
  0
LWPOLYLINE
  5
8B5
330
8A9
100
AcDbEntity
  8
CONSTR
100
AcDbPolyline
 90
        2
 70
     0
 43
0.0
 10
2.420956657803344
 20
4.848109278617016
 10
2.572929427915084
 20
0.1783365721685186
  0
LWPOLYLINE
  5
8B6
330
8A9
100
AcDbEntity
  8
CONSTR
100
AcDbPolyline
 90
        2
 70
     0
 43
0.0
 10
2.705079565261542
 20
4.854714212552721
 10
2.86365950575049
 20
0.171731380086328
  0
INSERT
  5
8B7
330
8A9
100
AcDbEntity
  8
CONSTR
100
AcDbBlockReference
  2
A$C7F5B3850
 10
2.711687109516617
 20
0.0198153181000862
 30
0.0
  0
INSERT
  5
8B8
330
8A9
100
AcDbEntity
  8
CONSTR
100
AcDbBlockReference
  2
A$C7F5B3850
 10
3.002417187352023
 20
0.0066051920821906
 30
0.0
  0
INSERT
  5
8B9
330
8A9
100
AcDbEntity
  8
CONSTR
100
AcDbBlockReference
  2
A$C7F5B3850
 10
3.293147639065352
 20
0.0066051920821906
 30
0.0
  0
INSERT
  5
8BA
330
8A9
100
AcDbEntity
  8
CONSTR
100
AcDbBlockReference
  2
A$C7F5B3850
 10
3.590485635033758
 20
0.0
 30
0.0
  0
LWPOLYLINE
  5
8BB
330
8A9
100
AcDbEntity
  8
CONSTR
100
AcDbPolyline
 90
        2
 70
     0
 43
0.0
 10
0.660751060610096
 20
4.854714212552721
 10
0.0
 20
1.994726189092716
  0
LWPOLYLINE
  5
8BC
330
8A9
100
AcDbEntity
  8
CONSTR
100
AcDbPolyline
 90
        3
 70
     0
 43
0.0
 10
0.6937884080077197
 20
3.771485427963227
 10
0.2709078189479896
 20
1.928675559003238
 10
0.0
 20
2.001331123028478
  0
LWPOLYLINE
  5
8BD
330
8A9
100
AcDbEntity
  8
CONSTR
100
AcDbPolyline
 90
        3
 70
     0
 43
0.0
 10
3.988835720719862
 20
1.289476404286631
 10
4.428817859135847
 20
3.205296014140515
 10
4.727110739279453
 20
3.108386820862278
  0
LWPOLYLINE
  5
8BE
330
8A9
100
AcDbEntity
  8
CONSTR
100
AcDbPolyline
 90
        2
 70
     0
 43
0.0
 10
4.033579559271913
 20
0.1712938219287139
 10
4.712196001802794
 20
3.123295808375985
  0
ENDBLK
  5
8C0
330
8A9
100
AcDbEntity
  8
0
100
AcDbBlockEnd
  0
BLOCK
  5
981
330
976
100
AcDbEntity
  8
0
100
AcDbBlockBegin
  2
*D6
 70
     1
 10
0.0
 20
0.0
 30
0.0
  3
*D6
  1

  0
LINE
  5
9CA
330
976
100
AcDbEntity
  8
0
 62
     0
370
    -2
100
AcDbLine
 10
-116.6948560362886
 20
16.54676882381323
 30
0.0
 11
-116.6948560362886
 21
20.14922550814667
 31
0.0
  0
LINE
  5
9CB
330
976
100
AcDbEntity
  8
0
 62
     0
370
    -2
100
AcDbLine
 10
17.75827022919509
 20
16.54676882381323
 30
0.0
 11
17.75827022919509
 21
20.14922550814667
 31
0.0
  0
LINE
  5
9CC
330
976
100
AcDbEntity
  8
0
 62
     0
370
    -2
100
AcDbLine
 10
-114.8948560362886
 20
19.96922550814668
 30
0.0
 11
-50.47495957021343
 21
19.96922550814668
 31
0.0
  0
LINE
  5
9CD
330
976
100
AcDbEntity
  8
0
 62
     0
370
    -2
100
AcDbLine
 10
15.95827022919509
 20
19.96922550814668
 30
0.0
 11
-48.4616262368801
 21
19.96922550814668
 31
0.0
  0
SOLID
  5
9CE
330
976
100
AcDbEntity
  8
0
 62
     0
100
AcDbTrace
 10
-114.8948560362886
 20
20.26922550814667
 30
0.0
 11
-114.8948560362886
 21
19.66922550814667
 31
0.0
 12
-116.6948560362886
 22
19.96922550814668
 32
0.0
 13
-116.6948560362886
 23
19.96922550814668
 33
0.0
  0
SOLID
  5
9CF
330
976
100
AcDbEntity
  8
0
 62
     0
100
AcDbTrace
 10
15.95827022919509
 20
20.26922550814667
 30
0.0
 11
15.95827022919509
 21
19.66922550814667
 31
0.0
 12
17.75827022919509
 22
19.96922550814668
 32
0.0
 13
17.75827022919509
 23
19.96922550814668
 33
0.0
  0
MTEXT
  5
9D0
330
976
100
AcDbEntity
  8
0
 62
     0
100
AcDbMText
 10
-49.46829290354677
 20
19.96922550814668
 30
0.0
 40
0.5
 41
0.0
 71
     5
 72
     1
  1
\A1;134.5
 73
     1
 44
1.0
  0
POINT
  5
9D1
330
976
100
AcDbEntity
  8
Defpoints
 62
     0
100
AcDbPoint
 10
-116.6948560362886
 20
16.48426882381323
 30
0.0
  0
POINT
  5
9D2
330
976
100
AcDbEntity
  8
Defpoints
 62
     0
100
AcDbPoint
 10
17.75827022919509
 20
16.48426882381323
 30
0.0
  0
POINT
  5
9D3
330
976
100
AcDbEntity
  8
Defpoints
 62
     0
100
AcDbPoint
 10
17.75827022919509
 20
19.96922550814668
 30
0.0
  0
ENDBLK
  5
982
330
976
100
AcDbEntity
  8
0
100
AcDbBlockEnd
  0
ENDSEC
  0
SECTION
  2
ENTITIES
  0
SOLID
  5
7D
330
1E
100
AcDbEntity
  8
METAL1
100
AcDbTrace
 10
-95.91690617339361
 20
-0.2768888219743104
 30
0.0
 11
-94.21690617339363
 21
-0.2768888219743104
 31
0.0
 12
-95.91690617339361
 22
-1.976888821974299
 32
0.0
 13
-94.21690617339363
 23
-1.976888821974299
 33
0.0
  0
SOLID
  5
91
330
1E
100
AcDbEntity
  8
METAL1
100
AcDbTrace
 10
-96.60744933912503
 20
8.17856128484432
 30
0.0
 11
-96.73244933912503
 21
8.17856128484432
 31
0.0
 12
-96.60744933912503
 22
9.878561284844323
 32
0.0
 13
-96.73244933912503
 23
9.878561284844323
 33
0.0
  0
SOLID
  5
92
330
1E
100
AcDbEntity
  8
METAL1
100
AcDbTrace
 10
-96.60744933912503
 20
9.878561284844323
 30
0.0
 11
-96.48244933912502
 21
9.878561284844323
 31
0.0
 12
-96.60744933912503
 22
8.17856128484432
 32
0.0
 13
-96.48244933912502
 23
8.17856128484432
 33
0.0
  0
SOLID
  5
93
330
1E
100
AcDbEntity
  8
METAL1
100
AcDbTrace
 10
-96.48244933912502
 20
9.037017090386086
 30
0.0
 11
-96.48244933912502
 21
9.887017090386095
 31
0.0
 12
-96.73244933912503
 22
9.037017090386086
 32
0.0
 13
-96.73244933912503
 23
9.887017090386095
 33
0.0
  0
SOLID
  5
94
330
1E
100
AcDbEntity
  8
METAL1
100
AcDbTrace
 10
-100.182449339125
 20
9.866761284844329
 30
0.0
 11
-99.06484933912503
 21
9.866761284844329
 31
0.0
 12
-100.182449339125
 22
8.190361284844328
 32
0.0
 13
-99.06484933912503
 23
8.190361284844328
 33
0.0
  0
SOLID
  5
95
330
1E
100
AcDbEntity
  8
METAL1
100
AcDbTrace
 10
-97.23244933912503
 20
9.866761284844329
 30
0.0
 11
-96.11484933912503
 21
9.866761284844329
 31
0.0
 12
-97.23244933912503
 22
8.190361284844328
 32
0.0
 13
-96.11484933912503
 23
8.190361284844328
 33
0.0
  0
SOLID
  5
96
330
1E
100
AcDbEntity
  8
CONSTR
100
AcDbTrace
 10
-99.73144233676924
 20
9.810933571995846
 30
0.0
 11
-99.73144233676924
 21
8.210933571995852
 31
0.0
 12
-99.78144233676923
 22
9.810933571995846
 32
0.0
 13
-99.78144233676923
 23
8.210933571995852
 33
0.0
  0
SOLID
  5
97
330
1E
100
AcDbEntity
  8
CONSTR
100
AcDbTrace
 10
-99.73244933912503
 20
9.853561284844332
 30
0.0
 11
-96.53244933912503
 21
9.853561284844332
 31
0.0
 12
-99.73244933912503
 22
9.80356128484432
 32
0.0
 13
-96.53244933912503
 23
9.80356128484432
 33
0.0
  0
SOLID
  5
98
330
1E
100
AcDbEntity
  8
CONSTR
100
AcDbTrace
 10
-99.73244933912503
 20
8.253561284844323
 30
0.0
 11
-96.53244933912503
 21
8.253561284844323
 31
0.0
 12
-99.73244933912503
 22
8.203561284844326
 32
0.0
 13
-96.53244933912503
 23
8.203561284844326
 33
0.0
  0
SOLID
  5
99
330
1E
100
AcDbEntity
  8
CONSTR
100
AcDbTrace
 10
-96.50744933912504
 20
9.828561284844326
 30
0.0
 11
-96.50744933912504
 21
8.228561284844332
 31
0.0
 12
-96.55744933912504
 22
9.828561284844326
 32
0.0
 13
-96.55744933912504
 23
8.228561284844332
 33
0.0
  0
SOLID
  5
A9
330
1E
100
AcDbEntity
  8
CONSTR
100
AcDbTrace
 10
-99.82221959201043
 20
7.15761953627728
 30
0.0
 11
-100.1722195920104
 21
7.15761953627728
 31
0.0
 12
-99.82221959201043
 22
7.207619536277277
 32
0.0
 13
-100.1722195920104
 23
7.207619536277277
 33
0.0
  0
SOLID
  5
AA
330
1E
100
AcDbEntity
  8
CONSTR
100
AcDbTrace
 10
-100.1722195920104
 20
7.147619536277275
 30
0.0
 11
-101.8222195920104
 21
7.147619536277275
 31
0.0
 12
-100.1722195920104
 22
7.197619536277272
 32
0.0
 13
-101.8222195920104
 23
7.197619536277272
 33
0.0
  0
SOLID
  5
AB
330
1E
100
AcDbEntity
  8
CONSTR
100
AcDbTrace
 10
-101.8472195920104
 20
7.172619536277281
 30
0.0
 11
-101.8472195920104
 21
8.422619536277281
 31
0.0
 12
-101.7972195920104
 22
7.172619536277281
 32
0.0
 13
-101.7972195920104
 23
8.422619536277281
 33
0.0
  0
SOLID
  5
AC
330
1E
100
AcDbEntity
  8
CONSTR
100
AcDbTrace
 10
-99.79721959201043
 20
8.422619536277281
 30
0.0
 11
-99.79721959201043
 21
7.172619536277281
 31
0.0
 12
-99.84721959201044
 22
8.422619536277281
 32
0.0
 13
-99.84721959201044
 23
7.172619536277281
 33
0.0
  0
SOLID
  5
AD
330
1E
100
AcDbEntity
  8
CONSTR
100
AcDbTrace
 10
-101.8222195920104
 20
8.447619536277272
 30
0.0
 11
-99.82221959201043
 21
8.447619536277272
 31
0.0
 12
-101.8222195920104
 22
8.397619536277275
 32
0.0
 13
-99.82221959201043
 23
8.397619536277275
 33
0.0
  0
SOLID
  5
AE
330
1E
100
AcDbEntity
  8
CONSTR
100
AcDbTrace
 10
-100.0222195920104
 20
7.172619536277281
 30
0.0
 11
-100.0222195920104
 21
6.742619536277274
 31
0.0
 12
-100.3222195920104
 22
7.172619536277281
 32
0.0
 13
-100.3222195920104
 23
6.742619536277274
 33
0.0
  0
SOLID
  5
AF
330
1E
100
AcDbEntity
  8
CONSTR
100
AcDbTrace
 10
-101.3222195920104
 20
7.172619536277281
 30
0.0
 11
-101.3222195920104
 21
6.742619536277274
 31
0.0
 12
-101.6222195920104
 22
7.172619536277281
 32
0.0
 13
-101.6222195920104
 23
6.742619536277274
 33
0.0
  0
SOLID
  5
B0
330
1E
100
AcDbEntity
  8
CONSTR
100
AcDbTrace
 10
-100.3222195920104
 20
8.422619536277281
 30
0.0
 11
-100.3222195920104
 21
8.852619536277273
 31
0.0
 12
-100.0222195920104
 22
8.422619536277281
 32
0.0
 13
-100.0222195920104
 23
8.852619536277273
 33
0.0
  0
SOLID
  5
B1
330
1E
100
AcDbEntity
  8
CONSTR
100
AcDbTrace
 10
-101.6222195920104
 20
8.422619536277281
 30
0.0
 11
-101.6222195920104
 21
8.852619536277273
 31
0.0
 12
-101.0222195920104
 22
8.422619536277281
 32
0.0
 13
-101.0222195920104
 23
8.852619536277273
 33
0.0
  0
SOLID
  5
B2
330
1E
100
AcDbEntity
  8
METAL1
100
AcDbTrace
 10
-101.7722195920104
 20
8.192619536277277
 30
0.0
 11
-101.7722195920104
 21
8.992619536277288
 31
0.0
 12
-100.8722195920104
 22
8.192619536277277
 32
0.0
 13
-100.8722195920104
 23
8.992619536277288
 33
0.0
  0
SOLID
  5
B3
330
1E
100
AcDbEntity
  8
METAL1
100
AcDbTrace
 10
-100.4722195920104
 20
8.192619536277277
 30
0.0
 11
-100.4722195920104
 21
8.992619536277288
 31
0.0
 12
-99.87221959201043
 22
8.192619536277277
 32
0.0
 13
-99.87221959201043
 23
8.992619536277288
 33
0.0
  0
SOLID
  5
B4
330
1E
100
AcDbEntity
  8
METAL1
100
AcDbTrace
 10
-99.87221959201043
 20
7.39261953627728
 30
0.0
 11
-99.87221959201043
 21
6.592619536277283
 31
0.0
 12
-100.4722195920104
 22
7.39261953627728
 32
0.0
 13
-100.4722195920104
 23
6.592619536277283
 33
0.0
  0
SOLID
  5
B5
330
1E
100
AcDbEntity
  8
METAL1
100
AcDbTrace
 10
-101.1722195920104
 20
7.39261953627728
 30
0.0
 11
-101.1722195920104
 21
6.592619536277283
 31
0.0
 12
-101.7722195920104
 22
7.39261953627728
 32
0.0
 13
-101.7722195920104
 23
6.592619536277283
 33
0.0
  0
SOLID
  5
DE
330
1E
100
AcDbEntity
  8
METAL1
100
AcDbTrace
 10
-100.0472195920104
 20
7.172619536277281
 30
0.0
 11
-100.0472195920104
 21
6.922619536277281
 31
0.0
 12
-100.0472195920104
 22
7.172619536277281
 32
0.0
 13
-100.2972195920104
 23
7.172619536277281
 33
0.0
  0
SOLID
  5
DF
330
1E
100
AcDbEntity
  8
METAL1
100
AcDbTrace
 10
-100.0472195920104
 20
7.172619536277281
 30
0.0
 11
-100.0472195920104
 21
6.922619536277281
 31
0.0
 12
-100.0472195920104
 22
7.172619536277281
 32
0.0
 13
-100.2972195920104
 23
7.172619536277281
 33
0.0
  0
SOLID
  5
157
330
1E
100
AcDbEntity
  8
METAL1
100
AcDbTrace
 10
-97.13244933912504
 20
9.866761284844329
 30
0.0
 11
-96.01484933912503
 21
9.866761284844329
 31
0.0
 12
-97.13244933912504
 22
8.190361284844328
 32
0.0
 13
-96.01484933912503
 23
8.190361284844328
 33
0.0
  0
SOLID
  5
158
330
1E
100
AcDbEntity
  8
METAL1
100
AcDbTrace
 10
-94.18244933912504
 20
9.866761284844329
 30
0.0
 11
-93.06484933912503
 21
9.866761284844329
 31
0.0
 12
-94.18244933912504
 22
8.190361284844328
 32
0.0
 13
-93.06484933912503
 23
8.190361284844328
 33
0.0
  0
SOLID
  5
159
330
1E
100
AcDbEntity
  8
CONSTR
100
AcDbTrace
 10
-96.65744933912504
 20
9.828561284844326
 30
0.0
 11
-96.65744933912504
 21
8.228561284844332
 31
0.0
 12
-96.70744933912503
 22
9.828561284844326
 32
0.0
 13
-96.70744933912503
 23
8.228561284844332
 33
0.0
  0
SOLID
  5
15A
330
1E
100
AcDbEntity
  8
CONSTR
100
AcDbTrace
 10
-96.68244933912504
 20
9.853561284844332
 30
0.0
 11
-93.48244933912502
 21
9.853561284844332
 31
0.0
 12
-96.68244933912504
 22
9.80356128484432
 32
0.0
 13
-93.48244933912502
 23
9.80356128484432
 33
0.0
  0
SOLID
  5
15B
330
1E
100
AcDbEntity
  8
CONSTR
100
AcDbTrace
 10
-96.68244933912504
 20
8.253561284844323
 30
0.0
 11
-93.48244933912502
 21
8.253561284844323
 31
0.0
 12
-96.68244933912504
 22
8.203561284844326
 32
0.0
 13
-93.48244933912502
 23
8.203561284844326
 33
0.0
  0
SOLID
  5
15C
330
1E
100
AcDbEntity
  8
CONSTR
100
AcDbTrace
 10
-93.45744933912504
 20
9.828561284844326
 30
0.0
 11
-93.45744933912504
 21
8.228561284844332
 31
0.0
 12
-93.50744933912503
 22
9.828561284844326
 32
0.0
 13
-93.50744933912503
 23
8.228561284844332
 33
0.0
  0
SOLID
  5
15F
330
1E
100
AcDbEntity
  8
METAL1
100
AcDbTrace
 10
-94.86690617339363
 20
-0.2886888219743042
 30
0.0
 11
-93.74930617339362
 21
-0.2886888219743042
 31
0.0
 12
-94.86690617339363
 22
-1.965088821974305
 32
0.0
 13
-93.74930617339362
 23
-1.965088821974305
 33
0.0
  0
SOLID
  5
160
330
1E
100
AcDbEntity
  8
METAL1
100
AcDbTrace
 10
-91.91690617339363
 20
-0.2886888219743042
 30
0.0
 11
-90.79930617339362
 21
-0.2886888219743042
 31
0.0
 12
-91.91690617339363
 22
-1.965088821974305
 32
0.0
 13
-90.79930617339362
 23
-1.965088821974307
 33
0.0
  0
SOLID
  5
161
330
1E
100
AcDbEntity
  8
CONSTR
100
AcDbTrace
 10
-94.39190617339361
 20
-0.3268888219743076
 30
0.0
 11
-94.39190617339361
 21
-1.926888821974301
 31
0.0
 12
-94.44190617339362
 22
-0.3268888219743076
 32
0.0
 13
-94.44190617339362
 23
-1.926888821974301
 33
0.0
  0
SOLID
  5
162
330
1E
100
AcDbEntity
  8
CONSTR
100
AcDbTrace
 10
-94.41690617339361
 20
-0.3018888219743019
 30
0.0
 11
-91.21690617339362
 21
-0.3018888219743019
 31
0.0
 12
-94.41690617339361
 22
-0.351888821974299
 32
0.0
 13
-91.21690617339362
 23
-0.351888821974299
 33
0.0
  0
SOLID
  5
163
330
1E
100
AcDbEntity
  8
CONSTR
100
AcDbTrace
 10
-94.41690617339361
 20
-1.90188882197431
 30
0.0
 11
-91.21690617339362
 21
-1.901888821974312
 31
0.0
 12
-94.41690617339361
 22
-1.951888821974307
 32
0.0
 13
-91.21690617339362
 23
-1.951888821974309
 33
0.0
  0
SOLID
  5
164
330
1E
100
AcDbEntity
  8
CONSTR
100
AcDbTrace
 10
-91.19190617339361
 20
-0.3268888219743076
 30
0.0
 11
-91.19190617339361
 21
-1.926888821974303
 31
0.0
 12
-91.24190617339364
 22
-0.3268888219743076
 32
0.0
 13
-91.24190617339364
 23
-1.926888821974303
 33
0.0
  0
SOLID
  5
165
330
1E
100
AcDbEntity
  8
METAL1
100
AcDbTrace
 10
-91.41690617339362
 20
-0.5268888219743105
 30
0.0
 11
-90.21690617339363
 21
-0.5268888219743105
 31
0.0
 12
-91.41690617339362
 22
-1.7268888219743
 32
0.0
 13
-90.21690617339363
 23
-1.726888821974302
 33
0.0
  0
LWPOLYLINE
  5
166
330
1E
100
AcDbEntity
  8
METAL1
100
AcDbPolyline
 90
        2
 70
     0
 43
0.2
 10
-90.81690617339361
 20
-1.526888821974292
 42
1.0
 10
-90.81690617339361
 20
-0.7268888219742813
  0
LWPOLYLINE
  5
16A
330
1E
100
AcDbEntity
  8
GND
100
AcDbPolyline
 90
        2
 70
     0
 43
0.2
 10
-90.81690617339361
 20
-1.526888821974292
 42
1.0
 10
-90.81690617339361
 20
-0.7268888219742813
  0
LWPOLYLINE
  5
16E
330
1E
100
AcDbEntity
  8
METAL1
100
AcDbPolyline
 90
        2
 70
     0
 43
0.2
 10
-90.81690617339361
 20
-0.7268888219742813
 42
1.0
 10
-90.81690617339361
 20
-1.526888821974292
  0
LWPOLYLINE
  5
172
330
1E
100
AcDbEntity
  8
GND
100
AcDbPolyline
 90
        2
 70
     0
 43
0.2
 10
-90.81690617339361
 20
-0.7268888219742813
 42
1.0
 10
-90.81690617339361
 20
-1.526888821974292
  0
SOLID
  5
182
330
1E
100
AcDbEntity
  8
METAL1
100
AcDbTrace
 10
-82.65961344843393
 20
-3.869535149416753
 30
0.0
 11
-82.65961344843393
 21
-6.869535149416751
 31
0.0
 12
-85.65961344843392
 22
-3.869535149416766
 32
0.0
 13
-85.65961344843392
 23
-6.869535149416766
 33
0.0
  0
SOLID
  5
183
330
1E
100
AcDbEntity
  8
METAL1
100
AcDbTrace
 10
-85.6921423711506
 20
-11.72712016292906
 30
0.0
 11
-85.6921423711506
 21
-8.72712016292907
 31
0.0
 12
-82.69214237115059
 22
-11.72712016292906
 32
0.0
 13
-82.69214237115059
 23
-8.72712016292907
 33
0.0
  0
LWPOLYLINE
  5
188
330
1E
100
AcDbEntity
  8
GND
100
AcDbPolyline
 90
        2
 70
     0
 43
0.2
 10
-84.14797716527127
 20
-10.75280961115951
 42
1.0
 10
-84.14797716527127
 20
-9.552809611159513
  0
LWPOLYLINE
  5
190
330
1E
100
AcDbEntity
  8
GND
100
AcDbPolyline
 90
        2
 70
     0
 43
0.2
 10
-84.14797716527127
 20
-9.552809611159513
 42
1.0
 10
-84.14797716527127
 20
-10.75280961115951
  0
LWPOLYLINE
  5
268
330
1E
100
AcDbEntity
  8
METAL1
100
AcDbPolyline
 90
        2
 70
     0
 43
0.2
 10
-101.0691354122016
 20
9.327773579120208
 42
1.0
 10
-101.8691354122015
 20
9.327773579120208
  0
LWPOLYLINE
  5
269
330
1E
100
AcDbEntity
  8
GND
100
AcDbPolyline
 90
        2
 70
     0
 43
0.2
 10
-101.0691354122016
 20
9.327773579120208
 42
1.0
 10
-101.8691354122015
 20
9.327773579120208
  0
LWPOLYLINE
  5
26A
330
1E
100
AcDbEntity
  8
METAL1
100
AcDbPolyline
 90
        2
 70
     0
 43
0.2
 10
-101.8691354122015
 20
9.327773579120208
 42
1.0
 10
-101.0691354122016
 20
9.327773579120208
  0
LWPOLYLINE
  5
26B
330
1E
100
AcDbEntity
  8
GND
100
AcDbPolyline
 90
        2
 70
     0
 43
0.2
 10
-101.8691354122015
 20
9.327773579120208
 42
1.0
 10
-101.0691354122016
 20
9.327773579120208
  0
LWPOLYLINE
  5
26C
330
1E
100
AcDbEntity
  8
METAL1
100
AcDbPolyline
 90
        2
 70
     0
 43
0.2
 10
-101.0691354122016
 20
9.327773579120208
 42
1.0
 10
-101.8691354122015
 20
9.327773579120208
  0
LWPOLYLINE
  5
26E
330
1E
100
AcDbEntity
  8
METAL1
100
AcDbPolyline
 90
        2
 70
     0
 43
0.2
 10
-101.8691354122015
 20
9.327773579120208
 42
1.0
 10
-101.0691354122016
 20
9.327773579120208
  0
SOLID
  5
296
330
1E
100
AcDbEntity
  8
METAL1
100
AcDbTrace
 10
-90.45371623095546
 20
-11.68969333721189
 30
0.0
 11
-90.45371623095546
 21
-8.689693337211894
 31
0.0
 12
-87.45371623095545
 22
-11.68969333721189
 32
0.0
 13
-87.45371623095545
 23
-8.689693337211894
 33
0.0
  0
SOLID
  5
376
330
1E
100
AcDbEntity
  8
METAL1
100
AcDbTrace
 10
-99.77786187449382
 20
-8.751505069140149
 30
0.0
 11
-99.77786187449382
 21
-11.75150506914014
 31
0.0
 12
-102.7778618744938
 22
-8.751505069140147
 32
0.0
 13
-102.7778618744938
 23
-11.75150506914014
 33
0.0
  0
SOLID
  5
377
330
1E
100
AcDbEntity
  8
METAL1
100
AcDbTrace
 10
-106.901124377615
 20
-11.74968016321993
 30
0.0
 11
-106.901124377615
 21
-8.749680163219931
 31
0.0
 12
-103.901124377615
 22
-11.74968016321993
 32
0.0
 13
-103.901124377615
 23
-8.749680163219935
 33
0.0
  0
SOLID
  5
378
330
1E
100
AcDbEntity
  8
METAL1
100
AcDbTrace
 10
-110.7968743803596
 20
-11.73720097472191
 30
0.0
 11
-110.7968743803596
 21
-8.737200974721911
 31
0.0
 12
-107.7968743803596
 22
-11.73720097472191
 32
0.0
 13
-107.7968743803596
 23
-8.737200974721911
 33
0.0
  0
SOLID
  5
3C8
330
1E
100
AcDbEntity
  8
METAL1
100
AcDbTrace
 10
-100.8661085342344
 20
9.920388554086827
 30
0.0
 11
-100.8661085342344
 21
8.420388554086827
 31
0.0
 12
-102.3661085342344
 22
9.920388554086827
 32
0.0
 13
-102.3661085342344
 23
8.420388554086827
 33
0.0
  0
SOLID
  5
3CE
330
1E
100
AcDbEntity
  8
METAL1
100
AcDbTrace
 10
-99.09639133122304
 20
7.147400084496126
 30
0.0
 11
-99.09639133122304
 21
5.647400084496126
 31
0.0
 12
-100.596391331223
 22
7.147400084496126
 32
0.0
 13
-100.596391331223
 23
5.647400084496126
 33
0.0
  0
SOLID
  5
3D4
330
1E
100
AcDbEntity
  8
METAL1
100
AcDbTrace
 10
-100.9405353875556
 20
7.147400084496126
 30
0.0
 11
-100.9405353875556
 21
5.647400084496126
 31
0.0
 12
-102.4405353875556
 22
7.147400084496126
 32
0.0
 13
-102.4405353875556
 23
5.647400084496126
 33
0.0
  0
MTEXT
  5
3F8
330
1E
100
AcDbEntity
  8
METAL1
370
    30
100
AcDbMText
 10
-79.09152459392356
 20
-0.7973889375496528
 30
0.0
 40
1.0
 41
23.4790630938798
 71
     5
 72
     5
  1
ATF54143 HEMT 70cm LNA \PYU1AW
 11
0.0000000000000001
 21
1.0
 31
0.0
 73
     1
 44
1.0
  0
LWPOLYLINE
  5
403
330
1E
100
AcDbEntity
  8
GND
100
AcDbPolyline
 90
        2
 70
     0
 43
0.2
 10
-109.411967023221
 20
-10.81351948475905
 42
1.0
 10
-109.411967023221
 20
-9.613519484759049
  0
LWPOLYLINE
  5
404
330
1E
100
AcDbEntity
  8
GND
100
AcDbPolyline
 90
        2
 70
     0
 43
0.2
 10
-109.411967023221
 20
-9.613519484759049
 42
1.0
 10
-109.411967023221
 20
-10.81351948475905
  0
SOLID
  5
4BD
330
1E
100
AcDbEntity
  8
METAL1
100
AcDbTrace
 10
-95.58472994865606
 20
-0.2891542436294401
 30
0.0
 11
-96.70232994865607
 21
-0.2891542436294401
 31
0.0
 12
-95.58472994865606
 22
-1.965554243629441
 32
0.0
 13
-96.70232994865607
 23
-1.965554243629441
 33
0.0
  0
SOLID
  5
4BE
330
1E
100
AcDbEntity
  8
METAL1
100
AcDbTrace
 10
-98.53472994865606
 20
-0.2891542436294365
 30
0.0
 11
-99.65232994865607
 21
-0.2891542436294365
 31
0.0
 12
-98.53472994865606
 22
-1.965554243629437
 32
0.0
 13
-99.65232994865607
 23
-1.965554243629437
 33
0.0
  0
SOLID
  5
4BF
330
1E
100
AcDbEntity
  8
CONSTR
100
AcDbTrace
 10
-96.03472994865606
 20
-0.3023542436294377
 30
0.0
 11
-99.23472994865605
 21
-0.3023542436294342
 31
0.0
 12
-96.03472994865606
 22
-0.3523542436294349
 32
0.0
 13
-99.23472994865605
 23
-0.3523542436294313
 33
0.0
  0
SOLID
  5
4C0
330
1E
100
AcDbEntity
  8
CONSTR
100
AcDbTrace
 10
-96.03472994865606
 20
-1.902354243629446
 30
0.0
 11
-99.23472994865605
 21
-1.902354243629442
 31
0.0
 12
-96.03472994865606
 22
-1.952354243629443
 32
0.0
 13
-99.23472994865605
 23
-1.952354243629439
 33
0.0
  0
SOLID
  5
4C1
330
1E
100
AcDbEntity
  8
CONSTR
100
AcDbTrace
 10
-99.25972994865606
 20
-0.3273542436294399
 30
0.0
 11
-99.25972994865606
 21
-1.927354243629434
 31
0.0
 12
-99.20972994865607
 22
-0.3273542436294399
 32
0.0
 13
-99.20972994865607
 23
-1.927354243629434
 33
0.0
  0
SOLID
  5
4C8
330
1E
100
AcDbEntity
  8
CONSTR
100
AcDbTrace
 10
-96.00109675508347
 20
-0.3655528075819774
 30
0.0
 11
-96.00109675508347
 21
-1.965552807581971
 31
0.0
 12
-95.95109675508345
 22
-0.3655528075819774
 32
0.0
 13
-95.95109675508345
 23
-1.965552807581971
 33
0.0
  0
SOLID
  5
4D9
330
1E
100
AcDbEntity
  8
METAL1
100
AcDbTrace
 10
-95.3129900905361
 20
-5.396428697884132
 30
0.0
 11
-94.19539009053607
 21
-5.396428697884132
 31
0.0
 12
-95.3129900905361
 22
-7.072828697884133
 32
0.0
 13
-94.19539009053607
 23
-7.072828697884133
 33
0.0
  0
SOLID
  5
4DA
330
1E
100
AcDbEntity
  8
METAL1
100
AcDbTrace
 10
-92.36299009053608
 20
-5.396428697884132
 30
0.0
 11
-91.24539009053609
 21
-5.396428697884132
 31
0.0
 12
-92.36299009053608
 22
-7.072828697884133
 32
0.0
 13
-91.24539009053609
 23
-7.072828697884137
 33
0.0
  0
SOLID
  5
4DB
330
1E
100
AcDbEntity
  8
CONSTR
100
AcDbTrace
 10
-94.83799009053608
 20
-5.434628697884136
 30
0.0
 11
-94.83799009053608
 21
-7.03462869788413
 31
0.0
 12
-94.88799009053607
 22
-5.434628697884136
 32
0.0
 13
-94.88799009053607
 23
-7.03462869788413
 33
0.0
  0
SOLID
  5
4DC
330
1E
100
AcDbEntity
  8
CONSTR
100
AcDbTrace
 10
-94.86299009053608
 20
-5.40962869788413
 30
0.0
 11
-91.66299009053608
 21
-5.40962869788413
 31
0.0
 12
-94.86299009053608
 22
-5.459628697884127
 32
0.0
 13
-91.66299009053608
 23
-5.459628697884127
 33
0.0
  0
SOLID
  5
4DD
330
1E
100
AcDbEntity
  8
CONSTR
100
AcDbTrace
 10
-94.86299009053608
 20
-7.009628697884139
 30
0.0
 11
-91.66299009053608
 21
-7.009628697884142
 31
0.0
 12
-94.86299009053608
 22
-7.059628697884136
 32
0.0
 13
-91.66299009053608
 23
-7.059628697884139
 33
0.0
  0
SOLID
  5
4DE
330
1E
100
AcDbEntity
  8
CONSTR
100
AcDbTrace
 10
-91.63799009053608
 20
-5.434628697884136
 30
0.0
 11
-91.63799009053608
 21
-7.034628697884134
 31
0.0
 12
-91.68799009053609
 22
-5.434628697884136
 32
0.0
 13
-91.68799009053609
 23
-7.034628697884134
 33
0.0
  0
SOLID
  5
4DF
330
1E
100
AcDbEntity
  8
METAL1
100
AcDbTrace
 10
-91.86299009053609
 20
-5.634628697884139
 30
0.0
 11
-90.66299009053608
 21
-5.634628697884139
 31
0.0
 12
-91.86299009053609
 22
-6.834628697884131
 32
0.0
 13
-90.66299009053608
 23
-6.834628697884131
 33
0.0
  0
LWPOLYLINE
  5
4E0
330
1E
100
AcDbEntity
  8
METAL1
100
AcDbPolyline
 90
        2
 70
     0
 43
0.2
 10
-91.26299009053608
 20
-6.634628697884121
 42
1.0
 10
-91.26299009053608
 20
-5.834628697884109
  0
LWPOLYLINE
  5
4E1
330
1E
100
AcDbEntity
  8
GND
100
AcDbPolyline
 90
        2
 70
     0
 43
0.2
 10
-91.26299009053608
 20
-6.634628697884121
 42
1.0
 10
-91.26299009053608
 20
-5.834628697884109
  0
LWPOLYLINE
  5
4E2
330
1E
100
AcDbEntity
  8
METAL1
100
AcDbPolyline
 90
        2
 70
     0
 43
0.2
 10
-91.26299009053608
 20
-5.834628697884109
 42
1.0
 10
-91.26299009053608
 20
-6.634628697884121
  0
LWPOLYLINE
  5
4E3
330
1E
100
AcDbEntity
  8
GND
100
AcDbPolyline
 90
        2
 70
     0
 43
0.2
 10
-91.26299009053608
 20
-5.834628697884109
 42
1.0
 10
-91.26299009053608
 20
-6.634628697884121
  0
SOLID
  5
4F8
330
1E
100
AcDbEntity
  8
METAL1
100
AcDbTrace
 10
-95.91442777973645
 20
-5.734775089894831
 30
0.0
 11
-95.91442777973645
 21
-4.617175089894821
 31
0.0
 12
-94.23802777973646
 22
-5.734775089894831
 32
0.0
 13
-94.23802777973646
 23
-4.617175089894821
 33
0.0
  0
SOLID
  5
4F9
330
1E
100
AcDbEntity
  8
METAL1
100
AcDbTrace
 10
-95.91442777973645
 20
-2.784775089894829
 30
0.0
 11
-95.91442777973645
 21
-1.667175089894833
 31
0.0
 12
-94.23802777973646
 22
-2.784775089894814
 32
0.0
 13
-94.23802777973646
 23
-1.667175089894833
 33
0.0
  0
SOLID
  5
4FA
330
1E
100
AcDbEntity
  8
CONSTR
100
AcDbTrace
 10
-95.87622777973646
 20
-5.259775089894823
 30
0.0
 11
-94.27622777973645
 21
-5.259775089894823
 31
0.0
 12
-95.87622777973646
 22
-5.30977508989482
 32
0.0
 13
-94.27622777973645
 23
-5.30977508989482
 33
0.0
  0
SOLID
  5
4FB
330
1E
100
AcDbEntity
  8
CONSTR
100
AcDbTrace
 10
-95.90122777973645
 20
-5.284775089894814
 30
0.0
 11
-95.90122777973645
 21
-2.084775089894826
 31
0.0
 12
-95.85122777973646
 22
-5.284775089894814
 32
0.0
 13
-95.85122777973646
 23
-2.084775089894826
 33
0.0
  0
SOLID
  5
4FC
330
1E
100
AcDbEntity
  8
CONSTR
100
AcDbTrace
 10
-94.30122777973647
 20
-5.284775089894814
 30
0.0
 11
-94.30122777973647
 21
-2.084775089894826
 31
0.0
 12
-94.25122777973646
 22
-5.284775089894814
 32
0.0
 13
-94.25122777973646
 23
-2.084775089894826
 33
0.0
  0
SOLID
  5
4FD
330
1E
100
AcDbEntity
  8
CONSTR
100
AcDbTrace
 10
-95.87622777973646
 20
-2.05977508989482
 30
0.0
 11
-94.27622777973645
 21
-2.05977508989482
 31
0.0
 12
-95.87622777973646
 22
-2.109775089894831
 32
0.0
 13
-94.27622777973645
 23
-2.109775089894831
 33
0.0
  0
HATCH
  5
592
330
1E
100
AcDbEntity
  8
METAL1
100
AcDbHatch
 10
0.0
 20
0.0
 30
0.0
210
0.0
220
0.0
230
1.0
  2
SOLID
 70
     1
 71
     0
 91
        1
 92
        7
 72
     0
 73
     1
 93
        4
 10
-93.43216898634153
 20
10.40142030975842
 10
-93.43216898634153
 20
7.701420309758422
 10
-90.73216898634154
 20
7.701420309758422
 10
-90.73216898634154
 20
10.40142030975842
 97
        0
 75
     0
 76
     1
 47
0.0464238932963427
 98
        1
 10
-91.99302829165702
 20
8.955331475726385
  0
SOLID
  5
613
330
1E
100
AcDbEntity
  8
METAL1
100
AcDbTrace
 10
-106.898938934252
 20
-8.794148770771595
 30
0.0
 11
-106.898938934252
 21
-5.794148770771595
 31
0.0
 12
-103.898938934252
 22
-8.794148770771595
 32
0.0
 13
-103.898938934252
 23
-5.794148770771599
 33
0.0
  0
LWPOLYLINE
  5
6B6
330
1E
100
AcDbEntity
  8
GND
100
AcDbPolyline
 90
        2
 70
     0
 43
0.2
 10
-101.2979518471753
 20
6.470741993309889
 42
1.0
 10
-102.0979518471753
 20
6.470741993309889
  0
LWPOLYLINE
  5
6B7
330
1E
100
AcDbEntity
  8
GND
100
AcDbPolyline
 90
        2
 70
     0
 43
0.2
 10
-102.0979518471753
 20
6.470741993309889
 42
1.0
 10
-101.2979518471753
 20
6.470741993309889
  0
LWPOLYLINE
  5
6BE
330
1E
100
AcDbEntity
  8
GND
100
AcDbPolyline
 90
        2
 70
     0
 43
0.2
 10
-99.46143210046038
 20
6.470741993309889
 42
1.0
 10
-100.2614321004603
 20
6.470741993309889
  0
LWPOLYLINE
  5
6BF
330
1E
100
AcDbEntity
  8
GND
100
AcDbPolyline
 90
        2
 70
     0
 43
0.2
 10
-100.2614321004603
 20
6.470741993309889
 42
1.0
 10
-99.46143210046038
 20
6.470741993309889
  0
SOLID
  5
6D7
330
1E
100
AcDbEntity
  8
METAL1
100
AcDbTrace
 10
-96.72472196852696
 20
5.235189025195116
 30
0.0
 11
-96.72472196852696
 21
8.235189025195115
 31
0.0
 12
-96.47472196852696
 22
5.235189025195116
 32
0.0
 13
-96.47472196852696
 23
8.235189025195115
 33
0.0
  0
SOLID
  5
6D8
330
1E
100
AcDbEntity
  8
METAL1
100
AcDbTrace
 10
-96.72472196852696
 20
1.938359025195116
 30
0.0
 11
-95.97472196852697
 21
1.938359025195116
 31
0.0
 12
-96.72472196852696
 22
1.688359025195116
 32
0.0
 13
-95.97472196852697
 23
1.688359025195116
 33
0.0
  0
SOLID
  5
6D9
330
1E
100
AcDbEntity
  8
METAL1
100
AcDbTrace
 10
-96.47472196852696
 20
5.235189025195116
 30
0.0
 11
-96.47472196852696
 21
1.688359025195116
 31
0.0
 12
-96.72472196852696
 22
5.235189025195116
 32
0.0
 13
-96.72472196852696
 23
1.688359025195116
 33
0.0
  0
SOLID
  5
6DA
330
1E
100
AcDbEntity
  8
METAL1
100
AcDbTrace
 10
-93.17789196852697
 20
2.188359025195116
 30
0.0
 11
-93.17789196852697
 21
5.235189025195116
 31
0.0
 12
-92.92789196852696
 22
2.188359025195116
 32
0.0
 13
-92.92789196852696
 23
5.235189025195116
 33
0.0
  0
SOLID
  5
6DB
330
1E
100
AcDbEntity
  8
METAL1
100
AcDbTrace
 10
-95.01534411090595
 20
2.196352030295271
 30
0.0
 11
-96.21534411090594
 21
2.196352030295271
 31
0.0
 12
-95.01534411090595
 22
3.396352030295271
 32
0.0
 13
-96.21534411090594
 23
3.396352030295271
 33
0.0
  0
SOLID
  5
6DC
330
1E
100
AcDbEntity
  8
METAL1
100
AcDbTrace
 10
-95.97472196852697
 20
5.235189025195116
 30
0.0
 11
-95.97472196852697
 21
2.188359025195116
 31
0.0
 12
-96.22472196852697
 22
5.235189025195116
 32
0.0
 13
-96.22472196852697
 23
2.188359025195116
 33
0.0
  0
SOLID
  5
6DD
330
1E
100
AcDbEntity
  8
METAL1
100
AcDbTrace
 10
-93.17789196852697
 20
1.688359025195116
 30
0.0
 11
-93.17789196852697
 21
2.438359025195116
 31
0.0
 12
-92.92789196852696
 22
1.688359025195116
 32
0.0
 13
-92.92789196852696
 23
2.438359025195116
 33
0.0
  0
SOLID
  5
6DE
330
1E
100
AcDbEntity
  8
METAL1
100
AcDbTrace
 10
-96.22472196852697
 20
1.938359025195116
 30
0.0
 11
-92.92789196852696
 21
1.938359025195116
 31
0.0
 12
-96.22472196852697
 22
1.688359025195116
 32
0.0
 13
-92.92789196852696
 23
1.688359025195116
 33
0.0
  0
SOLID
  5
6DF
330
1E
100
AcDbEntity
  8
METAL1
100
AcDbTrace
 10
-95.72472196852697
 20
2.188359025195116
 30
0.0
 11
-95.72472196852697
 21
2.438359025195116
 31
0.0
 12
-95.47472196852696
 22
2.188359025195116
 32
0.0
 13
-95.47472196852696
 23
2.438359025195116
 33
0.0
  0
SOLID
  5
6E0
330
1E
100
AcDbEntity
  8
METAL1
100
AcDbTrace
 10
-96.22472196852697
 20
2.438359025195116
 30
0.0
 11
-95.72472196852697
 21
2.438359025195116
 31
0.0
 12
-96.22472196852697
 22
2.188359025195116
 32
0.0
 13
-95.72472196852697
 23
2.188359025195116
 33
0.0
  0
SOLID
  5
6E1
330
1E
100
AcDbEntity
  8
METAL1
100
AcDbTrace
 10
-92.92789196852696
 20
4.985189025195116
 30
0.0
 11
-96.22472196852697
 21
4.985189025195116
 31
0.0
 12
-92.92789196852696
 22
5.235189025195116
 32
0.0
 13
-96.22472196852697
 23
5.235189025195116
 33
0.0
  0
SOLID
  5
6E2
330
1E
100
AcDbEntity
  8
CONSTR
100
AcDbTrace
 10
-95.41395312760267
 20
-0.3276172335885796
 30
0.0
 11
-95.41395312760267
 21
2.672382766411421
 31
0.0
 12
-95.01395312760266
 22
-0.3276172335885796
 32
0.0
 13
-95.01395312760266
 23
2.672382766411421
 33
0.0
  0
SOLID
  5
746
330
1E
100
AcDbEntity
  8
METAL1
100
AcDbTrace
 10
-99.82622580783115
 20
6.047852936665158
 30
0.0
 11
-99.82622580783115
 21
7.165452936665168
 31
0.0
 12
-98.14982580783116
 22
6.047852936665158
 32
0.0
 13
-98.14982580783116
 23
7.165452936665168
 33
0.0
  0
SOLID
  5
747
330
1E
100
AcDbEntity
  8
METAL1
100
AcDbTrace
 10
-99.82622580783115
 20
9.411341638956706
 30
0.0
 11
-99.82622580783115
 21
10.5289416389567
 31
0.0
 12
-98.14982580783116
 22
9.41134163895672
 32
0.0
 13
-98.14982580783116
 23
10.5289416389567
 33
0.0
  0
SOLID
  5
748
330
1E
100
AcDbEntity
  8
CONSTR
100
AcDbTrace
 10
-99.78802580783115
 20
6.665746689147759
 30
0.0
 11
-98.18802580783115
 21
6.665746689147759
 31
0.0
 12
-99.78802580783115
 22
6.615746689147762
 32
0.0
 13
-98.18802580783115
 23
6.615746689147762
 33
0.0
  0
SOLID
  5
749
330
1E
100
AcDbEntity
  8
CONSTR
100
AcDbTrace
 10
-99.81302580783115
 20
6.640746689147768
 30
0.0
 11
-99.81302580783115
 21
9.840746689147756
 31
0.0
 12
-99.76302580783116
 22
6.640746689147768
 32
0.0
 13
-99.76302580783116
 23
9.840746689147756
 33
0.0
  0
SOLID
  5
74A
330
1E
100
AcDbEntity
  8
CONSTR
100
AcDbTrace
 10
-98.21302580783116
 20
6.640746689147768
 30
0.0
 11
-98.21302580783116
 21
9.840746689147756
 31
0.0
 12
-98.16302580783116
 22
6.640746689147768
 32
0.0
 13
-98.16302580783116
 23
9.840746689147756
 33
0.0
  0
SOLID
  5
74B
330
1E
100
AcDbEntity
  8
CONSTR
100
AcDbTrace
 10
-99.78802580783115
 20
9.865746689147762
 30
0.0
 11
-98.18802580783115
 21
9.865746689147762
 31
0.0
 12
-99.78802580783115
 22
9.815746689147751
 32
0.0
 13
-98.18802580783115
 23
9.815746689147751
 33
0.0
  0
SOLID
  5
756
330
1E
100
AcDbEntity
  8
METAL1
100
AcDbTrace
 10
-99.35768350236552
 20
8.835621128593352
 30
0.0
 11
-100.4752835023655
 21
8.835621128593352
 31
0.0
 12
-99.35768350236552
 22
10.51202112859335
 32
0.0
 13
-100.4752835023655
 23
10.51202112859335
 33
0.0
  0
SOLID
  5
757
330
1E
100
AcDbEntity
  8
METAL1
100
AcDbTrace
 10
-102.3076835023654
 20
8.835621128593352
 30
0.0
 11
-103.4252835023655
 21
8.835621128593352
 31
0.0
 12
-102.3076835023655
 22
10.51202112859335
 32
0.0
 13
-103.4252835023655
 23
10.51202112859335
 33
0.0
  0
SOLID
  5
758
330
1E
100
AcDbEntity
  8
CONSTR
100
AcDbTrace
 10
-99.83268350236551
 20
8.873821128593355
 30
0.0
 11
-99.83268350236551
 21
10.47382112859335
 31
0.0
 12
-99.78268350236554
 22
8.873821128593355
 32
0.0
 13
-99.78268350236554
 23
10.47382112859335
 33
0.0
  0
SOLID
  5
759
330
1E
100
AcDbEntity
  8
CONSTR
100
AcDbTrace
 10
-99.80768350236553
 20
8.84882112859335
 30
0.0
 11
-103.0076835023655
 21
8.84882112859335
 31
0.0
 12
-99.80768350236553
 22
8.898821128593347
 32
0.0
 13
-103.0076835023655
 23
8.898821128593347
 33
0.0
  0
SOLID
  5
75A
330
1E
100
AcDbEntity
  8
CONSTR
100
AcDbTrace
 10
-99.80768350236553
 20
10.44882112859334
 30
0.0
 11
-103.0076835023655
 21
10.44882112859334
 31
0.0
 12
-99.80768350236553
 22
10.49882112859335
 32
0.0
 13
-103.0076835023655
 23
10.49882112859335
 33
0.0
  0
SOLID
  5
75B
330
1E
100
AcDbEntity
  8
CONSTR
100
AcDbTrace
 10
-103.0326835023655
 20
8.873821128593355
 30
0.0
 11
-103.0326835023655
 21
10.47382112859335
 31
0.0
 12
-102.9826835023655
 22
8.873821128593355
 32
0.0
 13
-102.9826835023655
 23
10.47382112859335
 33
0.0
  0
DIMENSION
  5
76D
330
1E
100
AcDbEntity
  8
0
100
AcDbDimension
  2
*D2
 10
-121.259468618011
 20
13.49891985987386
 30
0.0
 11
-121.259468618011
 21
-1.501080140126153
 31
0.0
 70
    32
 71
     5
 42
30.0
  3
Standard
100
AcDbAlignedDimension
 13
-118.0055377084672
 23
-16.50108014012613
 33
0.0
 14
-118.0055377084672
 24
13.49891985987386
 34
0.0
 50
270.0
100
AcDbRotatedDimension
1001
ACAD
1000
DSTYLE
1002
{
1070
   271
1070
     0
1002
}
  0
MTEXT
  5
79D
330
1E
100
AcDbEntity
  8
CONSTR
100
AcDbMText
 10
-95.99518660217535
 20
9.252163573960245
 30
0.0
 40
0.5482000000000001
 41
1.7934
 71
     1
 72
     5
  1
8.2pF
 73
     1
 44
1.0
  0
MTEXT
  5
7A1
330
1E
100
AcDbEntity
  8
CONSTR
100
AcDbMText
 10
-98.12185525733434
 20
9.283892827665113
 30
0.0
 40
0.5
 41
0.9680999999999999
 71
     1
 72
     5
  1
22
 73
     1
 44
1.0
  0
MTEXT
  5
7A2
330
1E
100
AcDbEntity
  8
CONSTR
100
AcDbMText
 10
-99.07400044480056
 20
7.23712008433273
 30
0.0
 40
0.5
 41
1.1586
 71
     1
 72
     5
  1
3.3pF
 11
0.0000000000000001
 21
1.0
 31
0.0
 73
     1
 44
1.0
  0
MTEXT
  5
7A3
330
1E
100
AcDbEntity
  8
CONSTR
100
AcDbMText
 10
-102.2164858186656
 20
10.42615591629936
 30
0.0
 40
0.5
 41
1.555299999999999
 71
     1
 72
     5
  1
3.3pF
 73
     1
 44
1.0
  0
MTEXT
  5
7A4
330
1E
100
AcDbEntity
  8
CONSTR
100
AcDbMText
 10
-99.39150822272161
 20
11.18766455611751
 30
0.0
 40
0.5
 41
1.095099999999999
 71
     1
 72
     5
  1
D
 73
     1
 44
1.0
  0
MTEXT
  5
7A6
330
1E
100
AcDbEntity
  8
CONSTR
100
AcDbMText
 10
-98.94712933010959
 20
5.872968652730378
 30
0.0
 40
0.5
 41
1.6347
 71
     1
 72
     5
  1
S
 73
     1
 44
1.0
  0
MTEXT
  5
7A7
330
1E
100
AcDbEntity
  8
CONSTR
100
AcDbMText
 10
-102.5707586605117
 20
11.25270450361648
 30
0.0
 40
0.5
 41
1.0157
 71
     1
 72
     5
  1
S
 73
     1
 44
1.0
  0
MTEXT
  5
7A8
330
1E
100
AcDbEntity
  8
CONSTR
100
AcDbMText
 10
-101.6705244240201
 20
5.329812030777787
 30
0.0
 40
0.5
 41
1.602899999999999
 71
     1
 72
     5
  1
G
 73
     1
 44
1.0
  0
MTEXT
  5
7B4
330
1E
100
AcDbEntity
  8
CONSTR
100
AcDbMText
 10
-93.72152032132294
 20
-0.8617569201800847
 30
0.0
 40
0.5
 41
1.7775
 71
     1
 72
     5
  1
330pF
 73
     1
 44
1.0
  0
MTEXT
  5
7B5
330
1E
100
AcDbEntity
  8
CONSTR
100
AcDbMText
 10
-98.24465931389926
 20
-0.8458923448397968
 30
0.0
 40
0.5
 41
1.7458
 71
     1
 72
     5
  1
1k2
 73
     1
 44
1.0
  0
MTEXT
  5
7B8
330
1E
100
AcDbEntity
  8
CONSTR
100
AcDbMText
 10
-95.51490523294887
 20
-3.384254563505066
 30
0.0
 40
0.5
 41
1.190299999999999
 71
     1
 72
     5
  1
10
 73
     1
 44
1.0
  0
MTEXT
  5
7C0
330
1E
100
AcDbEntity
  8
CONSTR
100
AcDbMText
 10
-94.07060923440639
 20
-5.951626512347331
 30
0.0
 40
0.5
 41
1.7775
 71
     1
 72
     5
  1
0.1uF
 73
     1
 44
1.0
  0
MTEXT
  5
7C1
330
1E
100
AcDbEntity
  8
CONSTR
100
AcDbMText
 10
-92.40418988069661
 20
-9.608714704091596
 30
0.0
 40
0.5
 41
2.586899999999999
 71
     1
 72
     5
  1
+5V
 73
     1
 44
1.0
  0
MTEXT
  5
7C4
330
1E
100
AcDbEntity
  8
CONSTR
100
AcDbMText
 10
-92.94412573116511
 20
11.55029443337269
 30
0.0
 40
0.5
 41
3.353299999999999
 71
     1
 72
     5
  1
OUT
 73
     1
 44
1.0
  0
LWPOLYLINE
  5
7DE
330
1E
100
AcDbEntity
  8
CONSTR
100
AcDbPolyline
 90
        4
 70
     1
 43
0.0
 10
-108.238705038318
 20
-12.74960924055899
 10
-102.8332033080721
 20
-12.74960924055899
 10
-102.8332033080721
 20
-13.95999169842804
 10
-108.238705038318
 20
-13.95999169842804
  0
LWPOLYLINE
  5
7DF
330
1E
100
AcDbEntity
  8
CONSTR
100
AcDbPolyline
 90
        3
 70
     0
 43
0.0
 10
-108.238705038318
 20
-13.31157256030778
 10
-109.4927815029766
 20
-13.31157256030778
 10
-109.4927815029766
 20
-11.79859451071392
  0
LWPOLYLINE
  5
7E0
330
1E
100
AcDbEntity
  8
CONSTR
100
AcDbPolyline
 90
        3
 70
     0
 43
0.0
 10
-102.8332033080721
 20
-13.35480051497843
 10
-101.6223708730659
 20
-13.35480051497843
 10
-101.6223708730659
 20
-11.27985914563579
  0
LWPOLYLINE
  5
7E1
330
1E
100
AcDbEntity
  8
CONSTR
100
AcDbPolyline
 90
        5
 70
     0
 43
0.0
 10
-105.5575761221447
 20
-11.32308710030646
 10
-105.5575761221447
 20
-12.70638128588832
 10
-105.8170403000588
 20
-12.40378569416353
 10
-105.3846001352885
 20
-12.40378569416353
 10
-105.5143322242455
 20
-12.74960924055899
  0
MTEXT
  5
7E2
330
1E
100
AcDbEntity
  8
CONSTR
100
AcDbMText
 10
-106.5089446427432
 20
-13.09543287792431
 30
0.0
 40
0.5481747989425606
 41
4.064899999999999
 71
     1
 72
     5
  1
560
 73
     1
 44
1.0
  0
LWPOLYLINE
  5
7E3
330
1E
100
AcDbEntity
  8
CONSTR
100
AcDbPolyline
 90
        4
 70
     1
 43
0.0
 10
-88.04397789092869
 20
-12.31671989406575
 10
-82.59523199927725
 20
-12.31671989406575
 10
-82.59523199927725
 20
-13.78647007995877
 10
-88.04397789092869
 20
-13.78647007995877
  0
LWPOLYLINE
  5
7E4
330
1E
100
AcDbEntity
  8
CONSTR
100
AcDbPolyline
 90
        3
 70
     0
 43
0.0
 10
-88.04397789092869
 20
-13.05159494152735
 10
-89.2548103259349
 20
-13.05159494152735
 10
-89.2548103259349
 20
-11.32247711858018
  0
MTEXT
  5
7E6
330
1E
100
AcDbEntity
  8
CONSTR
100
AcDbMText
 10
-87.17909756138807
 20
-12.83545525914387
 30
0.0
 40
0.5481747989425606
 41
4.713599999999999
 71
     1
 72
     5
  1
78L05
 73
     1
 44
1.0
  0
LWPOLYLINE
  5
7E7
330
1E
100
AcDbEntity
  8
CONSTR
100
AcDbPolyline
 90
        2
 70
     0
 43
0.0
 10
-85.44933703406002
 20
-12.31671989406575
 10
-85.44933703406002
 20
-11.36570507325083
  0
SOLID
  5
7E8
330
1E
100
AcDbEntity
  8
CONSTR
100
AcDbTrace
 10
-88.82984109181021
 20
0.1341471140908226
 30
0.0
 11
-87.44420044575511
 21
0.9341471140908197
 31
0.0
 12
-88.80484109181022
 22
0.0908458439015974
 32
0.0
 13
-87.41920044575511
 23
0.8908458439015944
 33
0.0
  0
SOLID
  5
7E9
330
1E
100
AcDbEntity
  8
CONSTR
100
AcDbTrace
 10
-88.83899172690483
 20
0.0999964789962107
 30
0.0
 11
-90.43899172690483
 21
2.871277771106413
 31
0.0
 12
-88.79569045671562
 22
0.1249964789962092
 32
0.0
 13
-90.3956904567156
 23
2.896277771106412
 33
0.0
  0
SOLID
  5
7EA
330
1E
100
AcDbEntity
  8
CONSTR
100
AcDbTrace
 10
-87.45335108084971
 20
0.8999964789962149
 30
0.0
 11
-89.05335108084972
 21
3.671277771106417
 31
0.0
 12
-87.41004981066049
 22
0.9249964789962135
 32
0.0
 13
-89.0100498106605
 23
3.696277771106416
 33
0.0
  0
SOLID
  5
7EB
330
1E
100
AcDbEntity
  8
CONSTR
100
AcDbTrace
 10
-90.42984109181022
 20
2.905428406201025
 30
0.0
 11
-89.04420044575511
 21
3.705428406201022
 31
0.0
 12
-90.4048410918102
 22
2.862127136011807
 32
0.0
 13
-89.01920044575511
 23
3.662127136011804
 33
0.0
  0
MTEXT
  5
7EC
330
1E
100
AcDbEntity
  8
CONSTR
100
AcDbMText
 10
-88.67641286777137
 20
0.8125025728012005
 30
0.0
 40
0.5481747989425606
 41
1.2493
 71
     1
 72
     5
  1
22uH
 11
-0.5
 21
0.8660254037844387
 31
0.0
 73
     1
 44
1.0
  0
SOLID
  5
7ED
330
1E
100
AcDbEntity
  8
CONSTR
100
AcDbTrace
 10
-86.60857227432421
 20
-2.249555009507389
 30
0.0
 11
-88.20857227432421
 21
0.5217262826028062
 31
0.0
 12
-86.565271004135
 22
-2.22455500950739
 32
0.0
 13
-88.165271004135
 23
0.5467262826028048
 33
0.0
  0
SOLID
  5
7EE
330
1E
100
AcDbEntity
  8
CONSTR
100
AcDbTrace
 10
-85.04078934347418
 20
-4.976538861886581
 30
0.0
 11
-86.64078934347418
 21
-2.205257569776385
 31
0.0
 12
-84.99748807328495
 22
-4.951538861886582
 32
0.0
 13
-86.59748807328496
 23
-2.180257569776387
 33
0.0
  0
SOLID
  5
7EF
330
1E
100
AcDbEntity
  8
CONSTR
100
AcDbTrace
 10
-89.84204852477644
 20
3.221150278282564
 30
0.0
 11
-91.44204852477642
 21
5.992431570392767
 31
0.0
 12
-89.79874725458721
 22
3.246150278282563
 32
0.0
 13
-91.39874725458721
 23
6.017431570392766
 33
0.0
  0
SOLID
  5
7F0
330
1E
100
AcDbEntity
  8
CONSTR
100
AcDbTrace
 10
-91.33341264251987
 20
5.804268702799348
 30
0.0
 11
-92.93341264251987
 21
8.575549994909543
 31
0.0
 12
-91.29011137233066
 22
5.829268702799346
 32
0.0
 13
-92.89011137233066
 23
8.600549994909542
 33
0.0
  0
LWPOLYLINE
  5
7F2
330
1E
100
AcDbEntity
  8
CONSTR
100
AcDbPolyline
 90
        4
 70
     0
 43
0.0
 10
-82.62299001011513
 20
-13.00226763953895
 10
-82.05685182368222
 20
-13.00226763953895
 10
-82.05685182368222
 20
-6.298199485129146
 10
-82.92783370640917
 20
-6.298199485129146
  0
SOLID
  5
80B
330
1E
100
AcDbEntity
  8
CONSTR
100
AcDbTrace
 10
-84.48126869828705
 20
-7.795682253168529
 30
0.0
 11
-86.08126869828707
 21
-7.795682253168529
 31
0.0
 12
-84.48126869828705
 22
-7.84568225316854
 32
0.0
 13
-86.08126869828707
 23
-7.84568225316854
 33
0.0
  0
SOLID
  5
80C
330
1E
100
AcDbEntity
  8
CONSTR
100
AcDbTrace
 10
-84.48126869828705
 20
-7.45017349598384
 30
0.0
 11
-86.08126869828707
 21
-7.45017349598384
 31
0.0
 12
-84.48126869828705
 22
-7.500173495983837
 32
0.0
 13
-86.08126869828707
 23
-7.500173495983837
 33
0.0
  0
SOLID
  5
80D
330
1E
100
AcDbEntity
  8
CONSTR
100
AcDbTrace
 10
-85.31003204511938
 20
-7.809294781055044
 30
0.0
 11
-85.31003204511938
 21
-9.409294781055038
 31
0.0
 12
-85.36003204511937
 22
-7.809294781055044
 32
0.0
 13
-85.36003204511937
 23
-9.409294781055038
 33
0.0
  0
SOLID
  5
80E
330
1E
100
AcDbEntity
  8
CONSTR
100
AcDbTrace
 10
-85.31003204511938
 20
-5.88329675167823
 30
0.0
 11
-85.31003204511938
 21
-7.483296751678224
 31
0.0
 12
-85.36003204511937
 22
-5.88329675167823
 32
0.0
 13
-85.36003204511937
 23
-7.483296751678224
 33
0.0
  0
SOLID
  5
824
330
1E
100
AcDbEntity
  8
CONSTR
100
AcDbTrace
 10
-86.7776596621176
 20
-8.584588556692928
 30
0.0
 11
-86.7776596621176
 21
-10.18458855669293
 31
0.0
 12
-86.72765966211759
 22
-8.584588556692928
 32
0.0
 13
-86.72765966211759
 23
-10.18458855669293
 33
0.0
  0
SOLID
  5
825
330
1E
100
AcDbEntity
  8
CONSTR
100
AcDbTrace
 10
-87.12316841930229
 20
-8.584588556692928
 30
0.0
 11
-87.12316841930229
 21
-10.18458855669293
 31
0.0
 12
-87.07316841930227
 22
-8.584588556692928
 32
0.0
 13
-87.07316841930227
 23
-10.18458855669293
 33
0.0
  0
SOLID
  5
826
330
1E
100
AcDbEntity
  8
CONSTR
100
AcDbTrace
 10
-86.76404713423108
 20
-9.413351903525246
 30
0.0
 11
-85.16404713423108
 21
-9.413351903525246
 31
0.0
 12
-86.76404713423108
 22
-9.463351903525243
 32
0.0
 13
-85.16404713423108
 23
-9.463351903525243
 33
0.0
  0
SOLID
  5
827
330
1E
100
AcDbEntity
  8
CONSTR
100
AcDbTrace
 10
-88.69004516360789
 20
-9.413351903525246
 30
0.0
 11
-87.0900451636079
 21
-9.413351903525246
 31
0.0
 12
-88.69004516360789
 22
-9.463351903525243
 32
0.0
 13
-87.0900451636079
 23
-9.463351903525243
 33
0.0
  0
MTEXT
  5
82F
330
1E
100
AcDbEntity
  8
CONSTR
100
AcDbMText
 10
-86.96261220734573
 20
-6.689134487305636
 30
0.0
 40
0.5
 41
2.0447
 71
     1
 72
     5
  1
1uF
 73
     1
 44
1.0
  0
MTEXT
  5
835
330
1E
100
AcDbEntity
  8
CONSTR
100
AcDbMText
 10
-88.09073155961533
 20
-7.816834960548703
 30
0.0
 40
0.5
 41
2.0447
 71
     1
 72
     5
  1
1uF
 73
     1
 44
1.0
  0
LWPOLYLINE
  5
844
330
1E
100
AcDbEntity
  8
Defpoints
  6
DASHED
100
AcDbPolyline
 90
        4
 70
     1
 43
0.0
 10
-116.7156669687269
 20
13.49043379843249
 10
-66.71566696872696
 20
13.49043379843249
 10
-66.71566696872696
 20
-16.5095662015675
 10
-116.7156669687269
 20
-16.5095662015675
  0
DIMENSION
  5
845
330
1E
100
AcDbEntity
  8
Defpoints
  6
DASHED
100
AcDbDimension
  2
*D3
 10
-66.71566696872696
 20
15.5784244207212
 30
0.0
 11
-91.71566696872696
 21
15.5784244207212
 31
0.0
 70
    32
 71
     5
 42
50.0
  3
Standard
100
AcDbAlignedDimension
 13
-116.7156669687269
 23
13.49043379843249
 33
0.0
 14
-66.71566696872696
 24
13.49043379843249
 34
0.0
100
AcDbRotatedDimension
  0
MTEXT
  5
86A
330
1E
100
AcDbEntity
  8
Defpoints
  6
DASHED
100
AcDbMText
 10
-103.4965874458134
 20
18.39333229855643
 30
0.0
 40
1.5
 41
24.7239
 71
     1
 72
     5
  1
Zoomed part
 73
     1
 44
1.0
  0
MTEXT
  5
873
330
1E
100
AcDbEntity
  8
0
  6
DASHED
100
AcDbMText
 10
-114.8552919853194
 20
21.62815267336913
 30
0.0
 40
0.8
 41
48.6091
 71
     1
 72
     5
  1
Double side FR-4 (G-10) PCB 1.6mm thick. Back side ground plane.
 73
     1
 44
1.0
  0
SOLID
  5
883
330
1E
100
AcDbEntity
  8
METAL1
100
AcDbTrace
 10
-100.1291992838009
 20
-4.668396950148363
 30
0.0
 11
-100.1291992838009
 21
-11.17492695014836
 31
0.0
 12
-99.87919928380092
 22
-4.668396950148363
 32
0.0
 13
-99.87919928380092
 23
-11.17492695014836
 33
0.0
  0
SOLID
  5
884
330
1E
100
AcDbEntity
  8
METAL1
100
AcDbTrace
 10
-99.87919928380092
 20
-4.668396950148363
 30
0.0
 11
-99.87919928380092
 21
-1.668396950148363
 31
0.0
 12
-100.1291992838009
 22
-4.668396950148363
 32
0.0
 13
-100.1291992838009
 23
-1.668396950148363
 33
0.0
  0
SOLID
  5
88B
330
1E
100
AcDbEntity
  8
METAL1
100
AcDbTrace
 10
-94.87393254267201
 20
-8.933747977206444
 30
0.0
 11
-88.36740254267203
 21
-8.933747977206444
 31
0.0
 12
-94.87393254267201
 22
-8.683747977206444
 32
0.0
 13
-88.36740254267203
 23
-8.683747977206444
 33
0.0
  0
SOLID
  5
895
330
1E
100
AcDbEntity
  8
METAL1
100
AcDbTrace
 10
-94.65382879748506
 20
-8.934181495493206
 30
0.0
 11
-94.65382879748506
 21
-5.934181495493206
 31
0.0
 12
-94.90382879748507
 22
-8.934181495493206
 32
0.0
 13
-94.90382879748507
 23
-5.934181495493206
 33
0.0
  0
SOLID
  5
89C
330
1E
100
AcDbEntity
  8
METAL1
100
AcDbTrace
 10
-100.0507030488425
 20
-1.670627587814673
 30
0.0
 11
-99.55070304884259
 21
-1.670627587814673
 31
0.0
 12
-100.0507030488425
 22
-1.920627587814673
 32
0.0
 13
-99.55070304884259
 23
-1.920627587814673
 33
0.0
  0
SOLID
  5
8EF
330
1E
100
AcDbEntity
  8
METAL1
100
AcDbTrace
 10
-106.5883107481107
 20
-4.639758600851488
 30
0.0
 11
-106.5883107481107
 21
-3.522158600851492
 31
0.0
 12
-108.2647107481107
 22
-4.639758600851488
 32
0.0
 13
-108.2647107481107
 23
-3.522158600851492
 33
0.0
  0
SOLID
  5
8F0
330
1E
100
AcDbEntity
  8
METAL1
100
AcDbTrace
 10
-106.5883107481107
 20
-1.689758600851485
 30
0.0
 11
-106.5883107481107
 21
-0.572158600851477
 31
0.0
 12
-108.2647107481107
 22
-1.689758600851485
 32
0.0
 13
-108.2647107481107
 23
-0.5721586008514752
 33
0.0
  0
SOLID
  5
8F1
330
1E
100
AcDbEntity
  8
METAL1
100
AcDbTrace
 10
-111.8771755492483
 20
0.4584754686250552
 30
0.0
 11
-111.8771755492483
 21
-0.7415245313749477
 31
0.0
 12
-110.6771755492483
 22
0.4584754686250552
 32
0.0
 13
-110.6771755492483
 23
-0.7415245313749477
 33
0.0
  0
SOLID
  5
8F2
330
1E
100
AcDbEntity
  8
METAL1
100
AcDbTrace
 10
-111.2345283597394
 20
-0.9873534719939627
 30
0.0
 11
-110.1169283597394
 21
-0.9873534719939627
 31
0.0
 12
-111.2345283597394
 22
0.6890465280060383
 32
0.0
 13
-110.1169283597394
 23
0.6890465280060383
 33
0.0
  0
SOLID
  5
8F3
330
1E
100
AcDbEntity
  8
METAL1
100
AcDbTrace
 10
-108.2845283597394
 20
-0.9873534719939627
 30
0.0
 11
-107.1669283597394
 21
-0.9873534719939627
 31
0.0
 12
-108.2845283597394
 22
0.6890465280060383
 32
0.0
 13
-107.1669283597394
 23
0.6890465280060383
 33
0.0
  0
SOLID
  5
8F9
330
1E
100
AcDbEntity
  8
METAL1
100
AcDbTrace
 10
-106.6464145116752
 20
-6.74852131821099
 30
0.0
 11
-106.6464145116752
 21
-3.74852131821099
 31
0.0
 12
-106.8964145116752
 22
-6.74852131821099
 32
0.0
 13
-106.8964145116752
 23
-3.74852131821099
 33
0.0
  0
SOLID
  5
8FA
330
1E
100
AcDbEntity
  8
METAL1
100
AcDbTrace
 10
-108.2640163312404
 20
0.3262876698534356
 30
0.0
 11
-108.2640163312404
 21
1.443887669853445
 31
0.0
 12
-106.5876163312404
 22
0.3262876698534356
 32
0.0
 13
-106.5876163312404
 23
1.443887669853445
 33
0.0
  0
SOLID
  5
8FB
330
1E
100
AcDbEntity
  8
METAL1
100
AcDbTrace
 10
-108.2640163312404
 20
3.276287669853438
 30
0.0
 11
-108.2640163312404
 21
4.393887669853434
 31
0.0
 12
-106.5876163312404
 22
3.276287669853452
 32
0.0
 13
-106.5876163312404
 23
4.393887669853434
 33
0.0
  0
SOLID
  5
8FD
330
1E
100
AcDbEntity
  8
CONSTR
100
AcDbTrace
 10
-106.6265107481107
 20
-4.164758600851493
 30
0.0
 11
-108.2265107481107
 21
-4.164758600851493
 31
0.0
 12
-106.6265107481107
 22
-4.214758600851491
 32
0.0
 13
-108.2265107481107
 23
-4.214758600851491
 33
0.0
  0
SOLID
  5
8FE
330
1E
100
AcDbEntity
  8
CONSTR
100
AcDbTrace
 10
-106.6015107481107
 20
-4.189758600851485
 30
0.0
 11
-106.6015107481107
 21
-0.9897586008514824
 31
0.0
 12
-106.6515107481107
 22
-4.189758600851485
 32
0.0
 13
-106.6515107481107
 23
-0.9897586008514824
 33
0.0
  0
SOLID
  5
8FF
330
1E
100
AcDbEntity
  8
CONSTR
100
AcDbTrace
 10
-108.2015107481107
 20
-4.189758600851485
 30
0.0
 11
-108.2015107481107
 21
-0.9897586008514824
 31
0.0
 12
-108.2515107481107
 22
-4.189758600851485
 32
0.0
 13
-108.2515107481107
 23
-0.9897586008514824
 33
0.0
  0
SOLID
  5
900
330
1E
100
AcDbEntity
  8
CONSTR
100
AcDbTrace
 10
-106.6265107481107
 20
-0.964758600851491
 30
0.0
 11
-108.2265107481107
 21
-0.964758600851491
 31
0.0
 12
-106.6265107481107
 22
-1.014758600851488
 32
0.0
 13
-108.2265107481107
 23
-1.014758600851488
 33
0.0
  0
SOLID
  5
901
330
1E
100
AcDbEntity
  8
CONSTR
100
AcDbTrace
 10
-110.7845283597394
 20
-0.974153471993965
 30
0.0
 11
-107.5845283597394
 21
-0.974153471993965
 31
0.0
 12
-110.7845283597394
 22
-0.9241534719939537
 32
0.0
 13
-107.5845283597394
 23
-0.9241534719939537
 33
0.0
  0
SOLID
  5
902
330
1E
100
AcDbEntity
  8
CONSTR
100
AcDbTrace
 10
-110.7845283597394
 20
0.6258465280060435
 30
0.0
 11
-107.5845283597394
 21
0.6258465280060435
 31
0.0
 12
-110.7845283597394
 22
0.6758465280060407
 32
0.0
 13
-107.5845283597394
 23
0.6758465280060407
 33
0.0
  0
SOLID
  5
903
330
1E
100
AcDbEntity
  8
CONSTR
100
AcDbTrace
 10
-107.5595283597394
 20
-0.9491534719939593
 30
0.0
 11
-107.5595283597394
 21
0.6508465280060492
 31
0.0
 12
-107.6095283597394
 22
-0.9491534719939593
 32
0.0
 13
-107.6095283597394
 23
0.6508465280060492
 33
0.0
  0
SOLID
  5
904
330
1E
100
AcDbEntity
  8
CONSTR
100
AcDbTrace
 10
-110.8102497102634
 20
-0.9617145523181491
 30
0.0
 11
-110.8102497102634
 21
0.6382854476818594
 31
0.0
 12
-110.8602497102634
 22
-0.9617145523181491
 32
0.0
 13
-110.8602497102634
 23
0.6382854476818594
 33
0.0
  0
LWPOLYLINE
  5
905
330
1E
100
AcDbEntity
  8
GND
100
AcDbPolyline
 90
        2
 70
     0
 43
0.2
 10
-111.2771755492483
 20
-0.5415245313749431
 42
-1.0
 10
-111.2771755492483
 20
0.2584754686250541
  0
LWPOLYLINE
  5
906
330
1E
100
AcDbEntity
  8
GND
100
AcDbPolyline
 90
        2
 70
     0
 43
0.2
 10
-111.2771755492483
 20
0.2584754686250541
 42
-1.0
 10
-111.2771755492483
 20
-0.5415245313749431
  0
MTEXT
  5
90C
330
1E
100
AcDbEntity
  8
CONSTR
100
AcDbMText
 10
-109.9578683238544
 20
0.1252586567247818
 30
0.0
 40
0.5
 41
1.7775
 71
     1
 72
     5
  1
0.1uF
 73
     1
 44
1.0
  0
MTEXT
  5
90D
330
1E
100
AcDbEntity
  8
CONSTR
100
AcDbMText
 10
-107.1406292558117
 20
-2.010724665314484
 30
0.0
 40
0.5
 41
1.7458
 71
     1
 72
     5
  1
10k
 11
-0.0000000000000002
 21
-1.0
 31
0.0
 73
     1
 44
1.0
  0
SOLID
  5
90E
330
1E
100
AcDbEntity
  8
CONSTR
100
AcDbTrace
 10
-108.2258163312404
 20
0.8012876698534441
 30
0.0
 11
-106.6258163312404
 21
0.8012876698534441
 31
0.0
 12
-108.2258163312404
 22
0.751287669853447
 32
0.0
 13
-106.6258163312404
 23
0.751287669853447
 33
0.0
  0
SOLID
  5
90F
330
1E
100
AcDbEntity
  8
CONSTR
100
AcDbTrace
 10
-108.2508163312404
 20
0.7762876698534527
 30
0.0
 11
-108.2508163312404
 21
3.976287669853441
 31
0.0
 12
-108.2008163312404
 22
0.7762876698534527
 32
0.0
 13
-108.2008163312404
 23
3.976287669853441
 33
0.0
  0
SOLID
  5
910
330
1E
100
AcDbEntity
  8
CONSTR
100
AcDbTrace
 10
-106.6508163312404
 20
0.7762876698534527
 30
0.0
 11
-106.6508163312404
 21
3.976287669853441
 31
0.0
 12
-106.6008163312404
 22
0.7762876698534527
 32
0.0
 13
-106.6008163312404
 23
3.976287669853441
 33
0.0
  0
SOLID
  5
911
330
1E
100
AcDbEntity
  8
CONSTR
100
AcDbTrace
 10
-108.2258163312404
 20
4.001287669853446
 30
0.0
 11
-106.6258163312404
 21
4.001287669853446
 31
0.0
 12
-108.2258163312404
 22
3.951287669853435
 32
0.0
 13
-106.6258163312404
 23
3.951287669853435
 33
0.0
  0
MTEXT
  5
912
330
1E
100
AcDbEntity
  8
CONSTR
100
AcDbMText
 10
-107.8644937844528
 20
2.6768081962432
 30
0.0
 40
0.5
 41
1.190299999999999
 71
     1
 72
     5
  1
56
 73
     1
 44
1.0
  0
INSERT
  5
913
330
1E
100
AcDbEntity
  8
CONSTR
100
AcDbBlockReference
  2
A$C06BE52D8
 10
-106.8370358351347
 20
2.779708913188102
 30
0.0
  0
MTEXT
  5
916
330
1E
100
AcDbEntity
  8
CONSTR
100
AcDbMText
 10
-106.4253977547465
 20
8.686807545194
 30
0.0
 40
0.5
 41
2.9127
 71
     1
 72
     5
  1
RFC
 73
     1
 44
1.0
  0
LWPOLYLINE
  5
966
330
1E
100
AcDbEntity
  8
0
100
AcDbPolyline
 90
        4
 70
     1
 43
0.0
 10
-116.685802920598
 20
-16.47966634991502
 10
17.81419707940199
 20
-16.47966634991502
 10
17.81419707940199
 20
13.52033365008497
 10
-116.685802920598
 20
13.52033365008497
  0
DIMENSION
  5
975
330
1E
100
AcDbEntity
  8
0
100
AcDbDimension
  2
*D6
 10
17.75827022919509
 20
19.96922550814668
 30
0.0
 11
-49.46829290354677
 21
19.96922550814668
 31
0.0
 70
    32
 71
     5
 42
134.4531262654837
  3
Standard
100
AcDbAlignedDimension
 13
-116.6948560362886
 23
16.48426882381323
 33
0.0
 14
17.75827022919509
 24
16.48426882381323
 34
0.0
100
AcDbRotatedDimension
  0
SOLID
  5
99B
330
1E
100
AcDbEntity
  8
METAL1
100
AcDbTrace
 10
-108.3178521543248
 20
4.010968445974164
 30
0.0
 11
-107.2002521543248
 21
4.010968445974164
 31
0.0
 12
-108.3178521543248
 22
5.687368445974165
 32
0.0
 13
-107.2002521543248
 23
5.687368445974165
 33
0.0
  0
SOLID
  5
9A9
330
1E
100
AcDbEntity
  8
METAL1
100
AcDbTrace
 10
-107.7047101331008
 20
4.003236171118608
 30
0.0
 11
-106.5871101331008
 21
4.003236171118608
 31
0.0
 12
-107.7047101331008
 22
5.679636171118609
 32
0.0
 13
-106.5871101331008
 23
5.679636171118609
 33
0.0
  0
SOLID
  5
9AF
330
1E
100
AcDbEntity
  8
METAL1
100
AcDbTrace
 10
-107.6961090647513
 20
-0.9567550120101984
 30
0.0
 11
-106.5785090647513
 21
-0.9567550120101984
 31
0.0
 12
-107.6961090647513
 22
0.7196449879898026
 32
0.0
 13
-106.5785090647513
 23
0.7196449879898026
 33
0.0
  0
ENDSEC
  0
SECTION
  2
OBJECTS
  0
DICTIONARY
  5
C
330
0
100
AcDbDictionary
281
     1
  3
ACAD_GROUP
350
D
  3
ACAD_LAYOUT
350
19
  3
ACAD_MLINESTYLE
350
16
  3
ACAD_PLOTSETTINGS
350
18
  3
ACAD_PLOTSTYLENAME
350
E
  3
AcDbVariableDictionary
350
1F4
  0
DICTIONARY
  5
23A
330
1E
100
AcDbDictionary
280
     1
281
     1
  3
ACAD_SORTENTS
360
23B
  0
DICTIONARY
  5
D
102
{ACAD_REACTORS
330
C
102
}
330
C
100
AcDbDictionary
281
     1
  0
DICTIONARY
  5
19
102
{ACAD_REACTORS
330
C
102
}
330
C
100
AcDbDictionary
281
     1
  3
Layout1
350
1D
  3
Model
350
21
  0
DICTIONARY
  5
16
102
{ACAD_REACTORS
330
C
102
}
330
C
100
AcDbDictionary
281
     1
  3
Standard
350
17
  0
DICTIONARY
  5
18
102
{ACAD_REACTORS
330
C
102
}
330
C
100
AcDbDictionary
281
     1
  0
ACDBDICTIONARYWDFLT
  5
E
102
{ACAD_REACTORS
330
C
102
}
330
C
100
AcDbDictionary
281
     1
  3
Normal
350
F
100
AcDbDictionaryWithDefault
340
F
  0
DICTIONARY
  5
1F4
102
{ACAD_REACTORS
330
C
102
}
330
C
100
AcDbDictionary
281
     1
  3
DIMASSOC
350
1F5
  3
SORTENTS
350
39D
  0
SORTENTSTABLE
  5
23B
102
{ACAD_REACTORS
330
23A
102
}
330
23A
100
AcDbSortentsTable
330
1E
331
7E9
  5
884
331
158
  5
AC
331
4FC
  5
73A
331
7A2
  5
7EB
331
376
  5
225
331
906
  5
912
331
74B
  5
7E3
331
90E
  5
966
331
975
  5
6D9
331
4BD
  5
303
331
916
  5
99D
331
91
  5
91
331
99
  5
75E
331
160
  5
AE
331
A9
  5
75F
331
75B
  5
7E8
331
B1
  5
7A6
331
3CE
  5
232
331
4DD
  5
71D
331
8EF
  5
636
331
6DC
  5
4DB
331
7E2
  5
835
331
8FF
  5
906
331
7EA
  5
88B
331
159
  5
7A7
331
188
  5
74B
331
4FD
  5
746
331
7A3
  5
7EC
331
190
  5
756
331
377
  5
226
331
7F2
  5
8F3
331
966
  5
6D8
331
90F
  5
975
331
4BE
  5
304
331
92
  5
92
331
161
  5
706
331
AA
  5
76D
331
B2
  5
96
331
268
  5
B4
331
4DE
  5
71E
331
8F0
  5
637
331
6DD
  5
4DC
331
7E3
  5
844
331
7EB
  5
895
331
15A
  5
7A8
331
7A4
  5
7ED
331
900
  5
90C
331
378
  5
22D
331
86A
  5
62D
331
80B
  5
8F9
331
7B4
  5
7F2
331
910
  5
999
331
4BF
  5
70E
331
93
  5
93
331
162
  5
707
331
AB
  5
79D
331
16A
  5
747
331
3C8
  5
22E
331
6B6
  5
7C1
331
9AF
  5
705
331
7C4
  5
824
331
172
  5
748
331
B3
  5
97
331
269
  5
7B8
331
6BE
  5
7DE
331
76D
  5
573
331
4DF
  5
321
331
8F1
  5
65A
331
7E4
  5
845
331
6DE
  5
4DD
331
79D
  5
7E9
331
8F9
  5
6BE
331
182
  5
B2
331
901
  5
90D
331
15B
  5
7B4
331
3F8
  5
2FD
331
7EC
  5
89C
331
746
  5
4FC
331
911
  5
99A
331
80C
  5
8FA
331
7B5
  5
80B
331
873
  5
62E
331
756
  5
4FE
331
824
  5
8FE
331
94
  5
94
331
163
  5
708
331
4C0
  5
70F
331
883
  5
62F
331
6B7
  5
7C4
331
AC
  5
79E
331
4C8
  5
711
331
88B
  5
631
331
B4
  5
98
331
26A
  5
DB
331
6BF
  5
7DF
331
8F2
  5
6B6
331
844
  5
62B
331
4E0
  5
322
331
6D7
  5
4C0
331
6DF
  5
4DE
331
8FA
  5
6BF
331
183
  5
B3
331
4F8
  5
324
331
7ED
  5
8EF
331
15C
  5
7B5
331
7A6
  5
7EE
331
902
  5
90E
331
7D
  5
90
331
747
  5
4FD
331
80D
  5
8FB
331
912
  5
99B
331
757
  5
4FF
331
825
  5
8FF
331
95
  5
95
331
164
  5
70D
331
4C1
  5
710
331
9A9
  5
702
331
AD
  5
7A1
331
884
  5
630
331
26B
  5
7C0
331
B5
  5
A8
331
4D9
  5
31E
331
835
  5
903
331
8F3
  5
6B7
331
4E1
  5
749
331
6D8
  5
4C1
331
7DE
  5
825
331
845
  5
62C
331
89C
  5
635
331
7E6
  5
86A
331
8FB
  5
6D7
331
4F9
  5
3CE
331
6E0
  5
4DF
331
7EE
  5
8F0
331
7A7
  5
7EF
331
903
  5
90F
331
748
  5
7E0
331
80E
  5
8FD
331
913
  5
99C
331
826
  5
900
331
96
  5
75A
331
165
  5
AF
331
758
  5
7E4
331
AE
  5
7A2
331
26C
  5
DC
331
4DA
  5
31F
331
4E2
  5
323
331
6D9
  5
4C8
331
7DF
  5
826
331
895
  5
634
331
7E7
  5
873
331
DE
  5
A9
331
4FA
  5
71F
331
6E1
  5
4E0
331
7EF
  5
8F1
331
592
  5
403
331
7A8
  5
7F0
331
904
  5
910
331
403
  5
757
331
749
  5
7E1
331
90C
  5
913
331
99B
  5
701
331
827
  5
901
331
97
  5
75B
331
166
  5
B0
331
759
  5
7E6
331
7B8
  5
80C
331
AF
  5
7A3
331
16E
  5
B1
331
7C0
  5
80D
331
82F
  5
902
331
3D4
  5
269
331
4DB
  5
712
331
4E3
  5
74A
331
6DA
  5
4D9
331
7E0
  5
827
331
8FD
  5
904
331
DF
  5
AA
331
7E8
  5
883
331
157
  5
AB
331
4FB
  5
734
331
6E2
  5
759
331
7A1
  5
7EA
331
15F
  5
AD
331
7F0
  5
8F2
331
905
  5
911
331
404
  5
758
331
613
  5
480
331
74A
  5
7E2
331
90D
  5
916
331
98
  5
75D
331
75A
  5
7E7
331
B0
  5
7A4
331
7C1
  5
80E
331
26E
  5
13E
331
4DC
  5
71C
331
296
  5
142
331
6DB
  5
4DA
331
7E1
  5
82F
331
8FE
  5
905
  0
LAYOUT
  5
1D
102
{ACAD_REACTORS
330
19
102
}
330
19
100
AcDbPlotSettings
  1

  2
E:\ACAD2000\plotters\HP LaserJet 5L.pc3
  4

  6

 40
0.0
 41
0.0
 42
0.0
 43
0.0
 44
0.0
 45
0.0
 46
0.0
 47
0.0
 48
0.0
 49
0.0
140
0.0
141
0.0
142
1.0
143
1.0
 70
   688
 72
     0
 73
     0
 74
     5
  7
acad.stb
 75
    16
147
1.0
148
0.0
149
0.0
100
AcDbLayout
  1
Layout1
 70
     1
 71
     1
 10
0.0
 20
0.0
 11
12.0
 21
9.0
 12
0.0
 22
0.0
 32
0.0
 14
1.000000000000000E+20
 24
1.000000000000000E+20
 34
1.000000000000000E+20
 15
-1.000000000000000E+20
 25
-1.000000000000000E+20
 35
-1.000000000000000E+20
146
0.0
 13
0.0
 23
0.0
 33
0.0
 16
1.0
 26
0.0
 36
0.0
 17
0.0
 27
1.0
 37
0.0
 76
     0
330
1A
  0
LAYOUT
  5
21
102
{ACAD_REACTORS
330
19
102
}
330
19
100
AcDbPlotSettings
  1

  2
E:\ACAD2000\plotters\HP LaserJet 5L.pc3
  4

  6

 40
0.0
 41
0.0
 42
0.0
 43
0.0
 44
0.0
 45
0.0
 46
0.0
 47
0.0
 48
0.0
 49
0.0
140
0.0
141
0.0
142
1.0
143
1.0
 70
  1712
 72
     0
 73
     0
 74
     0
  7
acad.stb
 75
     0
147
1.0
148
0.0
149
0.0
100
AcDbLayout
  1
Model
 70
     1
 71
     0
 10
0.0
 20
0.0
 11
12.0
 21
9.0
 12
0.0
 22
0.0
 32
0.0
 14
0.0
 24
0.0
 34
0.0
 15
0.0
 25
0.0
 35
0.0
146
0.0
 13
0.0
 23
0.0
 33
0.0
 16
1.0
 26
0.0
 36
0.0
 17
0.0
 27
1.0
 37
0.0
 76
     0
330
1E
  0
MLINESTYLE
  5
17
102
{ACAD_REACTORS
330
16
102
}
330
16
100
AcDbMlineStyle
  2
STANDARD
 70
     0
  3

 62
   256
 51
90.0
 52
90.0
 71
     2
 49
0.5
 62
   256
  6
BYLAYER
 49
-0.5
 62
   256
  6
BYLAYER
  0
ACDBPLACEHOLDER
  5
F
102
{ACAD_REACTORS
330
E
102
}
330
E
  0
DICTIONARYVAR
  5
1F5
102
{ACAD_REACTORS
330
1F4
102
}
330
1F4
100
DictionaryVariables
280
     0
  1
1
  0
DICTIONARYVAR
  5
39D
102
{ACAD_REACTORS
330
1F4
102
}
330
1F4
100
DictionaryVariables
280
     0
  1
127
  0
ENDSEC
  0
EOF
