  0
SECTION
  2
HEADER
  9
$ACADVER
  1
AC1015
  9
$ACADMAINTVER
 70
    13
  9
$DWGCODEPAGE
  3
ANSI_1252
  9
$INSBASE
 10
0.0
 20
0.0
 30
0.0
  9
$EXTMIN
 10
-0.7836717213406459
 20
-13.00085077365007
 30
0.0
  9
$EXTMAX
 10
31.32895765371778
 20
8.42600927558638
 30
0.0
  9
$LIMMIN
 10
0.0
 20
0.0
  9
$LIMMAX
 10
12.0
 20
9.0
  9
$ORTHOMODE
 70
     0
  9
$REGENMODE
 70
     1
  9
$FILLMODE
 70
     1
  9
$QTEXTMODE
 70
     0
  9
$MIRRTEXT
 70
     1
  9
$LTSCALE
 40
1.0
  9
$ATTMODE
 70
     1
  9
$TEXTSIZE
 40
0.2
  9
$TRACEWID
 40
0.05
  9
$TEXTSTYLE
  7
Standard
  9
$CLAYER
  8
NODRAW
  9
$CELTYPE
  6
ByLayer
  9
$CECOLOR
 62
   256
  9
$CELTSCALE
 40
1.0
  9
$DISPSILH
 70
     0
  9
$DIMSCALE
 40
1.0
  9
$DIMASZ
 40
1.8
  9
$DIMEXO
 40
0.0625
  9
$DIMDLI
 40
0.38
  9
$DIMRND
 40
0.0
  9
$DIMDLE
 40
0.0
  9
$DIMEXE
 40
0.18
  9
$DIMTP
 40
0.0
  9
$DIMTM
 40
0.0
  9
$DIMTXT
 40
0.18
  9
$DIMCEN
 40
0.09
  9
$DIMTSZ
 40
0.0
  9
$DIMTOL
 70
     0
  9
$DIMLIM
 70
     0
  9
$DIMTIH
 70
     1
  9
$DIMTOH
 70
     1
  9
$DIMSE1
 70
     0
  9
$DIMSE2
 70
     0
  9
$DIMTAD
 70
     0
  9
$DIMZIN
 70
     0
  9
$DIMBLK
  1

  9
$DIMASO
 70
     1
  9
$DIMSHO
 70
     1
  9
$DIMPOST
  1

  9
$DIMAPOST
  1

  9
$DIMALT
 70
     0
  9
$DIMALTD
 70
     2
  9
$DIMALTF
 40
25.4
  9
$DIMLFAC
 40
1.0
  9
$DIMTOFL
 70
     0
  9
$DIMTVP
 40
0.0
  9
$DIMTIX
 70
     0
  9
$DIMSOXD
 70
     0
  9
$DIMSAH
 70
     0
  9
$DIMBLK1
  1

  9
$DIMBLK2
  1

  9
$DIMSTYLE
  2
Standard
  9
$DIMCLRD
 70
     0
  9
$DIMCLRE
 70
     0
  9
$DIMCLRT
 70
     0
  9
$DIMTFAC
 40
1.0
  9
$DIMGAP
 40
0.09
  9
$DIMJUST
 70
     0
  9
$DIMSD1
 70
     0
  9
$DIMSD2
 70
     0
  9
$DIMTOLJ
 70
     1
  9
$DIMTZIN
 70
     0
  9
$DIMALTZ
 70
     0
  9
$DIMALTTZ
 70
     0
  9
$DIMUPT
 70
     0
  9
$DIMDEC
 70
     4
  9
$DIMTDEC
 70
     4
  9
$DIMALTU
 70
     2
  9
$DIMALTTD
 70
     2
  9
$DIMTXSTY
  7
Standard
  9
$DIMAUNIT
 70
     0
  9
$DIMADEC
 70
     0
  9
$DIMALTRND
 40
0.0
  9
$DIMAZIN
 70
     0
  9
$DIMDSEP
 70
    46
  9
$DIMATFIT
 70
     3
  9
$DIMFRAC
 70
     0
  9
$DIMLDRBLK
  1

  9
$DIMLUNIT
 70
     2
  9
$DIMLWD
 70
    -2
  9
$DIMLWE
 70
    -2
  9
$DIMTMOVE
 70
     0
  9
$LUNITS
 70
     2
  9
$LUPREC
 70
     4
  9
$SKETCHINC
 40
0.1
  9
$FILLETRAD
 40
0.0
  9
$AUNITS
 70
     0
  9
$AUPREC
 70
     0
  9
$MENU
  1
.
  9
$ELEVATION
 40
0.0
  9
$PELEVATION
 40
0.0
  9
$THICKNESS
 40
0.0
  9
$LIMCHECK
 70
     0
  9
$CHAMFERA
 40
0.0
  9
$CHAMFERB
 40
0.0
  9
$CHAMFERC
 40
0.0
  9
$CHAMFERD
 40
0.0
  9
$SKPOLY
 70
     0
  9
$TDCREATE
 40
2452050.803578356
  9
$TDUCREATE
 40
2452050.720245023
  9
$TDUPDATE
 40
2452548.485642639
  9
$TDUUPDATE
 40
2452548.402309305
  9
$TDINDWG
 40
0.0452581134
  9
$TDUSRTIMER
 40
0.0452581134
  9
$USRTIMER
 70
     1
  9
$ANGBASE
 50
0.0
  9
$ANGDIR
 70
     0
  9
$PDMODE
 70
     0
  9
$PDSIZE
 40
0.0
  9
$PLINEWID
 40
0.0
  9
$SPLFRAME
 70
     0
  9
$SPLINETYPE
 70
     6
  9
$SPLINESEGS
 70
     8
  9
$HANDSEED
  5
294
  9
$SURFTAB1
 70
     6
  9
$SURFTAB2
 70
     6
  9
$SURFTYPE
 70
     6
  9
$SURFU
 70
     6
  9
$SURFV
 70
     6
  9
$UCSBASE
  2

  9
$UCSNAME
  2

  9
$UCSORG
 10
0.0
 20
0.0
 30
0.0
  9
$UCSXDIR
 10
1.0
 20
0.0
 30
0.0
  9
$UCSYDIR
 10
0.0
 20
1.0
 30
0.0
  9
$UCSORTHOREF
  2

  9
$UCSORTHOVIEW
 70
     0
  9
$UCSORGTOP
 10
0.0
 20
0.0
 30
0.0
  9
$UCSORGBOTTOM
 10
0.0
 20
0.0
 30
0.0
  9
$UCSORGLEFT
 10
0.0
 20
0.0
 30
0.0
  9
$UCSORGRIGHT
 10
0.0
 20
0.0
 30
0.0
  9
$UCSORGFRONT
 10
0.0
 20
0.0
 30
0.0
  9
$UCSORGBACK
 10
0.0
 20
0.0
 30
0.0
  9
$PUCSBASE
  2

  9
$PUCSNAME
  2

  9
$PUCSORG
 10
0.0
 20
0.0
 30
0.0
  9
$PUCSXDIR
 10
1.0
 20
0.0
 30
0.0
  9
$PUCSYDIR
 10
0.0
 20
1.0
 30
0.0
  9
$PUCSORTHOREF
  2

  9
$PUCSORTHOVIEW
 70
     0
  9
$PUCSORGTOP
 10
0.0
 20
0.0
 30
0.0
  9
$PUCSORGBOTTOM
 10
0.0
 20
0.0
 30
0.0
  9
$PUCSORGLEFT
 10
0.0
 20
0.0
 30
0.0
  9
$PUCSORGRIGHT
 10
0.0
 20
0.0
 30
0.0
  9
$PUCSORGFRONT
 10
0.0
 20
0.0
 30
0.0
  9
$PUCSORGBACK
 10
0.0
 20
0.0
 30
0.0
  9
$USERI1
 70
     0
  9
$USERI2
 70
     0
  9
$USERI3
 70
     0
  9
$USERI4
 70
     0
  9
$USERI5
 70
     0
  9
$USERR1
 40
0.0
  9
$USERR2
 40
0.0
  9
$USERR3
 40
0.0
  9
$USERR4
 40
0.0
  9
$USERR5
 40
0.0
  9
$WORLDVIEW
 70
     1
  9
$SHADEDGE
 70
     3
  9
$SHADEDIF
 70
    70
  9
$TILEMODE
 70
     1
  9
$MAXACTVP
 70
    64
  9
$PINSBASE
 10
0.0
 20
0.0
 30
0.0
  9
$PLIMCHECK
 70
     0
  9
$PEXTMIN
 10
1.000000000000000E+20
 20
1.000000000000000E+20
 30
1.000000000000000E+20
  9
$PEXTMAX
 10
-1.000000000000000E+20
 20
-1.000000000000000E+20
 30
-1.000000000000000E+20
  9
$PLIMMIN
 10
0.0
 20
0.0
  9
$PLIMMAX
 10
12.0
 20
9.0
  9
$UNITMODE
 70
     0
  9
$VISRETAIN
 70
     1
  9
$PLINEGEN
 70
     0
  9
$PSLTSCALE
 70
     1
  9
$TREEDEPTH
 70
  3020
  9
$CMLSTYLE
  2
Standard
  9
$CMLJUST
 70
     0
  9
$CMLSCALE
 40
1.0
  9
$PROXYGRAPHICS
 70
     1
  9
$MEASUREMENT
 70
     0
  9
$CELWEIGHT
370
    -1
  9
$ENDCAPS
280
     0
  9
$JOINSTYLE
280
     0
  9
$LWDISPLAY
290
     1
  9
$INSUNITS
 70
     0
  9
$HYPERLINKBASE
  1

  9
$STYLESHEET
  1

  9
$XEDIT
290
     1
  9
$CEPSNTYPE
380
     0
  9
$PSTYLEMODE
290
     1
  9
$FINGERPRINTGUID
  2
{0BFF41AF-C5DE-4A22-B13F-7ED6DA6789AD}
  9
$VERSIONGUID
  2
{3A89DA49-09C3-4371-88BE-FF6C61411968}
  9
$EXTNAMES
290
     1
  9
$PSVPSCALE
 40
0.0
  9
$OLESTARTUP
290
     0
  0
ENDSEC
  0
SECTION
  2
CLASSES
  0
CLASS
  1
ACDBDICTIONARYWDFLT
  2
AcDbDictionaryWithDefault
  3
AutoCAD 2000
 90
        0
280
     0
281
     0
  0
CLASS
  1
ACDBPLACEHOLDER
  2
AcDbPlaceHolder
  3
AutoCAD 2000
 90
        0
280
     0
281
     0
  0
CLASS
  1
LAYOUT
  2
AcDbLayout
  3
AutoCAD 2000
 90
        0
280
     0
281
     0
  0
CLASS
  1
DICTIONARYVAR
  2
AcDbDictionaryVar
  3
AutoCAD 2000
 90
        0
280
     0
281
     0
  0
CLASS
  1
SORTENTSTABLE
  2
AcDbSortentsTable
  3
AutoCAD 2000
 90
        0
280
     0
281
     0
  0
ENDSEC
  0
SECTION
  2
TABLES
  0
TABLE
  2
VPORT
  5
8
330
0
100
AcDbSymbolTable
 70
     2
  0
VPORT
  5
293
330
8
100
AcDbSymbolTableRecord
100
AcDbViewportTableRecord
  2
*Active
 70
     0
 10
0.0
 20
0.0
 11
1.0
 21
1.0
 12
15.27351304509173
 22
-2.287278354089959
 13
0.0
 23
0.0
 14
1.0
 24
1.0
 15
0.0
 25
0.0
 16
0.0
 26
0.0
 36
1.0
 17
0.0
 27
0.0
 37
0.0
 40
22.28688164801555
 41
1.448317307692307
 42
50.0
 43
0.0
 44
0.0
 50
0.0
 51
0.0
 71
     0
 72
   100
 73
     1
 74
     2
 75
     0
 76
     0
 77
     0
 78
     0
281
     0
 65
     1
110
0.0
120
0.0
130
0.0
111
1.0
121
0.0
131
0.0
112
0.0
122
1.0
132
0.0
 79
     0
146
0.0
  0
ENDTAB
  0
TABLE
  2
LTYPE
  5
5
330
0
100
AcDbSymbolTable
 70
     1
  0
LTYPE
  5
13
330
5
100
AcDbSymbolTableRecord
100
AcDbLinetypeTableRecord
  2
ByBlock
 70
     0
  3

 72
    65
 73
     0
 40
0.0
  0
LTYPE
  5
14
330
5
100
AcDbSymbolTableRecord
100
AcDbLinetypeTableRecord
  2
ByLayer
 70
     0
  3

 72
    65
 73
     0
 40
0.0
  0
LTYPE
  5
15
330
5
100
AcDbSymbolTableRecord
100
AcDbLinetypeTableRecord
  2
Continuous
 70
     0
  3
Solid line
 72
    65
 73
     0
 40
0.0
  0
ENDTAB
  0
TABLE
  2
LAYER
  5
2
330
0
100
AcDbSymbolTable
 70
     6
  0
LAYER
  5
10
330
2
100
AcDbSymbolTableRecord
100
AcDbLayerTableRecord
  2
0
 70
     0
 62
     2
  6
Continuous
370
    -3
390
F
  0
LAYER
  5
22
330
2
100
AcDbSymbolTableRecord
100
AcDbLayerTableRecord
  2
NODRAW
 70
     0
 62
     7
  6
Continuous
370
    -3
390
F
  0
LAYER
  5
25
330
2
100
AcDbSymbolTableRecord
100
AcDbLayerTableRecord
  2
CONSTR
 70
     0
 62
    -7
  6
Continuous
370
    -3
390
F
  0
LAYER
  5
27
330
2
100
AcDbSymbolTableRecord
100
AcDbLayerTableRecord
  2
METAL1
 70
     0
 62
     7
  6
Continuous
370
    -3
390
F
  0
LAYER
  5
6A
330
2
100
AcDbSymbolTableRecord
100
AcDbLayerTableRecord
  2
GND
 70
     0
 62
     9
  6
Continuous
370
    -3
390
F
  0
LAYER
  5
1E8
330
2
100
AcDbSymbolTableRecord
100
AcDbLayerTableRecord
  2
Defpoints
 70
     0
 62
     7
  6
Continuous
290
     0
370
    -3
390
F
  0
ENDTAB
  0
TABLE
  2
STYLE
  5
3
330
0
100
AcDbSymbolTable
 70
     1
  0
STYLE
  5
11
330
3
100
AcDbSymbolTableRecord
100
AcDbTextStyleTableRecord
  2
Standard
 70
     0
 40
1.0
 41
1.0
 50
0.0
 71
     0
 42
0.2
  3
txt.shx
  4

  0
ENDTAB
  0
TABLE
  2
VIEW
  5
6
330
0
100
AcDbSymbolTable
 70
     0
  0
ENDTAB
  0
TABLE
  2
UCS
  5
7
330
0
100
AcDbSymbolTable
 70
     0
  0
ENDTAB
  0
TABLE
  2
APPID
  5
9
330
0
100
AcDbSymbolTable
 70
     1
  0
APPID
  5
12
330
9
100
AcDbSymbolTableRecord
100
AcDbRegAppTableRecord
  2
ACAD
 70
     0
  0
ENDTAB
  0
TABLE
  2
DIMSTYLE
  5
A
330
0
100
AcDbSymbolTable
 70
     1
100
AcDbDimStyleTable
 71
     1
340
A9
  0
DIMSTYLE
105
A9
102
{ACAD_REACTORS
330
25D
330
26B
102
}
330
A
100
AcDbSymbolTableRecord
100
AcDbDimStyleTableRecord
  2
Standard
 70
     0
 41
1.8
340
11
  0
ENDTAB
  0
TABLE
  2
BLOCK_RECORD
  5
1
330
0
100
AcDbSymbolTable
 70
    21
  0
BLOCK_RECORD
  5
1E
102
{ACAD_XDICTIONARY
360
AE
102
}
330
1
100
AcDbSymbolTableRecord
100
AcDbBlockTableRecord
  2
*Model_Space
340
21
  0
BLOCK_RECORD
  5
1A
330
1
100
AcDbSymbolTableRecord
100
AcDbBlockTableRecord
  2
*Paper_Space
340
1D
  0
BLOCK_RECORD
  5
B1
330
1
100
AcDbSymbolTableRecord
100
AcDbBlockTableRecord
  2
A$C0CF152EB
340
0
  0
BLOCK_RECORD
  5
BD
330
1
100
AcDbSymbolTableRecord
100
AcDbBlockTableRecord
  2
A$C1E5C78D8
340
0
  0
BLOCK_RECORD
  5
CF
330
1
100
AcDbSymbolTableRecord
100
AcDbBlockTableRecord
  2
A$C34295E59
340
0
102
{BLKREFS
331
DF
102
}
  0
BLOCK_RECORD
  5
E1
330
1
100
AcDbSymbolTableRecord
100
AcDbBlockTableRecord
  2
A$C56102C05
340
0
102
{BLKREFS
331
E8
102
}
  0
BLOCK_RECORD
  5
EA
330
1
100
AcDbSymbolTableRecord
100
AcDbBlockTableRecord
  2
A$C530702CF
340
0
102
{BLKREFS
331
F1
102
}
  0
BLOCK_RECORD
  5
F3
330
1
100
AcDbSymbolTableRecord
100
AcDbBlockTableRecord
  2
A$C66C17BFD
340
0
  0
BLOCK_RECORD
  5
100
330
1
100
AcDbSymbolTableRecord
100
AcDbBlockTableRecord
  2
A$C32120025
340
0
102
{BLKREFS
331
106
102
}
  0
BLOCK_RECORD
  5
108
330
1
100
AcDbSymbolTableRecord
100
AcDbBlockTableRecord
  2
A$C38B95C03
340
0
102
{BLKREFS
331
10F
102
}
  0
BLOCK_RECORD
  5
116
330
1
100
AcDbSymbolTableRecord
100
AcDbBlockTableRecord
  2
A$C2AC77581
340
0
102
{BLKREFS
331
11B
331
11C
331
11D
102
}
  0
BLOCK_RECORD
  5
128
330
1
100
AcDbSymbolTableRecord
100
AcDbBlockTableRecord
  2
A$C6AFA7598
340
0
102
{BLKREFS
331
12D
102
}
  0
BLOCK_RECORD
  5
12E
330
1
100
AcDbSymbolTableRecord
100
AcDbBlockTableRecord
  2
elkon
340
0
310
28000000200000002000000001000800000000000004000000000000000000000000000000000000000000004000000080000000FF000000002000004020000080200000FF200000004000004040000080400000FF400000006000004060000080600000FF600000008000004080000080800000FF80000000A0000040A000
310
0080A00000FFA0000000C0000040C0000080C00000FFC0000000FF000040FF000080FF0000FFFF0000000020004000200080002000FF002000002020004020200080202000FF202000004020004040200080402000FF402000006020004060200080602000FF602000008020004080200080802000FF80200000A0200040A0
310
200080A02000FFA0200000C0200040C0200080C02000FFC0200000FF200040FF200080FF2000FFFF2000000040004000400080004000FF004000002040004020400080204000FF204000004040004040400080404000FF404000006040004060400080604000FF604000008040004080400080804000FF80400000A0400040
310
A0400080A04000FFA0400000C0400040C0400080C04000FFC0400000FF400040FF400080FF4000FFFF4000000060004000600080006000FF006000002060004020600080206000FF206000004060004040600080406000FF406000006060004060600080606000FF606000008060004080600080806000FF80600000A06000
310
40A0600080A06000FFA0600000C0600040C0600080C06000FFC0600000FF600040FF600080FF6000FFFF6000000080004000800080008000FF008000002080004020800080208000FF208000004080004040800080408000FF408000006080004060800080608000FF608000008080004080800080808000FF80800000A080
310
0040A0800080A08000FFA0800000C0800040C0800080C08000FFC0800000FF800040FF800080FF8000FFFF80000000A0004000A0008000A000FF00A0000020A0004020A0008020A000FF20A0000040A0004040A0008040A000FF40A0000060A0004060A0008060A000FF60A0000080A0004080A0008080A000FF80A00000A0
310
A00040A0A00080A0A000FFA0A00000C0A00040C0A00080C0A000FFC0A00000FFA00040FFA00080FFA000FFFFA0000000C0004000C0008000C000FF00C0000020C0004020C0008020C000FF20C0000040C0004040C0008040C000FF40C0000060C0004060C0008060C000FF60C0000080C0004080C0008080C000FF80C00000
310
A0C00040A0C00080A0C000FFA0C00000C0C00040C0C00080C0C000FFC0C00000FFC00040FFC00080FFC000FFFFC0000000FF004000FF008000FF00FF00FF000020FF004020FF008020FF00FF20FF000040FF004040FF008040FF00FF40FF000060FF004060FF008060FF00FF60FF000080FF004080FF008080FF00FF80FF00
310
00A0FF0040A0FF0080A0FF00FFA0FF0000C0FF0040C0FF0080C0FF00FFC0FF0000FFFF0040FFFF0080FFFF00FFFFFF000000000000000000000000000000000000000000000000000000000000000000000000000000000000000000000000FF00000000000000000000000000000000000000000000000000000000000000
310
FF00000000000000000000000000000000000000000000000000000000000000FF00000000000000000000000000000000000000000000000000000000000000FF00000000000000000000000000000000000000000000000000000000000000FF000000000000000000000000000000000000000000000000000000000000
310
00FF00000000000000000000000000000000000000000000000000000000000000FF00000000000000000000000000000000000000000000000000000000000000FF00000000000000000000000000000000000000000000000000000000000000FF0000000000000000000000000000000000000000000000000000000000
310
0000FF00000000000000000000000000000000000000000000000000000000000000FF0000000000000000000000000000000000000000FFFFFFFFFFFFFFFFFFFFFFFFFFFFFFFFFFFFFFFFFFFFFFFF0000000000000000FF00000000000000000000000000000000000000000000FF0000000000000000FF00000000000000
310
000000000000000000000000000000FF0000000000000000FFFFFFFFFFFFFFFFFFFFFFFFFFFFFFFFFFFFFFFFFFFFFFFF00000000000000000000000000000000000000000000000000000000000000000000000000000000FFFFFFFFFFFFFFFFFFFFFFFFFFFFFFFFFFFFFFFFFFFFFFFF0000000000000000FF0000FFFFFFFF
310
FFFF000000000000FFFFFFFFFFFF0000FF0000000000000000FF0000000000FFFFFFFFFFFFFFFFFFFFFF000000000000FF0000000000000000FFFFFFFFFFFFFFFFFFFFFFFFFFFFFFFFFFFFFFFFFFFFFFFF00000000000000000000000000000000000000FF0000000000000000000000000000000000000000000000000000
310
0000000000FF00000000000000000000000000000000000000000000000000000000000000FF00000000000000000000000000000000000000000000000000000000000000FF00000000000000000000000000000000000000000000000000000000000000FF00000000000000000000000000000000000000000000000000
310
000000000000FF00000000000000000000000000000000000000000000000000000000000000FF00000000000000000000000000000000000000000000000000000000000000FF00000000000000000000000000000000000000000000000000000000000000FF000000000000000000000000000000000000000000000000
310
00000000000000FF000000000000000000000000000000000000000000000000000000000000000000000000000000000000000000000000
102
{BLKREFS
331
170
331
171
102
}
  0
BLOCK_RECORD
  5
136
330
1
100
AcDbSymbolTableRecord
100
AcDbBlockTableRecord
  2
Inductor
340
0
310
280000002000000020000000010004000000000000020000000000000000000000000000000000000000000000008000008000000080800080000000800080008080000080808000C0C0C0000000FF0000FF000000FFFF00FF000000FF00FF00FFFF0000FFFFFF00FFFFFFFFFFFFFFFFFFFFFFFFFFFFFFFFFFFFFFFFFFFFFF
310
FFFFFFFFFFFFFFFFFFFFFFFFFFFFFFFFFFFFFFFFFFFFFFFFFFFFFFFFFFFFFFFFFFFFFFFFFFFFFFFFFFFFFFFFFFFFFFFFFFFFFFFFFFFFFFFFFFFFFFFFFFFFFFFFFFFFFFFFFFFFFFFFFFFFFFFFFFFFFFFFFFFFFFFFFFFFFFFFFFFFFFFFFFFFFFFFFFFFFFFFFFFFFFFFFFFFFFFFFFFFFFFFFFFFFFFFFFFFFFFFFFFFFFFFFFFFFF
310
FFFFFFFFFFFFFFFFFFFFFFFFFFFFFFFFFFFFFFFFFFFFFFFFFFFFFFFFFFFFFFFFFFFFFFFFFFFFFFFFFFFF0000FFFFFFFF0FFFFFF0FFFFFFF0000FFFF0FFFFFFF00FFFFFF0FFFFFFF0FFFFFFF0FFFFFFF00FFFFFF00FFFFFFF0FFFFFF0FFFFFFF00FFFFF0F0FFFFFFF0FFFFFF0FFFFFFF0F0FFFF0F0FFFFFFF0FFFFFFF0FFFFF
310
F00FFFFFF00FFFFFF0FFFFFFFF0FFFFFF00FFFFFF0FFFFFF0FFFFFFFFFF0FFFFF0F0FFFF0F0FFFFF0FFFFFFFFFFF00000FFF0000FFF00000FFFFFFFFFFFFFFFFFFFFFFFFFFFFFFFFFFFFFFFFFFFFFFFFFFFFFFFFFFFFFFFFFFFFFFFFFFFFFFFFFFFFFFFFFFFFFFFFFFFFFFFFFFFFFFFFFFFFFFFFFFFFFFFFFFFFFFFFFFFFFF
310
FFFFFFFFFFFFFFFFFFFFFFFFFFFFFFFFFFFFFFFFFFFFFFFFFFFFFFFFFFFFFFFFFFFFFFFFFFFFFFFFFFFFFFFFFFFFFFFFFFFFFFFFFFFFFFFFFFFFFFFFFFFFFFFFFFFFFFFFFFFFFFFFFFFFFFFFFFFFFFFFFFFFFFFFFFFFFFFFFFFFFFFFFFFFFFFFFFFFFFFFFFFFFFFFFFFFFFFF
102
{BLKREFS
331
144
102
}
1001
ACAD
1000
DesignCenter Data
1002
{
1070
     1
1070
     1
1002
}
  0
BLOCK_RECORD
  5
13E
330
1
100
AcDbSymbolTableRecord
100
AcDbBlockTableRecord
  2
conpoint
340
0
310
28000000200000002000000001000800000000000004000000000000000000000000000000000000000000004000000080000000FF000000002000004020000080200000FF200000004000004040000080400000FF400000006000004060000080600000FF600000008000004080000080800000FF80000000A0000040A000
310
0080A00000FFA0000000C0000040C0000080C00000FFC0000000FF000040FF000080FF0000FFFF0000000020004000200080002000FF002000002020004020200080202000FF202000004020004040200080402000FF402000006020004060200080602000FF602000008020004080200080802000FF80200000A0200040A0
310
200080A02000FFA0200000C0200040C0200080C02000FFC0200000FF200040FF200080FF2000FFFF2000000040004000400080004000FF004000002040004020400080204000FF204000004040004040400080404000FF404000006040004060400080604000FF604000008040004080400080804000FF80400000A0400040
310
A0400080A04000FFA0400000C0400040C0400080C04000FFC0400000FF400040FF400080FF4000FFFF4000000060004000600080006000FF006000002060004020600080206000FF206000004060004040600080406000FF406000006060004060600080606000FF606000008060004080600080806000FF80600000A06000
310
40A0600080A06000FFA0600000C0600040C0600080C06000FFC0600000FF600040FF600080FF6000FFFF6000000080004000800080008000FF008000002080004020800080208000FF208000004080004040800080408000FF408000006080004060800080608000FF608000008080004080800080808000FF80800000A080
310
0040A0800080A08000FFA0800000C0800040C0800080C08000FFC0800000FF800040FF800080FF8000FFFF80000000A0004000A0008000A000FF00A0000020A0004020A0008020A000FF20A0000040A0004040A0008040A000FF40A0000060A0004060A0008060A000FF60A0000080A0004080A0008080A000FF80A00000A0
310
A00040A0A00080A0A000FFA0A00000C0A00040C0A00080C0A000FFC0A00000FFA00040FFA00080FFA000FFFFA0000000C0004000C0008000C000FF00C0000020C0004020C0008020C000FF20C0000040C0004040C0008040C000FF40C0000060C0004060C0008060C000FF60C0000080C0004080C0008080C000FF80C00000
310
A0C00040A0C00080A0C000FFA0C00000C0C00040C0C00080C0C000FFC0C00000FFC00040FFC00080FFC000FFFFC0000000FF004000FF008000FF00FF00FF000020FF004020FF008020FF00FF20FF000040FF004040FF008040FF00FF40FF000060FF004060FF008060FF00FF60FF000080FF004080FF008080FF00FF80FF00
310
00A0FF0040A0FF0080A0FF00FFA0FF0000C0FF0040C0FF0080C0FF00FFC0FF0000FFFF0040FFFF0080FFFF00FFFFFF000000000000000000000000000000000000000000000000000000000000000000000000000000000000000000000000FFFFFF000000000000000000000000000000000000000000000000FFFFFFFFFF
310
FF00FFFFFF0000000000000000000000000000000000000000FFFF0000FFFF0000000000FFFFFFFF00000000000000000000000000000000FF0000FFFF000000000000000000FFFFFFFF00000000000000000000000000FF00FFFF00000000000000000000000000FFFFFF0000000000000000000000FFFFFF000000000000
310
0000000000000000000000FFFF000000000000000000FF00FF00000000000000000000000000000000000000FFFF0000000000000000FFFF0000000000000000000000000000000000000000FFFF00000000000000FF00FF000000000000000000000000000000000000000000FFFF000000000000FFFF0000000000000000
310
0000000000000000000000000000FF00FF00000000FF00FF0000000000000000000000000000000000000000000000FFFF00000000FFFF000000000000000000000000000000000000000000000000FFFF00000000FFFF00000000000000000000000000000000000000000000000000FF000000FFFF000000000000000000
310
0000000000000000000000000000000000FF000000FFFF000000000000000000000000000000000000000000000000000000FF0000FF00000000000000000000000000000000000000000000000000000000FF0000FFFF0000000000000000000000000000000000000000000000000000FFFF000000FF0000000000000000
310
000000000000000000000000000000000000FF00000000FFFF000000000000000000000000000000000000000000000000FFFF00000000FFFF000000000000000000000000000000000000000000000000FFFF0000000000FFFF00000000000000000000000000000000000000000000FF00FF0000000000FFFF0000000000
310
0000000000000000000000000000000000FFFF00000000000000FFFF0000000000000000000000000000000000000000FFFF0000000000000000FFFF0000000000000000000000000000000000000000FFFF000000000000000000FFFF000000000000000000000000000000000000FFFF0000000000000000000000FFFFFF
310
0000000000000000000000000000FFFFFF00000000000000000000000000FF00FFFF00000000000000000000FFFFFFFF000000000000000000000000000000FFFF00FFFF000000000000FFFFFFFF00000000000000000000000000000000000000FFFFFFFFFF0000FFFFFFFF00000000000000000000000000000000000000
310
00000000000000FFFFFF00000000000000000000000000000000000000000000000000000000000000000000000000000000000000000000
102
{BLKREFS
331
145
331
146
102
}
1001
ACAD
1000
DesignCenter Data
1002
{
1070
     1
1070
     1
1002
}
  0
BLOCK_RECORD
  5
143
330
1
100
AcDbSymbolTableRecord
100
AcDbBlockTableRecord
  2
ind
340
0
310
28000000200000002000000001000800000000000004000000000000000000000000000000000000000000004000000080000000FF000000002000004020000080200000FF200000004000004040000080400000FF400000006000004060000080600000FF600000008000004080000080800000FF80000000A0000040A000
310
0080A00000FFA0000000C0000040C0000080C00000FFC0000000FF000040FF000080FF0000FFFF0000000020004000200080002000FF002000002020004020200080202000FF202000004020004040200080402000FF402000006020004060200080602000FF602000008020004080200080802000FF80200000A0200040A0
310
200080A02000FFA0200000C0200040C0200080C02000FFC0200000FF200040FF200080FF2000FFFF2000000040004000400080004000FF004000002040004020400080204000FF204000004040004040400080404000FF404000006040004060400080604000FF604000008040004080400080804000FF80400000A0400040
310
A0400080A04000FFA0400000C0400040C0400080C04000FFC0400000FF400040FF400080FF4000FFFF4000000060004000600080006000FF006000002060004020600080206000FF206000004060004040600080406000FF406000006060004060600080606000FF606000008060004080600080806000FF80600000A06000
310
40A0600080A06000FFA0600000C0600040C0600080C06000FFC0600000FF600040FF600080FF6000FFFF6000000080004000800080008000FF008000002080004020800080208000FF208000004080004040800080408000FF408000006080004060800080608000FF608000008080004080800080808000FF80800000A080
310
0040A0800080A08000FFA0800000C0800040C0800080C08000FFC0800000FF800040FF800080FF8000FFFF80000000A0004000A0008000A000FF00A0000020A0004020A0008020A000FF20A0000040A0004040A0008040A000FF40A0000060A0004060A0008060A000FF60A0000080A0004080A0008080A000FF80A00000A0
310
A00040A0A00080A0A000FFA0A00000C0A00040C0A00080C0A000FFC0A00000FFA00040FFA00080FFA000FFFFA0000000C0004000C0008000C000FF00C0000020C0004020C0008020C000FF20C0000040C0004040C0008040C000FF40C0000060C0004060C0008060C000FF60C0000080C0004080C0008080C000FF80C00000
310
A0C00040A0C00080A0C000FFA0C00000C0C00040C0C00080C0C000FFC0C00000FFC00040FFC00080FFC000FFFFC0000000FF004000FF008000FF00FF00FF000020FF004020FF008020FF00FF20FF000040FF004040FF008040FF00FF40FF000060FF004060FF008060FF00FF60FF000080FF004080FF008080FF00FF80FF00
310
00A0FF0040A0FF0080A0FF00FFA0FF0000C0FF0040C0FF0080C0FF00FFC0FF0000FFFF0040FFFF0080FFFF00FFFFFF0000000000000000000000000000000000000000000000000000000000000000000000000000000000000000000000000000FFFF00000000000000000000000000000000000000000000000000000000
310
00FFFFFFFF00000000000000000000000000000000000000000000000000000000FF0000FF00000000000000000000000000000000000000000000000000000000FFFFFFFF000000000000000000000000000000000000000000000000000000000000FF000000000000000000000000000000000000000000000000000000
310
FFFFFFFFFF0000000000000000000000000000000000000000000000000000FF00000000FF00000000000000000000000000000000000000000000000000FF00000000000000000000000000000000000000000000000000000000000000FF00000000000000000000000000000000000000000000000000000000000000FF
310
00000000000000000000000000000000000000000000000000000000000000FF0000000000000000000000000000000000000000000000000000000000000000FFFFFFFFFF000000000000000000000000000000000000000000000000000000FFFFFFFFFFFF00000000000000000000000000000000000000000000000000
310
FF00000000000000000000000000000000000000000000000000000000000000FF00000000000000000000000000000000000000000000000000000000000000FF00000000000000000000000000000000000000000000000000000000000000FF000000000000000000000000000000000000000000000000000000000000
310
0000FFFFFFFFFFFF0000000000000000000000000000000000000000000000000000FFFFFFFFFF0000000000000000000000000000000000000000000000000000FF00000000000000000000000000000000000000000000000000000000000000FF0000000000000000000000000000000000000000000000000000000000
310
0000FF00000000000000000000000000000000000000000000000000000000000000FF0000000000000000000000000000000000000000000000000000000000000000FF00000000FF000000000000000000000000000000000000000000000000000000FFFFFFFFFF00000000000000000000000000000000000000000000
310
000000000000000000FF0000000000000000000000000000000000000000000000000000000000FFFFFFFF00000000000000000000000000000000000000000000000000000000FF0000FF00000000000000000000000000000000000000000000000000000000FFFFFFFF0000000000000000000000000000000000000000
310
000000000000000000FFFF000000000000000000000000000000000000000000000000000000000000000000000000000000000000000000
102
{BLKREFS
331
14A
102
}
1001
ACAD
1000
DesignCenter Data
1002
{
1070
     1
1070
     1
1002
}
  0
BLOCK_RECORD
  5
149
330
1
100
AcDbSymbolTableRecord
100
AcDbBlockTableRecord
  2
rfc
340
0
310
28000000200000002000000001000800000000000004000000000000000000000000000000000000000000004000000080000000FF000000002000004020000080200000FF200000004000004040000080400000FF400000006000004060000080600000FF600000008000004080000080800000FF80000000A0000040A000
310
0080A00000FFA0000000C0000040C0000080C00000FFC0000000FF000040FF000080FF0000FFFF0000000020004000200080002000FF002000002020004020200080202000FF202000004020004040200080402000FF402000006020004060200080602000FF602000008020004080200080802000FF80200000A0200040A0
310
200080A02000FFA0200000C0200040C0200080C02000FFC0200000FF200040FF200080FF2000FFFF2000000040004000400080004000FF004000002040004020400080204000FF204000004040004040400080404000FF404000006040004060400080604000FF604000008040004080400080804000FF80400000A0400040
310
A0400080A04000FFA0400000C0400040C0400080C04000FFC0400000FF400040FF400080FF4000FFFF4000000060004000600080006000FF006000002060004020600080206000FF206000004060004040600080406000FF406000006060004060600080606000FF606000008060004080600080806000FF80600000A06000
310
40A0600080A06000FFA0600000C0600040C0600080C06000FFC0600000FF600040FF600080FF6000FFFF6000000080004000800080008000FF008000002080004020800080208000FF208000004080004040800080408000FF408000006080004060800080608000FF608000008080004080800080808000FF80800000A080
310
0040A0800080A08000FFA0800000C0800040C0800080C08000FFC0800000FF800040FF800080FF8000FFFF80000000A0004000A0008000A000FF00A0000020A0004020A0008020A000FF20A0000040A0004040A0008040A000FF40A0000060A0004060A0008060A000FF60A0000080A0004080A0008080A000FF80A00000A0
310
A00040A0A00080A0A000FFA0A00000C0A00040C0A00080C0A000FFC0A00000FFA00040FFA00080FFA000FFFFA0000000C0004000C0008000C000FF00C0000020C0004020C0008020C000FF20C0000040C0004040C0008040C000FF40C0000060C0004060C0008060C000FF60C0000080C0004080C0008080C000FF80C00000
310
A0C00040A0C00080A0C000FFA0C00000C0C00040C0C00080C0C000FFC0C00000FFC00040FFC00080FFC000FFFFC0000000FF004000FF008000FF00FF00FF000020FF004020FF008020FF00FF20FF000040FF004040FF008040FF00FF40FF000060FF004060FF008060FF00FF60FF000080FF004080FF008080FF00FF80FF00
310
00A0FF0040A0FF0080A0FF00FFA0FF0000C0FF0040C0FF0080C0FF00FFC0FF0000FFFF0040FFFF0080FFFF00FFFFFF00000000000000000000000000000000000000000000000000000000000000000000000000000000000000000000000000000000FFFF0000000000000000000000000000000000000000000000000000
310
000000FFFFFFFF00000000000000000000000000000000000000000000000000000000FF0000FF00000000000000000000000000000000000000000000000000000000FFFFFFFF0000000000000000000000000000000000000000000000000000000000FF0000000000000000000000000000000000000000000000000000
310
00FFFFFFFFFF00000000000000000000000000000000000000000000FFFFFF00FFFF000000FF00000000000000000000000000000000000000000000FF00FF00FF000000000000000000000000000000000000000000000000000000FF00FFFF00000000000000000000000000000000000000000000000000000000FF00FF
310
FF00000000000000000000000000000000000000000000000000000000FFFFFFFFFF000000000000000000000000000000000000000000000000000000FFFFFF00FFFFFFFFFFFF00000000000000000000000000000000000000000000FFFFFF00FFFFFFFFFFFF00000000000000000000000000000000000000000000FFFF
310
FFFFFF000000000000000000000000000000000000000000000000000000FFFFFFFF00000000000000000000000000000000000000000000000000000000FFFFFFFF00000000000000000000000000000000000000000000000000000000FFFFFFFFFF000000000000000000000000000000000000000000000000000000FF
310
FFFF00FFFFFFFFFFFF00000000000000000000000000000000000000000000FFFFFF00FFFFFFFFFFFF00000000000000000000000000000000000000000000FF00FFFFFF000000000000000000000000000000000000000000000000000000FF00FFFF00000000000000000000000000000000000000000000000000000000
310
FF00FFFF00000000000000000000000000000000000000000000000000000000FF00FF00FF000000000000000000000000000000000000000000000000000000FFFFFF00FFFF000000FF000000000000000000000000000000000000000000000000000000FFFFFFFFFF000000000000000000000000000000000000000000
310
00000000000000000000FF000000000000000000000000000000000000000000000000000000000000FFFFFF0000000000000000000000000000000000000000000000000000000000FF00FFFF00000000000000000000000000000000000000000000000000000000FF00FF00000000000000000000000000000000000000
310
0000000000000000000000FF0000000000000000000000000000000000000000000000000000000000000000000000000000000000000000
102
{BLKREFS
331
16D
102
}
1001
ACAD
1000
DesignCenter Data
1002
{
1070
     1
1070
     1
1002
}
  0
BLOCK_RECORD
  5
14F
330
1
100
AcDbSymbolTableRecord
100
AcDbBlockTableRecord
  2
tri
340
0
310
28000000200000002000000001000800000000000004000000000000000000000000000000000000000000004000000080000000FF000000002000004020000080200000FF200000004000004040000080400000FF400000006000004060000080600000FF600000008000004080000080800000FF80000000A0000040A000
310
0080A00000FFA0000000C0000040C0000080C00000FFC0000000FF000040FF000080FF0000FFFF0000000020004000200080002000FF002000002020004020200080202000FF202000004020004040200080402000FF402000006020004060200080602000FF602000008020004080200080802000FF80200000A0200040A0
310
200080A02000FFA0200000C0200040C0200080C02000FFC0200000FF200040FF200080FF2000FFFF2000000040004000400080004000FF004000002040004020400080204000FF204000004040004040400080404000FF404000006040004060400080604000FF604000008040004080400080804000FF80400000A0400040
310
A0400080A04000FFA0400000C0400040C0400080C04000FFC0400000FF400040FF400080FF4000FFFF4000000060004000600080006000FF006000002060004020600080206000FF206000004060004040600080406000FF406000006060004060600080606000FF606000008060004080600080806000FF80600000A06000
310
40A0600080A06000FFA0600000C0600040C0600080C06000FFC0600000FF600040FF600080FF6000FFFF6000000080004000800080008000FF008000002080004020800080208000FF208000004080004040800080408000FF408000006080004060800080608000FF608000008080004080800080808000FF80800000A080
310
0040A0800080A08000FFA0800000C0800040C0800080C08000FFC0800000FF800040FF800080FF8000FFFF80000000A0004000A0008000A000FF00A0000020A0004020A0008020A000FF20A0000040A0004040A0008040A000FF40A0000060A0004060A0008060A000FF60A0000080A0004080A0008080A000FF80A00000A0
310
A00040A0A00080A0A000FFA0A00000C0A00040C0A00080C0A000FFC0A00000FFA00040FFA00080FFA000FFFFA0000000C0004000C0008000C000FF00C0000020C0004020C0008020C000FF20C0000040C0004040C0008040C000FF40C0000060C0004060C0008060C000FF60C0000080C0004080C0008080C000FF80C00000
310
A0C00040A0C00080A0C000FFA0C00000C0C00040C0C00080C0C000FFC0C00000FFC00040FFC00080FFC000FFFFC0000000FF004000FF008000FF00FF00FF000020FF004020FF008020FF00FF20FF000040FF004040FF008040FF00FF40FF000060FF004060FF008060FF00FF60FF000080FF004080FF008080FF00FF80FF00
310
00A0FF0040A0FF0080A0FF00FFA0FF0000C0FF0040C0FF0080C0FF00FFC0FF0000FFFF0040FFFF0080FFFF00FFFFFF0000000000000000000000000000000000000000000000000000000000000000000000000000000000000000FF00000000000000000000000000000000000000000000000000000000000000FFFF0000
310
0000000000000000000000000000000000000000000000000000FFFF0000FF00000000000000000000000000000000000000000000000000FFFF0000000000FF0000000000000000000000000000000000000000000000FF0000000000000000FF000000000000000000000000000000000000000000FF0000000000000000
310
0000FF00000000000000000000000000000000000000FF000000000000000000000000FF000000000000000000000000000000000000FF00000000000000000000000000FF00000000000000000000000000000000FF000000000000000000000000000000FF000000000000000000000000000000FF000000000000000000
310
00000000000000FF00000000000000000000000000FF000000000000000000000000000000000000FF000000000000000000000000FF00000000000000000000000000000000000000FF00000000000000000000FF000000000000000000000000000000000000000000FF000000000000000000FF00000000000000000000
310
000000000000000000000000FF0000000000000000FF0000000000000000000000000000000000000000000000FF00000000000000FF000000000000000000000000000000000000000000000000FF000000000000FF00000000000000000000000000000000000000000000000000FF000000000000FF0000000000000000
310
0000000000000000000000000000000000FF0000000000FF0000000000000000000000000000000000000000000000000000FF00000000FF0000000000000000000000000000000000000000000000000000FFFF00000000FF00000000000000000000000000000000000000000000000000FF0000000000FF000000000000
310
000000000000000000000000000000000000FF00000000000000FF0000000000000000000000000000000000000000000000FF0000000000000000FF000000000000000000000000000000000000000000FF00000000000000000000FF00000000000000000000000000000000000000FF000000000000000000000000FF00
310
00000000000000000000000000000000FF0000000000000000000000000000FF0000000000000000000000000000FFFF00000000000000000000000000000000FFFF0000000000000000000000FF0000000000000000000000000000000000000000FFFFFFFFFFFFFFFFFFFFFF000000000000000000000000000000000000
310
0000000000000000000000000000000000000000000000000000000000000000000000000000000000000000000000000000000000000000
102
{BLKREFS
331
178
102
}
  0
BLOCK_RECORD
  5
181
330
1
100
AcDbSymbolTableRecord
100
AcDbBlockTableRecord
  2
A$C147E4B36
340
0
  0
BLOCK_RECORD
  5
25E
330
1
100
AcDbSymbolTableRecord
100
AcDbBlockTableRecord
  2
*D19
340
0
  0
BLOCK_RECORD
  5
26C
330
1
100
AcDbSymbolTableRecord
100
AcDbBlockTableRecord
  2
*D20
340
0
  0
ENDTAB
  0
ENDSEC
  0
SECTION
  2
BLOCKS
  0
BLOCK
  5
1F
330
1E
100
AcDbEntity
  8
0
100
AcDbBlockBegin
  2
*Model_Space
 70
     0
 10
0.0
 20
0.0
 30
0.0
  3
*Model_Space
  1

  0
ENDBLK
  5
20
330
1E
100
AcDbEntity
  8
0
100
AcDbBlockEnd
  0
BLOCK
  5
1B
330
1A
100
AcDbEntity
 67
     1
  8
0
100
AcDbBlockBegin
  2
*Paper_Space
 70
     0
 10
0.0
 20
0.0
 30
0.0
  3
*Paper_Space
  1

  0
ENDBLK
  5
1C
330
1A
100
AcDbEntity
 67
     1
  8
0
100
AcDbBlockEnd
  0
BLOCK
  5
B7
330
B1
100
AcDbEntity
  8
0
100
AcDbBlockBegin
  2
A$C0CF152EB
 70
     0
 10
0.0
 20
0.0
 30
0.0
  3
A$C0CF152EB
  1

  0
SOLID
  5
B2
330
B1
100
AcDbEntity
  8
METAL1
100
AcDbTrace
 10
1.688199993415875
 20
4.067600004717347
 30
0.0
 11
1.688199993415875
 21
2.950000004717347
 31
0.0
 12
0.0117999934158757
 22
4.067600004717347
 32
0.0
 13
0.0117999934158757
 23
2.950000004717347
 33
0.0
  0
SOLID
  5
B3
330
B1
100
AcDbEntity
  8
METAL1
100
AcDbTrace
 10
1.688199993415875
 20
1.117600004717347
 30
0.0
 11
1.688199993415875
 21
0.0000000047173474
 31
0.0
 12
0.0117999934158757
 22
1.117600004717347
 32
0.0
 13
0.0117999934158757
 23
0.0000000047173474
 33
0.0
  0
SOLID
  5
B4
330
B1
100
AcDbEntity
  8
METAL1
100
AcDbTrace
 10
1.699999993415875
 20
5.117600004717347
 30
0.0
 11
1.699999993415875
 21
3.417600004717347
 31
0.0
 12
-0.0000000065841244
 22
5.117600004717347
 32
0.0
 13
-0.0000000065841244
 23
3.417600004717347
 33
0.0
  0
LWPOLYLINE
  5
B5
330
B1
100
AcDbEntity
  8
GND
100
AcDbPolyline
 90
        2
 70
     0
 43
0.2
 10
0.8499999934158761
 20
3.867600004717347
 42
1.0
 10
0.8499999934158761
 20
4.667600004717347
  0
LWPOLYLINE
  5
B6
330
B1
100
AcDbEntity
  8
GND
100
AcDbPolyline
 90
        2
 70
     0
 43
0.2
 10
0.8499999934158761
 20
4.667600004717347
 42
1.0
 10
0.8499999934158761
 20
3.867600004717347
  0
ENDBLK
  5
B8
330
B1
100
AcDbEntity
  8
0
100
AcDbBlockEnd
  0
BLOCK
  5
CB
330
BD
100
AcDbEntity
  8
0
100
AcDbBlockBegin
  2
A$C1E5C78D8
 70
     0
 10
0.0
 20
0.0
 30
0.0
  3
A$C1E5C78D8
  1

  0
SOLID
  5
BE
330
BD
100
AcDbEntity
  8
CONSTR
100
AcDbTrace
 10
1.303073343656311
 20
-0.0000000102678108
 30
0.0
 11
0.5580733436563117
 21
-0.0000000102678108
 31
0.0
 12
1.303073343656311
 22
0.0499999897321892
 32
0.0
 13
0.5580733436563117
 23
0.0499999897321892
 33
0.0
  0
LWPOLYLINE
  5
BF
330
BD
100
AcDbEntity
  8
CONSTR
100
AcDbPolyline
 90
        2
 70
     0
 43
0.05
 10
0.9310633436563113
 20
0.0249999897321892
 42
2291.83103
 10
0.9294833436563116
 20
0.0249999897321892
  0
SOLID
  5
C0
330
BD
100
AcDbEntity
  8
CONSTR
100
AcDbTrace
 10
0.0052733436563113
 20
0.5521999897321893
 30
0.0
 11
0.0052733436563113
 21
1.297199989732189
 31
0.0
 12
0.055273343656312
 22
0.5521999897321893
 32
0.0
 13
0.055273343656312
 23
1.297199989732189
 33
0.0
  0
SOLID
  5
C1
330
BD
100
AcDbEntity
  8
CONSTR
100
AcDbTrace
 10
0.5574733436563113
 20
1.849999989732189
 30
0.0
 11
1.302473343656311
 21
1.849999989732189
 31
0.0
 12
0.5574733436563113
 22
1.799999989732189
 32
0.0
 13
1.302473343656311
 23
1.799999989732189
 33
0.0
  0
SOLID
  5
C2
330
BD
100
AcDbEntity
  8
CONSTR
100
AcDbTrace
 10
1.855273343656311
 20
1.297799989732189
 30
0.0
 11
1.855273343656311
 21
0.5527999897321893
 31
0.0
 12
1.805273343656311
 22
1.297799989732189
 32
0.0
 13
1.805273343656311
 23
0.5527999897321893
 33
0.0
  0
SOLID
  5
C3
330
BD
100
AcDbEntity
  8
CONSTR
100
AcDbTrace
 10
0.539793343656311
 20
0.0073199897321893
 30
0.0
 11
0.0130033436563117
 21
0.5341199897321892
 31
0.0
 12
0.5751533436563117
 22
0.0426799897321891
 32
0.0
 13
0.048353343656312
 23
0.5694699897321893
 33
0.0
  0
SOLID
  5
C4
330
BD
100
AcDbEntity
  8
CONSTR
100
AcDbTrace
 10
0.0125933436563113
 20
1.315479989732189
 30
0.0
 11
0.539393343656311
 21
1.842269989732189
 31
0.0
 12
0.047953343656312
 22
1.280119989732189
 32
0.0
 13
0.5747433436563112
 23
1.806919989732189
 33
0.0
  0
SOLID
  5
C5
330
BD
100
AcDbEntity
  8
CONSTR
100
AcDbTrace
 10
1.320753343656312
 20
1.842679989732189
 30
0.0
 11
1.847543343656311
 21
1.315879989732189
 31
0.0
 12
1.285393343656311
 22
1.807319989732189
 32
0.0
 13
1.812193343656311
 23
1.280529989732189
 33
0.0
  0
SOLID
  5
C6
330
BD
100
AcDbEntity
  8
CONSTR
100
AcDbTrace
 10
1.847953343656311
 20
0.5345199897321893
 30
0.0
 11
1.321153343656312
 21
0.0077299897321892
 31
0.0
 12
1.812593343656311
 22
0.5698799897321893
 32
0.0
 13
1.285803343656311
 23
0.0430799897321892
 33
0.0
  0
TEXT
  5
C7
330
BD
100
AcDbEntity
  8
CONSTR
100
AcDbText
 10
1.630273343656311
 20
0.9749999897321892
 30
0.0
 40
0.3
  1
D
 50
90.0
100
AcDbText
  0
TEXT
  5
C8
330
BD
100
AcDbEntity
  8
CONSTR
100
AcDbText
 10
0.430273343656312
 20
0.9749999897321892
 30
0.0
 40
0.3
  1
G
 50
90.0
100
AcDbText
  0
TEXT
  5
C9
330
BD
100
AcDbEntity
  8
CONSTR
100
AcDbText
 10
1.030273343656311
 20
1.474999989732189
 30
0.0
 40
0.3
  1
S
 50
90.0
100
AcDbText
  0
TEXT
  5
CA
330
BD
100
AcDbEntity
  8
CONSTR
100
AcDbText
 10
1.030273343656311
 20
0.3749999897321892
 30
0.0
 40
0.3
  1
S
 50
90.0
100
AcDbText
  0
ENDBLK
  5
CC
330
BD
100
AcDbEntity
  8
0
100
AcDbBlockEnd
  0
BLOCK
  5
DD
330
CF
100
AcDbEntity
  8
0
100
AcDbBlockBegin
  2
A$C34295E59
 70
     0
 10
0.0
 20
0.0
 30
0.0
  3
A$C34295E59
  1

  0
SOLID
  5
D0
330
CF
100
AcDbEntity
  8
CONSTR
100
AcDbTrace
 10
1.303073343656311
 20
-0.0000000102678108
 30
0.0
 11
0.5580733436563117
 21
-0.0000000102678108
 31
0.0
 12
1.303073343656311
 22
0.0499999897321892
 32
0.0
 13
0.5580733436563117
 23
0.0499999897321892
 33
0.0
  0
LWPOLYLINE
  5
D1
330
CF
100
AcDbEntity
  8
CONSTR
100
AcDbPolyline
 90
        2
 70
     0
 43
0.05
 10
0.9310633436563113
 20
0.0249999897321892
 42
2291.83103
 10
0.9294833436563116
 20
0.0249999897321892
  0
SOLID
  5
D2
330
CF
100
AcDbEntity
  8
CONSTR
100
AcDbTrace
 10
0.0052733436563113
 20
0.5521999897321893
 30
0.0
 11
0.0052733436563113
 21
1.297199989732189
 31
0.0
 12
0.055273343656312
 22
0.5521999897321893
 32
0.0
 13
0.055273343656312
 23
1.297199989732189
 33
0.0
  0
SOLID
  5
D3
330
CF
100
AcDbEntity
  8
CONSTR
100
AcDbTrace
 10
0.5574733436563113
 20
1.849999989732189
 30
0.0
 11
1.302473343656311
 21
1.849999989732189
 31
0.0
 12
0.5574733436563113
 22
1.799999989732189
 32
0.0
 13
1.302473343656311
 23
1.799999989732189
 33
0.0
  0
SOLID
  5
D4
330
CF
100
AcDbEntity
  8
CONSTR
100
AcDbTrace
 10
1.855273343656311
 20
1.297799989732189
 30
0.0
 11
1.855273343656311
 21
0.5527999897321893
 31
0.0
 12
1.805273343656311
 22
1.297799989732189
 32
0.0
 13
1.805273343656311
 23
0.5527999897321893
 33
0.0
  0
SOLID
  5
D5
330
CF
100
AcDbEntity
  8
CONSTR
100
AcDbTrace
 10
0.539793343656311
 20
0.0073199897321893
 30
0.0
 11
0.0130033436563117
 21
0.5341199897321892
 31
0.0
 12
0.5751533436563117
 22
0.0426799897321891
 32
0.0
 13
0.048353343656312
 23
0.5694699897321893
 33
0.0
  0
SOLID
  5
D6
330
CF
100
AcDbEntity
  8
CONSTR
100
AcDbTrace
 10
0.0125933436563113
 20
1.315479989732189
 30
0.0
 11
0.539393343656311
 21
1.842269989732189
 31
0.0
 12
0.047953343656312
 22
1.280119989732189
 32
0.0
 13
0.5747433436563112
 23
1.806919989732189
 33
0.0
  0
SOLID
  5
D7
330
CF
100
AcDbEntity
  8
CONSTR
100
AcDbTrace
 10
1.320753343656312
 20
1.842679989732189
 30
0.0
 11
1.847543343656311
 21
1.315879989732189
 31
0.0
 12
1.285393343656311
 22
1.807319989732189
 32
0.0
 13
1.812193343656311
 23
1.280529989732189
 33
0.0
  0
SOLID
  5
D8
330
CF
100
AcDbEntity
  8
CONSTR
100
AcDbTrace
 10
1.847953343656311
 20
0.5345199897321893
 30
0.0
 11
1.321153343656312
 21
0.0077299897321892
 31
0.0
 12
1.812593343656311
 22
0.5698799897321893
 32
0.0
 13
1.285803343656311
 23
0.0430799897321892
 33
0.0
  0
TEXT
  5
D9
330
CF
100
AcDbEntity
  8
CONSTR
100
AcDbText
 10
1.630273343656311
 20
0.9749999897321892
 30
0.0
 40
0.3
  1
D
 50
90.0
100
AcDbText
  0
TEXT
  5
DA
330
CF
100
AcDbEntity
  8
CONSTR
100
AcDbText
 10
0.430273343656312
 20
0.9749999897321892
 30
0.0
 40
0.3
  1
G
 50
90.0
100
AcDbText
  0
TEXT
  5
DB
330
CF
100
AcDbEntity
  8
CONSTR
100
AcDbText
 10
1.030273343656311
 20
1.474999989732189
 30
0.0
 40
0.3
  1
S
 50
90.0
100
AcDbText
  0
TEXT
  5
DC
330
CF
100
AcDbEntity
  8
CONSTR
100
AcDbText
 10
1.030273343656311
 20
0.3749999897321892
 30
0.0
 40
0.3
  1
S
 50
90.0
100
AcDbText
  0
ENDBLK
  5
DE
330
CF
100
AcDbEntity
  8
0
100
AcDbBlockEnd
  0
BLOCK
  5
E6
330
E1
100
AcDbEntity
  8
0
100
AcDbBlockBegin
  2
A$C56102C05
 70
     0
 10
0.0
 20
0.0
 30
0.0
  3
A$C56102C05
  1

  0
SOLID
  5
E2
330
E1
100
AcDbEntity
  8
CONSTR
100
AcDbTrace
 10
1.625000011878229
 20
3.199999999790463
 30
0.0
 11
0.0250000118782285
 21
3.199999999790463
 31
0.0
 12
1.625000011878229
 22
3.249999999790463
 32
0.0
 13
0.0250000118782285
 23
3.249999999790463
 33
0.0
  0
SOLID
  5
E3
330
E1
100
AcDbEntity
  8
CONSTR
100
AcDbTrace
 10
1.650000011878228
 20
3.224999999790464
 30
0.0
 11
1.650000011878228
 21
0.0249999997904638
 31
0.0
 12
1.600000011878228
 22
3.224999999790464
 32
0.0
 13
1.600000011878228
 23
0.0249999997904638
 33
0.0
  0
SOLID
  5
E4
330
E1
100
AcDbEntity
  8
CONSTR
100
AcDbTrace
 10
0.0500000118782289
 20
3.224999999790464
 30
0.0
 11
0.0500000118782289
 21
0.0249999997904638
 31
0.0
 12
0.0000000118782291
 22
3.224999999790464
 32
0.0
 13
0.0000000118782291
 23
0.0249999997904638
 33
0.0
  0
SOLID
  5
E5
330
E1
100
AcDbEntity
  8
CONSTR
100
AcDbTrace
 10
1.625000011878229
 20
-0.0000000002095362
 30
0.0
 11
0.0250000118782285
 21
-0.0000000002095362
 31
0.0
 12
1.625000011878229
 22
0.0499999997904639
 32
0.0
 13
0.0250000118782285
 23
0.0499999997904639
 33
0.0
  0
ENDBLK
  5
E7
330
E1
100
AcDbEntity
  8
0
100
AcDbBlockEnd
  0
BLOCK
  5
EF
330
EA
100
AcDbEntity
  8
0
100
AcDbBlockBegin
  2
A$C530702CF
 70
     0
 10
0.0
 20
0.0
 30
0.0
  3
A$C530702CF
  1

  0
SOLID
  5
EB
330
EA
100
AcDbEntity
  8
CONSTR
100
AcDbTrace
 10
1.625000011878229
 20
3.199999999790463
 30
0.0
 11
0.0250000118782285
 21
3.199999999790463
 31
0.0
 12
1.625000011878229
 22
3.249999999790463
 32
0.0
 13
0.0250000118782285
 23
3.249999999790463
 33
0.0
  0
SOLID
  5
EC
330
EA
100
AcDbEntity
  8
CONSTR
100
AcDbTrace
 10
1.650000011878228
 20
3.224999999790464
 30
0.0
 11
1.650000011878228
 21
0.0249999997904638
 31
0.0
 12
1.600000011878228
 22
3.224999999790464
 32
0.0
 13
1.600000011878228
 23
0.0249999997904638
 33
0.0
  0
SOLID
  5
ED
330
EA
100
AcDbEntity
  8
CONSTR
100
AcDbTrace
 10
0.0500000118782289
 20
3.224999999790464
 30
0.0
 11
0.0500000118782289
 21
0.0249999997904638
 31
0.0
 12
0.0000000118782291
 22
3.224999999790464
 32
0.0
 13
0.0000000118782291
 23
0.0249999997904638
 33
0.0
  0
SOLID
  5
EE
330
EA
100
AcDbEntity
  8
CONSTR
100
AcDbTrace
 10
1.625000011878229
 20
-0.0000000002095362
 30
0.0
 11
0.0250000118782285
 21
-0.0000000002095362
 31
0.0
 12
1.625000011878229
 22
0.0499999997904639
 32
0.0
 13
0.0250000118782285
 23
0.0499999997904639
 33
0.0
  0
ENDBLK
  5
F0
330
EA
100
AcDbEntity
  8
0
100
AcDbBlockEnd
  0
BLOCK
  5
F6
330
F3
100
AcDbEntity
  8
0
100
AcDbBlockBegin
  2
A$C66C17BFD
 70
     0
 10
0.0
 20
0.0
 30
0.0
  3
A$C66C17BFD
  1

  0
LWPOLYLINE
  5
F4
330
F3
100
AcDbEntity
  8
GND
100
AcDbPolyline
 90
        2
 70
     0
 43
0.2
 10
0.5000000090956842
 20
0.1000000092200945
 42
1.0
 10
0.5000000090956842
 20
0.9000000092200943
  0
LWPOLYLINE
  5
F5
330
F3
100
AcDbEntity
  8
GND
100
AcDbPolyline
 90
        2
 70
     0
 43
0.2
 10
0.5000000090956842
 20
0.9000000092200943
 42
1.0
 10
0.5000000090956842
 20
0.1000000092200945
  0
ENDBLK
  5
F7
330
F3
100
AcDbEntity
  8
0
100
AcDbBlockEnd
  0
BLOCK
  5
104
330
100
100
AcDbEntity
  8
0
100
AcDbBlockBegin
  2
A$C32120025
 70
     0
 10
0.0
 20
0.0
 30
0.0
  3
A$C32120025
  1

  0
SOLID
  5
101
330
100
100
AcDbEntity
  8
METAL1
100
AcDbTrace
 10
1.699999993415882
 20
-0.0000000029336631
 30
0.0
 11
-0.0000000065841173
 21
-0.0000000029336631
 31
0.0
 12
1.699999993415882
 22
1.699999997066337
 32
0.0
 13
-0.0000000065841173
 23
1.699999997066337
 33
0.0
  0
LWPOLYLINE
  5
102
330
100
100
AcDbEntity
  8
GND
100
AcDbPolyline
 90
        2
 70
     0
 43
0.2
 10
0.8499999934158832
 20
0.4499999970663371
 42
1.0
 10
0.8499999934158832
 20
1.249999997066336
  0
LWPOLYLINE
  5
103
330
100
100
AcDbEntity
  8
GND
100
AcDbPolyline
 90
        2
 70
     0
 43
0.2
 10
0.8499999934158832
 20
1.249999997066336
 42
1.0
 10
0.8499999934158832
 20
0.4499999970663371
  0
ENDBLK
  5
105
330
100
100
AcDbEntity
  8
0
100
AcDbBlockEnd
  0
BLOCK
  5
10D
330
108
100
AcDbEntity
  8
0
100
AcDbBlockBegin
  2
A$C38B95C03
 70
     0
 10
0.0
 20
0.0
 30
0.0
  3
A$C38B95C03
  1

  0
SOLID
  5
109
330
108
100
AcDbEntity
  8
CONSTR
100
AcDbTrace
 10
0.0249999875918476
 20
0.049999992665849
 30
0.0
 11
1.624999987591847
 21
0.049999992665849
 31
0.0
 12
0.0249999875918476
 22
-0.0000000073341511
 32
0.0
 13
1.624999987591847
 23
-0.0000000073341511
 33
0.0
  0
SOLID
  5
10A
330
108
100
AcDbEntity
  8
CONSTR
100
AcDbTrace
 10
-0.0000000124081527
 20
0.024999992665849
 30
0.0
 11
-0.0000000124081527
 21
3.224999992665849
 31
0.0
 12
0.0499999875918462
 22
0.024999992665849
 32
0.0
 13
0.0499999875918462
 23
3.224999992665849
 33
0.0
  0
SOLID
  5
10B
330
108
100
AcDbEntity
  8
CONSTR
100
AcDbTrace
 10
1.599999987591846
 20
0.024999992665849
 30
0.0
 11
1.599999987591846
 21
3.224999992665849
 31
0.0
 12
1.649999987591847
 22
0.024999992665849
 32
0.0
 13
1.649999987591847
 23
3.224999992665849
 33
0.0
  0
SOLID
  5
10C
330
108
100
AcDbEntity
  8
CONSTR
100
AcDbTrace
 10
0.0249999875918476
 20
3.249999992665848
 30
0.0
 11
1.624999987591847
 21
3.249999992665848
 31
0.0
 12
0.0249999875918476
 22
3.199999992665849
 32
0.0
 13
1.624999987591847
 23
3.199999992665849
 33
0.0
  0
ENDBLK
  5
10E
330
108
100
AcDbEntity
  8
0
100
AcDbBlockEnd
  0
BLOCK
  5
119
330
116
100
AcDbEntity
  8
0
100
AcDbBlockBegin
  2
A$C2AC77581
 70
     0
 10
0.0
 20
0.0
 30
0.0
  3
A$C2AC77581
  1

  0
LWPOLYLINE
  5
117
102
{ACAD_REACTORS
330
118
102
}
330
116
100
AcDbEntity
  8
METAL1
100
AcDbPolyline
 90
        4
 70
     1
 43
0.0
 10
0.0
 20
0.0
 10
2.5
 20
0.0
 10
2.5
 20
2.5
 10
0.0
 20
2.5
  0
HATCH
  5
118
330
116
100
AcDbEntity
  8
METAL1
100
AcDbHatch
 10
0.0
 20
0.0
 30
0.0
210
0.0
220
0.0
230
1.0
  2
SOLID
 70
     1
 71
     1
 91
        1
 92
        1
 93
        4
 72
     1
 10
0.0
 20
0.0
 11
2.5
 21
0.0
 72
     1
 10
2.5
 20
0.0
 11
2.5
 21
2.5
 72
     1
 10
2.5
 20
2.5
 11
0.0
 21
2.5
 72
     1
 10
0.0
 20
2.5
 11
0.0
 21
0.0
 97
        1
330
117
 75
     0
 76
     1
 98
        1
 10
-13.89960527507998
 20
4.942128614235823
  0
ENDBLK
  5
11A
330
116
100
AcDbEntity
  8
0
100
AcDbBlockEnd
  0
BLOCK
  5
12B
330
128
100
AcDbEntity
  8
0
100
AcDbBlockBegin
  2
A$C6AFA7598
 70
     0
 10
0.0
 20
0.0
 30
0.0
  3
A$C6AFA7598
  1

  0
LWPOLYLINE
  5
129
330
128
100
AcDbEntity
  8
GND
100
AcDbPolyline
 90
        2
 70
     0
 43
0.2
 10
0.5000000090956842
 20
0.1000000092200945
 42
1.0
 10
0.5000000090956842
 20
0.9000000092200943
  0
LWPOLYLINE
  5
12A
330
128
100
AcDbEntity
  8
GND
100
AcDbPolyline
 90
        2
 70
     0
 43
0.2
 10
0.5000000090956842
 20
0.9000000092200943
 42
1.0
 10
0.5000000090956842
 20
0.1000000092200945
  0
ENDBLK
  5
12C
330
128
100
AcDbEntity
  8
0
100
AcDbBlockEnd
  0
BLOCK
  5
134
330
12E
100
AcDbEntity
  8
0
100
AcDbBlockBegin
  2
elkon
 70
     0
 10
0.0
 20
0.0
 30
0.0
  3
elkon
  1

  0
LWPOLYLINE
  5
12F
102
{ACAD_REACTORS
330
133
102
}
330
12E
100
AcDbEntity
  8
0
100
AcDbPolyline
 90
        4
 70
     1
 43
0.0
 10
5.277469087657244
 20
7.736467907658294
 10
6.725437308244949
 20
7.736467907658294
 10
6.725437308244949
 20
7.545307269129267
 10
5.277469087657244
 20
7.545307269129267
  0
LWPOLYLINE
  5
130
330
12E
100
AcDbEntity
  8
0
100
AcDbPolyline
 90
        4
 70
     1
 43
0.0
 10
5.277469087657244
 20
7.381455311208465
 10
6.725437308244949
 20
7.381455311208465
 10
6.725437308244949
 20
7.190294672679439
 10
5.277469087657244
 20
7.190294672679439
  0
LWPOLYLINE
  5
131
330
12E
100
AcDbEntity
  8
0
100
AcDbPolyline
 90
        2
 70
     0
 43
0.0
 10
5.987793119210273
 20
7.736467907658294
 10
5.987793119210273
 20
8.337258440989323
  0
LWPOLYLINE
  5
132
330
12E
100
AcDbEntity
  8
0
100
AcDbPolyline
 90
        2
 70
     0
 43
0.0
 10
5.987793119210273
 20
7.190294672679439
 10
5.987793119210273
 20
6.507578139433253
  0
HATCH
  5
133
330
12E
100
AcDbEntity
  8
0
100
AcDbHatch
 10
0.0
 20
0.0
 30
0.0
210
0.0
220
0.0
230
1.0
  2
SOLID
 70
     1
 71
     1
 91
        1
 92
        1
 93
        4
 72
     1
 10
5.277469087657244
 20
7.736467907658294
 11
6.725437308244949
 21
7.736467907658294
 72
     1
 10
6.725437308244949
 20
7.736467907658294
 11
6.725437308244949
 21
7.545307269129267
 72
     1
 10
6.725437308244949
 20
7.545307269129267
 11
5.277469087657244
 21
7.545307269129267
 72
     1
 10
5.277469087657244
 20
7.545307269129267
 11
5.277469087657244
 21
7.736467907658294
 97
        1
330
12F
 75
     0
 76
     1
 98
        1
 10
0.0
 20
0.0
  0
ENDBLK
  5
135
330
12E
100
AcDbEntity
  8
0
100
AcDbBlockEnd
  0
BLOCK
  5
13C
330
136
100
AcDbEntity
  8
0
100
AcDbBlockBegin
  2
Inductor
 70
     2
 10
0.0
 20
0.0
 30
0.0
  3
Inductor
  1
INDUCTOR
  4
DesignCenter Basic Electronics example
  0
LINE
  5
137
330
136
100
AcDbEntity
  8
0
 62
     7
100
AcDbLine
 10
0.3500000000000001
 20
0.0
 30
0.0
 11
0.3999999999999999
 21
0.0
 31
0.0
  0
ARC
  5
138
330
136
100
AcDbEntity
  8
0
 62
     7
100
AcDbCircle
 10
0.2999999999999998
 20
0.0374999999999997
 30
0.0
 40
0.0625
100
AcDbArc
 50
323.1301
 51
216.8699
  0
LINE
  5
139
330
136
100
AcDbEntity
  8
0
 62
     7
100
AcDbLine
 10
0.0
 20
0.0
 30
0.0
 11
0.0499999999999998
 21
0.0
 31
0.0
  0
ARC
  5
13A
330
136
100
AcDbEntity
  8
0
 62
     7
100
AcDbCircle
 10
0.1000000000000001
 20
0.0374999999999997
 30
0.0
 40
0.0625
100
AcDbArc
 50
323.1301
 51
216.8699
  0
ARC
  5
13B
330
136
100
AcDbEntity
  8
0
 62
     7
100
AcDbCircle
 10
0.2000000000000002
 20
0.0374999999999997
 30
0.0
 40
0.0625
100
AcDbArc
 50
323.1301
 51
216.8699
  0
ENDBLK
  5
13D
330
136
100
AcDbEntity
  8
0
100
AcDbBlockEnd
  0
BLOCK
  5
141
330
13E
100
AcDbEntity
  8
0
100
AcDbBlockBegin
  2
conpoint
 70
     0
 10
0.0
 20
0.0
 30
0.0
  3
conpoint
  1

  0
HATCH
  5
13F
330
13E
100
AcDbEntity
  8
0
100
AcDbHatch
 10
0.0
 20
0.0
 30
0.0
210
0.0
220
0.0
230
1.0
  2
SOLID
 70
     1
 71
     1
 91
        1
 92
        1
 93
        1
 72
     2
 10
3.932944225599126
 20
4.517912367231916
 40
0.0251551376970127
 50
0.0
 51
360.0
 73
     1
 97
        1
330
140
 75
     0
 76
     1
 98
        1
 10
0.0
 20
0.0
  0
CIRCLE
  5
140
102
{ACAD_REACTORS
330
13F
102
}
330
13E
100
AcDbEntity
  8
0
100
AcDbCircle
 10
3.932944225599126
 20
4.517912367231916
 30
0.0
 40
0.0251551376970127
  0
ENDBLK
  5
142
330
13E
100
AcDbEntity
  8
0
100
AcDbBlockEnd
  0
BLOCK
  5
147
330
143
100
AcDbEntity
  8
0
100
AcDbBlockBegin
  2
ind
 70
     0
 10
0.0
 20
0.0
 30
0.0
  3
ind
  1

  0
INSERT
  5
144
330
143
100
AcDbEntity
  8
0
100
AcDbBlockReference
  2
Inductor
 10
5.142686818928233
 20
4.506130839892044
 30
0.0
 50
90.0
  0
INSERT
  5
145
330
143
100
AcDbEntity
  8
0
100
AcDbBlockReference
  2
conpoint
 10
1.213283901823427
 20
-0.0258025784579612
 30
0.0
  0
INSERT
  5
146
330
143
100
AcDbEntity
  8
0
100
AcDbBlockReference
  2
conpoint
 10
1.20936500961606
 20
0.4012205201373665
 30
0.0
  0
ENDBLK
  5
148
330
143
100
AcDbEntity
  8
0
100
AcDbBlockEnd
  0
BLOCK
  5
14D
330
149
100
AcDbEntity
  8
0
100
AcDbBlockBegin
  2
rfc
 70
     0
 10
0.0
 20
0.0
 30
0.0
  3
rfc
  1

  0
INSERT
  5
14A
330
149
100
AcDbEntity
  8
0
100
AcDbBlockReference
  2
ind
 10
0.0
 20
0.0
 30
0.0
  0
HATCH
  5
14B
330
149
100
AcDbEntity
  8
0
100
AcDbHatch
 10
0.0
 20
0.0
 30
0.0
210
0.0
220
0.0
230
1.0
  2
SOLID
 70
     1
 71
     1
 91
        1
 92
        1
 93
        4
 72
     1
 10
5.019171584733157
 20
4.850883942041264
 11
4.991736945333968
 21
4.850883942041264
 72
     1
 10
4.991736945333968
 20
4.850883942041264
 11
4.991736945333968
 21
4.557060643284785
 72
     1
 10
4.991736945333968
 20
4.557060643284785
 11
5.019171584733157
 21
4.557060643284785
 72
     1
 10
5.019171584733157
 20
4.557060643284785
 11
5.019171584733157
 21
4.850883942041264
 97
        1
330
14C
 75
     0
 76
     1
 98
        1
 10
0.0
 20
0.0
  0
LWPOLYLINE
  5
14C
102
{ACAD_REACTORS
330
14B
102
}
330
149
100
AcDbEntity
  8
0
100
AcDbPolyline
 90
        4
 70
     1
 43
0.0
 10
5.019171584733157
 20
4.850883942041264
 10
4.991736945333968
 20
4.850883942041264
 10
4.991736945333968
 20
4.557060643284785
 10
5.019171584733157
 20
4.557060643284785
  0
ENDBLK
  5
14E
330
149
100
AcDbEntity
  8
0
100
AcDbBlockEnd
  0
BLOCK
  5
152
330
14F
100
AcDbEntity
  8
0
100
AcDbBlockBegin
  2
tri
 70
     0
 10
0.0
 20
0.0
 30
0.0
  3
tri
  1

  0
ARC
  5
150
330
14F
100
AcDbEntity
  8
CONSTR
370
    50
100
AcDbCircle
 10
8.146085339866083
 20
7.572615928782735
 30
0.0
 40
0.8498249588931228
100
AcDbArc
 50
17.41576346451058
 51
252.8164832811067
  0
LWPOLYLINE
  5
151
330
14F
100
AcDbEntity
  8
CONSTR
370
    50
100
AcDbPolyline
 90
        2
 70
     0
 43
0.0
 10
7.888244942516251
 20
6.7539228815622
 10
8.968782859461427
 20
7.838849627961277
  0
ENDBLK
  5
153
330
14F
100
AcDbEntity
  8
0
100
AcDbBlockEnd
  0
BLOCK
  5
194
330
181
100
AcDbEntity
  8
0
100
AcDbBlockBegin
  2
A$C147E4B36
 70
     0
 10
0.0
 20
0.0
 30
0.0
  3
A$C147E4B36
  1

  0
MTEXT
  5
182
330
181
100
AcDbEntity
  8
CONSTR
100
AcDbMText
 10
2.746305183450189
 20
4.526226558797809
 30
0.0
 40
0.6
 41
1.429
 71
     1
 72
     5
  1
G1
 73
     1
 44
1.0
  0
MTEXT
  5
183
330
181
100
AcDbEntity
  8
CONSTR
100
AcDbMText
 10
-0.0000000058404481
 20
3.273640609463953
 30
0.0
 40
0.8
 41
1.615399999999999
 71
     1
 72
     5
  1
IN
 73
     1
 44
1.0
  0
MTEXT
  5
184
330
181
100
AcDbEntity
  8
CONSTR
100
AcDbMText
 10
0.2728407143254969
 20
0.5999999358412822
 30
0.0
 40
0.6
 41
3.7974
 71
     1
 72
     5
  1
MGF1302
 73
     1
 44
1.0
  0
SOLID
  5
185
330
181
100
AcDbEntity
  8
CONSTR
100
AcDbTrace
 10
4.261720048348289
 20
2.374466832287071
 30
0.0
 11
4.261720048348289
 21
3.11946683228707
 31
0.0
 12
4.311720048348288
 22
2.374466832287071
 32
0.0
 13
4.311720048348288
 23
3.11946683228707
 33
0.0
  0
SOLID
  5
186
330
181
100
AcDbEntity
  8
CONSTR
100
AcDbTrace
 10
6.111720048348288
 20
3.12006683228707
 30
0.0
 11
6.111720048348288
 21
2.37506683228707
 31
0.0
 12
6.061720048348288
 22
3.12006683228707
 32
0.0
 13
6.061720048348288
 23
2.37506683228707
 33
0.0
  0
SOLID
  5
187
330
181
100
AcDbEntity
  8
CONSTR
100
AcDbTrace
 10
4.796240048348288
 20
1.829586832287071
 30
0.0
 11
4.269450048348289
 21
2.35638683228707
 31
0.0
 12
4.831600048348288
 22
1.864946832287071
 32
0.0
 13
4.304800048348289
 23
2.391736832287071
 33
0.0
  0
SOLID
  5
188
330
181
100
AcDbEntity
  8
CONSTR
100
AcDbTrace
 10
4.269040048348289
 20
3.137746832287071
 30
0.0
 11
4.795840048348289
 21
3.664536832287071
 31
0.0
 12
4.30440004834829
 22
3.10238683228707
 32
0.0
 13
4.831190048348288
 23
3.629186832287071
 33
0.0
  0
SOLID
  5
189
330
181
100
AcDbEntity
  8
CONSTR
100
AcDbTrace
 10
5.577200048348288
 20
3.664946832287071
 30
0.0
 11
6.103990048348288
 21
3.13814683228707
 31
0.0
 12
5.541840048348289
 22
3.629586832287071
 32
0.0
 13
6.068640048348289
 23
3.10279683228707
 33
0.0
  0
SOLID
  5
18A
330
181
100
AcDbEntity
  8
CONSTR
100
AcDbTrace
 10
6.104400048348288
 20
2.35678683228707
 30
0.0
 11
5.577600048348289
 21
1.82999683228707
 31
0.0
 12
6.069040048348288
 22
2.39214683228707
 32
0.0
 13
5.542250048348289
 23
1.86534683228707
 33
0.0
  0
TEXT
  5
18B
330
181
100
AcDbEntity
  8
CONSTR
100
AcDbText
 10
5.886720048348289
 20
2.79726683228707
 30
0.0
 40
0.3
  1
D
 50
90.0
100
AcDbText
  0
TEXT
  5
18C
330
181
100
AcDbEntity
  8
CONSTR
100
AcDbText
 10
4.686720048348288
 20
2.79726683228707
 30
0.0
 40
0.3
  1
G
 50
90.0
100
AcDbText
  0
TEXT
  5
18D
330
181
100
AcDbEntity
  8
CONSTR
100
AcDbText
 10
5.286720048348289
 20
3.297266832287071
 30
0.0
 40
0.3
  1
S
 50
90.0
100
AcDbText
  0
TEXT
  5
18E
330
181
100
AcDbEntity
  8
CONSTR
100
AcDbText
 10
5.286720048348289
 20
2.197266832287071
 30
0.0
 40
0.3
  1
S
 50
90.0
100
AcDbText
  0
SOLID
  5
18F
330
181
100
AcDbEntity
  8
CONSTR
100
AcDbTrace
 10
4.256579683140738
 20
2.49753914230809
 30
0.0
 11
3.056579683140739
 21
2.49753914230809
 31
0.0
 12
4.256579683140738
 22
3.047539142308091
 32
0.0
 13
3.056579683140739
 23
3.047539142308091
 33
0.0
  0
SOLID
  5
190
330
181
100
AcDbEntity
  8
CONSTR
100
AcDbTrace
 10
4.876838378111408
 20
3.615676891634199
 30
0.0
 11
4.876838378111408
 21
4.8156768916342
 31
0.0
 12
5.426838378111408
 22
3.615676891634199
 32
0.0
 13
5.426838378111408
 23
4.8156768916342
 33
0.0
  0
SOLID
  5
191
330
181
100
AcDbEntity
  8
CONSTR
100
AcDbTrace
 10
7.243563587657298
 20
2.475169214432957
 30
0.0
 11
6.043563587657295
 21
2.475169214432957
 31
0.0
 12
7.243563587657298
 22
3.025169214432958
 32
0.0
 13
6.043563587657295
 23
3.025169214432958
 33
0.0
  0
SOLID
  5
192
330
181
100
AcDbEntity
  8
CONSTR
100
AcDbTrace
 10
5.452161192048389
 20
1.883680095514444
 30
0.0
 11
5.452161192048389
 21
0.6836800955144442
 31
0.0
 12
4.902161192048389
 22
1.883680095514444
 32
0.0
 13
4.902161192048389
 23
0.6836800955144442
 33
0.0
  0
SOLID
  5
193
330
181
100
AcDbEntity
  8
CONSTR
100
AcDbTrace
 10
3.053599750976022
 20
3.027093652995464
 30
0.0
 11
3.053989750976022
 21
2.527483652995464
 31
0.0
 12
3.053599750976022
 22
3.027093652995464
 32
0.0
 13
2.553989750976022
 23
3.027483652995464
 33
0.0
  0
ENDBLK
  5
195
330
181
100
AcDbEntity
  8
0
100
AcDbBlockEnd
  0
BLOCK
  5
269
330
25E
100
AcDbEntity
  8
0
100
AcDbBlockBegin
  2
*D19
 70
     1
 10
0.0
 20
0.0
 30
0.0
  3
*D19
  1

  0
LINE
  5
279
330
25E
100
AcDbEntity
  8
NODRAW
 62
     0
370
    -2
100
AcDbLine
 10
-0.7708679660414788
 20
7.670501925446899
 30
0.0
 11
-0.7708679660414788
 21
8.10600927558638
 31
0.0
  0
LINE
  5
27A
330
25E
100
AcDbEntity
  8
NODRAW
 62
     0
370
    -2
100
AcDbLine
 10
29.21969399032987
 20
7.670501925446899
 30
0.0
 11
29.21969399032987
 21
8.10600927558638
 31
0.0
  0
LINE
  5
27B
330
25E
100
AcDbEntity
  8
NODRAW
 62
     0
370
    -2
100
AcDbLine
 10
1.029132033958521
 20
7.92600927558638
 30
0.0
 11
13.38441301214419
 21
7.92600927558638
 31
0.0
  0
LINE
  5
27C
330
25E
100
AcDbEntity
  8
NODRAW
 62
     0
370
    -2
100
AcDbLine
 10
27.41969399032987
 20
7.92600927558638
 30
0.0
 11
15.06441301214419
 21
7.92600927558638
 31
0.0
  0
SOLID
  5
27D
330
25E
100
AcDbEntity
  8
NODRAW
 62
     0
100
AcDbTrace
 10
1.029132033958521
 20
8.226009275586381
 30
0.0
 11
1.029132033958521
 21
7.626009275586381
 31
0.0
 12
-0.7708679660414788
 22
7.92600927558638
 32
0.0
 13
-0.7708679660414788
 23
7.92600927558638
 33
0.0
  0
SOLID
  5
27E
330
25E
100
AcDbEntity
  8
NODRAW
 62
     0
100
AcDbTrace
 10
27.41969399032987
 20
8.226009275586381
 30
0.0
 11
27.41969399032987
 21
7.626009275586381
 31
0.0
 12
29.21969399032987
 22
7.92600927558638
 32
0.0
 13
29.21969399032987
 23
7.92600927558638
 33
0.0
  0
MTEXT
  5
27F
330
25E
100
AcDbEntity
  8
NODRAW
 62
     0
100
AcDbMText
 10
14.22441301214419
 20
7.92600927558638
 30
0.0
 40
1.0
 41
0.0
 71
     5
 72
     1
  1
\A1;30
 73
     1
 44
1.0
  0
POINT
  5
280
330
25E
100
AcDbEntity
  8
Defpoints
 62
     0
100
AcDbPoint
 10
-0.7708679660414788
 20
7.608001925446899
 30
0.0
  0
POINT
  5
281
330
25E
100
AcDbEntity
  8
Defpoints
 62
     0
100
AcDbPoint
 10
29.21969399032987
 20
7.608001925446899
 30
0.0
  0
POINT
  5
282
330
25E
100
AcDbEntity
  8
Defpoints
 62
     0
100
AcDbPoint
 10
29.21969399032987
 20
7.92600927558638
 30
0.0
  0
ENDBLK
  5
26A
330
25E
100
AcDbEntity
  8
0
100
AcDbBlockEnd
  0
BLOCK
  5
277
330
26C
100
AcDbEntity
  8
0
100
AcDbBlockBegin
  2
*D20
 70
     1
 10
0.0
 20
0.0
 30
0.0
  3
*D20
  1

  0
LINE
  5
283
330
26C
100
AcDbEntity
  8
NODRAW
 62
     0
370
    -2
100
AcDbLine
 10
29.83168361685358
 20
7.000897076022241
 30
0.0
 11
30.75895765371778
 21
7.00089707602224
 31
0.0
  0
LINE
  5
284
330
26C
100
AcDbEntity
  8
NODRAW
 62
     0
370
    -2
100
AcDbLine
 10
29.83168361685358
 20
-12.97574465502994
 30
0.0
 11
30.75895765371778
 21
-12.97574465502994
 31
0.0
  0
LINE
  5
285
330
26C
100
AcDbEntity
  8
NODRAW
 62
     0
370
    -2
100
AcDbLine
 10
30.57895765371778
 20
5.20089707602224
 30
0.0
 11
30.57895765371778
 21
-2.39742378950385
 31
0.0
  0
LINE
  5
286
330
26C
100
AcDbEntity
  8
NODRAW
 62
     0
370
    -2
100
AcDbLine
 10
30.57895765371778
 20
-11.17574465502994
 30
0.0
 11
30.57895765371778
 21
-3.577423789503849
 31
0.0
  0
SOLID
  5
287
330
26C
100
AcDbEntity
  8
NODRAW
 62
     0
100
AcDbTrace
 10
30.27895765371778
 20
5.20089707602224
 30
0.0
 11
30.87895765371778
 21
5.20089707602224
 31
0.0
 12
30.57895765371778
 22
7.00089707602224
 32
0.0
 13
30.57895765371778
 23
7.00089707602224
 33
0.0
  0
SOLID
  5
288
330
26C
100
AcDbEntity
  8
NODRAW
 62
     0
100
AcDbTrace
 10
30.27895765371777
 20
-11.17574465502994
 30
0.0
 11
30.87895765371778
 21
-11.17574465502994
 31
0.0
 12
30.57895765371778
 22
-12.97574465502994
 32
0.0
 13
30.57895765371778
 23
-12.97574465502994
 33
0.0
  0
MTEXT
  5
289
330
26C
100
AcDbEntity
  8
NODRAW
 62
     0
100
AcDbMText
 10
30.57895765371778
 20
-2.987423789503845
 30
0.0
 40
1.0
 41
0.0
 71
     5
 72
     1
  1
\A1;20
 73
     1
 44
1.0
  0
POINT
  5
28A
330
26C
100
AcDbEntity
  8
Defpoints
 62
     0
100
AcDbPoint
 10
29.76918361685358
 20
7.000897076022241
 30
0.0
  0
POINT
  5
28B
330
26C
100
AcDbEntity
  8
Defpoints
 62
     0
100
AcDbPoint
 10
29.76918361685358
 20
-12.97574465502994
 30
0.0
  0
POINT
  5
28C
330
26C
100
AcDbEntity
  8
Defpoints
 62
     0
100
AcDbPoint
 10
30.57895765371778
 20
-12.97574465502994
 30
0.0
  0
ENDBLK
  5
278
330
26C
100
AcDbEntity
  8
0
100
AcDbBlockEnd
  0
ENDSEC
  0
SECTION
  2
ENTITIES
  0
SOLID
  5
4D
330
1E
100
AcDbEntity
  8
METAL1
100
AcDbTrace
 10
6.65
 20
0.8381999999999999
 30
0.0
 11
7.767599999999999
 21
0.8381999999999999
 31
0.0
 12
6.65
 22
-0.8381999999999999
 32
0.0
 13
7.767599999999999
 23
-0.8381999999999999
 33
0.0
  0
SOLID
  5
4E
330
1E
100
AcDbEntity
  8
METAL1
100
AcDbTrace
 10
9.599999999999999
 20
0.8381999999999999
 30
0.0
 11
10.7176
 21
0.8381999999999999
 31
0.0
 12
9.599999999999999
 22
-0.8381999999999999
 32
0.0
 13
10.7176
 23
-0.8381999999999999
 33
0.0
  0
SOLID
  5
4F
330
1E
100
AcDbEntity
  8
CONSTR
100
AcDbTrace
 10
7.125
 20
0.8
 30
0.0
 11
7.125
 21
-0.8
 31
0.0
 12
7.075
 22
0.8
 32
0.0
 13
7.075
 23
-0.8
 33
0.0
  0
SOLID
  5
50
330
1E
100
AcDbEntity
  8
CONSTR
100
AcDbTrace
 10
7.099999999999999
 20
0.825
 30
0.0
 11
10.3
 21
0.825
 31
0.0
 12
7.099999999999999
 22
0.775
 32
0.0
 13
10.3
 23
0.775
 33
0.0
  0
SOLID
  5
51
330
1E
100
AcDbEntity
  8
CONSTR
100
AcDbTrace
 10
7.099999999999999
 20
-0.775
 30
0.0
 11
10.3
 21
-0.775
 31
0.0
 12
7.099999999999999
 22
-0.825
 32
0.0
 13
10.3
 23
-0.825
 33
0.0
  0
SOLID
  5
52
330
1E
100
AcDbEntity
  8
CONSTR
100
AcDbTrace
 10
10.32499999999999
 20
0.8
 30
0.0
 11
10.32499999999999
 21
-0.8
 31
0.0
 12
10.275
 22
0.8
 32
0.0
 13
10.275
 23
-0.8
 33
0.0
  0
SOLID
  5
53
330
1E
100
AcDbEntity
  8
METAL1
100
AcDbTrace
 10
9.25
 20
-0.125
 30
0.0
 11
9.25
 21
0.85
 31
0.0
 12
10.94999999999999
 22
-0.125
 32
0.0
 13
10.94999999999999
 23
0.85
 33
0.0
  0
SOLID
  5
54
330
1E
100
AcDbEntity
  8
METAL1
100
AcDbTrace
 10
15.09999999999999
 20
-0.125
 30
0.0
 11
10.1
 21
-0.125
 31
0.0
 12
15.09999999999999
 22
0.125
 32
0.0
 13
10.1
 23
0.125
 33
0.0
  0
SOLID
  5
55
330
1E
100
AcDbEntity
  8
METAL1
100
AcDbTrace
 10
15.09999999999999
 20
0.125
 30
0.0
 11
23.1
 21
0.125
 31
0.0
 12
15.09999999999999
 22
-0.125
 32
0.0
 13
23.1
 23
-0.125
 33
0.0
  0
SOLID
  5
56
330
1E
100
AcDbEntity
  8
METAL1
100
AcDbTrace
 10
23.1
 20
0.125
 30
0.0
 11
23.35
 21
0.125
 31
0.0
 12
23.1
 22
-0.125
 32
0.0
 13
23.35
 23
-0.125
 33
0.0
  0
SOLID
  5
57
330
1E
100
AcDbEntity
  8
METAL1
100
AcDbTrace
 10
23.35
 20
0.975
 30
0.0
 11
23.35
 21
0.125
 31
0.0
 12
23.1
 22
0.975
 32
0.0
 13
23.1
 23
0.125
 33
0.0
  0
SOLID
  5
58
330
1E
100
AcDbEntity
  8
METAL1
100
AcDbTrace
 10
23.1
 20
0.975
 30
0.0
 11
23.1
 21
1.825
 31
0.0
 12
23.35
 22
0.975
 32
0.0
 13
23.35
 23
1.825
 33
0.0
  0
SOLID
  5
59
330
1E
100
AcDbEntity
  8
METAL1
100
AcDbTrace
 10
23.225
 20
1.825
 30
0.0
 11
23.35
 21
1.825
 31
0.0
 12
23.225
 22
0.125
 32
0.0
 13
23.35
 23
0.125
 33
0.0
  0
SOLID
  5
5A
330
1E
100
AcDbEntity
  8
METAL1
100
AcDbTrace
 10
24.0632
 20
5.275
 30
0.0
 11
24.0632
 21
4.157399999999999
 31
0.0
 12
22.3868
 22
5.275
 32
0.0
 13
22.3868
 23
4.157399999999999
 33
0.0
  0
SOLID
  5
5B
330
1E
100
AcDbEntity
  8
METAL1
100
AcDbTrace
 10
24.0632
 20
2.325
 30
0.0
 11
24.0632
 21
1.2074
 31
0.0
 12
22.3868
 22
2.325
 32
0.0
 13
22.3868
 23
1.2074
 33
0.0
  0
SOLID
  5
5C
330
1E
100
AcDbEntity
  8
CONSTR
100
AcDbTrace
 10
24.02499999999999
 20
4.799999999999999
 30
0.0
 11
22.425
 21
4.799999999999999
 31
0.0
 12
24.02499999999999
 22
4.849999999999999
 32
0.0
 13
22.425
 23
4.849999999999999
 33
0.0
  0
SOLID
  5
5D
330
1E
100
AcDbEntity
  8
CONSTR
100
AcDbTrace
 10
24.05
 20
4.825
 30
0.0
 11
24.05
 21
1.625
 31
0.0
 12
24.0
 22
4.825
 32
0.0
 13
24.0
 23
1.625
 33
0.0
  0
SOLID
  5
5E
330
1E
100
AcDbEntity
  8
CONSTR
100
AcDbTrace
 10
22.45
 20
4.825
 30
0.0
 11
22.45
 21
1.625
 31
0.0
 12
22.39999999999999
 22
4.825
 32
0.0
 13
22.39999999999999
 23
1.625
 33
0.0
  0
SOLID
  5
5F
330
1E
100
AcDbEntity
  8
CONSTR
100
AcDbTrace
 10
24.02499999999999
 20
1.6
 30
0.0
 11
22.425
 21
1.6
 31
0.0
 12
24.02499999999999
 22
1.649999999999999
 32
0.0
 13
22.425
 23
1.649999999999999
 33
0.0
  0
SOLID
  5
60
330
1E
100
AcDbEntity
  8
METAL1
100
AcDbTrace
 10
23.35
 20
5.474999999999999
 30
0.0
 11
23.35
 21
4.625
 31
0.0
 12
23.1
 22
5.474999999999999
 32
0.0
 13
23.1
 23
4.625
 33
0.0
  0
SOLID
  5
61
330
1E
100
AcDbEntity
  8
METAL1
100
AcDbTrace
 10
23.1
 20
5.474999999999999
 30
0.0
 11
23.1
 21
6.325
 31
0.0
 12
23.35
 22
5.474999999999999
 32
0.0
 13
23.35
 23
6.325
 33
0.0
  0
SOLID
  5
62
330
1E
100
AcDbEntity
  8
METAL1
100
AcDbTrace
 10
23.225
 20
6.325
 30
0.0
 11
23.35
 21
6.325
 31
0.0
 12
23.225
 22
4.625
 32
0.0
 13
23.35
 23
4.625
 33
0.0
  0
SOLID
  5
63
330
1E
100
AcDbEntity
  8
METAL1
100
AcDbTrace
 10
22.7
 20
6.3132
 30
0.0
 11
23.81759999999999
 21
6.3132
 31
0.0
 12
22.7
 22
4.6368
 32
0.0
 13
23.81759999999999
 23
4.6368
 33
0.0
  0
SOLID
  5
64
330
1E
100
AcDbEntity
  8
METAL1
100
AcDbTrace
 10
25.64999999999999
 20
6.3132
 30
0.0
 11
26.7676
 21
6.3132
 31
0.0
 12
25.64999999999999
 22
4.6368
 32
0.0
 13
26.7676
 23
4.6368
 33
0.0
  0
SOLID
  5
65
330
1E
100
AcDbEntity
  8
CONSTR
100
AcDbTrace
 10
23.175
 20
6.275
 30
0.0
 11
23.175
 21
4.674999999999999
 31
0.0
 12
23.125
 22
6.275
 32
0.0
 13
23.125
 23
4.674999999999999
 33
0.0
  0
SOLID
  5
66
330
1E
100
AcDbEntity
  8
CONSTR
100
AcDbTrace
 10
23.14999999999999
 20
6.299999999999999
 30
0.0
 11
26.35
 21
6.299999999999999
 31
0.0
 12
23.14999999999999
 22
6.25
 32
0.0
 13
26.35
 23
6.25
 33
0.0
  0
SOLID
  5
67
330
1E
100
AcDbEntity
  8
CONSTR
100
AcDbTrace
 10
23.14999999999999
 20
4.7
 30
0.0
 11
26.35
 21
4.7
 31
0.0
 12
23.14999999999999
 22
4.65
 32
0.0
 13
26.35
 23
4.65
 33
0.0
  0
SOLID
  5
68
330
1E
100
AcDbEntity
  8
CONSTR
100
AcDbTrace
 10
26.375
 20
6.275
 30
0.0
 11
26.375
 21
4.674999999999999
 31
0.0
 12
26.325
 22
6.275
 32
0.0
 13
26.325
 23
4.674999999999999
 33
0.0
  0
SOLID
  5
69
330
1E
100
AcDbEntity
  8
METAL1
100
AcDbTrace
 10
26.15
 20
6.325
 30
0.0
 11
27.85
 21
6.325
 31
0.0
 12
26.15
 22
4.625
 32
0.0
 13
27.85
 23
4.625
 33
0.0
  0
LWPOLYLINE
  5
6B
330
1E
100
AcDbEntity
  8
GND
100
AcDbPolyline
 90
        2
 70
     0
 43
0.2
 10
27.0
 20
5.075
 42
1.0
 10
27.0
 20
5.875
  0
LWPOLYLINE
  5
6F
330
1E
100
AcDbEntity
  8
GND
100
AcDbPolyline
 90
        2
 70
     0
 43
0.2
 10
27.0
 20
5.875
 42
1.0
 10
27.0
 20
5.075
  0
SOLID
  5
73
330
1E
100
AcDbEntity
  8
METAL1
100
AcDbTrace
 10
22.7
 20
1.813199999999999
 30
0.0
 11
23.81759999999999
 21
1.813199999999999
 31
0.0
 12
22.7
 22
0.1368
 32
0.0
 13
23.81759999999999
 23
0.1368
 33
0.0
  0
SOLID
  5
74
330
1E
100
AcDbEntity
  8
METAL1
100
AcDbTrace
 10
25.64999999999999
 20
1.813199999999999
 30
0.0
 11
26.7676
 21
1.813199999999999
 31
0.0
 12
25.64999999999999
 22
0.1368
 32
0.0
 13
26.7676
 23
0.1368
 33
0.0
  0
SOLID
  5
75
330
1E
100
AcDbEntity
  8
CONSTR
100
AcDbTrace
 10
23.175
 20
1.774999999999999
 30
0.0
 11
23.175
 21
0.175
 31
0.0
 12
23.125
 22
1.774999999999999
 32
0.0
 13
23.125
 23
0.175
 33
0.0
  0
SOLID
  5
76
330
1E
100
AcDbEntity
  8
CONSTR
100
AcDbTrace
 10
23.14999999999999
 20
1.8
 30
0.0
 11
26.35
 21
1.8
 31
0.0
 12
23.14999999999999
 22
1.75
 32
0.0
 13
26.35
 23
1.75
 33
0.0
  0
SOLID
  5
77
330
1E
100
AcDbEntity
  8
CONSTR
100
AcDbTrace
 10
23.14999999999999
 20
0.2
 30
0.0
 11
26.35
 21
0.2
 31
0.0
 12
23.14999999999999
 22
0.15
 32
0.0
 13
26.35
 23
0.15
 33
0.0
  0
SOLID
  5
78
330
1E
100
AcDbEntity
  8
CONSTR
100
AcDbTrace
 10
26.375
 20
1.774999999999999
 30
0.0
 11
26.375
 21
0.175
 31
0.0
 12
26.325
 22
1.774999999999999
 32
0.0
 13
26.325
 23
0.175
 33
0.0
  0
SOLID
  5
79
330
1E
100
AcDbEntity
  8
METAL1
100
AcDbTrace
 10
26.15
 20
1.825
 30
0.0
 11
27.85
 21
1.825
 31
0.0
 12
26.15
 22
0.125
 32
0.0
 13
27.85
 23
0.125
 33
0.0
  0
LWPOLYLINE
  5
7A
330
1E
100
AcDbEntity
  8
GND
100
AcDbPolyline
 90
        2
 70
     0
 43
0.2
 10
27.0
 20
0.575
 42
1.0
 10
27.0
 20
1.375
  0
LWPOLYLINE
  5
7E
330
1E
100
AcDbEntity
  8
GND
100
AcDbPolyline
 90
        2
 70
     0
 43
0.2
 10
27.0
 20
1.375
 42
1.0
 10
27.0
 20
0.575
  0
SOLID
  5
82
330
1E
100
AcDbEntity
  8
METAL1
100
AcDbTrace
 10
9.261799999999999
 20
0.2
 30
0.0
 11
9.261799999999999
 21
1.3176
 31
0.0
 12
10.9382
 22
0.2
 32
0.0
 13
10.9382
 23
1.3176
 33
0.0
  0
SOLID
  5
8A
330
1E
100
AcDbEntity
  8
METAL1
100
AcDbTrace
 10
6.985860716216017
 20
5.12507631366614
 30
0.0
 11
6.985860716216017
 21
4.00747631366614
 31
0.0
 12
5.309460716216017
 22
5.12507631366614
 32
0.0
 13
5.309460716216017
 23
4.00747631366614
 33
0.0
  0
SOLID
  5
8B
330
1E
100
AcDbEntity
  8
METAL1
100
AcDbTrace
 10
6.985860716216017
 20
2.17507631366614
 30
0.0
 11
6.985860716216017
 21
1.05747631366614
 31
0.0
 12
5.309460716216017
 22
2.17507631366614
 32
0.0
 13
5.309460716216017
 23
1.05747631366614
 33
0.0
  0
SOLID
  5
90
330
1E
100
AcDbEntity
  8
METAL1
100
AcDbTrace
 10
6.997660716216017
 20
4.273909428806181
 30
0.0
 11
5.297660716216017
 21
4.273909428806181
 31
0.0
 12
6.997660716216017
 22
5.973909428806182
 32
0.0
 13
5.297660716216017
 23
5.973909428806182
 33
0.0
  0
LWPOLYLINE
  5
91
330
1E
100
AcDbEntity
  8
GND
100
AcDbPolyline
 90
        2
 70
     0
 43
0.2
 10
6.147660716216018
 20
4.723909428806182
 42
1.0
 10
6.147660716216018
 20
5.523909428806182
  0
LWPOLYLINE
  5
95
330
1E
100
AcDbEntity
  8
GND
100
AcDbPolyline
 90
        2
 70
     0
 43
0.2
 10
6.147660716216018
 20
5.523909428806182
 42
1.0
 10
6.147660716216018
 20
4.723909428806182
  0
INSERT
  5
DF
330
1E
100
AcDbEntity
  8
METAL1
100
AcDbBlockReference
  2
A$C34295E59
 10
5.066524566275557
 20
-0.646912812624997
 30
0.0
  0
INSERT
  5
E8
330
1E
100
AcDbEntity
  8
METAL1
100
AcDbBlockReference
  2
A$C56102C05
 10
4.791346012934972
 20
-4.126628317755331
 30
0.0
  0
INSERT
  5
F1
330
1E
100
AcDbEntity
  8
METAL1
100
AcDbBlockReference
  2
A$C530702CF
 10
5.327944246577565
 20
1.388651967177764
 30
0.0
  0
INSERT
  5
106
330
1E
100
AcDbEntity
  8
METAL1
100
AcDbBlockReference
  2
A$C32120025
 10
3.401694191098627
 20
-0.2893136027635386
 30
0.0
  0
INSERT
  5
10F
330
1E
100
AcDbEntity
  8
METAL1
100
AcDbBlockReference
  2
A$C38B95C03
 10
9.276756863344299
 20
0.8660069439709126
 30
0.0
  0
LWPOLYLINE
  5
110
330
1E
100
AcDbEntity
  8
METAL1
100
AcDbPolyline
 90
        4
 70
     1
 43
0.0
 10
-0.7836717213406459
 20
6.999149226349928
 10
29.21632827865935
 20
6.999149226349928
 10
29.21632827865935
 20
-13.00085077365007
 10
-0.7836717213406459
 20
-13.00085077365007
  0
INSERT
  5
11B
330
1E
100
AcDbEntity
  8
METAL1
100
AcDbBlockReference
  2
A$C2AC77581
 10
21.65010016079276
 20
4.120448302822602
 30
0.0
  0
INSERT
  5
11C
330
1E
100
AcDbEntity
  8
METAL1
100
AcDbBlockReference
  2
A$C2AC77581
 10
18.37924912147139
 20
4.120448302822602
 30
0.0
  0
INSERT
  5
11D
330
1E
100
AcDbEntity
  8
METAL1
100
AcDbBlockReference
  2
A$C2AC77581
 10
15.17950353424847
 20
4.155987823760124
 30
0.0
  0
LWPOLYLINE
  5
11E
102
{ACAD_REACTORS
330
11F
102
}
330
1E
100
AcDbEntity
  8
METAL1
100
AcDbPolyline
 90
        4
 70
     1
 43
0.0
 10
8.754629493532195
 20
6.699027513572048
 10
11.45170229787291
 20
6.699027513572048
 10
11.45170229787291
 20
3.640024350853657
 10
8.754629493532195
 20
3.640024350853657
  0
HATCH
  5
11F
330
1E
100
AcDbEntity
  8
METAL1
100
AcDbHatch
 10
0.0
 20
0.0
 30
0.0
210
0.0
220
0.0
230
1.0
  2
SOLID
 70
     1
 71
     1
 91
        1
 92
        1
 93
        4
 72
     1
 10
8.754629493532195
 20
6.699027513572048
 11
11.45170229787291
 21
6.699027513572048
 72
     1
 10
11.45170229787291
 20
6.699027513572048
 11
11.45170229787291
 21
3.640024350853657
 72
     1
 10
11.45170229787291
 20
3.640024350853657
 11
8.754629493532195
 21
3.640024350853657
 72
     1
 10
8.754629493532195
 20
3.640024350853657
 11
8.754629493532195
 21
6.699027513572048
 97
        1
330
11E
 75
     0
 76
     1
 98
        1
 10
0.0
 20
0.0
  0
MTEXT
  5
125
330
1E
100
AcDbEntity
  8
METAL1
370
    30
100
AcDbMText
 10
8.707630587798034
 20
-9.446318343047767
 30
0.0
 40
1.0
 41
27.4255
 71
     1
 72
     5
  1
     YU1AW\PMGF1302 1296 MHz LNA
 73
     1
 44
1.0
  0
INSERT
  5
12D
330
1E
100
AcDbEntity
  8
METAL1
100
AcDbBlockReference
  2
A$C6AFA7598
 10
19.17900792270523
 20
4.946215299140863
 30
0.0
  0
INSERT
  5
16D
330
1E
100
AcDbEntity
  8
CONSTR
100
AcDbBlockReference
  2
rfc
 10
40.47763507278054
 20
-23.97075989600011
 30
0.0
 41
5.747672421525731
 42
5.747672421525731
 43
5.747672421525731
 50
89.99999999999998
  0
MTEXT
  5
16E
330
1E
100
AcDbEntity
  8
CONSTR
100
AcDbMText
 10
12.44646248017601
 20
4.276761914782468
 30
0.0
 40
0.6
 41
2.423099999999999
 71
     1
 72
     5
  1
10uH
 73
     1
 44
1.0
  0
MTEXT
  5
16F
330
1E
100
AcDbEntity
  8
CONSTR
100
AcDbMText
 10
9.132455953809728
 20
8.073031945432838
 30
0.0
 40
0.8
 41
2.640499999999999
 71
     1
 72
     5
  1
OUT
 73
     1
 44
1.0
  0
INSERT
  5
170
330
1E
100
AcDbEntity
  8
CONSTR
100
AcDbBlockReference
  2
elkon
 10
10.56129227316221
 20
10.29224224027615
 30
0.0
 50
270.0
  0
INSERT
  5
171
330
1E
100
AcDbEntity
  8
CONSTR
100
AcDbBlockReference
  2
elkon
 10
28.7643366942008
 20
-1.691003111213255
 30
0.0
 50
90.0
  0
MTEXT
  5
172
330
1E
100
AcDbEntity
  8
CONSTR
100
AcDbMText
 10
20.55034423685878
 20
3.387392110426798
 30
0.0
 40
0.6
 41
1.6775
 71
     1
 72
     5
  1
1uF
 73
     1
 44
1.0
  0
MTEXT
  5
173
330
1E
100
AcDbEntity
  8
CONSTR
100
AcDbMText
 10
17.39588031304986
 20
3.231744052808323
 30
0.0
 40
0.6
 41
1.6775
 71
     1
 72
     5
  1
1uF
 73
     1
 44
1.0
  0
MTEXT
  5
174
330
1E
100
AcDbEntity
  8
CONSTR
100
AcDbMText
 10
19.42424885777937
 20
7.864698939065608
 30
0.0
 40
0.6
 41
3.516
 71
     1
 72
     5
  1
78L05
 73
     1
 44
1.0
  0
LWPOLYLINE
  5
175
330
1E
100
AcDbEntity
  8
CONSTR
100
AcDbPolyline
 90
        2
 70
     0
 43
0.0
 10
18.77839942787953
 20
5.896698897081837
 10
17.22919249359232
 20
5.41087768084704
  0
LWPOLYLINE
  5
176
330
1E
100
AcDbEntity
  8
CONSTR
100
AcDbPolyline
 90
        2
 70
     0
 43
0.0
 10
20.41873610646554
 20
5.927062755072984
 10
22.02869611820478
 20
5.47160522628808
  0
LWPOLYLINE
  5
177
330
1E
100
AcDbEntity
  8
CONSTR
100
AcDbPolyline
 90
        2
 70
     0
 43
0.0
 10
19.56819097220498
 20
5.350149964864716
 10
19.59856763905177
 20
5.016147868044459
  0
INSERT
  5
178
330
1E
100
AcDbEntity
  8
CONSTR
100
AcDbBlockReference
  2
tri
 10
8.479596057488063
 20
6.200001542536952
 30
0.0
 50
314.6137258095578
  0
LWPOLYLINE
  5
17C
330
1E
100
AcDbEntity
  8
CONSTR
100
AcDbPolyline
 90
        2
 70
     0
 43
0.0
 10
17.57455064641582
 20
5.521980883972521
 10
16.02534371212861
 20
5.036159667737724
  0
LWPOLYLINE
  5
17D
330
1E
100
AcDbEntity
  8
CONSTR
100
AcDbPolyline
 90
        2
 70
     0
 43
0.0
 10
21.41556275760303
 20
5.65056172427781
 10
23.02552276934228
 20
5.195104195492906
  0
LWPOLYLINE
  5
17E
330
1E
100
AcDbEntity
  8
CONSTR
100
AcDbPolyline
 90
        2
 70
     0
 43
0.0
 10
12.19011663134265
 20
5.545296956481085
 10
11.41539706336905
 20
5.545296956481085
  0
LWPOLYLINE
  5
17F
330
1E
100
AcDbEntity
  8
CONSTR
100
AcDbPolyline
 90
        2
 70
     0
 43
0.0
 10
14.71125877118541
 20
5.565222564999036
 10
15.31879082691327
 20
5.565222564999036
  0
MTEXT
  5
1B1
330
1E
100
AcDbEntity
  8
CONSTR
100
AcDbMText
 10
3.694237708576068
 20
2.418732835187842
 30
0.0
 40
0.6
 41
1.429
 71
     1
 72
     5
  1
G
 73
     1
 44
1.0
  0
MTEXT
  5
1B2
330
1E
100
AcDbEntity
  8
CONSTR
100
AcDbMText
 10
1.483258972274359
 20
1.038735566326757
 30
0.0
 40
0.8
 41
1.615399999999999
 71
     1
 72
     5
  1
IN
 73
     1
 44
1.0
  0
MTEXT
  5
1B3
330
1E
100
AcDbEntity
  8
CONSTR
100
AcDbMText
 10
0.8383971885953691
 20
-1.329117940430567
 30
0.0
 40
0.6
 41
3.7974
 71
     1
 72
     5
  1
MGF1302
 73
     1
 44
1.0
  0
MTEXT
  5
1C3
330
1E
100
AcDbEntity
  8
CONSTR
100
AcDbMText
 10
5.549062853181123
 20
2.288599713413708
 30
0.0
 40
0.4
 41
1.397899999999999
 71
     1
 72
     5
  1
120+\P470pF
 11
0.0000000000000001
 21
1.0
 31
0.0
 73
     1
 44
1.0
  0
MTEXT
  5
1C4
330
1E
100
AcDbEntity
  8
CONSTR
100
AcDbMText
 10
6.730038929224225
 20
-1.853330017219597
 30
0.0
 40
0.6
 41
1.1805
 71
     1
 72
     5
  1
S
 73
     1
 44
1.0
  0
MTEXT
  5
1C5
330
1E
100
AcDbEntity
  8
CONSTR
100
AcDbMText
 10
7.862496692559115
 20
1.585355559674031
 30
0.0
 40
0.6
 41
1.584299999999999
 71
     1
 72
     5
  1
D
 73
     1
 44
1.0
  0
MTEXT
  5
1C6
330
1E
100
AcDbEntity
  8
CONSTR
100
AcDbMText
 10
7.881831187211741
 20
0.3721626393155049
 30
0.0
 40
0.6
 41
2.9085
 71
     1
 72
     5
  1
82
 73
     1
 44
1.0
  0
MTEXT
  5
1C7
330
1E
100
AcDbEntity
  8
CONSTR
100
AcDbMText
 10
22.92563733613429
 20
3.543777782276956
 30
0.0
 40
0.6
 41
2.1814
 71
     1
 72
     5
  1
10
 73
     1
 44
1.0
  0
MTEXT
  5
1C8
330
1E
100
AcDbEntity
  8
CONSTR
100
AcDbMText
 10
24.28725345952039
 20
5.754097148745723
 30
0.0
 40
0.6
 41
2.811599999999999
 71
     1
 72
     5
  1
1nF
 73
     1
 44
1.0
  0
MTEXT
  5
1C9
330
1E
100
AcDbEntity
  8
CONSTR
100
AcDbMText
 10
7.173170845840136
 20
3.165633521694649
 30
0.0
 40
0.6
 41
1.1805
 71
     1
 72
     5
  1
S
 73
     1
 44
1.0
  0
MTEXT
  5
1CA
330
1E
100
AcDbEntity
  8
CONSTR
100
AcDbMText
 10
5.103085423607939
 20
-3.330642472847751
 30
0.0
 40
0.4
 41
1.397899999999999
 71
     1
 72
     5
  1
120+\P470pF
 11
0.0000000000000001
 21
1.0
 31
0.0
 73
     1
 44
1.0
  0
MTEXT
  5
1CB
330
1E
100
AcDbEntity
  8
CONSTR
100
AcDbMText
 10
23.87776017523112
 20
1.121893208841347
 30
0.0
 40
0.6
 41
1.5134
 71
     1
 72
     5
  1
22pF
 73
     1
 44
1.0
  0
MTEXT
  5
1CC
330
1E
100
AcDbEntity
  8
CONSTR
100
AcDbMText
 10
9.652744153661831
 20
1.45733076489984
 30
0.0
 40
0.6
 41
2.132899999999999
 71
     1
 72
     5
  1
1.5pF
 11
0.0000000000000001
 21
1.0
 31
0.0
 73
     1
 44
1.0
  0
SOLID
  5
245
330
1E
100
AcDbEntity
  8
METAL1
100
AcDbTrace
 10
4.773673322552886
 20
-4.578878662203356
 30
0.0
 11
4.773673322552886
 21
-3.461278662203357
 31
0.0
 12
6.450073322552886
 22
-4.578878662203356
 32
0.0
 13
6.450073322552887
 23
-3.461278662203357
 33
0.0
  0
SOLID
  5
246
330
1E
100
AcDbEntity
  8
METAL1
100
AcDbTrace
 10
4.773673322552887
 20
-1.628878662203356
 30
0.0
 11
4.773673322552887
 21
-0.5112786622033568
 31
0.0
 12
6.450073322552887
 22
-1.628878662203356
 32
0.0
 13
6.450073322552887
 23
-0.511278662203357
 33
0.0
  0
SOLID
  5
247
330
1E
100
AcDbEntity
  8
METAL1
100
AcDbTrace
 10
4.761873322552886
 20
-5.409423886170936
 30
0.0
 11
4.761873322552887
 21
-3.709423886170935
 31
0.0
 12
6.461873322552886
 22
-5.409423886170936
 32
0.0
 13
6.461873322552887
 23
-3.709423886170935
 33
0.0
  0
LWPOLYLINE
  5
248
330
1E
100
AcDbEntity
  8
GND
100
AcDbPolyline
 90
        2
 70
     0
 43
0.2
 10
5.611873322552886
 20
-4.159423886170936
 42
1.0
 10
5.611873322552885
 20
-4.959423886170935
  0
LWPOLYLINE
  5
249
330
1E
100
AcDbEntity
  8
GND
100
AcDbPolyline
 90
        2
 70
     0
 43
0.2
 10
5.611873322552885
 20
-4.959423886170935
 42
1.0
 10
5.611873322552886
 20
-4.159423886170936
  0
DIMENSION
  5
25D
330
1E
100
AcDbEntity
  8
NODRAW
100
AcDbDimension
  2
*D19
 10
29.21969399032987
 20
7.92600927558638
 30
0.0
 11
14.22441301214419
 21
7.92600927558638
 31
0.0
 70
    32
 71
     5
 42
29.99056195637135
  3
Standard
100
AcDbAlignedDimension
 13
-0.7708679660414788
 23
7.608001925446899
 33
0.0
 14
29.21969399032987
 24
7.608001925446899
 34
0.0
100
AcDbRotatedDimension
1001
ACAD
1000
DSTYLE
1002
{
1070
   271
1070
     0
1002
}
  0
DIMENSION
  5
26B
330
1E
100
AcDbEntity
  8
NODRAW
100
AcDbDimension
  2
*D20
 10
30.57895765371778
 20
-12.97574465502994
 30
0.0
 11
30.57895765371778
 21
-2.987423789503845
 31
0.0
 70
    32
 71
     5
 42
19.97664173105218
  3
Standard
100
AcDbAlignedDimension
 13
29.76918361685358
 23
7.000897076022241
 33
0.0
 14
29.76918361685358
 24
-12.97574465502994
 34
0.0
 50
90.0
100
AcDbRotatedDimension
1001
ACAD
1000
DSTYLE
1002
{
1070
   271
1070
     0
1002
}
  0
ENDSEC
  0
SECTION
  2
OBJECTS
  0
DICTIONARY
  5
C
330
0
100
AcDbDictionary
281
     1
  3
ACAD_GROUP
350
D
  3
ACAD_LAYOUT
350
19
  3
ACAD_MLINESTYLE
350
16
  3
ACAD_PLOTSETTINGS
350
18
  3
ACAD_PLOTSTYLENAME
350
E
  3
AcDbVariableDictionary
350
AC
  0
DICTIONARY
  5
AE
330
1E
100
AcDbDictionary
280
     1
281
     1
  3
ACAD_SORTENTS
360
AF
  0
DICTIONARY
  5
D
102
{ACAD_REACTORS
330
C
102
}
330
C
100
AcDbDictionary
281
     1
  0
DICTIONARY
  5
19
102
{ACAD_REACTORS
330
C
102
}
330
C
100
AcDbDictionary
281
     1
  3
Layout1
350
1D
  3
Model
350
21
  0
DICTIONARY
  5
16
102
{ACAD_REACTORS
330
C
102
}
330
C
100
AcDbDictionary
281
     1
  3
Standard
350
17
  0
DICTIONARY
  5
18
102
{ACAD_REACTORS
330
C
102
}
330
C
100
AcDbDictionary
281
     1
  0
ACDBDICTIONARYWDFLT
  5
E
102
{ACAD_REACTORS
330
C
102
}
330
C
100
AcDbDictionary
281
     1
  3
Normal
350
F
100
AcDbDictionaryWithDefault
340
F
  0
DICTIONARY
  5
AC
102
{ACAD_REACTORS
330
C
102
}
330
C
100
AcDbDictionary
281
     1
  3
DIMASSOC
350
292
  3
SORTENTS
350
AD
  0
SORTENTSTABLE
  5
AF
102
{ACAD_REACTORS
330
AE
102
}
330
AE
100
AcDbSortentsTable
330
1E
331
110
  5
111
331
1CB
  5
1CA
331
16D
  5
12D
331
75
  5
8E
331
56
  5
43
331
61
  5
4A
331
78
  5
DF
331
178
  5
177
331
59
  5
46
331
170
  5
16F
331
1B2
  5
1B1
331
12D
  5
125
331
173
  5
172
331
64
  5
4D
331
5C
  5
86
331
67
  5
8C
331
7E
  5
58
331
17E
  5
17D
331
5F
  5
89
331
176
  5
175
331
245
  5
200
331
4E
  5
3E
331
1C3
  5
1B3
331
11F
  5
3B
331
1C6
  5
1C5
331
51
  5
84
331
73
  5
51
331
54
  5
40
331
1C9
  5
1C8
331
125
  5
11F
331
106
  5
F1
331
DF
  5
249
331
1CC
  5
1CB
331
95
  5
10F
331
16E
  5
16D
331
76
  5
8F
331
57
  5
44
331
62
  5
4B
331
79
  5
53
331
5A
  5
47
331
171
  5
170
331
1B3
  5
1B2
331
17C
  5
178
331
174
  5
173
331
65
  5
8A
331
10F
  5
110
331
5D
  5
87
331
248
  5
246
331
17F
  5
17E
331
177
  5
176
331
68
  5
8D
331
8A
  5
5A
331
246
  5
245
331
6B
  5
4F
331
1C4
  5
1C3
331
4F
  5
82
331
1C7
  5
1C6
331
90
  5
32
331
52
  5
85
331
1CA
  5
1C9
331
E8
  5
248
331
74
  5
52
331
55
  5
41
331
60
  5
49
331
16F
  5
16E
331
77
  5
90
331
58
  5
45
331
1B1
  5
17F
331
82
  5
59
331
63
  5
4C
331
172
  5
171
331
7A
  5
54
331
5B
  5
48
331
249
  5
247
331
F1
  5
E8
331
175
  5
174
331
66
  5
8B
331
5E
  5
88
331
17D
  5
17C
331
11B
  5
3C
331
69
  5
4E
331
8B
  5
7E
331
4D
  5
3D
331
247
  5
26
331
1C5
  5
1C4
331
6F
  5
50
331
50
  5
83
331
91
  5
106
331
53
  5
3F
331
1C8
  5
1C7
  0
LAYOUT
  5
1D
102
{ACAD_REACTORS
330
19
102
}
330
19
100
AcDbPlotSettings
  1

  2
C:\PROGRAM FILES\ACAD2000\plotters\HP LaserJet 5L PCL.pc3
  4

  6

 40
0.0
 41
0.0
 42
0.0
 43
0.0
 44
0.0
 45
0.0
 46
0.0
 47
0.0
 48
0.0
 49
0.0
140
0.0
141
0.0
142
1.0
143
1.0
 70
   688
 72
     0
 73
     0
 74
     5
  7

 75
    16
147
1.0
148
0.0
149
0.0
100
AcDbLayout
  1
Layout1
 70
     1
 71
     1
 10
0.0
 20
0.0
 11
12.0
 21
9.0
 12
0.0
 22
0.0
 32
0.0
 14
1.000000000000000E+20
 24
1.000000000000000E+20
 34
1.000000000000000E+20
 15
-1.000000000000000E+20
 25
-1.000000000000000E+20
 35
-1.000000000000000E+20
146
0.0
 13
0.0
 23
0.0
 33
0.0
 16
1.0
 26
0.0
 36
0.0
 17
0.0
 27
1.0
 37
0.0
 76
     0
330
1A
  0
LAYOUT
  5
21
102
{ACAD_REACTORS
330
19
102
}
330
19
100
AcDbPlotSettings
  1

  2
C:\PROGRAM FILES\ACAD2000\plotters\HP LaserJet 5L PCL.pc3
  4

  6

 40
0.0
 41
0.0
 42
0.0
 43
0.0
 44
0.0
 45
0.0
 46
0.0
 47
0.0
 48
0.0
 49
0.0
140
0.0
141
0.0
142
1.0
143
1.0
 70
  1712
 72
     0
 73
     0
 74
     0
  7

 75
     0
147
1.0
148
0.0
149
0.0
100
AcDbLayout
  1
Model
 70
     1
 71
     0
 10
0.0
 20
0.0
 11
12.0
 21
9.0
 12
0.0
 22
0.0
 32
0.0
 14
0.0
 24
0.0
 34
0.0
 15
0.0
 25
0.0
 35
0.0
146
0.0
 13
0.0
 23
0.0
 33
0.0
 16
1.0
 26
0.0
 36
0.0
 17
0.0
 27
1.0
 37
0.0
 76
     0
330
1E
  0
MLINESTYLE
  5
17
102
{ACAD_REACTORS
330
16
102
}
330
16
100
AcDbMlineStyle
  2
STANDARD
 70
     0
  3

 62
   256
 51
90.0
 52
90.0
 71
     2
 49
0.5
 62
   256
  6
BYLAYER
 49
-0.5
 62
   256
  6
BYLAYER
  0
ACDBPLACEHOLDER
  5
F
102
{ACAD_REACTORS
330
E
102
}
330
E
  0
DICTIONARYVAR
  5
292
102
{ACAD_REACTORS
330
AC
102
}
330
AC
100
DictionaryVariables
280
     0
  1
1
  0
DICTIONARYVAR
  5
AD
102
{ACAD_REACTORS
330
AC
102
}
330
AC
100
DictionaryVariables
280
     0
  1
127
  0
ENDSEC
  0
EOF
