  0
SECTION
  2
HEADER
  9
$ACADVER
  1
AC1015
  9
$ACADMAINTVER
 70
    13
  9
$DWGCODEPAGE
  3
ANSI_1252
  9
$INSBASE
 10
0.0
 20
0.0
 30
0.0
  9
$EXTMIN
 10
3.784654436679375
 20
-12.59281736743723
 30
0.0
  9
$EXTMAX
 10
38.62897080364323
 20
14.40495272726891
 30
0.0
  9
$LIMMIN
 10
0.0
 20
0.0
  9
$LIMMAX
 10
12.0
 20
9.0
  9
$ORTHOMODE
 70
     0
  9
$REGENMODE
 70
     1
  9
$FILLMODE
 70
     1
  9
$QTEXTMODE
 70
     0
  9
$MIRRTEXT
 70
     1
  9
$LTSCALE
 40
1.0
  9
$ATTMODE
 70
     1
  9
$TEXTSIZE
 40
0.2
  9
$TRACEWID
 40
0.05
  9
$TEXTSTYLE
  7
Standard
  9
$CLAYER
  8
GND
  9
$CELTYPE
  6
ByLayer
  9
$CECOLOR
 62
   256
  9
$CELTSCALE
 40
1.0
  9
$DISPSILH
 70
     0
  9
$DIMSCALE
 40
1.0
  9
$DIMASZ
 40
0.18
  9
$DIMEXO
 40
0.0625
  9
$DIMDLI
 40
0.38
  9
$DIMRND
 40
0.0
  9
$DIMDLE
 40
0.0
  9
$DIMEXE
 40
0.18
  9
$DIMTP
 40
0.0
  9
$DIMTM
 40
0.0
  9
$DIMTXT
 40
0.18
  9
$DIMCEN
 40
0.09
  9
$DIMTSZ
 40
0.0
  9
$DIMTOL
 70
     0
  9
$DIMLIM
 70
     0
  9
$DIMTIH
 70
     1
  9
$DIMTOH
 70
     1
  9
$DIMSE1
 70
     0
  9
$DIMSE2
 70
     0
  9
$DIMTAD
 70
     0
  9
$DIMZIN
 70
     0
  9
$DIMBLK
  1

  9
$DIMASO
 70
     1
  9
$DIMSHO
 70
     1
  9
$DIMPOST
  1

  9
$DIMAPOST
  1

  9
$DIMALT
 70
     0
  9
$DIMALTD
 70
     2
  9
$DIMALTF
 40
25.4
  9
$DIMLFAC
 40
1.0
  9
$DIMTOFL
 70
     0
  9
$DIMTVP
 40
0.0
  9
$DIMTIX
 70
     0
  9
$DIMSOXD
 70
     0
  9
$DIMSAH
 70
     0
  9
$DIMBLK1
  1

  9
$DIMBLK2
  1

  9
$DIMSTYLE
  2
Standard
  9
$DIMCLRD
 70
     0
  9
$DIMCLRE
 70
     0
  9
$DIMCLRT
 70
     0
  9
$DIMTFAC
 40
1.0
  9
$DIMGAP
 40
0.09
  9
$DIMJUST
 70
     0
  9
$DIMSD1
 70
     0
  9
$DIMSD2
 70
     0
  9
$DIMTOLJ
 70
     1
  9
$DIMTZIN
 70
     0
  9
$DIMALTZ
 70
     0
  9
$DIMALTTZ
 70
     0
  9
$DIMUPT
 70
     0
  9
$DIMDEC
 70
     4
  9
$DIMTDEC
 70
     4
  9
$DIMALTU
 70
     2
  9
$DIMALTTD
 70
     2
  9
$DIMTXSTY
  7
Standard
  9
$DIMAUNIT
 70
     0
  9
$DIMADEC
 70
     0
  9
$DIMALTRND
 40
0.0
  9
$DIMAZIN
 70
     0
  9
$DIMDSEP
 70
    46
  9
$DIMATFIT
 70
     3
  9
$DIMFRAC
 70
     0
  9
$DIMLDRBLK
  1

  9
$DIMLUNIT
 70
     2
  9
$DIMLWD
 70
    -2
  9
$DIMLWE
 70
    -2
  9
$DIMTMOVE
 70
     0
  9
$LUNITS
 70
     2
  9
$LUPREC
 70
     4
  9
$SKETCHINC
 40
0.1
  9
$FILLETRAD
 40
0.0
  9
$AUNITS
 70
     0
  9
$AUPREC
 70
     0
  9
$MENU
  1
.
  9
$ELEVATION
 40
0.0
  9
$PELEVATION
 40
0.0
  9
$THICKNESS
 40
0.0
  9
$LIMCHECK
 70
     0
  9
$CHAMFERA
 40
0.0
  9
$CHAMFERB
 40
0.0
  9
$CHAMFERC
 40
0.0
  9
$CHAMFERD
 40
0.0
  9
$SKPOLY
 70
     0
  9
$TDCREATE
 40
2451731.795527083
  9
$TDUCREATE
 40
2451731.712193750
  9
$TDUPDATE
 40
2452548.487012314
  9
$TDUUPDATE
 40
2452548.403678981
  9
$TDINDWG
 40
0.2104830324
  9
$TDUSRTIMER
 40
0.2104830324
  9
$USRTIMER
 70
     1
  9
$ANGBASE
 50
0.0
  9
$ANGDIR
 70
     0
  9
$PDMODE
 70
     0
  9
$PDSIZE
 40
0.0
  9
$PLINEWID
 40
0.0
  9
$SPLFRAME
 70
     0
  9
$SPLINETYPE
 70
     6
  9
$SPLINESEGS
 70
     8
  9
$HANDSEED
  5
304
  9
$SURFTAB1
 70
     6
  9
$SURFTAB2
 70
     6
  9
$SURFTYPE
 70
     6
  9
$SURFU
 70
     6
  9
$SURFV
 70
     6
  9
$UCSBASE
  2

  9
$UCSNAME
  2

  9
$UCSORG
 10
0.0
 20
0.0
 30
0.0
  9
$UCSXDIR
 10
1.0
 20
0.0
 30
0.0
  9
$UCSYDIR
 10
0.0
 20
1.0
 30
0.0
  9
$UCSORTHOREF
  2

  9
$UCSORTHOVIEW
 70
     0
  9
$UCSORGTOP
 10
0.0
 20
0.0
 30
0.0
  9
$UCSORGBOTTOM
 10
0.0
 20
0.0
 30
0.0
  9
$UCSORGLEFT
 10
0.0
 20
0.0
 30
0.0
  9
$UCSORGRIGHT
 10
0.0
 20
0.0
 30
0.0
  9
$UCSORGFRONT
 10
0.0
 20
0.0
 30
0.0
  9
$UCSORGBACK
 10
0.0
 20
0.0
 30
0.0
  9
$PUCSBASE
  2

  9
$PUCSNAME
  2

  9
$PUCSORG
 10
0.0
 20
0.0
 30
0.0
  9
$PUCSXDIR
 10
1.0
 20
0.0
 30
0.0
  9
$PUCSYDIR
 10
0.0
 20
1.0
 30
0.0
  9
$PUCSORTHOREF
  2

  9
$PUCSORTHOVIEW
 70
     0
  9
$PUCSORGTOP
 10
0.0
 20
0.0
 30
0.0
  9
$PUCSORGBOTTOM
 10
0.0
 20
0.0
 30
0.0
  9
$PUCSORGLEFT
 10
0.0
 20
0.0
 30
0.0
  9
$PUCSORGRIGHT
 10
0.0
 20
0.0
 30
0.0
  9
$PUCSORGFRONT
 10
0.0
 20
0.0
 30
0.0
  9
$PUCSORGBACK
 10
0.0
 20
0.0
 30
0.0
  9
$USERI1
 70
     0
  9
$USERI2
 70
     0
  9
$USERI3
 70
     0
  9
$USERI4
 70
     0
  9
$USERI5
 70
     0
  9
$USERR1
 40
0.0
  9
$USERR2
 40
0.0
  9
$USERR3
 40
0.0
  9
$USERR4
 40
0.0
  9
$USERR5
 40
0.0
  9
$WORLDVIEW
 70
     1
  9
$SHADEDGE
 70
     3
  9
$SHADEDIF
 70
    70
  9
$TILEMODE
 70
     1
  9
$MAXACTVP
 70
    64
  9
$PINSBASE
 10
0.0
 20
0.0
 30
0.0
  9
$PLIMCHECK
 70
     0
  9
$PEXTMIN
 10
1.000000000000000E+20
 20
1.000000000000000E+20
 30
1.000000000000000E+20
  9
$PEXTMAX
 10
-1.000000000000000E+20
 20
-1.000000000000000E+20
 30
-1.000000000000000E+20
  9
$PLIMMIN
 10
0.0
 20
0.0
  9
$PLIMMAX
 10
12.0
 20
9.0
  9
$UNITMODE
 70
     0
  9
$VISRETAIN
 70
     1
  9
$PLINEGEN
 70
     0
  9
$PSLTSCALE
 70
     1
  9
$TREEDEPTH
 70
  3020
  9
$CMLSTYLE
  2
Standard
  9
$CMLJUST
 70
     0
  9
$CMLSCALE
 40
1.0
  9
$PROXYGRAPHICS
 70
     1
  9
$MEASUREMENT
 70
     0
  9
$CELWEIGHT
370
    -1
  9
$ENDCAPS
280
     0
  9
$JOINSTYLE
280
     0
  9
$LWDISPLAY
290
     1
  9
$INSUNITS
 70
     0
  9
$HYPERLINKBASE
  1

  9
$STYLESHEET
  1

  9
$XEDIT
290
     1
  9
$CEPSNTYPE
380
     0
  9
$PSTYLEMODE
290
     1
  9
$FINGERPRINTGUID
  2
{18EA2082-52A7-11D4-A43B-DB44CA5A8C33}
  9
$VERSIONGUID
  2
{EA962604-9AC0-4E2A-9A59-4637BA65595F}
  9
$EXTNAMES
290
     1
  9
$PSVPSCALE
 40
0.0
  9
$OLESTARTUP
290
     0
  0
ENDSEC
  0
SECTION
  2
CLASSES
  0
CLASS
  1
ACDBDICTIONARYWDFLT
  2
AcDbDictionaryWithDefault
  3
AutoCAD 2000
 90
        0
280
     0
281
     0
  0
CLASS
  1
ACDBPLACEHOLDER
  2
AcDbPlaceHolder
  3
AutoCAD 2000
 90
        0
280
     0
281
     0
  0
CLASS
  1
LAYOUT
  2
AcDbLayout
  3
AutoCAD 2000
 90
        0
280
     0
281
     0
  0
CLASS
  1
DICTIONARYVAR
  2
AcDbDictionaryVar
  3
AutoCAD 2000
 90
        0
280
     0
281
     0
  0
CLASS
  1
SORTENTSTABLE
  2
AcDbSortentsTable
  3
AutoCAD 2000
 90
        0
280
     0
281
     0
  0
ENDSEC
  0
SECTION
  2
TABLES
  0
TABLE
  2
VPORT
  5
8
330
0
100
AcDbSymbolTable
 70
     2
  0
VPORT
  5
303
330
8
100
AcDbSymbolTableRecord
100
AcDbViewportTableRecord
  2
*Active
 70
     0
 10
0.0
 20
0.0
 11
1.0
 21
1.0
 12
21.20720724438629
 22
0.906067805637825
 13
0.0
 23
0.0
 14
1.0
 24
1.0
 15
0.0
 25
0.0
 16
0.0
 26
0.0
 36
1.0
 17
0.0
 27
0.0
 37
0.0
 40
27.19555128961893
 41
1.448317307692307
 42
50.0
 43
0.0
 44
0.0
 50
0.0
 51
0.0
 71
     0
 72
   100
 73
     1
 74
     2
 75
     0
 76
     0
 77
     0
 78
     0
281
     0
 65
     1
110
0.0
120
0.0
130
0.0
111
1.0
121
0.0
131
0.0
112
0.0
122
1.0
132
0.0
 79
     0
146
0.0
  0
ENDTAB
  0
TABLE
  2
LTYPE
  5
5
330
0
100
AcDbSymbolTable
 70
     1
  0
LTYPE
  5
13
330
5
100
AcDbSymbolTableRecord
100
AcDbLinetypeTableRecord
  2
ByBlock
 70
     0
  3

 72
    65
 73
     0
 40
0.0
  0
LTYPE
  5
14
330
5
100
AcDbSymbolTableRecord
100
AcDbLinetypeTableRecord
  2
ByLayer
 70
     0
  3

 72
    65
 73
     0
 40
0.0
  0
LTYPE
  5
15
330
5
100
AcDbSymbolTableRecord
100
AcDbLinetypeTableRecord
  2
Continuous
 70
     0
  3
Solid line
 72
    65
 73
     0
 40
0.0
  0
ENDTAB
  0
TABLE
  2
LAYER
  5
2
330
0
100
AcDbSymbolTable
 70
     6
  0
LAYER
  5
10
330
2
100
AcDbSymbolTableRecord
100
AcDbLayerTableRecord
  2
0
 70
     0
 62
     7
  6
Continuous
370
    -3
390
F
  0
LAYER
  5
22
330
2
100
AcDbSymbolTableRecord
100
AcDbLayerTableRecord
  2
CONSTR
 70
     0
 62
    -2
  6
Continuous
370
    -3
390
F
  0
LAYER
  5
24
330
2
100
AcDbSymbolTableRecord
100
AcDbLayerTableRecord
  2
GND
 70
     0
 62
   254
  6
Continuous
370
    -3
390
F
  0
LAYER
  5
27
330
2
100
AcDbSymbolTableRecord
100
AcDbLayerTableRecord
  2
METAL1
 70
     0
 62
     7
  6
Continuous
370
    -3
390
F
  0
LAYER
  5
17F
330
2
100
AcDbSymbolTableRecord
100
AcDbLayerTableRecord
  2
Defpoints
 70
     0
 62
     7
  6
Continuous
290
     0
370
    -3
390
F
  0
LAYER
  5
294
330
2
100
AcDbSymbolTableRecord
100
AcDbLayerTableRecord
  2
ASHADE
 70
     0
 62
     1
  6
Continuous
370
    -3
390
F
  0
ENDTAB
  0
TABLE
  2
STYLE
  5
3
330
0
100
AcDbSymbolTable
 70
     2
  0
STYLE
  5
11
330
3
100
AcDbSymbolTableRecord
100
AcDbTextStyleTableRecord
  2
Standard
 70
     0
 40
0.0
 41
1.0
 50
0.0
 71
     0
 42
0.2
  3
txt
  4

  0
STYLE
  5
291
330
3
100
AcDbSymbolTableRecord
100
AcDbTextStyleTableRecord
  2
ASHADE
 70
     0
 40
0.2
 41
1.0
 50
0.0
 71
     0
 42
0.2
  3
simplex.shx
  4

  0
ENDTAB
  0
TABLE
  2
VIEW
  5
6
330
0
100
AcDbSymbolTable
 70
     0
  0
ENDTAB
  0
TABLE
  2
UCS
  5
7
330
0
100
AcDbSymbolTable
 70
     0
  0
ENDTAB
  0
TABLE
  2
APPID
  5
9
330
0
100
AcDbSymbolTable
 70
     6
  0
APPID
  5
12
330
9
100
AcDbSymbolTableRecord
100
AcDbRegAppTableRecord
  2
ACAD
 70
     0
  0
APPID
  5
292
330
9
100
AcDbSymbolTableRecord
100
AcDbRegAppTableRecord
  2
AVE_RENDER
 70
     0
  0
APPID
  5
293
330
9
100
AcDbSymbolTableRecord
100
AcDbRegAppTableRecord
  2
AVE_ENTITY_MATERIAL
 70
     0
  0
APPID
  5
2A0
330
9
100
AcDbSymbolTableRecord
100
AcDbRegAppTableRecord
  2
AVE_FINISH
 70
     0
  0
APPID
  5
2A1
330
9
100
AcDbSymbolTableRecord
100
AcDbRegAppTableRecord
  2
AVE_MATERIAL
 70
     0
  0
APPID
  5
2A2
330
9
100
AcDbSymbolTableRecord
100
AcDbRegAppTableRecord
  2
AVE_GLOBAL
 70
     0
  0
ENDTAB
  0
TABLE
  2
DIMSTYLE
  5
A
330
0
100
AcDbSymbolTable
 70
     1
100
AcDbDimStyleTable
 71
     1
340
E4
  0
DIMSTYLE
105
E4
102
{ACAD_REACTORS
330
1EF
330
22F
102
}
330
A
100
AcDbSymbolTableRecord
100
AcDbDimStyleTableRecord
  2
Standard
 70
     0
340
11
  0
ENDTAB
  0
TABLE
  2
BLOCK_RECORD
  5
1
330
0
100
AcDbSymbolTable
 70
    10
  0
BLOCK_RECORD
  5
1E
102
{ACAD_XDICTIONARY
360
EA
102
}
330
1
100
AcDbSymbolTableRecord
100
AcDbBlockTableRecord
  2
*Model_Space
340
21
  0
BLOCK_RECORD
  5
1A
330
1
100
AcDbSymbolTableRecord
100
AcDbBlockTableRecord
  2
*Paper_Space
340
1D
  0
BLOCK_RECORD
  5
FC
330
1
100
AcDbSymbolTableRecord
100
AcDbBlockTableRecord
  2
elkon
340
0
310
28000000200000002000000001000800000000000004000000000000000000000000000000000000000000004000000080000000FF000000002000004020000080200000FF200000004000004040000080400000FF400000006000004060000080600000FF600000008000004080000080800000FF80000000A0000040A000
310
0080A00000FFA0000000C0000040C0000080C00000FFC0000000FF000040FF000080FF0000FFFF0000000020004000200080002000FF002000002020004020200080202000FF202000004020004040200080402000FF402000006020004060200080602000FF602000008020004080200080802000FF80200000A0200040A0
310
200080A02000FFA0200000C0200040C0200080C02000FFC0200000FF200040FF200080FF2000FFFF2000000040004000400080004000FF004000002040004020400080204000FF204000004040004040400080404000FF404000006040004060400080604000FF604000008040004080400080804000FF80400000A0400040
310
A0400080A04000FFA0400000C0400040C0400080C04000FFC0400000FF400040FF400080FF4000FFFF4000000060004000600080006000FF006000002060004020600080206000FF206000004060004040600080406000FF406000006060004060600080606000FF606000008060004080600080806000FF80600000A06000
310
40A0600080A06000FFA0600000C0600040C0600080C06000FFC0600000FF600040FF600080FF6000FFFF6000000080004000800080008000FF008000002080004020800080208000FF208000004080004040800080408000FF408000006080004060800080608000FF608000008080004080800080808000FF80800000A080
310
0040A0800080A08000FFA0800000C0800040C0800080C08000FFC0800000FF800040FF800080FF8000FFFF80000000A0004000A0008000A000FF00A0000020A0004020A0008020A000FF20A0000040A0004040A0008040A000FF40A0000060A0004060A0008060A000FF60A0000080A0004080A0008080A000FF80A00000A0
310
A00040A0A00080A0A000FFA0A00000C0A00040C0A00080C0A000FFC0A00000FFA00040FFA00080FFA000FFFFA0000000C0004000C0008000C000FF00C0000020C0004020C0008020C000FF20C0000040C0004040C0008040C000FF40C0000060C0004060C0008060C000FF60C0000080C0004080C0008080C000FF80C00000
310
A0C00040A0C00080A0C000FFA0C00000C0C00040C0C00080C0C000FFC0C00000FFC00040FFC00080FFC000FFFFC0000000FF004000FF008000FF00FF00FF000020FF004020FF008020FF00FF20FF000040FF004040FF008040FF00FF40FF000060FF004060FF008060FF00FF60FF000080FF004080FF008080FF00FF80FF00
310
00A0FF0040A0FF0080A0FF00FFA0FF0000C0FF0040C0FF0080C0FF00FFC0FF0000FFFF0040FFFF0080FFFF00FFFFFF000000000000000000000000000000000000000000000000000000000000000000000000000000000000000000000000FF00000000000000000000000000000000000000000000000000000000000000
310
FF00000000000000000000000000000000000000000000000000000000000000FF00000000000000000000000000000000000000000000000000000000000000FF00000000000000000000000000000000000000000000000000000000000000FF000000000000000000000000000000000000000000000000000000000000
310
00FF00000000000000000000000000000000000000000000000000000000000000FF00000000000000000000000000000000000000000000000000000000000000FF00000000000000000000000000000000000000000000000000000000000000FF0000000000000000000000000000000000000000000000000000000000
310
0000FF00000000000000000000000000000000000000000000000000000000000000FF0000000000000000000000000000000000000000FFFFFFFFFFFFFFFFFFFFFFFFFFFFFFFFFFFFFFFFFFFFFFFF0000000000000000FF00000000000000000000000000000000000000000000FF0000000000000000FF00000000000000
310
000000000000000000000000000000FF0000000000000000FFFFFFFFFFFFFFFFFFFFFFFFFFFFFFFFFFFFFFFFFFFFFFFF00000000000000000000000000000000000000000000000000000000000000000000000000000000FFFFFFFFFFFFFFFFFFFFFFFFFFFFFFFFFFFFFFFFFFFFFFFF0000000000000000FF0000FFFFFFFF
310
FFFF000000000000FFFFFFFFFFFF0000FF0000000000000000FF0000000000FFFFFFFFFFFFFFFFFFFFFF000000000000FF0000000000000000FFFFFFFFFFFFFFFFFFFFFFFFFFFFFFFFFFFFFFFFFFFFFFFF00000000000000000000000000000000000000FF0000000000000000000000000000000000000000000000000000
310
0000000000FF00000000000000000000000000000000000000000000000000000000000000FF00000000000000000000000000000000000000000000000000000000000000FF00000000000000000000000000000000000000000000000000000000000000FF00000000000000000000000000000000000000000000000000
310
000000000000FF00000000000000000000000000000000000000000000000000000000000000FF00000000000000000000000000000000000000000000000000000000000000FF00000000000000000000000000000000000000000000000000000000000000FF000000000000000000000000000000000000000000000000
310
00000000000000FF000000000000000000000000000000000000000000000000000000000000000000000000000000000000000000000000
102
{BLKREFS
331
104
331
10B
102
}
  0
BLOCK_RECORD
  5
110
330
1
100
AcDbSymbolTableRecord
100
AcDbBlockTableRecord
  2
Inductor
340
0
310
280000002000000020000000010004000000000000020000000000000000000000000000000000000000000000008000008000000080800080000000800080008080000080808000C0C0C0000000FF0000FF000000FFFF00FF000000FF00FF00FFFF0000FFFFFF00FFFFFFFFFFFFFFFFFFFFFFFFFFFFFFFFFFFFFFFFFFFFFF
310
FFFFFFFFFFFFFFFFFFFFFFFFFFFFFFFFFFFFFFFFFFFFFFFFFFFFFFFFFFFFFFFFFFFFFFFFFFFFFFFFFFFFFFFFFFFFFFFFFFFFFFFFFFFFFFFFFFFFFFFFFFFFFFFFFFFFFFFFFFFFFFFFFFFFFFFFFFFFFFFFFFFFFFFFFFFFFFFFFFFFFFFFFFFFFFFFFFFFFFFFFFFFFFFFFFFFFFFFFFFFFFFFFFFFFFFFFFFFFFFFFFFFFFFFFFFFFF
310
FFFFFFFFFFFFFFFFFFFFFFFFFFFFFFFFFFFFFFFFFFFFFFFFFFFFFFFFFFFFFFFFFFFFFFFFFFFFFFFFFFFF0000FFFFFFFF0FFFFFF0FFFFFFF0000FFFF0FFFFFFF00FFFFFF0FFFFFFF0FFFFFFF0FFFFFFF00FFFFFF00FFFFFFF0FFFFFF0FFFFFFF00FFFFF0F0FFFFFFF0FFFFFF0FFFFFFF0F0FFFF0F0FFFFFFF0FFFFFFF0FFFFF
310
F00FFFFFF00FFFFFF0FFFFFFFF0FFFFFF00FFFFFF0FFFFFF0FFFFFFFFFF0FFFFF0F0FFFF0F0FFFFF0FFFFFFFFFFF00000FFF0000FFF00000FFFFFFFFFFFFFFFFFFFFFFFFFFFFFFFFFFFFFFFFFFFFFFFFFFFFFFFFFFFFFFFFFFFFFFFFFFFFFFFFFFFFFFFFFFFFFFFFFFFFFFFFFFFFFFFFFFFFFFFFFFFFFFFFFFFFFFFFFFFFFF
310
FFFFFFFFFFFFFFFFFFFFFFFFFFFFFFFFFFFFFFFFFFFFFFFFFFFFFFFFFFFFFFFFFFFFFFFFFFFFFFFFFFFFFFFFFFFFFFFFFFFFFFFFFFFFFFFFFFFFFFFFFFFFFFFFFFFFFFFFFFFFFFFFFFFFFFFFFFFFFFFFFFFFFFFFFFFFFFFFFFFFFFFFFFFFFFFFFFFFFFFFFFFFFFFFFFFFFFFF
102
{BLKREFS
331
11E
102
}
1001
ACAD
1000
DesignCenter Data
1002
{
1070
     1
1070
     1
1002
}
  0
BLOCK_RECORD
  5
118
330
1
100
AcDbSymbolTableRecord
100
AcDbBlockTableRecord
  2
conpoint
340
0
310
28000000200000002000000001000800000000000004000000000000000000000000000000000000000000004000000080000000FF000000002000004020000080200000FF200000004000004040000080400000FF400000006000004060000080600000FF600000008000004080000080800000FF80000000A0000040A000
310
0080A00000FFA0000000C0000040C0000080C00000FFC0000000FF000040FF000080FF0000FFFF0000000020004000200080002000FF002000002020004020200080202000FF202000004020004040200080402000FF402000006020004060200080602000FF602000008020004080200080802000FF80200000A0200040A0
310
200080A02000FFA0200000C0200040C0200080C02000FFC0200000FF200040FF200080FF2000FFFF2000000040004000400080004000FF004000002040004020400080204000FF204000004040004040400080404000FF404000006040004060400080604000FF604000008040004080400080804000FF80400000A0400040
310
A0400080A04000FFA0400000C0400040C0400080C04000FFC0400000FF400040FF400080FF4000FFFF4000000060004000600080006000FF006000002060004020600080206000FF206000004060004040600080406000FF406000006060004060600080606000FF606000008060004080600080806000FF80600000A06000
310
40A0600080A06000FFA0600000C0600040C0600080C06000FFC0600000FF600040FF600080FF6000FFFF6000000080004000800080008000FF008000002080004020800080208000FF208000004080004040800080408000FF408000006080004060800080608000FF608000008080004080800080808000FF80800000A080
310
0040A0800080A08000FFA0800000C0800040C0800080C08000FFC0800000FF800040FF800080FF8000FFFF80000000A0004000A0008000A000FF00A0000020A0004020A0008020A000FF20A0000040A0004040A0008040A000FF40A0000060A0004060A0008060A000FF60A0000080A0004080A0008080A000FF80A00000A0
310
A00040A0A00080A0A000FFA0A00000C0A00040C0A00080C0A000FFC0A00000FFA00040FFA00080FFA000FFFFA0000000C0004000C0008000C000FF00C0000020C0004020C0008020C000FF20C0000040C0004040C0008040C000FF40C0000060C0004060C0008060C000FF60C0000080C0004080C0008080C000FF80C00000
310
A0C00040A0C00080A0C000FFA0C00000C0C00040C0C00080C0C000FFC0C00000FFC00040FFC00080FFC000FFFFC0000000FF004000FF008000FF00FF00FF000020FF004020FF008020FF00FF20FF000040FF004040FF008040FF00FF40FF000060FF004060FF008060FF00FF60FF000080FF004080FF008080FF00FF80FF00
310
00A0FF0040A0FF0080A0FF00FFA0FF0000C0FF0040C0FF0080C0FF00FFC0FF0000FFFF0040FFFF0080FFFF00FFFFFF000000000000000000000000000000000000000000000000000000000000000000000000000000000000000000000000FFFFFF000000000000000000000000000000000000000000000000FFFFFFFFFF
310
FF00FFFFFF0000000000000000000000000000000000000000FFFF0000FFFF0000000000FFFFFFFF00000000000000000000000000000000FF0000FFFF000000000000000000FFFFFFFF00000000000000000000000000FF00FFFF00000000000000000000000000FFFFFF0000000000000000000000FFFFFF000000000000
310
0000000000000000000000FFFF000000000000000000FF00FF00000000000000000000000000000000000000FFFF0000000000000000FFFF0000000000000000000000000000000000000000FFFF00000000000000FF00FF000000000000000000000000000000000000000000FFFF000000000000FFFF0000000000000000
310
0000000000000000000000000000FF00FF00000000FF00FF0000000000000000000000000000000000000000000000FFFF00000000FFFF000000000000000000000000000000000000000000000000FFFF00000000FFFF00000000000000000000000000000000000000000000000000FF000000FFFF000000000000000000
310
0000000000000000000000000000000000FF000000FFFF000000000000000000000000000000000000000000000000000000FF0000FF00000000000000000000000000000000000000000000000000000000FF0000FFFF0000000000000000000000000000000000000000000000000000FFFF000000FF0000000000000000
310
000000000000000000000000000000000000FF00000000FFFF000000000000000000000000000000000000000000000000FFFF00000000FFFF000000000000000000000000000000000000000000000000FFFF0000000000FFFF00000000000000000000000000000000000000000000FF00FF0000000000FFFF0000000000
310
0000000000000000000000000000000000FFFF00000000000000FFFF0000000000000000000000000000000000000000FFFF0000000000000000FFFF0000000000000000000000000000000000000000FFFF000000000000000000FFFF000000000000000000000000000000000000FFFF0000000000000000000000FFFFFF
310
0000000000000000000000000000FFFFFF00000000000000000000000000FF00FFFF00000000000000000000FFFFFFFF000000000000000000000000000000FFFF00FFFF000000000000FFFFFFFF00000000000000000000000000000000000000FFFFFFFFFF0000FFFFFFFF00000000000000000000000000000000000000
310
00000000000000FFFFFF00000000000000000000000000000000000000000000000000000000000000000000000000000000000000000000
102
{BLKREFS
331
11F
331
120
102
}
1001
ACAD
1000
DesignCenter Data
1002
{
1070
     1
1070
     1
1002
}
  0
BLOCK_RECORD
  5
11D
330
1
100
AcDbSymbolTableRecord
100
AcDbBlockTableRecord
  2
ind
340
0
310
28000000200000002000000001000800000000000004000000000000000000000000000000000000000000004000000080000000FF000000002000004020000080200000FF200000004000004040000080400000FF400000006000004060000080600000FF600000008000004080000080800000FF80000000A0000040A000
310
0080A00000FFA0000000C0000040C0000080C00000FFC0000000FF000040FF000080FF0000FFFF0000000020004000200080002000FF002000002020004020200080202000FF202000004020004040200080402000FF402000006020004060200080602000FF602000008020004080200080802000FF80200000A0200040A0
310
200080A02000FFA0200000C0200040C0200080C02000FFC0200000FF200040FF200080FF2000FFFF2000000040004000400080004000FF004000002040004020400080204000FF204000004040004040400080404000FF404000006040004060400080604000FF604000008040004080400080804000FF80400000A0400040
310
A0400080A04000FFA0400000C0400040C0400080C04000FFC0400000FF400040FF400080FF4000FFFF4000000060004000600080006000FF006000002060004020600080206000FF206000004060004040600080406000FF406000006060004060600080606000FF606000008060004080600080806000FF80600000A06000
310
40A0600080A06000FFA0600000C0600040C0600080C06000FFC0600000FF600040FF600080FF6000FFFF6000000080004000800080008000FF008000002080004020800080208000FF208000004080004040800080408000FF408000006080004060800080608000FF608000008080004080800080808000FF80800000A080
310
0040A0800080A08000FFA0800000C0800040C0800080C08000FFC0800000FF800040FF800080FF8000FFFF80000000A0004000A0008000A000FF00A0000020A0004020A0008020A000FF20A0000040A0004040A0008040A000FF40A0000060A0004060A0008060A000FF60A0000080A0004080A0008080A000FF80A00000A0
310
A00040A0A00080A0A000FFA0A00000C0A00040C0A00080C0A000FFC0A00000FFA00040FFA00080FFA000FFFFA0000000C0004000C0008000C000FF00C0000020C0004020C0008020C000FF20C0000040C0004040C0008040C000FF40C0000060C0004060C0008060C000FF60C0000080C0004080C0008080C000FF80C00000
310
A0C00040A0C00080A0C000FFA0C00000C0C00040C0C00080C0C000FFC0C00000FFC00040FFC00080FFC000FFFFC0000000FF004000FF008000FF00FF00FF000020FF004020FF008020FF00FF20FF000040FF004040FF008040FF00FF40FF000060FF004060FF008060FF00FF60FF000080FF004080FF008080FF00FF80FF00
310
00A0FF0040A0FF0080A0FF00FFA0FF0000C0FF0040C0FF0080C0FF00FFC0FF0000FFFF0040FFFF0080FFFF00FFFFFF0000000000000000000000000000000000000000000000000000000000000000000000000000000000000000000000000000FFFF00000000000000000000000000000000000000000000000000000000
310
00FFFFFFFF00000000000000000000000000000000000000000000000000000000FF0000FF00000000000000000000000000000000000000000000000000000000FFFFFFFF000000000000000000000000000000000000000000000000000000000000FF000000000000000000000000000000000000000000000000000000
310
FFFFFFFFFF0000000000000000000000000000000000000000000000000000FF00000000FF00000000000000000000000000000000000000000000000000FF00000000000000000000000000000000000000000000000000000000000000FF00000000000000000000000000000000000000000000000000000000000000FF
310
00000000000000000000000000000000000000000000000000000000000000FF0000000000000000000000000000000000000000000000000000000000000000FFFFFFFFFF000000000000000000000000000000000000000000000000000000FFFFFFFFFFFF00000000000000000000000000000000000000000000000000
310
FF00000000000000000000000000000000000000000000000000000000000000FF00000000000000000000000000000000000000000000000000000000000000FF00000000000000000000000000000000000000000000000000000000000000FF000000000000000000000000000000000000000000000000000000000000
310
0000FFFFFFFFFFFF0000000000000000000000000000000000000000000000000000FFFFFFFFFF0000000000000000000000000000000000000000000000000000FF00000000000000000000000000000000000000000000000000000000000000FF0000000000000000000000000000000000000000000000000000000000
310
0000FF00000000000000000000000000000000000000000000000000000000000000FF0000000000000000000000000000000000000000000000000000000000000000FF00000000FF000000000000000000000000000000000000000000000000000000FFFFFFFFFF00000000000000000000000000000000000000000000
310
000000000000000000FF0000000000000000000000000000000000000000000000000000000000FFFFFFFF00000000000000000000000000000000000000000000000000000000FF0000FF00000000000000000000000000000000000000000000000000000000FFFFFFFF0000000000000000000000000000000000000000
310
000000000000000000FFFF000000000000000000000000000000000000000000000000000000000000000000000000000000000000000000
102
{BLKREFS
331
124
102
}
1001
ACAD
1000
DesignCenter Data
1002
{
1070
     1
1070
     1
1002
}
  0
BLOCK_RECORD
  5
123
330
1
100
AcDbSymbolTableRecord
100
AcDbBlockTableRecord
  2
rfc
340
0
310
28000000200000002000000001000800000000000004000000000000000000000000000000000000000000004000000080000000FF000000002000004020000080200000FF200000004000004040000080400000FF400000006000004060000080600000FF600000008000004080000080800000FF80000000A0000040A000
310
0080A00000FFA0000000C0000040C0000080C00000FFC0000000FF000040FF000080FF0000FFFF0000000020004000200080002000FF002000002020004020200080202000FF202000004020004040200080402000FF402000006020004060200080602000FF602000008020004080200080802000FF80200000A0200040A0
310
200080A02000FFA0200000C0200040C0200080C02000FFC0200000FF200040FF200080FF2000FFFF2000000040004000400080004000FF004000002040004020400080204000FF204000004040004040400080404000FF404000006040004060400080604000FF604000008040004080400080804000FF80400000A0400040
310
A0400080A04000FFA0400000C0400040C0400080C04000FFC0400000FF400040FF400080FF4000FFFF4000000060004000600080006000FF006000002060004020600080206000FF206000004060004040600080406000FF406000006060004060600080606000FF606000008060004080600080806000FF80600000A06000
310
40A0600080A06000FFA0600000C0600040C0600080C06000FFC0600000FF600040FF600080FF6000FFFF6000000080004000800080008000FF008000002080004020800080208000FF208000004080004040800080408000FF408000006080004060800080608000FF608000008080004080800080808000FF80800000A080
310
0040A0800080A08000FFA0800000C0800040C0800080C08000FFC0800000FF800040FF800080FF8000FFFF80000000A0004000A0008000A000FF00A0000020A0004020A0008020A000FF20A0000040A0004040A0008040A000FF40A0000060A0004060A0008060A000FF60A0000080A0004080A0008080A000FF80A00000A0
310
A00040A0A00080A0A000FFA0A00000C0A00040C0A00080C0A000FFC0A00000FFA00040FFA00080FFA000FFFFA0000000C0004000C0008000C000FF00C0000020C0004020C0008020C000FF20C0000040C0004040C0008040C000FF40C0000060C0004060C0008060C000FF60C0000080C0004080C0008080C000FF80C00000
310
A0C00040A0C00080A0C000FFA0C00000C0C00040C0C00080C0C000FFC0C00000FFC00040FFC00080FFC000FFFFC0000000FF004000FF008000FF00FF00FF000020FF004020FF008020FF00FF20FF000040FF004040FF008040FF00FF40FF000060FF004060FF008060FF00FF60FF000080FF004080FF008080FF00FF80FF00
310
00A0FF0040A0FF0080A0FF00FFA0FF0000C0FF0040C0FF0080C0FF00FFC0FF0000FFFF0040FFFF0080FFFF00FFFFFF00000000000000000000000000000000000000000000000000000000000000000000000000000000000000000000000000000000FFFF0000000000000000000000000000000000000000000000000000
310
000000FFFFFFFF00000000000000000000000000000000000000000000000000000000FF0000FF00000000000000000000000000000000000000000000000000000000FFFFFFFF0000000000000000000000000000000000000000000000000000000000FF0000000000000000000000000000000000000000000000000000
310
00FFFFFFFFFF00000000000000000000000000000000000000000000FFFFFF00FFFF000000FF00000000000000000000000000000000000000000000FF00FF00FF000000000000000000000000000000000000000000000000000000FF00FFFF00000000000000000000000000000000000000000000000000000000FF00FF
310
FF00000000000000000000000000000000000000000000000000000000FFFFFFFFFF000000000000000000000000000000000000000000000000000000FFFFFF00FFFFFFFFFFFF00000000000000000000000000000000000000000000FFFFFF00FFFFFFFFFFFF00000000000000000000000000000000000000000000FFFF
310
FFFFFF000000000000000000000000000000000000000000000000000000FFFFFFFF00000000000000000000000000000000000000000000000000000000FFFFFFFF00000000000000000000000000000000000000000000000000000000FFFFFFFFFF000000000000000000000000000000000000000000000000000000FF
310
FFFF00FFFFFFFFFFFF00000000000000000000000000000000000000000000FFFFFF00FFFFFFFFFFFF00000000000000000000000000000000000000000000FF00FFFFFF000000000000000000000000000000000000000000000000000000FF00FFFF00000000000000000000000000000000000000000000000000000000
310
FF00FFFF00000000000000000000000000000000000000000000000000000000FF00FF00FF000000000000000000000000000000000000000000000000000000FFFFFF00FFFF000000FF000000000000000000000000000000000000000000000000000000FFFFFFFFFF000000000000000000000000000000000000000000
310
00000000000000000000FF000000000000000000000000000000000000000000000000000000000000FFFFFF0000000000000000000000000000000000000000000000000000000000FF00FFFF00000000000000000000000000000000000000000000000000000000FF00FF00000000000000000000000000000000000000
310
0000000000000000000000FF0000000000000000000000000000000000000000000000000000000000000000000000000000000000000000
102
{BLKREFS
331
12E
102
}
1001
ACAD
1000
DesignCenter Data
1002
{
1070
     1
1070
     1
1002
}
  0
BLOCK_RECORD
  5
16A
330
1
100
AcDbSymbolTableRecord
100
AcDbBlockTableRecord
  2
tri
340
0
310
28000000200000002000000001000800000000000004000000000000000000000000000000000000000000004000000080000000FF000000002000004020000080200000FF200000004000004040000080400000FF400000006000004060000080600000FF600000008000004080000080800000FF80000000A0000040A000
310
0080A00000FFA0000000C0000040C0000080C00000FFC0000000FF000040FF000080FF0000FFFF0000000020004000200080002000FF002000002020004020200080202000FF202000004020004040200080402000FF402000006020004060200080602000FF602000008020004080200080802000FF80200000A0200040A0
310
200080A02000FFA0200000C0200040C0200080C02000FFC0200000FF200040FF200080FF2000FFFF2000000040004000400080004000FF004000002040004020400080204000FF204000004040004040400080404000FF404000006040004060400080604000FF604000008040004080400080804000FF80400000A0400040
310
A0400080A04000FFA0400000C0400040C0400080C04000FFC0400000FF400040FF400080FF4000FFFF4000000060004000600080006000FF006000002060004020600080206000FF206000004060004040600080406000FF406000006060004060600080606000FF606000008060004080600080806000FF80600000A06000
310
40A0600080A06000FFA0600000C0600040C0600080C06000FFC0600000FF600040FF600080FF6000FFFF6000000080004000800080008000FF008000002080004020800080208000FF208000004080004040800080408000FF408000006080004060800080608000FF608000008080004080800080808000FF80800000A080
310
0040A0800080A08000FFA0800000C0800040C0800080C08000FFC0800000FF800040FF800080FF8000FFFF80000000A0004000A0008000A000FF00A0000020A0004020A0008020A000FF20A0000040A0004040A0008040A000FF40A0000060A0004060A0008060A000FF60A0000080A0004080A0008080A000FF80A00000A0
310
A00040A0A00080A0A000FFA0A00000C0A00040C0A00080C0A000FFC0A00000FFA00040FFA00080FFA000FFFFA0000000C0004000C0008000C000FF00C0000020C0004020C0008020C000FF20C0000040C0004040C0008040C000FF40C0000060C0004060C0008060C000FF60C0000080C0004080C0008080C000FF80C00000
310
A0C00040A0C00080A0C000FFA0C00000C0C00040C0C00080C0C000FFC0C00000FFC00040FFC00080FFC000FFFFC0000000FF004000FF008000FF00FF00FF000020FF004020FF008020FF00FF20FF000040FF004040FF008040FF00FF40FF000060FF004060FF008060FF00FF60FF000080FF004080FF008080FF00FF80FF00
310
00A0FF0040A0FF0080A0FF00FFA0FF0000C0FF0040C0FF0080C0FF00FFC0FF0000FFFF0040FFFF0080FFFF00FFFFFF0000000000000000000000000000000000000000000000000000000000000000000000000000000000000000FF00000000000000000000000000000000000000000000000000000000000000FFFF0000
310
0000000000000000000000000000000000000000000000000000FFFF0000FF00000000000000000000000000000000000000000000000000FFFF0000000000FF0000000000000000000000000000000000000000000000FF0000000000000000FF000000000000000000000000000000000000000000FF0000000000000000
310
0000FF00000000000000000000000000000000000000FF000000000000000000000000FF000000000000000000000000000000000000FF00000000000000000000000000FF00000000000000000000000000000000FF000000000000000000000000000000FF000000000000000000000000000000FF000000000000000000
310
00000000000000FF00000000000000000000000000FF000000000000000000000000000000000000FF000000000000000000000000FF00000000000000000000000000000000000000FF00000000000000000000FF000000000000000000000000000000000000000000FF000000000000000000FF00000000000000000000
310
000000000000000000000000FF0000000000000000FF0000000000000000000000000000000000000000000000FF00000000000000FF000000000000000000000000000000000000000000000000FF000000000000FF00000000000000000000000000000000000000000000000000FF000000000000FF0000000000000000
310
0000000000000000000000000000000000FF0000000000FF0000000000000000000000000000000000000000000000000000FF00000000FF0000000000000000000000000000000000000000000000000000FFFF00000000FF00000000000000000000000000000000000000000000000000FF0000000000FF000000000000
310
000000000000000000000000000000000000FF00000000000000FF0000000000000000000000000000000000000000000000FF0000000000000000FF000000000000000000000000000000000000000000FF00000000000000000000FF00000000000000000000000000000000000000FF000000000000000000000000FF00
310
00000000000000000000000000000000FF0000000000000000000000000000FF0000000000000000000000000000FFFF00000000000000000000000000000000FFFF0000000000000000000000FF0000000000000000000000000000000000000000FFFFFFFFFFFFFFFFFFFFFF000000000000000000000000000000000000
310
0000000000000000000000000000000000000000000000000000000000000000000000000000000000000000000000000000000000000000
102
{BLKREFS
331
16F
102
}
  0
BLOCK_RECORD
  5
1F0
330
1
100
AcDbSymbolTableRecord
100
AcDbBlockTableRecord
  2
*D6
340
0
  0
BLOCK_RECORD
  5
230
330
1
100
AcDbSymbolTableRecord
100
AcDbBlockTableRecord
  2
*D7
340
0
  0
BLOCK_RECORD
  5
295
330
1
100
AcDbSymbolTableRecord
100
AcDbBlockTableRecord
  2
AVE_RENDER
340
0
102
{BLKREFS
331
298
331
299
331
29A
331
29B
331
29C
331
29D
331
29E
331
29F
102
}
  0
BLOCK_RECORD
  5
2A3
330
1
100
AcDbSymbolTableRecord
100
AcDbBlockTableRecord
  2
AVE_GLOBAL
340
0
102
{BLKREFS
331
2A6
102
}
  0
ENDTAB
  0
ENDSEC
  0
SECTION
  2
BLOCKS
  0
BLOCK
  5
1F
330
1E
100
AcDbEntity
  8
0
100
AcDbBlockBegin
  2
*Model_Space
 70
     0
 10
0.0
 20
0.0
 30
0.0
  3
*Model_Space
  1

  0
ENDBLK
  5
20
330
1E
100
AcDbEntity
  8
0
100
AcDbBlockEnd
  0
BLOCK
  5
1B
330
1A
100
AcDbEntity
 67
     1
  8
0
100
AcDbBlockBegin
  2
*Paper_Space
 70
     0
 10
0.0
 20
0.0
 30
0.0
  3
*Paper_Space
  1

  0
ENDBLK
  5
1C
330
1A
100
AcDbEntity
 67
     1
  8
0
100
AcDbBlockEnd
  0
BLOCK
  5
FD
330
FC
100
AcDbEntity
  8
0
100
AcDbBlockBegin
  2
elkon
 70
     0
 10
0.0
 20
0.0
 30
0.0
  3
elkon
  1

  0
LWPOLYLINE
  5
FF
102
{ACAD_REACTORS
330
103
102
}
330
FC
100
AcDbEntity
  8
0
100
AcDbPolyline
 90
        4
 70
     1
 43
0.0
 10
5.277469087657244
 20
7.736467907658294
 10
6.725437308244949
 20
7.736467907658294
 10
6.725437308244949
 20
7.545307269129267
 10
5.277469087657244
 20
7.545307269129267
  0
LWPOLYLINE
  5
100
330
FC
100
AcDbEntity
  8
0
100
AcDbPolyline
 90
        4
 70
     1
 43
0.0
 10
5.277469087657244
 20
7.381455311208465
 10
6.725437308244949
 20
7.381455311208465
 10
6.725437308244949
 20
7.190294672679439
 10
5.277469087657244
 20
7.190294672679439
  0
LWPOLYLINE
  5
101
330
FC
100
AcDbEntity
  8
0
100
AcDbPolyline
 90
        2
 70
     0
 43
0.0
 10
5.987793119210273
 20
7.736467907658294
 10
5.987793119210273
 20
8.337258440989323
  0
LWPOLYLINE
  5
102
330
FC
100
AcDbEntity
  8
0
100
AcDbPolyline
 90
        2
 70
     0
 43
0.0
 10
5.987793119210273
 20
7.190294672679439
 10
5.987793119210273
 20
6.507578139433253
  0
HATCH
  5
103
330
FC
100
AcDbEntity
  8
0
100
AcDbHatch
 10
0.0
 20
0.0
 30
0.0
210
0.0
220
0.0
230
1.0
  2
SOLID
 70
     1
 71
     1
 91
        1
 92
        1
 93
        4
 72
     1
 10
5.277469087657244
 20
7.736467907658294
 11
6.725437308244949
 21
7.736467907658294
 72
     1
 10
6.725437308244949
 20
7.736467907658294
 11
6.725437308244949
 21
7.545307269129267
 72
     1
 10
6.725437308244949
 20
7.545307269129267
 11
5.277469087657244
 21
7.545307269129267
 72
     1
 10
5.277469087657244
 20
7.545307269129267
 11
5.277469087657244
 21
7.736467907658294
 97
        1
330
FF
 75
     0
 76
     1
 98
        1
 10
0.0
 20
0.0
  0
ENDBLK
  5
FE
330
FC
100
AcDbEntity
  8
0
100
AcDbBlockEnd
  0
BLOCK
  5
116
330
110
100
AcDbEntity
  8
0
100
AcDbBlockBegin
  2
Inductor
 70
     2
 10
0.0
 20
0.0
 30
0.0
  3
Inductor
  1
INDUCTOR
  4
DesignCenter Basic Electronics example
  0
LINE
  5
111
330
110
100
AcDbEntity
  8
0
 62
     7
100
AcDbLine
 10
0.3500000000000001
 20
0.0
 30
0.0
 11
0.3999999999999999
 21
0.0
 31
0.0
  0
ARC
  5
112
330
110
100
AcDbEntity
  8
0
 62
     7
100
AcDbCircle
 10
0.2999999999999998
 20
0.0374999999999997
 30
0.0
 40
0.0625
100
AcDbArc
 50
323.1301
 51
216.8699
  0
LINE
  5
113
330
110
100
AcDbEntity
  8
0
 62
     7
100
AcDbLine
 10
0.0
 20
0.0
 30
0.0
 11
0.0499999999999998
 21
0.0
 31
0.0
  0
ARC
  5
114
330
110
100
AcDbEntity
  8
0
 62
     7
100
AcDbCircle
 10
0.1000000000000001
 20
0.0374999999999997
 30
0.0
 40
0.0625
100
AcDbArc
 50
323.1301
 51
216.8699
  0
ARC
  5
115
330
110
100
AcDbEntity
  8
0
 62
     7
100
AcDbCircle
 10
0.2000000000000002
 20
0.0374999999999997
 30
0.0
 40
0.0625
100
AcDbArc
 50
323.1301
 51
216.8699
  0
ENDBLK
  5
117
330
110
100
AcDbEntity
  8
0
100
AcDbBlockEnd
  0
BLOCK
  5
11B
330
118
100
AcDbEntity
  8
0
100
AcDbBlockBegin
  2
conpoint
 70
     0
 10
0.0
 20
0.0
 30
0.0
  3
conpoint
  1

  0
HATCH
  5
119
330
118
100
AcDbEntity
  8
0
100
AcDbHatch
 10
0.0
 20
0.0
 30
0.0
210
0.0
220
0.0
230
1.0
  2
SOLID
 70
     1
 71
     1
 91
        1
 92
        1
 93
        1
 72
     2
 10
3.932944225599126
 20
4.517912367231916
 40
0.0251551376970127
 50
0.0
 51
360.0
 73
     1
 97
        1
330
11A
 75
     0
 76
     1
 98
        1
 10
0.0
 20
0.0
  0
CIRCLE
  5
11A
102
{ACAD_REACTORS
330
119
102
}
330
118
100
AcDbEntity
  8
0
100
AcDbCircle
 10
3.932944225599126
 20
4.517912367231916
 30
0.0
 40
0.0251551376970127
  0
ENDBLK
  5
11C
330
118
100
AcDbEntity
  8
0
100
AcDbBlockEnd
  0
BLOCK
  5
121
330
11D
100
AcDbEntity
  8
0
100
AcDbBlockBegin
  2
ind
 70
     0
 10
0.0
 20
0.0
 30
0.0
  3
ind
  1

  0
INSERT
  5
11E
330
11D
100
AcDbEntity
  8
0
100
AcDbBlockReference
  2
Inductor
 10
5.142686818928233
 20
4.506130839892044
 30
0.0
 50
90.0
  0
INSERT
  5
11F
330
11D
100
AcDbEntity
  8
0
100
AcDbBlockReference
  2
conpoint
 10
1.213283901823427
 20
-0.0258025784579612
 30
0.0
  0
INSERT
  5
120
330
11D
100
AcDbEntity
  8
0
100
AcDbBlockReference
  2
conpoint
 10
1.20936500961606
 20
0.4012205201373665
 30
0.0
  0
ENDBLK
  5
122
330
11D
100
AcDbEntity
  8
0
100
AcDbBlockEnd
  0
BLOCK
  5
127
330
123
100
AcDbEntity
  8
0
100
AcDbBlockBegin
  2
rfc
 70
     0
 10
0.0
 20
0.0
 30
0.0
  3
rfc
  1

  0
INSERT
  5
124
330
123
100
AcDbEntity
  8
0
100
AcDbBlockReference
  2
ind
 10
0.0
 20
0.0
 30
0.0
  0
HATCH
  5
125
330
123
100
AcDbEntity
  8
0
100
AcDbHatch
 10
0.0
 20
0.0
 30
0.0
210
0.0
220
0.0
230
1.0
  2
SOLID
 70
     1
 71
     1
 91
        1
 92
        1
 93
        4
 72
     1
 10
5.019171584733157
 20
4.850883942041264
 11
4.991736945333968
 21
4.850883942041264
 72
     1
 10
4.991736945333968
 20
4.850883942041264
 11
4.991736945333968
 21
4.557060643284785
 72
     1
 10
4.991736945333968
 20
4.557060643284785
 11
5.019171584733157
 21
4.557060643284785
 72
     1
 10
5.019171584733157
 20
4.557060643284785
 11
5.019171584733157
 21
4.850883942041264
 97
        1
330
126
 75
     0
 76
     1
 98
        1
 10
0.0
 20
0.0
  0
LWPOLYLINE
  5
126
102
{ACAD_REACTORS
330
125
102
}
330
123
100
AcDbEntity
  8
0
100
AcDbPolyline
 90
        4
 70
     1
 43
0.0
 10
5.019171584733157
 20
4.850883942041264
 10
4.991736945333968
 20
4.850883942041264
 10
4.991736945333968
 20
4.557060643284785
 10
5.019171584733157
 20
4.557060643284785
  0
ENDBLK
  5
128
330
123
100
AcDbEntity
  8
0
100
AcDbBlockEnd
  0
BLOCK
  5
16B
330
16A
100
AcDbEntity
  8
0
100
AcDbBlockBegin
  2
tri
 70
     0
 10
0.0
 20
0.0
 30
0.0
  3
tri
  1

  0
ARC
  5
16D
330
16A
100
AcDbEntity
  8
CONSTR
370
    50
100
AcDbCircle
 10
8.146085339866083
 20
7.572615928782735
 30
0.0
 40
0.8498249588931228
100
AcDbArc
 50
17.41576346451058
 51
252.8164832811067
  0
LWPOLYLINE
  5
16E
330
16A
100
AcDbEntity
  8
CONSTR
370
    50
100
AcDbPolyline
 90
        2
 70
     0
 43
0.0
 10
7.888244942516251
 20
6.7539228815622
 10
8.968782859461427
 20
7.838849627961277
  0
ENDBLK
  5
16C
330
16A
100
AcDbEntity
  8
0
100
AcDbBlockEnd
  0
BLOCK
  5
1FB
330
1F0
100
AcDbEntity
  8
0
100
AcDbBlockBegin
  2
*D6
 70
     1
 10
0.0
 20
0.0
 30
0.0
  3
*D6
  1

  0
LINE
  5
2CC
330
1F0
100
AcDbEntity
  8
METAL1
 62
     0
370
    -2
100
AcDbLine
 10
3.7951634063579
 20
13.04374560591937
 30
0.0
 11
3.7951634063579
 21
13.98495272726891
 31
0.0
  0
LINE
  5
2CD
330
1F0
100
AcDbEntity
  8
METAL1
 62
     0
370
    -2
100
AcDbLine
 10
33.7951420132612
 20
13.007918446611
 30
0.0
 11
33.7951420132612
 21
13.98495272726891
 31
0.0
  0
LINE
  5
2CE
330
1F0
100
AcDbEntity
  8
METAL1
 62
     0
370
    -2
100
AcDbLine
 10
5.5951634063579
 20
13.80495272726891
 30
0.0
 11
16.99515270980954
 21
13.80495272726891
 31
0.0
  0
LINE
  5
2CF
330
1F0
100
AcDbEntity
  8
METAL1
 62
     0
370
    -2
100
AcDbLine
 10
31.99514201326119
 20
13.80495272726891
 30
0.0
 11
20.59515270980955
 21
13.80495272726891
 31
0.0
  0
SOLID
  5
2D0
330
1F0
100
AcDbEntity
  8
METAL1
 62
     0
100
AcDbTrace
 10
5.5951634063579
 20
14.10495272726891
 30
0.0
 11
5.5951634063579
 21
13.50495272726891
 31
0.0
 12
3.7951634063579
 22
13.80495272726891
 32
0.0
 13
3.7951634063579
 23
13.80495272726891
 33
0.0
  0
SOLID
  5
2D1
330
1F0
100
AcDbEntity
  8
METAL1
 62
     0
100
AcDbTrace
 10
31.99514201326119
 20
14.10495272726891
 30
0.0
 11
31.99514201326119
 21
13.50495272726891
 31
0.0
 12
33.7951420132612
 22
13.80495272726891
 32
0.0
 13
33.7951420132612
 23
13.80495272726891
 33
0.0
  0
MTEXT
  5
2D2
330
1F0
100
AcDbEntity
  8
METAL1
 62
     0
370
    15
100
AcDbMText
 10
18.79515270980954
 20
13.80495272726891
 30
0.0
 40
1.199999999999999
 41
0.0
 71
     5
 72
     1
  1
\A1;30
 73
     1
 44
1.0
  0
POINT
  5
2D3
330
1F0
100
AcDbEntity
  8
Defpoints
 62
     0
100
AcDbPoint
 10
3.7951634063579
 20
12.98124560591936
 30
0.0
  0
POINT
  5
2D4
330
1F0
100
AcDbEntity
  8
Defpoints
 62
     0
100
AcDbPoint
 10
33.7951420132612
 20
12.945418446611
 30
0.0
  0
POINT
  5
2D5
330
1F0
100
AcDbEntity
  8
Defpoints
 62
     0
100
AcDbPoint
 10
33.7951420132612
 20
13.80495272726891
 30
0.0
  0
ENDBLK
  5
1FC
330
1F0
100
AcDbEntity
  8
0
100
AcDbBlockEnd
  0
BLOCK
  5
23B
330
230
100
AcDbEntity
  8
0
100
AcDbBlockBegin
  2
*D7
 70
     1
 10
0.0
 20
0.0
 30
0.0
  3
*D7
  1

  0
LINE
  5
2D6
330
230
100
AcDbEntity
  8
METAL1
 62
     0
370
    -2
100
AcDbLine
 10
34.88507904928892
 20
11.906845102203
 30
0.0
 11
37.00897080364323
 21
11.906845102203
 31
0.0
  0
LINE
  5
2D7
330
230
100
AcDbEntity
  8
METAL1
 62
     0
370
    -2
100
AcDbLine
 10
35.94973952050175
 20
-12.57001127440378
 30
0.0
 11
37.00897080364323
 21
-12.57001127440379
 31
0.0
  0
LINE
  5
2D8
330
230
100
AcDbEntity
  8
METAL1
 62
     0
370
    -2
100
AcDbLine
 10
36.82897080364323
 20
10.106845102203
 30
0.0
 11
36.82897080364323
 21
1.168416913899607
 31
0.0
  0
LINE
  5
2D9
330
230
100
AcDbEntity
  8
METAL1
 62
     0
370
    -2
100
AcDbLine
 10
36.82897080364323
 20
-10.77001127440379
 30
0.0
 11
36.82897080364323
 21
-1.831583086100392
 31
0.0
  0
SOLID
  5
2DA
330
230
100
AcDbEntity
  8
METAL1
 62
     0
100
AcDbTrace
 10
36.52897080364323
 20
10.106845102203
 30
0.0
 11
37.12897080364323
 21
10.106845102203
 31
0.0
 12
36.82897080364323
 22
11.906845102203
 32
0.0
 13
36.82897080364323
 23
11.906845102203
 33
0.0
  0
SOLID
  5
2DB
330
230
100
AcDbEntity
  8
METAL1
 62
     0
100
AcDbTrace
 10
36.52897080364323
 20
-10.77001127440379
 30
0.0
 11
37.12897080364323
 21
-10.77001127440379
 31
0.0
 12
36.82897080364323
 22
-12.57001127440379
 32
0.0
 13
36.82897080364323
 23
-12.57001127440379
 33
0.0
  0
MTEXT
  5
2DC
330
230
100
AcDbEntity
  8
METAL1
 62
     0
370
    15
100
AcDbMText
 10
36.82897080364323
 20
-0.3315830861003862
 30
0.0
 40
1.199999999999999
 41
0.0
 71
     5
 72
     1
  1
\A1;24.5
 73
     1
 44
1.0
  0
POINT
  5
2DD
330
230
100
AcDbEntity
  8
Defpoints
 62
     0
100
AcDbPoint
 10
34.82257904928891
 20
11.906845102203
 30
0.0
  0
POINT
  5
2DE
330
230
100
AcDbEntity
  8
Defpoints
 62
     0
100
AcDbPoint
 10
35.88723952050175
 20
-12.57001127440378
 30
0.0
  0
POINT
  5
2DF
330
230
100
AcDbEntity
  8
Defpoints
 62
     0
100
AcDbPoint
 10
36.82897080364323
 20
-12.57001127440379
 30
0.0
  0
ENDBLK
  5
23C
330
230
100
AcDbEntity
  8
0
100
AcDbBlockEnd
  0
BLOCK
  5
296
330
295
100
AcDbEntity
  8
ASHADE
100
AcDbBlockBegin
  2
AVE_RENDER
 70
     0
 10
0.0
 20
0.0
 30
0.0
  3
AVE_RENDER
  1
AVE_RENDER
  0
ENDBLK
  5
297
330
295
100
AcDbEntity
  8
0
100
AcDbBlockEnd
  0
BLOCK
  5
2A4
330
2A3
100
AcDbEntity
  8
ASHADE
100
AcDbBlockBegin
  2
AVE_GLOBAL
 70
     0
 10
0.0
 20
0.0
 30
0.0
  3
AVE_GLOBAL
  1
AVE_GLOBAL
  0
ENDBLK
  5
2A5
330
2A3
100
AcDbEntity
  8
0
100
AcDbBlockEnd
  0
ENDSEC
  0
SECTION
  2
ENTITIES
  0
SOLID
  5
3B
330
1E
100
AcDbEntity
  8
CONSTR
100
AcDbTrace
 10
10.43105315896833
 20
-4.24419858344886
 30
0.0
 11
9.92305315896834
 21
-4.24419858344886
 31
0.0
 12
10.43105315896833
 22
-3.837798583448861
 32
0.0
 13
9.92305315896834
 23
-3.837798583448861
 33
0.0
  0
SOLID
  5
3C
330
1E
100
AcDbEntity
  8
CONSTR
100
AcDbTrace
 10
10.43105315896833
 20
-2.34419858344886
 30
0.0
 11
9.92305315896834
 21
-2.34419858344886
 31
0.0
 12
10.43105315896833
 22
-1.93779858344886
 32
0.0
 13
9.92305315896834
 23
-1.93779858344886
 33
0.0
  0
SOLID
  5
3D
330
1E
100
AcDbEntity
  8
CONSTR
100
AcDbTrace
 10
11.73105315896834
 20
-3.434598583448861
 30
0.0
 11
12.23905315896834
 21
-3.434598583448861
 31
0.0
 12
11.73105315896834
 22
-4.247398583448861
 32
0.0
 13
12.23905315896834
 23
-4.247398583448861
 33
0.0
  0
SOLID
  5
3E
330
1E
100
AcDbEntity
  8
CONSTR
100
AcDbTrace
 10
11.73105315896834
 20
-1.93779858344886
 30
0.0
 11
12.23905315896834
 21
-1.93779858344886
 31
0.0
 12
11.73105315896834
 22
-2.34419858344886
 32
0.0
 13
12.23905315896834
 23
-2.34419858344886
 33
0.0
  0
SOLID
  5
3F
330
1E
100
AcDbEntity
  8
METAL1
100
AcDbTrace
 10
10.74944143823128
 20
-4.531949328020711
 30
0.0
 11
9.733441438231281
 21
-4.531949328020711
 31
0.0
 12
10.74944143823128
 22
-3.515949328020713
 32
0.0
 13
9.733441438231281
 23
-3.515949328020713
 33
0.0
  0
SOLID
  5
40
330
1E
100
AcDbEntity
  8
METAL1
100
AcDbTrace
 10
10.73567915944114
 20
-2.645705791337686
 30
0.0
 11
9.719679159441149
 21
-2.645705791337686
 31
0.0
 12
10.73567915944114
 22
-1.629705791337686
 32
0.0
 13
9.719679159441149
 23
-1.629705791337686
 33
0.0
  0
SOLID
  5
41
330
1E
100
AcDbEntity
  8
METAL1
100
AcDbTrace
 10
11.54950736872825
 20
-3.230262125123116
 30
0.0
 11
12.56550736872825
 21
-3.230262125123116
 31
0.0
 12
11.54950736872825
 22
-4.627262125123117
 32
0.0
 13
12.56550736872825
 23
-4.627262125123117
 33
0.0
  0
SOLID
  5
42
330
1E
100
AcDbEntity
  8
METAL1
100
AcDbTrace
 10
11.54144143823128
 20
-1.615949328020713
 30
0.0
 11
12.55744143823128
 21
-1.615949328020713
 31
0.0
 12
11.54144143823128
 22
-2.631949328020713
 32
0.0
 13
12.55744143823128
 23
-2.631949328020713
 33
0.0
  0
SOLID
  5
43
330
1E
100
AcDbEntity
  8
CONSTR
100
AcDbTrace
 10
10.48105315896834
 20
-1.64099858344886
 30
0.0
 11
10.48105315896834
 21
-4.54099858344886
 31
0.0
 12
10.38105315896833
 22
-1.64099858344886
 32
0.0
 13
10.38105315896833
 23
-4.54099858344886
 33
0.0
  0
SOLID
  5
44
330
1E
100
AcDbEntity
  8
CONSTR
100
AcDbTrace
 10
10.43105315896833
 20
-1.59099858344886
 30
0.0
 11
11.73105315896834
 21
-1.59099858344886
 31
0.0
 12
10.43105315896833
 22
-1.69099858344886
 32
0.0
 13
11.73105315896834
 23
-1.69099858344886
 33
0.0
  0
SOLID
  5
45
330
1E
100
AcDbEntity
  8
CONSTR
100
AcDbTrace
 10
11.78105315896833
 20
-1.64099858344886
 30
0.0
 11
11.78105315896833
 21
-4.54099858344886
 31
0.0
 12
11.68105315896833
 22
-1.64099858344886
 32
0.0
 13
11.68105315896833
 23
-4.54099858344886
 33
0.0
  0
SOLID
  5
46
330
1E
100
AcDbEntity
  8
CONSTR
100
AcDbTrace
 10
10.43105315896833
 20
-4.490998583448861
 30
0.0
 11
11.73105315896834
 21
-4.490998583448861
 31
0.0
 12
10.43105315896833
 22
-4.59099858344886
 32
0.0
 13
11.73105315896834
 23
-4.59099858344886
 33
0.0
  0
SOLID
  5
50
330
1E
100
AcDbEntity
  8
METAL1
100
AcDbTrace
 10
11.84544143823128
 20
-1.285749328020712
 30
0.0
 11
12.96304143823128
 21
-1.285749328020712
 31
0.0
 12
11.84544143823128
 22
-2.962149328020712
 32
0.0
 13
12.96304143823128
 23
-2.962149328020712
 33
0.0
  0
SOLID
  5
51
330
1E
100
AcDbEntity
  8
METAL1
100
AcDbTrace
 10
14.79544143823128
 20
-1.285749328020712
 30
0.0
 11
15.91304143823128
 21
-1.285749328020712
 31
0.0
 12
14.79544143823128
 22
-2.962149328020712
 32
0.0
 13
15.91304143823128
 23
-2.962149328020712
 33
0.0
  0
SOLID
  5
52
330
1E
100
AcDbEntity
  8
CONSTR
100
AcDbTrace
 10
12.25605315896833
 20
-1.34099858344886
 30
0.0
 11
12.25605315896833
 21
-2.940998583448861
 31
0.0
 12
12.20605315896833
 22
-1.34099858344886
 32
0.0
 13
12.20605315896833
 23
-2.940998583448861
 33
0.0
  0
SOLID
  5
53
330
1E
100
AcDbEntity
  8
CONSTR
100
AcDbTrace
 10
12.23105315896834
 20
-1.31599858344886
 30
0.0
 11
15.43105315896833
 21
-1.31599858344886
 31
0.0
 12
12.23105315896834
 22
-1.365998583448861
 32
0.0
 13
15.43105315896833
 23
-1.365998583448861
 33
0.0
  0
SOLID
  5
54
330
1E
100
AcDbEntity
  8
CONSTR
100
AcDbTrace
 10
12.23105315896834
 20
-2.91599858344886
 30
0.0
 11
15.43105315896833
 21
-2.91599858344886
 31
0.0
 12
12.23105315896834
 22
-2.96599858344886
 32
0.0
 13
15.43105315896833
 23
-2.96599858344886
 33
0.0
  0
SOLID
  5
55
330
1E
100
AcDbEntity
  8
CONSTR
100
AcDbTrace
 10
15.45605315896834
 20
-1.34099858344886
 30
0.0
 11
15.45605315896834
 21
-2.940998583448861
 31
0.0
 12
15.40605315896834
 22
-1.34099858344886
 32
0.0
 13
15.40605315896834
 23
-2.940998583448861
 33
0.0
  0
SOLID
  5
56
330
1E
100
AcDbEntity
  8
METAL1
100
AcDbTrace
 10
15.89544143823128
 20
-1.523949328020712
 30
0.0
 11
16.49544143823128
 21
-1.523949328020712
 31
0.0
 12
15.89544143823128
 22
-2.723949328020712
 32
0.0
 13
16.49544143823128
 23
-2.723949328020712
 33
0.0
  0
SOLID
  5
59
330
1E
100
AcDbEntity
  8
METAL1
100
AcDbTrace
 10
15.84544143823128
 20
-1.285749328020712
 30
0.0
 11
16.96304143823128
 21
-1.285749328020712
 31
0.0
 12
15.84544143823128
 22
-2.962149328020712
 32
0.0
 13
16.96304143823128
 23
-2.962149328020712
 33
0.0
  0
SOLID
  5
5A
330
1E
100
AcDbEntity
  8
METAL1
100
AcDbTrace
 10
18.79626827551303
 20
-1.280562396785753
 30
0.0
 11
19.91386827551303
 21
-1.280562396785753
 31
0.0
 12
18.79626827551303
 22
-2.956962396785753
 32
0.0
 13
19.91386827551303
 23
-2.956962396785753
 33
0.0
  0
SOLID
  5
5B
330
1E
100
AcDbEntity
  8
CONSTR
100
AcDbTrace
 10
16.25605315896834
 20
-1.34099858344886
 30
0.0
 11
16.25605315896834
 21
-2.940998583448861
 31
0.0
 12
16.20605315896833
 22
-1.34099858344886
 32
0.0
 13
16.20605315896833
 23
-2.940998583448861
 33
0.0
  0
SOLID
  5
5C
330
1E
100
AcDbEntity
  8
CONSTR
100
AcDbTrace
 10
16.23105315896834
 20
-1.31599858344886
 30
0.0
 11
19.43105315896834
 21
-1.31599858344886
 31
0.0
 12
16.23105315896834
 22
-1.365998583448861
 32
0.0
 13
19.43105315896834
 23
-1.365998583448861
 33
0.0
  0
SOLID
  5
5D
330
1E
100
AcDbEntity
  8
CONSTR
100
AcDbTrace
 10
16.23105315896834
 20
-2.91599858344886
 30
0.0
 11
19.43105315896834
 21
-2.91599858344886
 31
0.0
 12
16.23105315896834
 22
-2.96599858344886
 32
0.0
 13
19.43105315896834
 23
-2.96599858344886
 33
0.0
  0
SOLID
  5
5E
330
1E
100
AcDbEntity
  8
CONSTR
100
AcDbTrace
 10
19.45605315896833
 20
-1.34099858344886
 30
0.0
 11
19.45605315896833
 21
-2.940998583448861
 31
0.0
 12
19.40605315896834
 22
-1.34099858344886
 32
0.0
 13
19.40605315896834
 23
-2.940998583448861
 33
0.0
  0
SOLID
  5
5F
330
1E
100
AcDbEntity
  8
METAL1
100
AcDbTrace
 10
18.8
 20
-2.012705791337685
 30
0.0
 11
19.05
 21
-2.012705791337685
 31
0.0
 12
18.8
 22
-2.012705791337685
 32
0.0
 13
18.8
 23
-2.262705791337685
 33
0.0
  0
SOLID
  5
60
330
1E
100
AcDbEntity
  8
METAL1
100
AcDbTrace
 10
17.8
 20
-9.531005791337685
 30
0.0
 11
26.8183
 21
-9.531005791337685
 31
0.0
 12
17.8
 22
-9.781005791337685
 32
0.0
 13
26.8183
 23
-9.781005791337685
 33
0.0
  0
SOLID
  5
61
330
1E
100
AcDbEntity
  8
METAL1
100
AcDbTrace
 10
26.5683
 20
-9.781005791337685
 30
0.0
 11
26.5683
 21
-9.031005791337685
 31
0.0
 12
26.8183
 22
-9.781005791337685
 32
0.0
 13
26.8183
 23
-9.031005791337685
 33
0.0
  0
SOLID
  5
62
330
1E
100
AcDbEntity
  8
METAL1
100
AcDbTrace
 10
26.5683
 20
-9.281005791337685
 30
0.0
 11
26.5683
 21
-0.2627057913376856
 31
0.0
 12
26.8183
 22
-9.281005791337685
 32
0.0
 13
26.8183
 23
-0.2627057913376856
 33
0.0
  0
SOLID
  5
63
330
1E
100
AcDbEntity
  8
METAL1
100
AcDbTrace
 10
26.8183
 20
-0.5127057913376856
 30
0.0
 11
26.0683
 21
-0.5127057913376856
 31
0.0
 12
26.8183
 22
-0.2627057913376856
 32
0.0
 13
26.0683
 23
-0.2627057913376856
 33
0.0
  0
SOLID
  5
64
330
1E
100
AcDbEntity
  8
METAL1
100
AcDbTrace
 10
26.3183
 20
-0.5127057913376856
 30
0.0
 11
17.8
 21
-0.5127057913376856
 31
0.0
 12
26.3183
 22
-0.2627057913376856
 32
0.0
 13
17.8
 23
-0.2627057913376856
 33
0.0
  0
SOLID
  5
65
330
1E
100
AcDbEntity
  8
METAL1
100
AcDbTrace
 10
18.05
 20
-0.2627057913376856
 30
0.0
 11
18.05
 21
-1.012705791337685
 31
0.0
 12
17.8
 22
-0.2627057913376856
 32
0.0
 13
17.8
 23
-1.012705791337685
 33
0.0
  0
SOLID
  5
66
330
1E
100
AcDbEntity
  8
METAL1
100
AcDbTrace
 10
18.05
 20
-0.7627057913376856
 30
0.0
 11
18.05
 21
-9.281005791337685
 31
0.0
 12
17.8
 22
-0.7627057913376856
 32
0.0
 13
17.8
 23
-9.281005791337685
 33
0.0
  0
SOLID
  5
67
330
1E
100
AcDbEntity
  8
METAL1
100
AcDbTrace
 10
17.8
 20
-9.031005791337685
 30
0.0
 11
18.55
 21
-9.031005791337685
 31
0.0
 12
17.8
 22
-9.281005791337685
 32
0.0
 13
18.55
 23
-9.281005791337685
 33
0.0
  0
SOLID
  5
68
330
1E
100
AcDbEntity
  8
METAL1
100
AcDbTrace
 10
18.3
 20
-9.031005791337685
 30
0.0
 11
26.3183
 21
-9.031005791337685
 31
0.0
 12
18.3
 22
-9.281005791337685
 32
0.0
 13
26.3183
 23
-9.281005791337685
 33
0.0
  0
SOLID
  5
69
330
1E
100
AcDbEntity
  8
METAL1
100
AcDbTrace
 10
26.0683
 20
-9.281005791337685
 30
0.0
 11
26.0683
 21
-0.7627057913376856
 31
0.0
 12
26.3183
 22
-9.281005791337685
 32
0.0
 13
26.3183
 23
-0.7627057913376856
 33
0.0
  0
SOLID
  5
6A
330
1E
100
AcDbEntity
  8
METAL1
100
AcDbTrace
 10
26.3183
 20
-1.012705791337685
 30
0.0
 11
18.3
 21
-1.012705791337685
 31
0.0
 12
26.3183
 22
-0.7627057913376856
 32
0.0
 13
18.3
 23
-0.7627057913376856
 33
0.0
  0
SOLID
  5
6B
330
1E
100
AcDbEntity
  8
METAL1
100
AcDbTrace
 10
18.55
 20
-0.7627057913376856
 30
0.0
 11
18.55
 21
-8.781005791337685
 31
0.0
 12
18.3
 22
-0.7627057913376856
 32
0.0
 13
18.3
 23
-8.781005791337685
 33
0.0
  0
SOLID
  5
6C
330
1E
100
AcDbEntity
  8
METAL1
100
AcDbTrace
 10
18.3
 20
-8.531005791337685
 30
0.0
 11
25.8183
 21
-8.531005791337685
 31
0.0
 12
18.3
 22
-8.781005791337685
 32
0.0
 13
25.8183
 23
-8.781005791337685
 33
0.0
  0
SOLID
  5
6D
330
1E
100
AcDbEntity
  8
METAL1
100
AcDbTrace
 10
25.5683
 20
-8.781005791337685
 30
0.0
 11
25.5683
 21
-1.262705791337685
 31
0.0
 12
25.8183
 22
-8.781005791337685
 32
0.0
 13
25.8183
 23
-1.262705791337685
 33
0.0
  0
SOLID
  5
6E
330
1E
100
AcDbEntity
  8
METAL1
100
AcDbTrace
 10
25.8183
 20
-1.512705791337685
 30
0.0
 11
18.8
 21
-1.512705791337685
 31
0.0
 12
25.8183
 22
-1.262705791337685
 32
0.0
 13
18.8
 23
-1.262705791337685
 33
0.0
  0
SOLID
  5
6F
330
1E
100
AcDbEntity
  8
METAL1
100
AcDbTrace
 10
19.05
 20
-1.262705791337685
 30
0.0
 11
19.05
 21
-2.012705791337685
 31
0.0
 12
18.8
 22
-1.262705791337685
 32
0.0
 13
18.8
 23
-2.012705791337685
 33
0.0
  0
SOLID
  5
70
330
1E
100
AcDbEntity
  8
METAL1
100
AcDbTrace
 10
17.8
 20
-9.781005791337685
 30
0.0
 11
16.8
 21
-9.781005791337685
 31
0.0
 12
17.8
 22
-9.531005791337685
 32
0.0
 13
16.8
 23
-9.531005791337685
 33
0.0
  0
SOLID
  5
71
330
1E
100
AcDbEntity
  8
METAL1
100
AcDbTrace
 10
16.2
 20
-10.25600579133768
 30
0.0
 11
15.6
 21
-10.25600579133768
 31
0.0
 12
16.2
 22
-9.056005791337685
 32
0.0
 13
15.6
 23
-9.056005791337685
 33
0.0
  0
SOLID
  5
72
330
1E
100
AcDbEntity
  8
METAL1
100
AcDbTrace
 10
16.2
 20
-9.531005791337685
 30
0.0
 11
16.8
 21
-9.531005791337685
 31
0.0
 12
16.2
 22
-9.781005791337685
 32
0.0
 13
16.8
 23
-9.781005791337685
 33
0.0
  0
SOLID
  5
74
330
1E
100
AcDbEntity
  8
METAL1
100
AcDbTrace
 10
16.25
 20
-10.49420579133768
 30
0.0
 11
15.1324
 21
-10.49420579133768
 31
0.0
 12
16.25
 22
-8.817805791337686
 32
0.0
 13
15.1324
 23
-8.817805791337686
 33
0.0
  0
SOLID
  5
75
330
1E
100
AcDbEntity
  8
METAL1
100
AcDbTrace
 10
13.3
 20
-10.49420579133768
 30
0.0
 11
12.18239999999999
 21
-10.49420579133768
 31
0.0
 12
13.3
 22
-8.817805791337686
 32
0.0
 13
12.18239999999999
 23
-8.817805791337686
 33
0.0
  0
SOLID
  5
76
330
1E
100
AcDbEntity
  8
CONSTR
100
AcDbTrace
 10
15.71061172073705
 20
-10.47305504676583
 30
0.0
 11
15.71061172073705
 21
-8.873055046765834
 31
0.0
 12
15.76061172073705
 22
-10.47305504676583
 32
0.0
 13
15.76061172073705
 23
-8.873055046765834
 33
0.0
  0
SOLID
  5
77
330
1E
100
AcDbEntity
  8
CONSTR
100
AcDbTrace
 10
15.73561172073705
 20
-10.49805504676583
 30
0.0
 11
12.53561172073705
 21
-10.49805504676583
 31
0.0
 12
15.73561172073705
 22
-10.44805504676583
 32
0.0
 13
12.53561172073705
 23
-10.44805504676583
 33
0.0
  0
SOLID
  5
78
330
1E
100
AcDbEntity
  8
CONSTR
100
AcDbTrace
 10
15.73561172073705
 20
-8.898055046765833
 30
0.0
 11
12.53561172073705
 21
-8.898055046765833
 31
0.0
 12
15.73561172073705
 22
-8.848055046765834
 32
0.0
 13
12.53561172073705
 23
-8.848055046765834
 33
0.0
  0
SOLID
  5
79
330
1E
100
AcDbEntity
  8
CONSTR
100
AcDbTrace
 10
12.51061172073705
 20
-10.47305504676583
 30
0.0
 11
12.51061172073705
 21
-8.873055046765834
 31
0.0
 12
12.56061172073705
 22
-10.47305504676583
 32
0.0
 13
12.56061172073705
 23
-8.873055046765834
 33
0.0
  0
SOLID
  5
7A
330
1E
100
AcDbEntity
  8
METAL1
100
AcDbTrace
 10
12.19999999999999
 20
-9.781005791337685
 30
0.0
 11
11.59999999999999
 21
-9.781005791337685
 31
0.0
 12
12.19999999999999
 22
-9.531005791337685
 32
0.0
 13
11.59999999999999
 23
-9.531005791337685
 33
0.0
  0
SOLID
  5
7D
330
1E
100
AcDbEntity
  8
METAL1
100
AcDbTrace
 10
11.59999999999999
 20
-9.781005791337685
 30
0.0
 11
6.8
 21
-9.781005791337685
 31
0.0
 12
11.59999999999999
 22
-9.531005791337685
 32
0.0
 13
6.8
 23
-9.531005791337685
 33
0.0
  0
SOLID
  5
7E
330
1E
100
AcDbEntity
  8
METAL1
100
AcDbTrace
 10
6.8
 20
-9.531005791337685
 30
0.0
 11
6.8
 21
-9.781005791337685
 31
0.0
 12
6.55
 22
-9.531005791337685
 32
0.0
 13
6.55
 23
-9.781005791337685
 33
0.0
  0
SOLID
  5
7F
330
1E
100
AcDbEntity
  8
METAL1
100
AcDbTrace
 10
6.55
 20
-9.531005791337685
 30
0.0
 11
6.55
 21
-2.331005791337686
 31
0.0
 12
6.8
 22
-9.531005791337685
 32
0.0
 13
6.8
 23
-2.331005791337686
 33
0.0
  0
SOLID
  5
80
330
1E
100
AcDbEntity
  8
METAL1
100
AcDbTrace
 10
6.8
 20
-1.731005791337685
 30
0.0
 11
6.8
 21
-2.331005791337686
 31
0.0
 12
6.55
 22
-1.731005791337685
 32
0.0
 13
6.55
 23
-2.331005791337686
 33
0.0
  0
SOLID
  5
81
330
1E
100
AcDbEntity
  8
METAL1
100
AcDbTrace
 10
6.55
 20
-1.731005791337685
 30
0.0
 11
6.55
 21
-1.131005791337686
 31
0.0
 12
6.8
 22
-1.731005791337685
 32
0.0
 13
6.8
 23
-1.131005791337686
 33
0.0
  0
SOLID
  5
82
330
1E
100
AcDbEntity
  8
METAL1
100
AcDbTrace
 10
6.675
 20
-1.131005791337686
 30
0.0
 11
6.8
 21
-1.131005791337686
 31
0.0
 12
6.675
 22
-2.331005791337686
 32
0.0
 13
6.8
 23
-2.331005791337686
 33
0.0
  0
SOLID
  5
83
330
1E
100
AcDbEntity
  8
METAL1
100
AcDbTrace
 10
6.55
 20
-1.131005791337686
 30
0.0
 11
6.55
 21
1.868994208662313
 31
0.0
 12
6.8
 22
-1.131005791337686
 32
0.0
 13
6.8
 23
1.868994208662313
 33
0.0
  0
SOLID
  5
85
330
1E
100
AcDbEntity
  8
METAL1
100
AcDbTrace
 10
5.675
 20
0.8689942086623139
 30
0.0
 11
5.675
 21
2.868994208662313
 31
0.0
 12
7.675
 22
0.8689942086623139
 32
0.0
 13
7.675
 23
2.868994208662313
 33
0.0
  0
SOLID
  5
86
330
1E
100
AcDbEntity
  8
METAL1
100
AcDbTrace
 10
7.675
 20
5.868994208662314
 30
0.0
 11
7.675
 21
3.868994208662313
 31
0.0
 12
5.675
 22
5.868994208662314
 32
0.0
 13
5.675
 23
3.868994208662313
 33
0.0
  0
LWPOLYLINE
  5
87
330
1E
100
AcDbEntity
  8
GND
100
AcDbPolyline
 90
        2
 70
     0
 43
0.2
 10
6.674999999999999
 20
4.468994208662314
 42
1.0
 10
6.674999999999999
 20
5.268994208662313
  0
LWPOLYLINE
  5
8B
330
1E
100
AcDbEntity
  8
GND
100
AcDbPolyline
 90
        2
 70
     0
 43
0.2
 10
6.674999999999999
 20
5.268994208662313
 42
1.0
 10
6.674999999999999
 20
4.468994208662314
  0
SOLID
  5
93
330
1E
100
AcDbEntity
  8
METAL1
100
AcDbTrace
 10
10.73
 20
5.913994208662314
 30
0.0
 11
10.73
 21
3.913994208662313
 31
0.0
 12
8.73
 22
5.913994208662314
 32
0.0
 13
8.73
 23
3.913994208662313
 33
0.0
  0
SOLID
  5
94
330
1E
100
AcDbEntity
  8
METAL1
100
AcDbTrace
 10
10.25
 20
-2.569205791337686
 30
0.0
 11
9.1324
 21
-2.569205791337686
 31
0.0
 12
10.25
 22
-0.8928057913376861
 32
0.0
 13
9.1324
 23
-0.8928057913376861
 33
0.0
  0
SOLID
  5
95
330
1E
100
AcDbEntity
  8
METAL1
100
AcDbTrace
 10
7.3
 20
-2.569205791337686
 30
0.0
 11
6.182400000000001
 21
-2.569205791337686
 31
0.0
 12
7.3
 22
-0.8928057913376861
 32
0.0
 13
6.182400000000001
 23
-0.8928057913376861
 33
0.0
  0
SOLID
  5
96
330
1E
100
AcDbEntity
  8
CONSTR
100
AcDbTrace
 10
9.710611720737057
 20
-2.548055046765834
 30
0.0
 11
9.710611720737057
 21
-0.9480550467658339
 31
0.0
 12
9.760611720737056
 22
-2.548055046765834
 32
0.0
 13
9.760611720737056
 23
-0.9480550467658339
 33
0.0
  0
SOLID
  5
97
330
1E
100
AcDbEntity
  8
CONSTR
100
AcDbTrace
 10
9.735611720737058
 20
-2.573055046765833
 30
0.0
 11
6.535611720737058
 21
-2.573055046765833
 31
0.0
 12
9.735611720737058
 22
-2.523055046765834
 32
0.0
 13
6.535611720737058
 23
-2.523055046765834
 33
0.0
  0
SOLID
  5
98
330
1E
100
AcDbEntity
  8
CONSTR
100
AcDbTrace
 10
9.735611720737058
 20
-0.9730550467658339
 30
0.0
 11
6.535611720737058
 21
-0.9730550467658339
 31
0.0
 12
9.735611720737058
 22
-0.9230550467658339
 32
0.0
 13
6.535611720737058
 23
-0.9230550467658339
 33
0.0
  0
SOLID
  5
99
330
1E
100
AcDbEntity
  8
CONSTR
100
AcDbTrace
 10
6.510611720737056
 20
-2.548055046765834
 30
0.0
 11
6.510611720737056
 21
-0.9480550467658339
 31
0.0
 12
6.560611720737057
 22
-2.548055046765834
 32
0.0
 13
6.560611720737057
 23
-0.9480550467658339
 33
0.0
  0
SOLID
  5
9D
330
1E
100
AcDbEntity
  8
METAL1
100
AcDbTrace
 10
11.0382
 20
2.318994208662314
 30
0.0
 11
11.0382
 21
1.201394208662313
 31
0.0
 12
9.3618
 22
2.318994208662314
 32
0.0
 13
9.3618
 23
1.201394208662313
 33
0.0
  0
SOLID
  5
9E
330
1E
100
AcDbEntity
  8
METAL1
100
AcDbTrace
 10
11.0382
 20
-0.6310057913376861
 30
0.0
 11
11.0382
 21
-1.748605791337686
 31
0.0
 12
9.3618
 22
-0.6310057913376861
 32
0.0
 13
9.3618
 23
-1.748605791337686
 33
0.0
  0
SOLID
  5
9F
330
1E
100
AcDbEntity
  8
CONSTR
100
AcDbTrace
 10
10.99514653455375
 20
1.85669981020006
 30
0.0
 11
9.395146534553754
 21
1.85669981020006
 31
0.0
 12
10.99514653455375
 22
1.90669981020006
 32
0.0
 13
9.395146534553754
 23
1.90669981020006
 33
0.0
  0
SOLID
  5
A0
330
1E
100
AcDbEntity
  8
CONSTR
100
AcDbTrace
 10
11.02014653455375
 20
1.88169981020006
 30
0.0
 11
11.02014653455375
 21
-1.318300189799939
 31
0.0
 12
10.97014653455375
 22
1.88169981020006
 32
0.0
 13
10.97014653455375
 23
-1.318300189799939
 33
0.0
  0
SOLID
  5
A1
330
1E
100
AcDbEntity
  8
CONSTR
100
AcDbTrace
 10
9.420146534553754
 20
1.88169981020006
 30
0.0
 11
9.420146534553754
 21
-1.318300189799939
 31
0.0
 12
9.370146534553754
 22
1.88169981020006
 32
0.0
 13
9.370146534553754
 23
-1.318300189799939
 33
0.0
  0
SOLID
  5
A2
330
1E
100
AcDbEntity
  8
CONSTR
100
AcDbTrace
 10
10.99514653455375
 20
-1.343300189799939
 30
0.0
 11
9.395146534553754
 21
-1.343300189799939
 31
0.0
 12
10.99514653455375
 22
-1.293300189799939
 32
0.0
 13
9.395146534553754
 23
-1.293300189799939
 33
0.0
  0
SOLID
  5
A3
330
1E
100
AcDbEntity
  8
METAL1
100
AcDbTrace
 10
10.8
 20
2.868994208662313
 30
0.0
 11
10.8
 21
1.668994208662313
 31
0.0
 12
9.599999999999999
 22
2.868994208662313
 32
0.0
 13
9.599999999999999
 23
1.668994208662313
 33
0.0
  0
LWPOLYLINE
  5
A4
330
1E
100
AcDbEntity
  8
GND
100
AcDbPolyline
 90
        2
 70
     0
 43
0.2
 10
10.2
 20
1.868994208662313
 42
1.0
 10
10.2
 20
2.668994208662313
  0
LWPOLYLINE
  5
A8
330
1E
100
AcDbEntity
  8
GND
100
AcDbPolyline
 90
        2
 70
     0
 43
0.2
 10
10.2
 20
2.668994208662313
 42
1.0
 10
10.2
 20
1.868994208662313
  0
SOLID
  5
AC
330
1E
100
AcDbEntity
  8
METAL1
100
AcDbTrace
 10
13.03819999999999
 20
-9.614592603783243
 30
0.0
 11
13.03819999999999
 21
-8.496992603783244
 31
0.0
 12
11.3618
 22
-9.614592603783243
 32
0.0
 13
11.3618
 23
-8.496992603783244
 33
0.0
  0
SOLID
  5
AD
330
1E
100
AcDbEntity
  8
METAL1
100
AcDbTrace
 10
13.03819999999999
 20
-6.664592603783244
 30
0.0
 11
13.03819999999999
 21
-5.546992603783245
 31
0.0
 12
11.3618
 22
-6.664592603783244
 32
0.0
 13
11.3618
 23
-5.546992603783245
 33
0.0
  0
SOLID
  5
AE
330
1E
100
AcDbEntity
  8
CONSTR
100
AcDbTrace
 10
12.99514664100105
 20
-6.034648510054656
 30
0.0
 11
11.39514664100105
 21
-6.034648510054656
 31
0.0
 12
12.99514664100105
 22
-5.984648510054656
 32
0.0
 13
11.39514664100105
 23
-5.984648510054656
 33
0.0
  0
SOLID
  5
AF
330
1E
100
AcDbEntity
  8
CONSTR
100
AcDbTrace
 10
13.025
 20
-6.018299999999999
 30
0.0
 11
13.025
 21
-9.218299999999999
 31
0.0
 12
12.975
 22
-6.018299999999999
 32
0.0
 13
12.975
 23
-9.218299999999999
 33
0.0
  0
SOLID
  5
B0
330
1E
100
AcDbEntity
  8
CONSTR
100
AcDbTrace
 10
11.425
 20
-6.018299999999999
 30
0.0
 11
11.425
 21
-9.218299999999999
 31
0.0
 12
11.37499999999999
 22
-6.018299999999999
 32
0.0
 13
11.37499999999999
 23
-9.218299999999999
 33
0.0
  0
SOLID
  5
B1
330
1E
100
AcDbEntity
  8
CONSTR
100
AcDbTrace
 10
13.0
 20
-9.243299999999999
 30
0.0
 11
11.4
 21
-9.243299999999999
 31
0.0
 12
13.0
 22
-9.1933
 32
0.0
 13
11.4
 23
-9.1933
 33
0.0
  0
SOLID
  5
B2
330
1E
100
AcDbEntity
  8
METAL1
100
AcDbTrace
 10
12.8
 20
-6.164592603783244
 30
0.0
 11
12.8
 21
-4.964592603783245
 31
0.0
 12
11.59999999999999
 22
-6.164592603783244
 32
0.0
 13
11.59999999999999
 23
-4.964592603783245
 33
0.0
  0
LWPOLYLINE
  5
B3
330
1E
100
AcDbEntity
  8
GND
100
AcDbPolyline
 90
        2
 70
     0
 43
0.2
 10
12.19999999999999
 20
-5.164592603783244
 42
-1.0
 10
12.19999999999999
 20
-5.964592603783245
  0
LWPOLYLINE
  5
B7
330
1E
100
AcDbEntity
  8
GND
100
AcDbPolyline
 90
        2
 70
     0
 43
0.2
 10
12.19999999999999
 20
-5.964592603783245
 42
-1.0
 10
12.19999999999999
 20
-5.164592603783244
  0
SOLID
  5
BB
330
1E
100
AcDbEntity
  8
METAL1
100
AcDbTrace
 10
17.0382
 20
-9.614592603783243
 30
0.0
 11
17.0382
 21
-8.496992603783244
 31
0.0
 12
15.3618
 22
-9.614592603783243
 32
0.0
 13
15.3618
 23
-8.496992603783244
 33
0.0
  0
SOLID
  5
BC
330
1E
100
AcDbEntity
  8
METAL1
100
AcDbTrace
 10
17.0382
 20
-6.664592603783244
 30
0.0
 11
17.0382
 21
-5.546992603783245
 31
0.0
 12
15.3618
 22
-6.664592603783244
 32
0.0
 13
15.3618
 23
-5.546992603783245
 33
0.0
  0
SOLID
  5
BD
330
1E
100
AcDbEntity
  8
CONSTR
100
AcDbTrace
 10
16.99514664100105
 20
-6.034648510054656
 30
0.0
 11
15.39514664100105
 21
-6.034648510054656
 31
0.0
 12
16.99514664100105
 22
-5.984648510054656
 32
0.0
 13
15.39514664100105
 23
-5.984648510054656
 33
0.0
  0
SOLID
  5
BE
330
1E
100
AcDbEntity
  8
CONSTR
100
AcDbTrace
 10
17.02499999999999
 20
-6.018299999999999
 30
0.0
 11
17.02499999999999
 21
-9.218299999999999
 31
0.0
 12
16.975
 22
-6.018299999999999
 32
0.0
 13
16.975
 23
-9.218299999999999
 33
0.0
  0
SOLID
  5
BF
330
1E
100
AcDbEntity
  8
CONSTR
100
AcDbTrace
 10
15.425
 20
-6.018299999999999
 30
0.0
 11
15.425
 21
-9.218299999999999
 31
0.0
 12
15.375
 22
-6.018299999999999
 32
0.0
 13
15.375
 23
-9.218299999999999
 33
0.0
  0
SOLID
  5
C0
330
1E
100
AcDbEntity
  8
CONSTR
100
AcDbTrace
 10
17.0
 20
-9.243299999999999
 30
0.0
 11
15.4
 21
-9.243299999999999
 31
0.0
 12
17.0
 22
-9.1933
 32
0.0
 13
15.4
 23
-9.1933
 33
0.0
  0
SOLID
  5
C1
330
1E
100
AcDbEntity
  8
METAL1
100
AcDbTrace
 10
16.8
 20
-6.164592603783244
 30
0.0
 11
16.8
 21
-4.964592603783245
 31
0.0
 12
15.6
 22
-6.164592603783244
 32
0.0
 13
15.6
 23
-4.964592603783245
 33
0.0
  0
LWPOLYLINE
  5
C2
330
1E
100
AcDbEntity
  8
GND
100
AcDbPolyline
 90
        2
 70
     0
 43
0.2
 10
16.2
 20
-5.164592603783244
 42
-1.0
 10
16.2
 20
-5.964592603783245
  0
LWPOLYLINE
  5
C6
330
1E
100
AcDbEntity
  8
GND
100
AcDbPolyline
 90
        2
 70
     0
 43
0.2
 10
16.2
 20
-5.964592603783245
 42
-1.0
 10
16.2
 20
-5.164592603783244
  0
SOLID
  5
CA
330
1E
100
AcDbEntity
  8
METAL1
100
AcDbTrace
 10
15.05724143823128
 20
-2.173949328020713
 30
0.0
 11
15.05724143823128
 21
-1.056349328020712
 31
0.0
 12
16.73364143823128
 22
-2.173949328020713
 32
0.0
 13
16.73364143823128
 23
-1.056349328020712
 33
0.0
  0
SOLID
  5
CB
330
1E
100
AcDbEntity
  8
METAL1
100
AcDbTrace
 10
15.05724143823128
 20
0.776050671979287
 30
0.0
 11
15.05724143823128
 21
1.893650671979287
 31
0.0
 12
16.73364143823128
 22
0.776050671979287
 32
0.0
 13
16.73364143823128
 23
1.893650671979287
 33
0.0
  0
SOLID
  5
CC
330
1E
100
AcDbEntity
  8
CONSTR
100
AcDbTrace
 10
15.07074299936369
 20
-1.706080297793557
 30
0.0
 11
16.67074299936369
 21
-1.706080297793557
 31
0.0
 12
15.07074299936369
 22
-1.756080297793558
 32
0.0
 13
16.67074299936369
 23
-1.756080297793558
 33
0.0
  0
SOLID
  5
CD
330
1E
100
AcDbEntity
  8
CONSTR
100
AcDbTrace
 10
15.04574299936369
 20
-1.731080297793558
 30
0.0
 11
15.04574299936369
 21
1.468919702206441
 31
0.0
 12
15.09574299936369
 22
-1.731080297793558
 32
0.0
 13
15.09574299936369
 23
1.468919702206441
 33
0.0
  0
SOLID
  5
CE
330
1E
100
AcDbEntity
  8
CONSTR
100
AcDbTrace
 10
16.64574299936369
 20
-1.731080297793558
 30
0.0
 11
16.64574299936369
 21
1.468919702206441
 31
0.0
 12
16.69574299936369
 22
-1.731080297793558
 32
0.0
 13
16.69574299936369
 23
1.468919702206441
 33
0.0
  0
SOLID
  5
CF
330
1E
100
AcDbEntity
  8
CONSTR
100
AcDbTrace
 10
15.07074299936369
 20
1.493919702206442
 30
0.0
 11
16.67074299936369
 21
1.493919702206442
 31
0.0
 12
15.07074299936369
 22
1.443919702206441
 32
0.0
 13
16.67074299936369
 23
1.443919702206441
 33
0.0
  0
LINE
  5
D2
330
1E
100
AcDbEntity
  8
CONSTR
100
AcDbLine
 10
11.74105315896833
 20
-4.34099858344886
 30
0.0
 11
11.73105315896834
 21
-4.34099858344886
 31
0.0
  0
LINE
  5
D3
330
1E
100
AcDbEntity
  8
CONSTR
100
AcDbLine
 10
11.74105315896833
 20
-4.34099858344886
 30
0.0
 11
11.74105315896833
 21
-3.34099858344886
 31
0.0
  0
LINE
  5
D8
330
1E
100
AcDbEntity
  8
CONSTR
100
AcDbLine
 10
11.73105315896834
 20
-3.34099858344886
 30
0.0
 11
11.74105315896833
 21
-3.34099858344886
 31
0.0
  0
LINE
  5
D9
330
1E
100
AcDbEntity
  8
CONSTR
100
AcDbLine
 10
11.73105315896834
 20
-3.34099858344886
 30
0.0
 11
11.73105315896834
 21
-4.34099858344886
 31
0.0
  0
SOLID
  5
DA
330
1E
100
AcDbEntity
  8
METAL1
100
AcDbTrace
 10
11.5382621077748
 20
-4.42868649588158
 30
0.0
 11
11.5382621077748
 21
-3.228686495881579
 31
0.0
 12
12.7382621077748
 22
-4.42868649588158
 32
0.0
 13
12.7382621077748
 23
-3.228686495881579
 33
0.0
  0
LWPOLYLINE
  5
DB
330
1E
100
AcDbEntity
  8
GND
100
AcDbPolyline
 90
        2
 70
     0
 43
0.2
 10
12.1382621077748
 20
-4.228686495881579
 42
1.0
 10
12.1382621077748
 20
-3.428686495881579
  0
LWPOLYLINE
  5
DF
330
1E
100
AcDbEntity
  8
GND
100
AcDbPolyline
 90
        2
 70
     0
 43
0.2
 10
12.1382621077748
 20
-3.428686495881579
 42
1.0
 10
12.1382621077748
 20
-4.228686495881579
  0
SOLID
  5
F2
330
1E
100
AcDbEntity
  8
METAL1
100
AcDbTrace
 10
8.849138393809218
 20
-4.597473017336858
 30
0.0
 11
8.849138393809218
 21
-3.397473017336857
 31
0.0
 12
10.04913839380921
 22
-4.597473017336858
 32
0.0
 13
10.04913839380921
 23
-3.397473017336857
 33
0.0
  0
INSERT
  5
104
330
1E
100
AcDbEntity
  8
CONSTR
100
AcDbBlockReference
  2
elkon
 10
-0.0643882792629427
 20
-4.054755046765833
 30
0.0
  0
INSERT
  5
10B
330
1E
100
AcDbEntity
  8
CONSTR
100
AcDbBlockReference
  2
elkon
 10
15.65437047852678
 20
-0.5310172445837483
 30
0.0
 50
90.0
  0
INSERT
  5
12E
330
1E
100
AcDbEntity
  8
CONSTR
100
AcDbBlockReference
  2
rfc
 10
39.61651495679256
 20
-24.30614620229059
 30
0.0
 41
5.747672421525731
 42
5.747672421525731
 43
5.747672421525731
 50
90.0
  0
LWPOLYLINE
  5
12F
330
1E
100
AcDbEntity
  8
CONSTR
100
AcDbPolyline
 90
        2
 70
     0
 43
0.0
 10
13.8115943658565
 20
5.252368780104085
 10
15.0683800775082
 20
5.252368780104085
  0
LWPOLYLINE
  5
130
330
1E
100
AcDbEntity
  8
CONSTR
100
AcDbPolyline
 90
        2
 70
     0
 43
0.0
 10
11.32534439091644
 20
5.252368780104085
 10
10.25980869186854
 20
5.252368780104085
  0
LWPOLYLINE
  5
131
330
1E
100
AcDbEntity
  8
CONSTR
100
AcDbPolyline
 90
        2
 70
     0
 43
0.0
 10
7.527665839082878
 20
2.84909455977969
 10
7.172487293723527
 20
2.330205802663627
  0
LWPOLYLINE
  5
132
330
1E
100
AcDbEntity
  8
CONSTR
100
AcDbPolyline
 90
        2
 70
     0
 43
0.0
 10
8.647844403372566
 20
4.187281327978258
 10
9.248915826577523
 20
4.515000540793167
  0
LWPOLYLINE
  5
133
330
1E
100
AcDbEntity
  8
CONSTR
100
AcDbPolyline
 90
        2
 70
     0
 43
0.0
 10
7.445701556962653
 20
4.078041597358211
 10
7.145165845360175
 20
4.433070748066818
  0
LWPOLYLINE
  5
135
330
1E
100
AcDbEntity
  8
METAL1
100
AcDbPolyline
 90
        4
 70
     1
 43
0.0
 10
3.784654436679375
 20
11.90718263256276
 10
33.78465443667937
 20
11.90718263256276
 10
33.78465443667937
 20
-12.59281736743723
 10
3.784654436679375
 20
-12.59281736743723
  0
MTEXT
  5
13D
330
1E
100
AcDbEntity
  8
METAL1
370
    50
100
AcDbMText
 10
28.59239844754944
 20
-9.007192556663419
 30
0.0
 40
1.5
 41
17.76255612097674
 71
     1
 72
     5
  1
    YU1AW\PBF998 2m LNA
 11
0.0000000000000001
 21
1.0
 31
0.0
 73
     1
 44
1.0
  0
MTEXT
  5
145
330
1E
100
AcDbEntity
  8
CONSTR
100
AcDbMText
 10
13.02075745183184
 20
-1.782875850054118
 30
0.0
 40
0.6
 41
1.584299999999999
 71
     1
 72
     5
  1
100
 73
     1
 44
1.0
  0
MTEXT
  5
146
330
1E
100
AcDbEntity
  8
CONSTR
100
AcDbMText
 10
13.33140624980877
 20
-9.235308556250366
 30
0.0
 40
0.6
 41
1.584299999999999
 71
     1
 72
     5
  1
68
 73
     1
 44
1.0
  0
MTEXT
  5
147
330
1E
100
AcDbEntity
  8
CONSTR
100
AcDbMText
 10
15.88125865238022
 20
-8.068436584654726
 30
0.0
 40
0.6
 41
1.3669
 71
     1
 72
     5
  1
1n
 11
0.0000000000000001
 21
1.0
 31
0.0
 73
     1
 44
1.0
  0
MTEXT
  5
148
330
1E
100
AcDbEntity
  8
CONSTR
100
AcDbMText
 10
11.93588922467004
 20
-8.410058532410729
 30
0.0
 40
0.6
 41
1.242599999999999
 71
     1
 72
     5
  1
10n
 11
0.0000000000000001
 21
1.0
 31
0.0
 73
     1
 44
1.0
  0
MTEXT
  5
149
330
1E
100
AcDbEntity
  8
CONSTR
100
AcDbMText
 10
7.273756157382877
 20
-1.441306080193022
 30
0.0
 40
0.6
 41
1.615399999999999
 71
     1
 72
     5
  1
120k
 73
     1
 44
1.0
  0
MTEXT
  5
14A
330
1E
100
AcDbEntity
  8
CONSTR
100
AcDbMText
 10
9.570210021970439
 20
-0.5423490650945056
 30
0.0
 40
0.5
 41
1.397899999999999
 71
     1
 72
     5
  1
82k+\P1nF
 11
0.0000000000000001
 21
1.0
 31
0.0
 73
     1
 44
1.0
  0
MTEXT
  5
14B
330
1E
100
AcDbEntity
  8
CONSTR
100
AcDbMText
 10
7.553340041018046
 20
7.097939660736223
 30
0.0
 40
0.6
 41
1.6775
 71
     1
 72
     5
  1
1uF
 73
     1
 44
1.0
  0
MTEXT
  5
14C
330
1E
100
AcDbEntity
  8
CONSTR
100
AcDbMText
 10
11.34325432274151
 20
6.663214389366025
 30
0.0
 40
0.6
 41
2.423099999999999
 71
     1
 72
     5
  1
10uH
 73
     1
 44
1.0
  0
MTEXT
  5
14D
330
1E
100
AcDbEntity
  8
CONSTR
100
AcDbMText
 10
15.45258621347613
 20
-0.9659766540714329
 30
0.0
 40
0.6
 41
1.3669
 71
     1
 72
     5
  1
10pF
 11
0.0000000000000001
 21
1.0
 31
0.0
 73
     1
 44
1.0
  0
MTEXT
  5
14E
330
1E
100
AcDbEntity
  8
CONSTR
100
AcDbMText
 10
16.87280147587863
 20
-1.907083070445608
 30
0.0
 40
0.6
 41
1.988199999999999
 71
     1
 72
     5
  1
33
 73
     1
 44
1.0
  0
MTEXT
  5
155
330
1E
100
AcDbEntity
  8
CONSTR
100
AcDbMText
 10
4.074074384550982
 20
4.637500491665612
 30
0.0
 40
0.6
 41
1.6775
 71
     1
 72
     5
  1
1uF
 73
     1
 44
1.0
  0
MTEXT
  5
156
330
1E
100
AcDbEntity
  8
CONSTR
100
AcDbMText
 10
13.16633027074834
 20
-3.643265299087111
 30
0.0
 40
0.6
 41
1.1805
 71
     1
 72
     5
  1
S
 73
     1
 44
1.0
  0
MTEXT
  5
157
330
1E
100
AcDbEntity
  8
CONSTR
100
AcDbMText
 10
9.261907911729636
 20
-4.763848967018823
 30
0.0
 40
0.6
 41
1.429
 71
     1
 72
     5
  1
G1
 73
     1
 44
1.0
  0
MTEXT
  5
158
330
1E
100
AcDbEntity
  8
CONSTR
100
AcDbMText
 10
12.11352683874115
 20
-0.2970357883614838
 30
0.0
 40
0.6
 41
1.584299999999999
 71
     1
 72
     5
  1
D
 73
     1
 44
1.0
  0
MTEXT
  5
159
330
1E
100
AcDbEntity
  8
CONSTR
100
AcDbMText
 10
8.112507721928054
 20
-0.0750267708406867
 30
0.0
 40
0.6
 41
1.1183
 71
     1
 72
     5
  1
G2
 73
     1
 44
1.0
  0
MTEXT
  5
15A
330
1E
100
AcDbEntity
  8
CONSTR
100
AcDbMText
 10
7.632908921294062
 20
1.88940081998531
 30
0.0
 40
0.5999999999999999
 41
3.075399999999999
 71
     1
 72
     5
  1
78L10
 11
0.7122849630676669
 21
0.7018903984153741
 31
0.0
 73
     1
 44
1.0
  0
MTEXT
  5
15C
330
1E
100
AcDbEntity
  8
CONSTR
100
AcDbMText
 10
10.81542592907136
 20
-4.360188581107131
 30
0.0
 40
0.5
 41
2.454099999999999
 71
     1
 72
     5
  1
BF998
 11
0.0000000000000001
 21
1.0
 31
0.0
 73
     1
 44
1.0
  0
MTEXT
  5
15D
330
1E
100
AcDbEntity
  8
CONSTR
100
AcDbMText
 10
14.99757084528529
 20
11.36498776408131
 30
0.0
 40
0.8
 41
2.640499999999999
 71
     1
 72
     5
  1
OUT
 73
     1
 44
1.0
  0
MTEXT
  5
15E
330
1E
100
AcDbEntity
  8
CONSTR
100
AcDbMText
 10
7.335885986066514
 20
-3.739139427527547
 30
0.0
 40
0.8
 41
1.615399999999999
 71
     1
 72
     5
  1
IN
 73
     1
 44
1.0
  0
INSERT
  5
16F
330
1E
100
AcDbEntity
  8
CONSTR
100
AcDbBlockReference
  2
tri
 10
15.97875509786265
 20
11.35713426875773
 30
0.0
 50
180.0
  0
DIMENSION
  5
1EF
330
1E
100
AcDbEntity
  8
METAL1
370
    15
100
AcDbDimension
  2
*D6
 10
33.7951420132612
 20
13.80495272726891
 30
0.0
 11
18.79515270980954
 21
13.80495272726891
 31
0.0
 70
    32
 71
     5
 42
29.9999786069033
  3
Standard
100
AcDbAlignedDimension
 13
3.7951634063579
 23
12.98124560591936
 33
0.0
 14
33.7951420132612
 24
12.945418446611
 34
0.0
100
AcDbRotatedDimension
1001
ACAD
1000
DSTYLE
1002
{
1070
    41
1040
1.8
1070
   140
1040
1.199999999999999
1070
   147
1040
0.9
1070
   271
1070
     0
1002
}
  0
DIMENSION
  5
22F
330
1E
100
AcDbEntity
  8
METAL1
370
    15
100
AcDbDimension
  2
*D7
 10
36.82897080364323
 20
-12.57001127440379
 30
0.0
 11
36.82897080364323
 21
-0.3315830861003862
 31
0.0
 70
    32
 71
     5
 42
24.47685637660679
  3
Standard
100
AcDbAlignedDimension
 13
34.82257904928891
 23
11.906845102203
 33
0.0
 14
35.88723952050175
 24
-12.57001127440378
 34
0.0
 50
90.0
100
AcDbRotatedDimension
1001
ACAD
1000
DSTYLE
1002
{
1070
    41
1040
1.8
1070
   140
1040
1.199999999999999
1070
   147
1040
0.9
1070
   271
1070
     1
1002
}
  0
INSERT
  5
298
330
1E
100
AcDbEntity
  8
ASHADE
 62
     1
100
AcDbBlockReference
  2
AVE_RENDER
 10
0.0
 20
0.0
 30
0.0
1001
AVE_RENDER
1002
{
1070
     7
1000
Pref
1070
    30
1070
    20
1070
     1
1070
     0
1000

1070
    10
1070
     1
1070
    10
1040
1.0
1070
     1
1040
0.3
1040
0.7
1040
0.0
1040
10.0
1010
-1.0
1020
-1.0
1030
-1.0
1040
0.3
1070
    49
1070
     0
1070
     0
1010
1.0
1020
1.0
1030
1.0
1040
45.0
1070
     1
1070
     0
1000
WCS
1040
0.0
1070
     0
1040
10.0
1002
}
  0
INSERT
  5
299
330
1E
100
AcDbEntity
  8
ASHADE
 62
     3
100
AcDbBlockReference
  2
AVE_RENDER
 10
0.0
 20
0.0
 30
0.0
1001
AVE_RENDER
1002
{
1070
     0
1000
Full Opt
1070
     0
1070
     1
1070
     1
1070
     1
1070
     0
1070
     0
1070
     0
1070
     1
1070
     1
1040
0.0001
1040
0.0001
1002
}
  0
INSERT
  5
29A
330
1E
100
AcDbEntity
  8
ASHADE
 62
     4
100
AcDbBlockReference
  2
AVE_RENDER
 10
0.0
 20
0.0
 30
0.0
1001
AVE_RENDER
1002
{
1070
     0
1000
Quick Opt
1070
     0
1070
     1
1070
     1
1070
     1
1070
     0
1070
     0
1070
     1
1002
}
  0
INSERT
  5
29B
330
1E
100
AcDbEntity
  8
ASHADE
 62
     5
100
AcDbBlockReference
  2
AVE_RENDER
 10
0.0
 20
0.0
 30
0.0
1001
AVE_RENDER
1002
{
1070
     1
1000
Scanl Opt
1070
     2
1070
     0
1070
     2
1040
2.0
1040
4.0
1070
     0
1070
     1
1070
     0
1040
0.03
1002
}
  0
INSERT
  5
29C
330
1E
100
AcDbEntity
  8
ASHADE
 62
     6
100
AcDbBlockReference
  2
AVE_RENDER
 10
0.0
 20
0.0
 30
0.0
1001
AVE_RENDER
1002
{
1070
     2
1000
Raytr Opt
1070
     2
1070
     0
1070
     2
1040
2.0
1040
4.0
1070
     0
1070
     1
1070
     1
1040
0.03
1070
     3
1040
0.03
1002
}
  0
INSERT
  5
29D
330
1E
100
AcDbEntity
  8
ASHADE
 62
     7
100
AcDbBlockReference
  2
AVE_RENDER
 10
0.0
 20
0.0
 30
0.0
1001
AVE_RENDER
1002
{
1070
     0
1000
RFile Opt
1070
     1
1070
   640
1070
   480
1070
 10000
1070
     1
1070
     8
1070
     8
1070
     0
1070
     0
1070
     0
1070
     0
1070
     0
1070
     0
1070
     0
1002
}
  0
INSERT
  5
29E
330
1E
100
AcDbEntity
  8
ASHADE
 62
     8
100
AcDbBlockReference
  2
AVE_RENDER
 10
0.0
 20
0.0
 30
0.0
1001
AVE_RENDER
1002
{
1070
     0
1000
Fog Opt
1070
     0
1070
     0
1040
0.0
1040
1.0
1040
0.0
1040
1.0
1010
0.5
1020
0.5
1030
0.5
1002
}
  0
INSERT
  5
29F
330
1E
100
AcDbEntity
  8
ASHADE
 62
     9
100
AcDbBlockReference
  2
AVE_RENDER
 10
0.0
 20
0.0
 30
0.0
1001
AVE_RENDER
1002
{
1070
     0
1000
BG Opt
1070
     0
1070
     1
1010
0.0
1020
0.0
1030
0.0
1010
1.0
1020
0.0
1030
0.0
1010
0.0
1020
1.0
1030
0.0
1010
0.0
1020
0.0
1030
1.0
1040
0.5
1040
0.33
1040
0.0
1000

1070
     1
1000

1070
     1
1070
     1
1040
1.0
1040
1.0
1040
0.0
1040
0.0
1070
     0
1002
}
  0
INSERT
  5
2A6
330
1E
100
AcDbEntity
  8
ASHADE
 62
     1
100
AcDbBlockReference
  2
AVE_GLOBAL
 10
0.0
 20
0.0
 30
0.0
1001
AVE_MATERIAL
1002
{
1000
*GLOBAL*
1000
2
1000
Global finish.
1002
{
1002
}
1002
{
1070
    63
1002
{
1002
{
1010
-1.0
1020
-1.0
1030
-1.0
1002
}
1040
0.1000000014901161
1000

1040
0.0
1002
{
1002
}
1040
0.0
1002
{
1002
}
1040
0.0
1002
}
1002
{
1002
{
1010
-1.0
1020
-1.0
1030
-1.0
1002
}
1040
0.6999999880790711
1000

1040
0.0
1002
{
1002
}
1040
0.0
1002
{
1002
}
1040
0.0
1002
}
1002
{
1002
{
1010
-1.0
1020
-1.0
1030
-1.0
1002
}
1040
0.2000000029802322
1000

1040
0.0
1002
{
1002
}
1040
0.0
1002
{
1002
}
1040
0.0
1002
}
1002
{
1070
     0
1002
{
1070
     1
1002
{
1040
1.0
1040
1.0
1000

1040
0.0
1002
{
1002
}
1040
0.0
1002
{
1002
}
1040
0.0
1002
}
1002
}
1040
1.0
1040
0.0
1040
0.0
1002
}
1002
{
1040
1.0
1040
1.0
1000

1040
0.0
1002
{
1002
}
1040
0.0
1002
{
1002
}
1040
0.0
1002
}
1002
{
1040
0.5
1040
1.0
1000

1040
0.0
1002
{
1002
}
1040
0.0
1002
{
1002
}
1040
0.0
1002
}
1002
{
1070
     0
1040
0.0
1002
{
1002
}
1040
1.0
1002
{
1002
}
1040
0.0
1002
}
1002
{
1040
0.0
1002
{
1002
{
1010
0.0
1020
0.0
1030
0.0
1002
}
1040
1.0
1000

1040
0.0
1002
{
1002
}
1040
0.0
1002
{
1002
}
1040
0.0
1002
}
1002
}
1002
{
1002
{
1070
     1
1002
{
1040
0.0
1040
1.0
1000

1040
0.0
1002
{
1002
}
1040
0.0
1002
{
1002
}
1040
0.0
1002
}
1002
}
1040
0.0
1002
{
1002
}
1010
1.0
1020
0.0
1030
0.0
1010
0.0
1020
1.0
1030
0.0
1010
0.0
1020
0.0
1030
1.0
1070
     0
1002
}
1002
{
1002
{
1040
1.0
1040
1.0
1002
{
1070
     1
1002
{
1040
1.0
1040
1.0
1000

1040
0.0
1002
{
1002
}
1040
0.0
1002
{
1002
}
1040
0.0
1002
}
1002
}
1002
}
1070
     0
1040
0.0
1002
{
1002
}
1002
}
1002
{
1002
}
1002
}
1002
{
1071
        3
1070
     3
1070
     0
1002
{
1070
     2
1070
     0
1070
     0
1040
0.0
1002
}
1070
     0
1070
     2
1002
{
1002
}
1002
}
1002
{
1040
8030.0
1040
190.3000030517578
1040
0.3050000071525574
1040
228.0
1040
545.0
1040
14.0
1040
17.39999961853027
1040
0.4560000002384186
1002
}
1002
}
  0
LWPOLYLINE
  5
2E2
102
{ACAD_REACTORS
330
2E3
102
}
330
1E
100
AcDbEntity
  8
METAL1
100
AcDbPolyline
 90
        4
 70
     1
 43
0.0
 10
14.55224799237706
 20
1.315903412788529
 10
17.24489105064364
 20
1.315903412788529
 10
17.24489105064364
 20
10.19061286413604
 10
14.55224799237706
 20
10.19061286413604
  0
HATCH
  5
2E3
330
1E
100
AcDbEntity
  8
METAL1
100
AcDbHatch
 10
0.0
 20
0.0
 30
0.0
210
0.0
220
0.0
230
1.0
  2
SOLID
 70
     1
 71
     1
 91
        1
 92
        1
 93
        4
 72
     1
 10
14.55224799237706
 20
1.315903412788529
 11
17.24489105064364
 21
1.315903412788529
 72
     1
 10
17.24489105064364
 20
1.315903412788529
 11
17.24489105064364
 21
10.19061286413604
 72
     1
 10
17.24489105064364
 20
10.19061286413604
 11
14.55224799237706
 21
10.19061286413604
 72
     1
 10
14.55224799237706
 20
10.19061286413604
 11
14.55224799237706
 21
1.315903412788529
 97
        1
330
2E2
 75
     0
 76
     1
 98
        1
 10
0.0
 20
0.0
  0
LWPOLYLINE
  5
2FB
330
1E
100
AcDbEntity
  8
GND
100
AcDbPolyline
 90
        2
 70
     0
 43
0.2
 10
9.461217031258211
 20
-4.373446492438941
 42
1.0
 10
9.461217031258211
 20
-3.573446492438941
  0
LWPOLYLINE
  5
2FC
330
1E
100
AcDbEntity
  8
GND
100
AcDbPolyline
 90
        2
 70
     0
 43
0.2
 10
9.461217031258211
 20
-3.573446492438941
 42
1.0
 10
9.461217031258211
 20
-4.373446492438941
  0
ENDSEC
  0
SECTION
  2
OBJECTS
  0
DICTIONARY
  5
C
330
0
100
AcDbDictionary
281
     1
  3
ACAD_GROUP
350
D
  3
ACAD_LAYOUT
350
19
  3
ACAD_MLINESTYLE
350
16
  3
ACAD_PLOTSETTINGS
350
18
  3
ACAD_PLOTSTYLENAME
350
E
  3
AcDbVariableDictionary
350
E8
  3
AVE_ACITABLE
350
2A7
  0
DICTIONARY
  5
EA
330
1E
100
AcDbDictionary
280
     1
281
     1
  3
ACAD_SORTENTS
360
EB
  0
DICTIONARY
  5
D
102
{ACAD_REACTORS
330
C
102
}
330
C
100
AcDbDictionary
281
     1
  0
DICTIONARY
  5
19
102
{ACAD_REACTORS
330
C
102
}
330
C
100
AcDbDictionary
281
     1
  3
Layout1
350
1D
  3
Model
350
21
  0
DICTIONARY
  5
16
102
{ACAD_REACTORS
330
C
102
}
330
C
100
AcDbDictionary
281
     1
  3
Standard
350
17
  0
DICTIONARY
  5
18
102
{ACAD_REACTORS
330
C
102
}
330
C
100
AcDbDictionary
281
     1
  0
ACDBDICTIONARYWDFLT
  5
E
102
{ACAD_REACTORS
330
C
102
}
330
C
100
AcDbDictionary
281
     1
  3
Normal
350
F
100
AcDbDictionaryWithDefault
340
F
  0
DICTIONARY
  5
E8
102
{ACAD_REACTORS
330
C
102
}
330
C
100
AcDbDictionary
281
     1
  3
DIMASSOC
350
302
  3
SORTENTS
350
E9
  0
DICTIONARY
  5
2A7
102
{ACAD_REACTORS
330
C
102
}
330
C
100
AcDbDictionary
281
     1
  0
SORTENTSTABLE
  5
EB
102
{ACAD_REACTORS
330
EA
102
}
330
EA
100
AcDbSortentsTable
330
1E
331
7E
  5
85
331
3F
  5
3B
331
86
  5
96
331
B7
  5
1EF
331
29B
  5
29B
331
135
  5
E3
331
BF
  5
AF
331
13D
  5
F2
331
145
  5
104
331
CF
  5
BB
331
5F
  5
66
331
67
  5
6E
331
6F
  5
77
331
77
  5
80
331
98
  5
9C
331
14D
  5
135
331
155
  5
145
331
DF
  5
159
331
A0
  5
9F
331
2E3
  5
28
331
15D
  5
14C
331
A8
  5
15E
331
7F
  5
86
331
87
  5
15A
331
40
  5
54
331
50
  5
5D
331
B0
  5
A8
331
12E
  5
D7
331
C0
  5
D4
331
29C
  5
29C
331
146
  5
10B
331
60
  5
67
331
68
  5
6F
331
70
  5
78
331
14E
  5
13D
331
99
  5
9D
331
D8
  5
BE
331
156
  5
146
331
A1
  5
A0
331
15E
  5
14D
331
2FC
  5
2FC
331
78
  5
81
331
80
  5
87
331
41
  5
2C
331
51
  5
5E
331
B1
  5
D3
331
12F
  5
D8
331
C1
  5
3A
331
29D
  5
29D
331
147
  5
12E
331
59
  5
64
331
61
  5
68
331
69
  5
70
331
71
  5
79
331
D9
  5
BF
331
157
  5
147
331
A2
  5
A1
331
16F
  5
14E
331
79
  5
D2
331
81
  5
8B
331
42
  5
5C
331
52
  5
5F
331
B2
  5
39
331
130
  5
D9
331
1EF
  5
155
331
C2
  5
22F
331
29E
  5
29E
331
2A6
  5
2A6
331
CA
  5
38
331
5A
  5
32
331
62
  5
69
331
6A
  5
71
331
72
  5
7A
331
D2
  5
BC
331
93
  5
97
331
148
  5
12F
331
DA
  5
31
331
158
  5
148
331
A3
  5
37
331
22F
  5
156
331
7A
  5
82
331
82
  5
93
331
3B
  5
5B
331
43
  5
59
331
53
  5
60
331
F2
  5
2E3
331
B3
  5
16F
331
131
  5
DA
331
BB
  5
34
331
29F
  5
29F
331
CB
  5
B0
331
5B
  5
65
331
63
  5
6A
331
6B
  5
72
331
D3
  5
BD
331
94
  5
41
331
149
  5
130
331
DB
  5
157
331
159
  5
149
331
A4
  5
15D
331
AC
  5
33
331
83
  5
94
331
3C
  5
55
331
8B
  5
15C
331
44
  5
C0
331
54
  5
61
331
298
  5
298
331
132
  5
DB
331
BC
  5
AC
331
CC
  5
B2
331
5C
  5
CD
331
64
  5
6B
331
6C
  5
73
331
74
  5
7B
331
14A
  5
131
331
95
  5
98
331
10B
  5
D6
331
9D
  5
9E
331
15A
  5
14A
331
AD
  5
A2
331
3D
  5
C2
331
45
  5
C1
331
55
  5
62
331
299
  5
299
331
133
  5
DF
331
BD
  5
AD
331
104
  5
D5
331
CD
  5
B3
331
5D
  5
CF
331
65
  5
6C
331
6D
  5
74
331
75
  5
7C
331
96
  5
99
331
14B
  5
132
331
9E
  5
36
331
AE
  5
A3
331
7D
  5
83
331
3E
  5
D0
331
85
  5
95
331
46
  5
5A
331
56
  5
63
331
29A
  5
29A
331
BE
  5
AE
331
C6
  5
276
331
CE
  5
B7
331
5E
  5
CE
331
66
  5
6D
331
6E
  5
75
331
76
  5
7F
331
97
  5
9B
331
14C
  5
133
331
9F
  5
D1
331
2E2
  5
2E2
331
15C
  5
14B
331
AF
  5
A4
  0
LAYOUT
  5
1D
102
{ACAD_REACTORS
330
19
102
}
330
19
100
AcDbPlotSettings
  1

  2
HP LaserJet 5L PCL
  4

  6

 40
0.0
 41
0.0
 42
0.0
 43
0.0
 44
0.0
 45
0.0
 46
0.0
 47
0.0
 48
0.0
 49
0.0
140
0.0
141
0.0
142
1.0
143
1.0
 70
   688
 72
     0
 73
     0
 74
     5
  7

 75
    16
147
1.0
148
0.0
149
0.0
100
AcDbLayout
  1
Layout1
 70
     1
 71
     1
 10
0.0
 20
0.0
 11
12.0
 21
9.0
 12
0.0
 22
0.0
 32
0.0
 14
1.000000000000000E+20
 24
1.000000000000000E+20
 34
1.000000000000000E+20
 15
-1.000000000000000E+20
 25
-1.000000000000000E+20
 35
-1.000000000000000E+20
146
0.0
 13
0.0
 23
0.0
 33
0.0
 16
1.0
 26
0.0
 36
0.0
 17
0.0
 27
1.0
 37
0.0
 76
     0
330
1A
  0
LAYOUT
  5
21
102
{ACAD_REACTORS
330
19
102
}
330
19
100
AcDbPlotSettings
  1

  2
HP LaserJet 5L PCL
  4
A4
  6

 40
6.297083377838134
 41
7.143756389617919
 42
7.397750854492187
 43
7.14373779296875
 44
210.0579986572265
 45
296.9259948730469
 46
44.18
 47
71.62
 48
0.0
 49
0.0
140
0.0
141
0.0
142
1.0
143
0.25
 70
 11956
 72
     1
 73
     1
 74
     1
  7

 75
    28
147
4.0
148
-3.782970288096819
149
12.59364121113718
100
AcDbLayout
  1
Model
 70
     1
 71
     0
 10
0.0
 20
0.0
 11
12.0
 21
9.0
 12
0.0
 22
0.0
 32
0.0
 14
0.0
 24
0.0
 34
0.0
 15
0.0
 25
0.0
 35
0.0
146
0.0
 13
0.0
 23
0.0
 33
0.0
 16
1.0
 26
0.0
 36
0.0
 17
0.0
 27
1.0
 37
0.0
 76
     0
330
1E
  0
MLINESTYLE
  5
17
102
{ACAD_REACTORS
330
16
102
}
330
16
100
AcDbMlineStyle
  2
STANDARD
 70
     0
  3

 62
   256
 51
90.0
 52
90.0
 71
     2
 49
0.5
 62
   256
  6
BYLAYER
 49
-0.5
 62
   256
  6
BYLAYER
  0
ACDBPLACEHOLDER
  5
F
102
{ACAD_REACTORS
330
E
102
}
330
E
  0
DICTIONARYVAR
  5
302
102
{ACAD_REACTORS
330
E8
102
}
330
E8
100
DictionaryVariables
280
     0
  1
1
  0
DICTIONARYVAR
  5
E9
102
{ACAD_REACTORS
330
E8
102
}
330
E8
100
DictionaryVariables
280
     0
  1
127
  0
ENDSEC
  0
EOF
