  0
SECTION
  2
HEADER
  9
$ACADVER
  1
AC1018
  9
$ACADMAINTVER
 70
     0
  9
$DWGCODEPAGE
  3
ANSI_1252
  9
$INSBASE
 10
0.0
 20
0.0
 30
0.0
  9
$EXTMIN
 10
-2.150105310194078
 20
-20.96678105459208
 30
0.0
  9
$EXTMAX
 10
62.28871530578834
 20
22.41573214096481
 30
0.0
  9
$LIMMIN
 10
0.0
 20
0.0
  9
$LIMMAX
 10
12.0
 20
9.0
  9
$ORTHOMODE
 70
     0
  9
$REGENMODE
 70
     1
  9
$FILLMODE
 70
     1
  9
$QTEXTMODE
 70
     0
  9
$MIRRTEXT
 70
     1
  9
$LTSCALE
 40
1.0
  9
$ATTMODE
 70
     1
  9
$TEXTSIZE
 40
0.2
  9
$TRACEWID
 40
0.05
  9
$TEXTSTYLE
  7
Standard
  9
$CLAYER
  8
CONSTR
  9
$CELTYPE
  6
ByLayer
  9
$CECOLOR
 62
   256
  9
$CELTSCALE
 40
1.0
  9
$DISPSILH
 70
     0
  9
$DIMSCALE
 40
1.0
  9
$DIMASZ
 40
1.8
  9
$DIMEXO
 40
0.0625
  9
$DIMDLI
 40
0.38
  9
$DIMRND
 40
0.0
  9
$DIMDLE
 40
0.0
  9
$DIMEXE
 40
0.18
  9
$DIMTP
 40
0.0
  9
$DIMTM
 40
0.0
  9
$DIMTXT
 40
1.8
  9
$DIMCEN
 40
0.09
  9
$DIMTSZ
 40
0.0
  9
$DIMTOL
 70
     0
  9
$DIMLIM
 70
     0
  9
$DIMTIH
 70
     1
  9
$DIMTOH
 70
     1
  9
$DIMSE1
 70
     0
  9
$DIMSE2
 70
     0
  9
$DIMTAD
 70
     0
  9
$DIMZIN
 70
     0
  9
$DIMBLK
  1

  9
$DIMASO
 70
     1
  9
$DIMSHO
 70
     1
  9
$DIMPOST
  1

  9
$DIMAPOST
  1

  9
$DIMALT
 70
     0
  9
$DIMALTD
 70
     2
  9
$DIMALTF
 40
25.4
  9
$DIMLFAC
 40
1.0
  9
$DIMTOFL
 70
     0
  9
$DIMTVP
 40
0.0
  9
$DIMTIX
 70
     0
  9
$DIMSOXD
 70
     0
  9
$DIMSAH
 70
     0
  9
$DIMBLK1
  1

  9
$DIMBLK2
  1

  9
$DIMSTYLE
  2
Standard
  9
$DIMCLRD
 70
     0
  9
$DIMCLRE
 70
     0
  9
$DIMCLRT
 70
     0
  9
$DIMTFAC
 40
1.0
  9
$DIMGAP
 40
0.09
  9
$DIMJUST
 70
     0
  9
$DIMSD1
 70
     0
  9
$DIMSD2
 70
     0
  9
$DIMTOLJ
 70
     1
  9
$DIMTZIN
 70
     0
  9
$DIMALTZ
 70
     0
  9
$DIMALTTZ
 70
     0
  9
$DIMUPT
 70
     0
  9
$DIMDEC
 70
     4
  9
$DIMTDEC
 70
     4
  9
$DIMALTU
 70
     2
  9
$DIMALTTD
 70
     2
  9
$DIMTXSTY
  7
Standard
  9
$DIMAUNIT
 70
     0
  9
$DIMADEC
 70
     0
  9
$DIMALTRND
 40
0.0
  9
$DIMAZIN
 70
     0
  9
$DIMDSEP
 70
    46
  9
$DIMATFIT
 70
     3
  9
$DIMFRAC
 70
     0
  9
$DIMLDRBLK
  1

  9
$DIMLUNIT
 70
     2
  9
$DIMLWD
 70
    -2
  9
$DIMLWE
 70
    -2
  9
$DIMTMOVE
 70
     0
  9
$LUNITS
 70
     2
  9
$LUPREC
 70
     4
  9
$SKETCHINC
 40
0.1
  9
$FILLETRAD
 40
0.0
  9
$AUNITS
 70
     0
  9
$AUPREC
 70
     0
  9
$MENU
  1
.
  9
$ELEVATION
 40
0.0
  9
$PELEVATION
 40
0.0
  9
$THICKNESS
 40
0.0
  9
$LIMCHECK
 70
     0
  9
$CHAMFERA
 40
0.0
  9
$CHAMFERB
 40
0.0
  9
$CHAMFERC
 40
0.0
  9
$CHAMFERD
 40
0.0
  9
$SKPOLY
 70
     0
  9
$TDCREATE
 40
2452723.815870949
  9
$TDUCREATE
 40
2452723.774204283
  9
$TDUPDATE
 40
2454489.679492187
  9
$TDUUPDATE
 40
2454489.637825521
  9
$TDINDWG
 40
0.0531468866
  9
$TDUSRTIMER
 40
0.0531468866
  9
$USRTIMER
 70
     1
  9
$ANGBASE
 50
0.0
  9
$ANGDIR
 70
     0
  9
$PDMODE
 70
     0
  9
$PDSIZE
 40
0.0
  9
$PLINEWID
 40
0.0
  9
$SPLFRAME
 70
     0
  9
$SPLINETYPE
 70
     6
  9
$SPLINESEGS
 70
     8
  9
$HANDSEED
  5
5A1
  9
$SURFTAB1
 70
     6
  9
$SURFTAB2
 70
     6
  9
$SURFTYPE
 70
     6
  9
$SURFU
 70
     6
  9
$SURFV
 70
     6
  9
$UCSBASE
  2

  9
$UCSNAME
  2

  9
$UCSORG
 10
0.0
 20
0.0
 30
0.0
  9
$UCSXDIR
 10
1.0
 20
0.0
 30
0.0
  9
$UCSYDIR
 10
0.0
 20
1.0
 30
0.0
  9
$UCSORTHOREF
  2

  9
$UCSORTHOVIEW
 70
     0
  9
$UCSORGTOP
 10
0.0
 20
0.0
 30
0.0
  9
$UCSORGBOTTOM
 10
0.0
 20
0.0
 30
0.0
  9
$UCSORGLEFT
 10
0.0
 20
0.0
 30
0.0
  9
$UCSORGRIGHT
 10
0.0
 20
0.0
 30
0.0
  9
$UCSORGFRONT
 10
0.0
 20
0.0
 30
0.0
  9
$UCSORGBACK
 10
0.0
 20
0.0
 30
0.0
  9
$PUCSBASE
  2

  9
$PUCSNAME
  2

  9
$PUCSORG
 10
0.0
 20
0.0
 30
0.0
  9
$PUCSXDIR
 10
1.0
 20
0.0
 30
0.0
  9
$PUCSYDIR
 10
0.0
 20
1.0
 30
0.0
  9
$PUCSORTHOREF
  2

  9
$PUCSORTHOVIEW
 70
     0
  9
$PUCSORGTOP
 10
0.0
 20
0.0
 30
0.0
  9
$PUCSORGBOTTOM
 10
0.0
 20
0.0
 30
0.0
  9
$PUCSORGLEFT
 10
0.0
 20
0.0
 30
0.0
  9
$PUCSORGRIGHT
 10
0.0
 20
0.0
 30
0.0
  9
$PUCSORGFRONT
 10
0.0
 20
0.0
 30
0.0
  9
$PUCSORGBACK
 10
0.0
 20
0.0
 30
0.0
  9
$USERI1
 70
     0
  9
$USERI2
 70
     0
  9
$USERI3
 70
     0
  9
$USERI4
 70
     0
  9
$USERI5
 70
     0
  9
$USERR1
 40
0.0
  9
$USERR2
 40
0.0
  9
$USERR3
 40
0.0
  9
$USERR4
 40
0.0
  9
$USERR5
 40
0.0
  9
$WORLDVIEW
 70
     1
  9
$SHADEDGE
 70
     3
  9
$SHADEDIF
 70
    70
  9
$TILEMODE
 70
     1
  9
$MAXACTVP
 70
    64
  9
$PINSBASE
 10
0.0
 20
0.0
 30
0.0
  9
$PLIMCHECK
 70
     0
  9
$PEXTMIN
 10
1.000000000000000E+20
 20
1.000000000000000E+20
 30
1.000000000000000E+20
  9
$PEXTMAX
 10
-1.000000000000000E+20
 20
-1.000000000000000E+20
 30
-1.000000000000000E+20
  9
$PLIMMIN
 10
0.0
 20
0.0
  9
$PLIMMAX
 10
12.0
 20
9.0
  9
$UNITMODE
 70
     0
  9
$VISRETAIN
 70
     1
  9
$PLINEGEN
 70
     0
  9
$PSLTSCALE
 70
     1
  9
$TREEDEPTH
 70
  3020
  9
$CMLSTYLE
  2
Standard
  9
$CMLJUST
 70
     0
  9
$CMLSCALE
 40
1.0
  9
$PROXYGRAPHICS
 70
     1
  9
$MEASUREMENT
 70
     0
  9
$CELWEIGHT
370
    -1
  9
$ENDCAPS
280
     0
  9
$JOINSTYLE
280
     0
  9
$LWDISPLAY
290
     1
  9
$INSUNITS
 70
     0
  9
$HYPERLINKBASE
  1

  9
$STYLESHEET
  1

  9
$XEDIT
290
     1
  9
$CEPSNTYPE
380
     0
  9
$PSTYLEMODE
290
     0
  9
$FINGERPRINTGUID
  2
{BA126EAD-B9BC-49FE-ACB9-D2C5E1346469}
  9
$VERSIONGUID
  2
{CDE37B12-762E-48AC-AD13-743176D19B46}
  9
$EXTNAMES
290
     1
  9
$PSVPSCALE
 40
0.0
  9
$OLESTARTUP
290
     0
  9
$SORTENTS
280
   127
  9
$INDEXCTL
280
     0
  9
$HIDETEXT
280
     0
  9
$XCLIPFRAME
290
     0
  9
$HALOGAP
280
     0
  9
$OBSCOLOR
 70
   257
  9
$OBSLTYPE
280
     0
  9
$INTERSECTIONDISPLAY
280
     0
  9
$INTERSECTIONCOLOR
 70
   257
  9
$DIMASSOC
280
     1
  9
$PROJECTNAME
  1

  0
ENDSEC
  0
SECTION
  2
CLASSES
  0
CLASS
  1
ACDBDICTIONARYWDFLT
  2
AcDbDictionaryWithDefault
  3
ObjectDBX Classes
 90
        0
 91
        1
280
     0
281
     0
  0
CLASS
  1
SORTENTSTABLE
  2
AcDbSortentsTable
  3
ObjectDBX Classes
 90
        0
 91
        1
280
     0
281
     0
  0
CLASS
  1
DICTIONARYVAR
  2
AcDbDictionaryVar
  3
ObjectDBX Classes
 90
        0
 91
        2
280
     0
281
     0
  0
ENDSEC
  0
SECTION
  2
TABLES
  0
TABLE
  2
VPORT
  5
8
330
0
100
AcDbSymbolTable
 70
     2
  0
VPORT
  5
5A0
330
8
100
AcDbSymbolTableRecord
100
AcDbViewportTableRecord
  2
*Active
 70
     0
 10
0.0
 20
0.0
 11
1.0
 21
1.0
 12
29.90746788847994
 22
0.658133966514022
 13
0.0
 23
0.0
 14
1.0
 24
1.0
 15
0.0
 25
0.0
 16
0.0
 26
0.0
 36
1.0
 17
0.0
 27
0.0
 37
0.0
 40
43.87610104790032
 41
1.476132190942472
 42
50.0
 43
0.0
 44
0.0
 50
0.0
 51
0.0
 71
     0
 72
   100
 73
     1
 74
     2
 75
     0
 76
     0
 77
     0
 78
     0
281
     0
 65
     1
110
0.0
120
0.0
130
0.0
111
1.0
121
0.0
131
0.0
112
0.0
122
1.0
132
0.0
 79
     0
146
0.0
  0
ENDTAB
  0
TABLE
  2
LTYPE
  5
5
330
0
100
AcDbSymbolTable
 70
     2
  0
LTYPE
  5
13
330
5
100
AcDbSymbolTableRecord
100
AcDbLinetypeTableRecord
  2
ByBlock
 70
     0
  3

 72
    65
 73
     0
 40
0.0
  0
LTYPE
  5
14
330
5
100
AcDbSymbolTableRecord
100
AcDbLinetypeTableRecord
  2
ByLayer
 70
     0
  3

 72
    65
 73
     0
 40
0.0
  0
LTYPE
  5
15
330
5
100
AcDbSymbolTableRecord
100
AcDbLinetypeTableRecord
  2
Continuous
 70
     0
  3
Solid line
 72
    65
 73
     0
 40
0.0
  0
LTYPE
  5
16B
330
5
100
AcDbSymbolTableRecord
100
AcDbLinetypeTableRecord
  2
DASHED
 70
     0
  3
Dashed __ __ __ __ __ __ __ __ __ __ __ __ __ _
 72
    65
 73
     2
 40
0.75
 49
0.5
 74
     0
 49
-0.25
 74
     0
  0
ENDTAB
  0
TABLE
  2
LAYER
  5
2
330
0
100
AcDbSymbolTable
 70
     6
  0
LAYER
  5
10
330
2
100
AcDbSymbolTableRecord
100
AcDbLayerTableRecord
  2
0
 70
     0
 62
     7
  6
Continuous
370
    -3
390
F
  0
LAYER
  5
22
330
2
100
AcDbSymbolTableRecord
100
AcDbLayerTableRecord
  2
METAL1
 70
     0
 62
     7
  6
Continuous
370
    -3
390
F
  0
LAYER
  5
27
330
2
100
AcDbSymbolTableRecord
100
AcDbLayerTableRecord
  2
CONSTR
 70
     0
 62
  -109
  6
Continuous
370
    -3
390
F
  0
LAYER
  5
BD
330
2
100
AcDbSymbolTableRecord
100
AcDbLayerTableRecord
  2
GND
 70
     0
 62
   254
  6
Continuous
370
    -3
390
F
  0
LAYER
  5
127
330
2
100
AcDbSymbolTableRecord
100
AcDbLayerTableRecord
  2
ERROR
 70
     0
 62
    -1
  6
Continuous
370
    -3
390
F
  0
LAYER
  5
3A6
330
2
100
AcDbSymbolTableRecord
100
AcDbLayerTableRecord
  2
Defpoints
 70
     0
 62
     7
  6
Continuous
290
     0
370
    -3
390
F
  0
ENDTAB
  0
TABLE
  2
STYLE
  5
3
330
0
100
AcDbSymbolTable
 70
     1
  0
STYLE
  5
11
330
3
100
AcDbSymbolTableRecord
100
AcDbTextStyleTableRecord
  2
Standard
 70
     0
 40
0.0
 41
1.0
 50
0.0
 71
     0
 42
0.2
  3
txt
  4

  0
ENDTAB
  0
TABLE
  2
VIEW
  5
6
330
0
100
AcDbSymbolTable
 70
     0
  0
ENDTAB
  0
TABLE
  2
UCS
  5
7
330
0
100
AcDbSymbolTable
 70
     0
  0
ENDTAB
  0
TABLE
  2
APPID
  5
9
330
0
100
AcDbSymbolTable
 70
     1
  0
APPID
  5
12
330
9
100
AcDbSymbolTableRecord
100
AcDbRegAppTableRecord
  2
ACAD
 70
     0
  0
ENDTAB
  0
TABLE
  2
DIMSTYLE
  5
A
330
0
100
AcDbSymbolTable
 70
     1
100
AcDbDimStyleTable
 71
     1
340
12C
  0
DIMSTYLE
105
12C
102
{ACAD_REACTORS
330
3AF
330
3B0
102
}
330
A
100
AcDbSymbolTableRecord
100
AcDbDimStyleTableRecord
  2
Standard
 70
     0
 41
1.8
140
1.8
340
11
  0
ENDTAB
  0
TABLE
  2
BLOCK_RECORD
  5
1
330
0
100
AcDbSymbolTable
 70
    10
  0
BLOCK_RECORD
  5
1E
102
{ACAD_XDICTIONARY
360
12F
102
}
330
1
100
AcDbSymbolTableRecord
100
AcDbBlockTableRecord
  2
*Model_Space
340
21
  0
BLOCK_RECORD
  5
1A
330
1
100
AcDbSymbolTableRecord
100
AcDbBlockTableRecord
  2
*Paper_Space
340
1D
  0
BLOCK_RECORD
  5
13E
330
1
100
AcDbSymbolTableRecord
100
AcDbBlockTableRecord
  2
Inductor
340
0
310
280000002000000020000000010004000000000000020000000000000000000000000000000000000000000000008000008000000080800080000000800080008080000080808000C0C0C0000000FF0000FF000000FFFF00FF000000FF00FF00FFFF0000FFFFFF00FFFFFFFFFFFFFFFFFFFFFFFFFFFFFFFFFFFFFFFFFFFFFF
310
FFFFFFFFFFFFFFFFFFFFFFFFFFFFFFFFFFFFFFFFFFFFFFFFFFFFFFFFFFFFFFFFFFFFFFFFFFFFFFFFFFFFFFFFFFFFFFFFFFFFFFFFFFFFFFFFFFFFFFFFFFFFFFFFFFFFFFFFFFFFFFFFFFFFFFFFFFFFFFFFFFFFFFFFFFFFFFFFFFFFFFFFFFFFFFFFFFFFFFFFFFFFFFFFFFFFFFFFFFFFFFFFFFFFFFFFFFFFFFFFFFFFFFFFFFFFFF
310
FFFFFFFFFFFFFFFFFFFFFFFFFFFFFFFFFFFFFFFFFFFFFFFFFFFFFFFFFFFFFFFFFFFFFFFFFFFFFFFFFFFF0000FFFFFFFF0FFFFFF0FFFFFFF0000FFFF0FFFFFFF00FFFFFF0FFFFFFF0FFFFFFF0FFFFFFF00FFFFFF00FFFFFFF0FFFFFF0FFFFFFF00FFFFF0F0FFFFFFF0FFFFFF0FFFFFFF0F0FFFF0F0FFFFFFF0FFFFFFF0FFFFF
310
F00FFFFFF00FFFFFF0FFFFFFFF0FFFFFF00FFFFFF0FFFFFF0FFFFFFFFFF0FFFFF0F0FFFF0F0FFFFF0FFFFFFFFFFF00000FFF0000FFF00000FFFFFFFFFFFFFFFFFFFFFFFFFFFFFFFFFFFFFFFFFFFFFFFFFFFFFFFFFFFFFFFFFFFFFFFFFFFFFFFFFFFFFFFFFFFFFFFFFFFFFFFFFFFFFFFFFFFFFFFFFFFFFFFFFFFFFFFFFFFFFF
310
FFFFFFFFFFFFFFFFFFFFFFFFFFFFFFFFFFFFFFFFFFFFFFFFFFFFFFFFFFFFFFFFFFFFFFFFFFFFFFFFFFFFFFFFFFFFFFFFFFFFFFFFFFFFFFFFFFFFFFFFFFFFFFFFFFFFFFFFFFFFFFFFFFFFFFFFFFFFFFFFFFFFFFFFFFFFFFFFFFFFFFFFFFFFFFFFFFFFFFFFFFFFFFFFFFFFFFFF
102
{BLKREFS
331
14C
102
}
1001
ACAD
1000
DesignCenter Data
1002
{
1070
     1
1070
     1
1002
}
  0
BLOCK_RECORD
  5
146
330
1
100
AcDbSymbolTableRecord
100
AcDbBlockTableRecord
  2
conpoint
340
0
310
28000000200000002000000001000800000000000004000000000000000000000000000000000000000000004000000080000000FF000000002000004020000080200000FF200000004000004040000080400000FF400000006000004060000080600000FF600000008000004080000080800000FF80000000A0000040A000
310
0080A00000FFA0000000C0000040C0000080C00000FFC0000000FF000040FF000080FF0000FFFF0000000020004000200080002000FF002000002020004020200080202000FF202000004020004040200080402000FF402000006020004060200080602000FF602000008020004080200080802000FF80200000A0200040A0
310
200080A02000FFA0200000C0200040C0200080C02000FFC0200000FF200040FF200080FF2000FFFF2000000040004000400080004000FF004000002040004020400080204000FF204000004040004040400080404000FF404000006040004060400080604000FF604000008040004080400080804000FF80400000A0400040
310
A0400080A04000FFA0400000C0400040C0400080C04000FFC0400000FF400040FF400080FF4000FFFF4000000060004000600080006000FF006000002060004020600080206000FF206000004060004040600080406000FF406000006060004060600080606000FF606000008060004080600080806000FF80600000A06000
310
40A0600080A06000FFA0600000C0600040C0600080C06000FFC0600000FF600040FF600080FF6000FFFF6000000080004000800080008000FF008000002080004020800080208000FF208000004080004040800080408000FF408000006080004060800080608000FF608000008080004080800080808000FF80800000A080
310
0040A0800080A08000FFA0800000C0800040C0800080C08000FFC0800000FF800040FF800080FF8000FFFF80000000A0004000A0008000A000FF00A0000020A0004020A0008020A000FF20A0000040A0004040A0008040A000FF40A0000060A0004060A0008060A000FF60A0000080A0004080A0008080A000FF80A00000A0
310
A00040A0A00080A0A000FFA0A00000C0A00040C0A00080C0A000FFC0A00000FFA00040FFA00080FFA000FFFFA0000000C0004000C0008000C000FF00C0000020C0004020C0008020C000FF20C0000040C0004040C0008040C000FF40C0000060C0004060C0008060C000FF60C0000080C0004080C0008080C000FF80C00000
310
A0C00040A0C00080A0C000FFA0C00000C0C00040C0C00080C0C000FFC0C00000FFC00040FFC00080FFC000FFFFC0000000FF004000FF008000FF00FF00FF000020FF004020FF008020FF00FF20FF000040FF004040FF008040FF00FF40FF000060FF004060FF008060FF00FF60FF000080FF004080FF008080FF00FF80FF00
310
00A0FF0040A0FF0080A0FF00FFA0FF0000C0FF0040C0FF0080C0FF00FFC0FF0000FFFF0040FFFF0080FFFF00FFFFFF000000000000000000000000000000000000000000000000000000000000000000000000000000000000000000000000FFFFFF000000000000000000000000000000000000000000000000FFFFFFFFFF
310
FF00FFFFFF0000000000000000000000000000000000000000FFFF0000FFFF0000000000FFFFFFFF00000000000000000000000000000000FF0000FFFF000000000000000000FFFFFFFF00000000000000000000000000FF00FFFF00000000000000000000000000FFFFFF0000000000000000000000FFFFFF000000000000
310
0000000000000000000000FFFF000000000000000000FF00FF00000000000000000000000000000000000000FFFF0000000000000000FFFF0000000000000000000000000000000000000000FFFF00000000000000FF00FF000000000000000000000000000000000000000000FFFF000000000000FFFF0000000000000000
310
0000000000000000000000000000FF00FF00000000FF00FF0000000000000000000000000000000000000000000000FFFF00000000FFFF000000000000000000000000000000000000000000000000FFFF00000000FFFF00000000000000000000000000000000000000000000000000FF000000FFFF000000000000000000
310
0000000000000000000000000000000000FF000000FFFF000000000000000000000000000000000000000000000000000000FF0000FF00000000000000000000000000000000000000000000000000000000FF0000FFFF0000000000000000000000000000000000000000000000000000FFFF000000FF0000000000000000
310
000000000000000000000000000000000000FF00000000FFFF000000000000000000000000000000000000000000000000FFFF00000000FFFF000000000000000000000000000000000000000000000000FFFF0000000000FFFF00000000000000000000000000000000000000000000FF00FF0000000000FFFF0000000000
310
0000000000000000000000000000000000FFFF00000000000000FFFF0000000000000000000000000000000000000000FFFF0000000000000000FFFF0000000000000000000000000000000000000000FFFF000000000000000000FFFF000000000000000000000000000000000000FFFF0000000000000000000000FFFFFF
310
0000000000000000000000000000FFFFFF00000000000000000000000000FF00FFFF00000000000000000000FFFFFFFF000000000000000000000000000000FFFF00FFFF000000000000FFFFFFFF00000000000000000000000000000000000000FFFFFFFFFF0000FFFFFFFF00000000000000000000000000000000000000
310
00000000000000FFFFFF00000000000000000000000000000000000000000000000000000000000000000000000000000000000000000000
102
{BLKREFS
331
14D
331
14E
102
}
1001
ACAD
1000
DesignCenter Data
1002
{
1070
     1
1070
     1
1002
}
  0
BLOCK_RECORD
  5
14B
330
1
100
AcDbSymbolTableRecord
100
AcDbBlockTableRecord
  2
ind
340
0
310
28000000200000002000000001000800000000000004000000000000000000000000000000000000000000004000000080000000FF000000002000004020000080200000FF200000004000004040000080400000FF400000006000004060000080600000FF600000008000004080000080800000FF80000000A0000040A000
310
0080A00000FFA0000000C0000040C0000080C00000FFC0000000FF000040FF000080FF0000FFFF0000000020004000200080002000FF002000002020004020200080202000FF202000004020004040200080402000FF402000006020004060200080602000FF602000008020004080200080802000FF80200000A0200040A0
310
200080A02000FFA0200000C0200040C0200080C02000FFC0200000FF200040FF200080FF2000FFFF2000000040004000400080004000FF004000002040004020400080204000FF204000004040004040400080404000FF404000006040004060400080604000FF604000008040004080400080804000FF80400000A0400040
310
A0400080A04000FFA0400000C0400040C0400080C04000FFC0400000FF400040FF400080FF4000FFFF4000000060004000600080006000FF006000002060004020600080206000FF206000004060004040600080406000FF406000006060004060600080606000FF606000008060004080600080806000FF80600000A06000
310
40A0600080A06000FFA0600000C0600040C0600080C06000FFC0600000FF600040FF600080FF6000FFFF6000000080004000800080008000FF008000002080004020800080208000FF208000004080004040800080408000FF408000006080004060800080608000FF608000008080004080800080808000FF80800000A080
310
0040A0800080A08000FFA0800000C0800040C0800080C08000FFC0800000FF800040FF800080FF8000FFFF80000000A0004000A0008000A000FF00A0000020A0004020A0008020A000FF20A0000040A0004040A0008040A000FF40A0000060A0004060A0008060A000FF60A0000080A0004080A0008080A000FF80A00000A0
310
A00040A0A00080A0A000FFA0A00000C0A00040C0A00080C0A000FFC0A00000FFA00040FFA00080FFA000FFFFA0000000C0004000C0008000C000FF00C0000020C0004020C0008020C000FF20C0000040C0004040C0008040C000FF40C0000060C0004060C0008060C000FF60C0000080C0004080C0008080C000FF80C00000
310
A0C00040A0C00080A0C000FFA0C00000C0C00040C0C00080C0C000FFC0C00000FFC00040FFC00080FFC000FFFFC0000000FF004000FF008000FF00FF00FF000020FF004020FF008020FF00FF20FF000040FF004040FF008040FF00FF40FF000060FF004060FF008060FF00FF60FF000080FF004080FF008080FF00FF80FF00
310
00A0FF0040A0FF0080A0FF00FFA0FF0000C0FF0040C0FF0080C0FF00FFC0FF0000FFFF0040FFFF0080FFFF00FFFFFF0000000000000000000000000000000000000000000000000000000000000000000000000000000000000000000000000000FFFF00000000000000000000000000000000000000000000000000000000
310
00FFFFFFFF00000000000000000000000000000000000000000000000000000000FF0000FF00000000000000000000000000000000000000000000000000000000FFFFFFFF000000000000000000000000000000000000000000000000000000000000FF000000000000000000000000000000000000000000000000000000
310
FFFFFFFFFF0000000000000000000000000000000000000000000000000000FF00000000FF00000000000000000000000000000000000000000000000000FF00000000000000000000000000000000000000000000000000000000000000FF00000000000000000000000000000000000000000000000000000000000000FF
310
00000000000000000000000000000000000000000000000000000000000000FF0000000000000000000000000000000000000000000000000000000000000000FFFFFFFFFF000000000000000000000000000000000000000000000000000000FFFFFFFFFFFF00000000000000000000000000000000000000000000000000
310
FF00000000000000000000000000000000000000000000000000000000000000FF00000000000000000000000000000000000000000000000000000000000000FF00000000000000000000000000000000000000000000000000000000000000FF000000000000000000000000000000000000000000000000000000000000
310
0000FFFFFFFFFFFF0000000000000000000000000000000000000000000000000000FFFFFFFFFF0000000000000000000000000000000000000000000000000000FF00000000000000000000000000000000000000000000000000000000000000FF0000000000000000000000000000000000000000000000000000000000
310
0000FF00000000000000000000000000000000000000000000000000000000000000FF0000000000000000000000000000000000000000000000000000000000000000FF00000000FF000000000000000000000000000000000000000000000000000000FFFFFFFFFF00000000000000000000000000000000000000000000
310
000000000000000000FF0000000000000000000000000000000000000000000000000000000000FFFFFFFF00000000000000000000000000000000000000000000000000000000FF0000FF00000000000000000000000000000000000000000000000000000000FFFFFFFF0000000000000000000000000000000000000000
310
000000000000000000FFFF000000000000000000000000000000000000000000000000000000000000000000000000000000000000000000
102
{BLKREFS
331
152
102
}
1001
ACAD
1000
DesignCenter Data
1002
{
1070
     1
1070
     1
1002
}
  0
BLOCK_RECORD
  5
151
330
1
100
AcDbSymbolTableRecord
100
AcDbBlockTableRecord
  2
rfc
340
0
310
28000000200000002000000001000800000000000004000000000000000000000000000000000000000000004000000080000000FF000000002000004020000080200000FF200000004000004040000080400000FF400000006000004060000080600000FF600000008000004080000080800000FF80000000A0000040A000
310
0080A00000FFA0000000C0000040C0000080C00000FFC0000000FF000040FF000080FF0000FFFF0000000020004000200080002000FF002000002020004020200080202000FF202000004020004040200080402000FF402000006020004060200080602000FF602000008020004080200080802000FF80200000A0200040A0
310
200080A02000FFA0200000C0200040C0200080C02000FFC0200000FF200040FF200080FF2000FFFF2000000040004000400080004000FF004000002040004020400080204000FF204000004040004040400080404000FF404000006040004060400080604000FF604000008040004080400080804000FF80400000A0400040
310
A0400080A04000FFA0400000C0400040C0400080C04000FFC0400000FF400040FF400080FF4000FFFF4000000060004000600080006000FF006000002060004020600080206000FF206000004060004040600080406000FF406000006060004060600080606000FF606000008060004080600080806000FF80600000A06000
310
40A0600080A06000FFA0600000C0600040C0600080C06000FFC0600000FF600040FF600080FF6000FFFF6000000080004000800080008000FF008000002080004020800080208000FF208000004080004040800080408000FF408000006080004060800080608000FF608000008080004080800080808000FF80800000A080
310
0040A0800080A08000FFA0800000C0800040C0800080C08000FFC0800000FF800040FF800080FF8000FFFF80000000A0004000A0008000A000FF00A0000020A0004020A0008020A000FF20A0000040A0004040A0008040A000FF40A0000060A0004060A0008060A000FF60A0000080A0004080A0008080A000FF80A00000A0
310
A00040A0A00080A0A000FFA0A00000C0A00040C0A00080C0A000FFC0A00000FFA00040FFA00080FFA000FFFFA0000000C0004000C0008000C000FF00C0000020C0004020C0008020C000FF20C0000040C0004040C0008040C000FF40C0000060C0004060C0008060C000FF60C0000080C0004080C0008080C000FF80C00000
310
A0C00040A0C00080A0C000FFA0C00000C0C00040C0C00080C0C000FFC0C00000FFC00040FFC00080FFC000FFFFC0000000FF004000FF008000FF00FF00FF000020FF004020FF008020FF00FF20FF000040FF004040FF008040FF00FF40FF000060FF004060FF008060FF00FF60FF000080FF004080FF008080FF00FF80FF00
310
00A0FF0040A0FF0080A0FF00FFA0FF0000C0FF0040C0FF0080C0FF00FFC0FF0000FFFF0040FFFF0080FFFF00FFFFFF00000000000000000000000000000000000000000000000000000000000000000000000000000000000000000000000000000000FFFF0000000000000000000000000000000000000000000000000000
310
000000FFFFFFFF00000000000000000000000000000000000000000000000000000000FF0000FF00000000000000000000000000000000000000000000000000000000FFFFFFFF0000000000000000000000000000000000000000000000000000000000FF0000000000000000000000000000000000000000000000000000
310
00FFFFFFFFFF00000000000000000000000000000000000000000000FFFFFF00FFFF000000FF00000000000000000000000000000000000000000000FF00FF00FF000000000000000000000000000000000000000000000000000000FF00FFFF00000000000000000000000000000000000000000000000000000000FF00FF
310
FF00000000000000000000000000000000000000000000000000000000FFFFFFFFFF000000000000000000000000000000000000000000000000000000FFFFFF00FFFFFFFFFFFF00000000000000000000000000000000000000000000FFFFFF00FFFFFFFFFFFF00000000000000000000000000000000000000000000FFFF
310
FFFFFF000000000000000000000000000000000000000000000000000000FFFFFFFF00000000000000000000000000000000000000000000000000000000FFFFFFFF00000000000000000000000000000000000000000000000000000000FFFFFFFFFF000000000000000000000000000000000000000000000000000000FF
310
FFFF00FFFFFFFFFFFF00000000000000000000000000000000000000000000FFFFFF00FFFFFFFFFFFF00000000000000000000000000000000000000000000FF00FFFFFF000000000000000000000000000000000000000000000000000000FF00FFFF00000000000000000000000000000000000000000000000000000000
310
FF00FFFF00000000000000000000000000000000000000000000000000000000FF00FF00FF000000000000000000000000000000000000000000000000000000FFFFFF00FFFF000000FF000000000000000000000000000000000000000000000000000000FFFFFFFFFF000000000000000000000000000000000000000000
310
00000000000000000000FF000000000000000000000000000000000000000000000000000000000000FFFFFF0000000000000000000000000000000000000000000000000000000000FF00FFFF00000000000000000000000000000000000000000000000000000000FF00FF00000000000000000000000000000000000000
310
0000000000000000000000FF0000000000000000000000000000000000000000000000000000000000000000000000000000000000000000
102
{BLKREFS
331
306
331
503
331
569
102
}
1001
ACAD
1000
DesignCenter Data
1002
{
1070
     1
1070
     1
1002
}
  0
BLOCK_RECORD
  5
157
330
1
100
AcDbSymbolTableRecord
100
AcDbBlockTableRecord
  2
elkon
340
0
310
28000000200000002000000001000800000000000004000000000000000000000000000000000000000000004000000080000000FF000000002000004020000080200000FF200000004000004040000080400000FF400000006000004060000080600000FF600000008000004080000080800000FF80000000A0000040A000
310
0080A00000FFA0000000C0000040C0000080C00000FFC0000000FF000040FF000080FF0000FFFF0000000020004000200080002000FF002000002020004020200080202000FF202000004020004040200080402000FF402000006020004060200080602000FF602000008020004080200080802000FF80200000A0200040A0
310
200080A02000FFA0200000C0200040C0200080C02000FFC0200000FF200040FF200080FF2000FFFF2000000040004000400080004000FF004000002040004020400080204000FF204000004040004040400080404000FF404000006040004060400080604000FF604000008040004080400080804000FF80400000A0400040
310
A0400080A04000FFA0400000C0400040C0400080C04000FFC0400000FF400040FF400080FF4000FFFF4000000060004000600080006000FF006000002060004020600080206000FF206000004060004040600080406000FF406000006060004060600080606000FF606000008060004080600080806000FF80600000A06000
310
40A0600080A06000FFA0600000C0600040C0600080C06000FFC0600000FF600040FF600080FF6000FFFF6000000080004000800080008000FF008000002080004020800080208000FF208000004080004040800080408000FF408000006080004060800080608000FF608000008080004080800080808000FF80800000A080
310
0040A0800080A08000FFA0800000C0800040C0800080C08000FFC0800000FF800040FF800080FF8000FFFF80000000A0004000A0008000A000FF00A0000020A0004020A0008020A000FF20A0000040A0004040A0008040A000FF40A0000060A0004060A0008060A000FF60A0000080A0004080A0008080A000FF80A00000A0
310
A00040A0A00080A0A000FFA0A00000C0A00040C0A00080C0A000FFC0A00000FFA00040FFA00080FFA000FFFFA0000000C0004000C0008000C000FF00C0000020C0004020C0008020C000FF20C0000040C0004040C0008040C000FF40C0000060C0004060C0008060C000FF60C0000080C0004080C0008080C000FF80C00000
310
A0C00040A0C00080A0C000FFA0C00000C0C00040C0C00080C0C000FFC0C00000FFC00040FFC00080FFC000FFFFC0000000FF004000FF008000FF00FF00FF000020FF004020FF008020FF00FF20FF000040FF004040FF008040FF00FF40FF000060FF004060FF008060FF00FF60FF000080FF004080FF008080FF00FF80FF00
310
00A0FF0040A0FF0080A0FF00FFA0FF0000C0FF0040C0FF0080C0FF00FFC0FF0000FFFF0040FFFF0080FFFF00FFFFFF000000000000000000000000000000000000000000000000000000000000000000000000000000000000000000000000FF00000000000000000000000000000000000000000000000000000000000000
310
FF00000000000000000000000000000000000000000000000000000000000000FF00000000000000000000000000000000000000000000000000000000000000FF00000000000000000000000000000000000000000000000000000000000000FF000000000000000000000000000000000000000000000000000000000000
310
00FF00000000000000000000000000000000000000000000000000000000000000FF00000000000000000000000000000000000000000000000000000000000000FF00000000000000000000000000000000000000000000000000000000000000FF0000000000000000000000000000000000000000000000000000000000
310
0000FF00000000000000000000000000000000000000000000000000000000000000FF0000000000000000000000000000000000000000FFFFFFFFFFFFFFFFFFFFFFFFFFFFFFFFFFFFFFFFFFFFFFFF0000000000000000FF00000000000000000000000000000000000000000000FF0000000000000000FF00000000000000
310
000000000000000000000000000000FF0000000000000000FFFFFFFFFFFFFFFFFFFFFFFFFFFFFFFFFFFFFFFFFFFFFFFF00000000000000000000000000000000000000000000000000000000000000000000000000000000FFFFFFFFFFFFFFFFFFFFFFFFFFFFFFFFFFFFFFFFFFFFFFFF0000000000000000FF0000FFFFFFFF
310
FFFF000000000000FFFFFFFFFFFF0000FF0000000000000000FF0000000000FFFFFFFFFFFFFFFFFFFFFF000000000000FF0000000000000000FFFFFFFFFFFFFFFFFFFFFFFFFFFFFFFFFFFFFFFFFFFFFFFF00000000000000000000000000000000000000FF0000000000000000000000000000000000000000000000000000
310
0000000000FF00000000000000000000000000000000000000000000000000000000000000FF00000000000000000000000000000000000000000000000000000000000000FF00000000000000000000000000000000000000000000000000000000000000FF00000000000000000000000000000000000000000000000000
310
000000000000FF00000000000000000000000000000000000000000000000000000000000000FF00000000000000000000000000000000000000000000000000000000000000FF00000000000000000000000000000000000000000000000000000000000000FF000000000000000000000000000000000000000000000000
310
00000000000000FF000000000000000000000000000000000000000000000000000000000000000000000000000000000000000000000000
102
{BLKREFS
331
304
331
305
331
501
331
502
102
}
  0
BLOCK_RECORD
  5
15F
330
1
100
AcDbSymbolTableRecord
100
AcDbBlockTableRecord
  2
tri
340
0
310
28000000200000002000000001000800000000000004000000000000000000000000000000000000000000004000000080000000FF000000002000004020000080200000FF200000004000004040000080400000FF400000006000004060000080600000FF600000008000004080000080800000FF80000000A0000040A000
310
0080A00000FFA0000000C0000040C0000080C00000FFC0000000FF000040FF000080FF0000FFFF0000000020004000200080002000FF002000002020004020200080202000FF202000004020004040200080402000FF402000006020004060200080602000FF602000008020004080200080802000FF80200000A0200040A0
310
200080A02000FFA0200000C0200040C0200080C02000FFC0200000FF200040FF200080FF2000FFFF2000000040004000400080004000FF004000002040004020400080204000FF204000004040004040400080404000FF404000006040004060400080604000FF604000008040004080400080804000FF80400000A0400040
310
A0400080A04000FFA0400000C0400040C0400080C04000FFC0400000FF400040FF400080FF4000FFFF4000000060004000600080006000FF006000002060004020600080206000FF206000004060004040600080406000FF406000006060004060600080606000FF606000008060004080600080806000FF80600000A06000
310
40A0600080A06000FFA0600000C0600040C0600080C06000FFC0600000FF600040FF600080FF6000FFFF6000000080004000800080008000FF008000002080004020800080208000FF208000004080004040800080408000FF408000006080004060800080608000FF608000008080004080800080808000FF80800000A080
310
0040A0800080A08000FFA0800000C0800040C0800080C08000FFC0800000FF800040FF800080FF8000FFFF80000000A0004000A0008000A000FF00A0000020A0004020A0008020A000FF20A0000040A0004040A0008040A000FF40A0000060A0004060A0008060A000FF60A0000080A0004080A0008080A000FF80A00000A0
310
A00040A0A00080A0A000FFA0A00000C0A00040C0A00080C0A000FFC0A00000FFA00040FFA00080FFA000FFFFA0000000C0004000C0008000C000FF00C0000020C0004020C0008020C000FF20C0000040C0004040C0008040C000FF40C0000060C0004060C0008060C000FF60C0000080C0004080C0008080C000FF80C00000
310
A0C00040A0C00080A0C000FFA0C00000C0C00040C0C00080C0C000FFC0C00000FFC00040FFC00080FFC000FFFFC0000000FF004000FF008000FF00FF00FF000020FF004020FF008020FF00FF20FF000040FF004040FF008040FF00FF40FF000060FF004060FF008060FF00FF60FF000080FF004080FF008080FF00FF80FF00
310
00A0FF0040A0FF0080A0FF00FFA0FF0000C0FF0040C0FF0080C0FF00FFC0FF0000FFFF0040FFFF0080FFFF00FFFFFF0000000000000000000000000000000000000000000000000000000000000000000000000000000000000000FF00000000000000000000000000000000000000000000000000000000000000FFFF0000
310
0000000000000000000000000000000000000000000000000000FFFF0000FF00000000000000000000000000000000000000000000000000FFFF0000000000FF0000000000000000000000000000000000000000000000FF0000000000000000FF000000000000000000000000000000000000000000FF0000000000000000
310
0000FF00000000000000000000000000000000000000FF000000000000000000000000FF000000000000000000000000000000000000FF00000000000000000000000000FF00000000000000000000000000000000FF000000000000000000000000000000FF000000000000000000000000000000FF000000000000000000
310
00000000000000FF00000000000000000000000000FF000000000000000000000000000000000000FF000000000000000000000000FF00000000000000000000000000000000000000FF00000000000000000000FF000000000000000000000000000000000000000000FF000000000000000000FF00000000000000000000
310
000000000000000000000000FF0000000000000000FF0000000000000000000000000000000000000000000000FF00000000000000FF000000000000000000000000000000000000000000000000FF000000000000FF00000000000000000000000000000000000000000000000000FF000000000000FF0000000000000000
310
0000000000000000000000000000000000FF0000000000FF0000000000000000000000000000000000000000000000000000FF00000000FF0000000000000000000000000000000000000000000000000000FFFF00000000FF00000000000000000000000000000000000000000000000000FF0000000000FF000000000000
310
000000000000000000000000000000000000FF00000000000000FF0000000000000000000000000000000000000000000000FF0000000000000000FF000000000000000000000000000000000000000000FF00000000000000000000FF00000000000000000000000000000000000000FF000000000000000000000000FF00
310
00000000000000000000000000000000FF0000000000000000000000000000FF0000000000000000000000000000FFFF00000000000000000000000000000000FFFF0000000000000000000000FF0000000000000000000000000000000000000000FFFFFFFFFFFFFFFFFFFFFF000000000000000000000000000000000000
310
0000000000000000000000000000000000000000000000000000000000000000000000000000000000000000000000000000000000000000
102
{BLKREFS
331
30C
331
509
102
}
  0
BLOCK_RECORD
  5
164
330
1
100
AcDbSymbolTableRecord
100
AcDbBlockTableRecord
  2
A$C7F5B3850
340
0
  0
BLOCK_RECORD
  5
2D9
330
1
100
AcDbSymbolTableRecord
100
AcDbBlockTableRecord
  2
A$C79166BDB
340
0
  0
BLOCK_RECORD
  5
3B1
330
1
100
AcDbSymbolTableRecord
100
AcDbBlockTableRecord
  2
*D8
340
0
  0
BLOCK_RECORD
  5
3BE
330
1
100
AcDbSymbolTableRecord
100
AcDbBlockTableRecord
  2
*D9
340
0
  0
ENDTAB
  0
ENDSEC
  0
SECTION
  2
BLOCKS
  0
BLOCK
  5
1F
330
1E
100
AcDbEntity
  8
0
100
AcDbBlockBegin
  2
*Model_Space
 70
     0
 10
0.0
 20
0.0
 30
0.0
  3
*Model_Space
  1

  0
ENDBLK
  5
20
330
1E
100
AcDbEntity
  8
0
100
AcDbBlockEnd
  0
BLOCK
  5
1B
330
1A
100
AcDbEntity
 67
     1
  8
0
100
AcDbBlockBegin
  2
*Paper_Space
 70
     0
 10
0.0
 20
0.0
 30
0.0
  3
*Paper_Space
  1

  0
ENDBLK
  5
1C
330
1A
100
AcDbEntity
 67
     1
  8
0
100
AcDbBlockEnd
  0
BLOCK
  5
144
330
13E
100
AcDbEntity
  8
0
100
AcDbBlockBegin
  2
Inductor
 70
     2
 10
0.0
 20
0.0
 30
0.0
  3
Inductor
  1
INDUCTOR
  4
DesignCenter Basic Electronics example
  0
LINE
  5
13F
330
13E
100
AcDbEntity
  8
0
 62
     7
100
AcDbLine
 10
0.3500000000000001
 20
0.0
 30
0.0
 11
0.3999999999999999
 21
0.0
 31
0.0
  0
ARC
  5
140
330
13E
100
AcDbEntity
  8
0
 62
     7
100
AcDbCircle
 10
0.2999999999999998
 20
0.0374999999999997
 30
0.0
 40
0.0625
100
AcDbArc
 50
323.1301
 51
216.8699
  0
LINE
  5
141
330
13E
100
AcDbEntity
  8
0
 62
     7
100
AcDbLine
 10
0.0
 20
0.0
 30
0.0
 11
0.0499999999999998
 21
0.0
 31
0.0
  0
ARC
  5
142
330
13E
100
AcDbEntity
  8
0
 62
     7
100
AcDbCircle
 10
0.1000000000000001
 20
0.0374999999999997
 30
0.0
 40
0.0625
100
AcDbArc
 50
323.1301
 51
216.8699
  0
ARC
  5
143
330
13E
100
AcDbEntity
  8
0
 62
     7
100
AcDbCircle
 10
0.2000000000000002
 20
0.0374999999999997
 30
0.0
 40
0.0625
100
AcDbArc
 50
323.1301
 51
216.8699
  0
ENDBLK
  5
145
330
13E
100
AcDbEntity
  8
0
100
AcDbBlockEnd
  0
BLOCK
  5
149
330
146
100
AcDbEntity
  8
0
100
AcDbBlockBegin
  2
conpoint
 70
     0
 10
0.0
 20
0.0
 30
0.0
  3
conpoint
  1

  0
HATCH
  5
147
330
146
100
AcDbEntity
  8
0
100
AcDbHatch
 10
0.0
 20
0.0
 30
0.0
210
0.0
220
0.0
230
1.0
  2
SOLID
 70
     1
 71
     1
 91
        1
 92
        1
 93
        1
 72
     2
 10
3.932944225599126
 20
4.517912367231916
 40
0.0251551376970127
 50
0.0
 51
360.0
 73
     1
 97
        1
330
148
 75
     0
 76
     1
 98
        1
 10
0.0
 20
0.0
450
        0
451
        0
460
0.0
461
0.0
452
        0
462
0.0
453
        0
470

  0
CIRCLE
  5
148
102
{ACAD_REACTORS
330
147
102
}
330
146
100
AcDbEntity
  8
0
100
AcDbCircle
 10
3.932944225599126
 20
4.517912367231916
 30
0.0
 40
0.0251551376970127
  0
ENDBLK
  5
14A
330
146
100
AcDbEntity
  8
0
100
AcDbBlockEnd
  0
BLOCK
  5
14F
330
14B
100
AcDbEntity
  8
0
100
AcDbBlockBegin
  2
ind
 70
     0
 10
0.0
 20
0.0
 30
0.0
  3
ind
  1

  0
INSERT
  5
14C
330
14B
100
AcDbEntity
  8
0
100
AcDbBlockReference
  2
Inductor
 10
5.142686818928233
 20
4.506130839892044
 30
0.0
 50
90.0
  0
INSERT
  5
14D
330
14B
100
AcDbEntity
  8
0
100
AcDbBlockReference
  2
conpoint
 10
1.213283901823427
 20
-0.0258025784579612
 30
0.0
  0
INSERT
  5
14E
330
14B
100
AcDbEntity
  8
0
100
AcDbBlockReference
  2
conpoint
 10
1.20936500961606
 20
0.4012205201373665
 30
0.0
  0
ENDBLK
  5
150
330
14B
100
AcDbEntity
  8
0
100
AcDbBlockEnd
  0
BLOCK
  5
155
330
151
100
AcDbEntity
  8
0
100
AcDbBlockBegin
  2
rfc
 70
     0
 10
0.0
 20
0.0
 30
0.0
  3
rfc
  1

  0
INSERT
  5
152
330
151
100
AcDbEntity
  8
0
100
AcDbBlockReference
  2
ind
 10
0.0
 20
0.0
 30
0.0
  0
HATCH
  5
153
330
151
100
AcDbEntity
  8
0
100
AcDbHatch
 10
0.0
 20
0.0
 30
0.0
210
0.0
220
0.0
230
1.0
  2
SOLID
 70
     1
 71
     1
 91
        1
 92
        1
 93
        4
 72
     1
 10
5.019171584733157
 20
4.850883942041264
 11
4.991736945333968
 21
4.850883942041264
 72
     1
 10
4.991736945333968
 20
4.850883942041264
 11
4.991736945333968
 21
4.557060643284785
 72
     1
 10
4.991736945333968
 20
4.557060643284785
 11
5.019171584733157
 21
4.557060643284785
 72
     1
 10
5.019171584733157
 20
4.557060643284785
 11
5.019171584733157
 21
4.850883942041264
 97
        1
330
154
 75
     0
 76
     1
 98
        1
 10
0.0
 20
0.0
450
        0
451
        0
460
0.0
461
0.0
452
        0
462
0.0
453
        0
470

  0
LWPOLYLINE
  5
154
102
{ACAD_REACTORS
330
153
102
}
330
151
100
AcDbEntity
  8
0
100
AcDbPolyline
 90
        4
 70
     1
 43
0.0
 10
5.019171584733157
 20
4.850883942041264
 10
4.991736945333968
 20
4.850883942041264
 10
4.991736945333968
 20
4.557060643284785
 10
5.019171584733157
 20
4.557060643284785
  0
ENDBLK
  5
156
330
151
100
AcDbEntity
  8
0
100
AcDbBlockEnd
  0
BLOCK
  5
15D
330
157
100
AcDbEntity
  8
0
100
AcDbBlockBegin
  2
elkon
 70
     0
 10
0.0
 20
0.0
 30
0.0
  3
elkon
  1

  0
LWPOLYLINE
  5
158
102
{ACAD_REACTORS
330
15C
102
}
330
157
100
AcDbEntity
  8
0
100
AcDbPolyline
 90
        4
 70
     1
 43
0.0
 10
5.277469087657244
 20
7.736467907658294
 10
6.725437308244949
 20
7.736467907658294
 10
6.725437308244949
 20
7.545307269129267
 10
5.277469087657244
 20
7.545307269129267
  0
LWPOLYLINE
  5
159
330
157
100
AcDbEntity
  8
0
100
AcDbPolyline
 90
        4
 70
     1
 43
0.0
 10
5.277469087657244
 20
7.381455311208465
 10
6.725437308244949
 20
7.381455311208465
 10
6.725437308244949
 20
7.190294672679439
 10
5.277469087657244
 20
7.190294672679439
  0
LWPOLYLINE
  5
15A
330
157
100
AcDbEntity
  8
0
100
AcDbPolyline
 90
        2
 70
     0
 43
0.0
 10
5.987793119210273
 20
7.736467907658294
 10
5.987793119210273
 20
8.337258440989323
  0
LWPOLYLINE
  5
15B
330
157
100
AcDbEntity
  8
0
100
AcDbPolyline
 90
        2
 70
     0
 43
0.0
 10
5.987793119210273
 20
7.190294672679439
 10
5.987793119210273
 20
6.507578139433253
  0
HATCH
  5
15C
330
157
100
AcDbEntity
  8
0
100
AcDbHatch
 10
0.0
 20
0.0
 30
0.0
210
0.0
220
0.0
230
1.0
  2
SOLID
 70
     1
 71
     1
 91
        1
 92
        1
 93
        4
 72
     1
 10
5.277469087657244
 20
7.736467907658294
 11
6.725437308244949
 21
7.736467907658294
 72
     1
 10
6.725437308244949
 20
7.736467907658294
 11
6.725437308244949
 21
7.545307269129267
 72
     1
 10
6.725437308244949
 20
7.545307269129267
 11
5.277469087657244
 21
7.545307269129267
 72
     1
 10
5.277469087657244
 20
7.545307269129267
 11
5.277469087657244
 21
7.736467907658294
 97
        1
330
158
 75
     0
 76
     1
 98
        1
 10
0.0
 20
0.0
450
        0
451
        0
460
0.0
461
0.0
452
        0
462
0.0
453
        0
470

  0
ENDBLK
  5
15E
330
157
100
AcDbEntity
  8
0
100
AcDbBlockEnd
  0
BLOCK
  5
162
330
15F
100
AcDbEntity
  8
0
100
AcDbBlockBegin
  2
tri
 70
     0
 10
0.0
 20
0.0
 30
0.0
  3
tri
  1

  0
ARC
  5
160
330
15F
100
AcDbEntity
  8
CONSTR
370
    50
100
AcDbCircle
 10
8.146085339866083
 20
7.572615928782735
 30
0.0
 40
0.8498249588931228
100
AcDbArc
 50
17.41576346451058
 51
252.8164832811068
  0
LWPOLYLINE
  5
161
330
15F
100
AcDbEntity
  8
CONSTR
370
    50
100
AcDbPolyline
 90
        2
 70
     0
 43
0.0
 10
7.888244942516251
 20
6.7539228815622
 10
8.968782859461427
 20
7.838849627961277
  0
ENDBLK
  5
163
330
15F
100
AcDbEntity
  8
0
100
AcDbBlockEnd
  0
BLOCK
  5
169
330
164
100
AcDbEntity
  8
0
100
AcDbBlockBegin
  2
A$C7F5B3850
 70
     0
 10
0.0
 20
0.0
 30
0.0
  3
A$C7F5B3850
  1

  0
ARC
  5
165
330
164
100
AcDbEntity
  8
CONSTR
  6
DASHED
100
AcDbCircle
 10
0.2989705366022122
 20
0.1443359241437809
 30
0.0
 40
0.1444277739574447
100
AcDbArc
 50
179.9551739112651
 51
4.134120587586902
  0
ARC
  5
166
330
164
100
AcDbEntity
  8
CONSTR
  6
DASHED
100
AcDbCircle
 10
0.1444277297558756
 20
4.851212641492161
 30
0.0
 40
0.1444277739574447
100
AcDbArc
 50
355.865879412413
 51
180.0448260887349
  0
LWPOLYLINE
  5
167
330
164
100
AcDbEntity
  8
CONSTR
100
AcDbPolyline
 90
        2
 70
     0
 43
0.0
 10
0.0026085461590242
 20
4.832665928043525
 10
0.1545813162707645
 20
0.1628932215950272
  0
LWPOLYLINE
  5
168
330
164
100
AcDbEntity
  8
CONSTR
100
AcDbPolyline
 90
        2
 70
     0
 43
0.0
 10
0.2867314536172216
 20
4.83927086197923
 10
0.4453113941061702
 20
0.1562880295128366
  0
ENDBLK
  5
16A
330
164
100
AcDbEntity
  8
0
100
AcDbBlockEnd
  0
BLOCK
  5
31A
330
2D9
100
AcDbEntity
  8
0
100
AcDbBlockBegin
  2
A$C79166BDB
 70
     0
 10
0.0
 20
0.0
 30
0.0
  3
A$C79166BDB
  1

  0
SOLID
  5
2DA
330
2D9
100
AcDbEntity
  8
METAL1
100
AcDbTrace
 10
30.07117128110622
 20
5.997330767706383
 30
0.0
 11
30.07117128110622
 21
3.797330767706384
 31
0.0
 12
27.67117128110623
 22
5.997330767706383
 32
0.0
 13
27.67117128110623
 23
3.797330767706384
 33
0.0
  0
SOLID
  5
2DB
330
2D9
100
AcDbEntity
  8
METAL1
100
AcDbTrace
 10
2.200000004114286
 20
17.56283635493939
 30
0.0
 11
0.0000000041142876
 21
17.56283635493939
 31
0.0
 12
2.200000004114286
 22
19.96283635493939
 32
0.0
 13
0.0000000041142876
 23
19.96283635493939
 33
0.0
  0
SOLID
  5
2DC
330
2D9
100
AcDbEntity
  8
METAL1
100
AcDbTrace
 10
5.150000004114286
 20
17.92463635493939
 30
0.0
 11
4.032400004114286
 21
17.92463635493939
 31
0.0
 12
5.150000004114286
 22
19.60103635493939
 32
0.0
 13
4.032400004114286
 23
19.60103635493939
 33
0.0
  0
SOLID
  5
2DD
330
2D9
100
AcDbEntity
  8
METAL1
100
AcDbTrace
 10
30.86508990911518
 20
4.400000026714746
 30
0.0
 11
30.06508990911518
 21
4.400000026714746
 31
0.0
 12
30.86508990911518
 22
6.000000026714747
 32
0.0
 13
30.06508990911518
 23
6.000000026714747
 33
0.0
  0
SOLID
  5
2DE
330
2D9
100
AcDbEntity
  8
METAL1
100
AcDbTrace
 10
30.86508990911518
 20
6.000000026714747
 30
0.0
 11
31.66508990911518
 21
6.000000026714747
 31
0.0
 12
30.86508990911518
 22
4.400000026714746
 32
0.0
 13
31.66508990911518
 23
4.400000026714746
 33
0.0
  0
SOLID
  5
2DF
330
2D9
100
AcDbEntity
  8
METAL1
100
AcDbTrace
 10
31.66508990911518
 20
5.200000026714747
 30
0.0
 11
31.66508990911518
 21
4.400000026714746
 31
0.0
 12
30.06508990911518
 22
5.200000026714747
 32
0.0
 13
30.06508990911518
 23
4.400000026714746
 33
0.0
  0
SOLID
  5
2E0
330
2D9
100
AcDbEntity
  8
METAL1
100
AcDbTrace
 10
35.11508990911518
 20
4.361800026714746
 30
0.0
 11
33.99748990911518
 21
4.361800026714746
 31
0.0
 12
35.11508990911518
 22
6.038200026714747
 32
0.0
 13
33.99748990911518
 23
6.038200026714747
 33
0.0
  0
SOLID
  5
2E1
330
2D9
100
AcDbEntity
  8
METAL1
100
AcDbTrace
 10
32.16508990911518
 20
4.361800026714746
 30
0.0
 11
31.04748990911519
 21
4.361800026714746
 31
0.0
 12
32.16508990911518
 22
6.038200026714747
 32
0.0
 13
31.04748990911519
 23
6.038200026714747
 33
0.0
  0
SOLID
  5
2E2
330
2D9
100
AcDbEntity
  8
METAL1
100
AcDbTrace
 10
36.8214914458105
 20
4.400000026714746
 30
0.0
 11
36.0214914458105
 21
4.400000026714746
 31
0.0
 12
36.8214914458105
 22
6.000000026714747
 32
0.0
 13
36.0214914458105
 23
6.000000026714747
 33
0.0
  0
SOLID
  5
2E3
330
2D9
100
AcDbEntity
  8
METAL1
100
AcDbTrace
 10
36.8214914458105
 20
6.000000026714747
 30
0.0
 11
37.6214914458105
 21
6.000000026714747
 31
0.0
 12
36.8214914458105
 22
4.400000026714746
 32
0.0
 13
37.6214914458105
 23
4.400000026714746
 33
0.0
  0
SOLID
  5
2E4
330
2D9
100
AcDbEntity
  8
METAL1
100
AcDbTrace
 10
36.06508990911518
 20
5.200000026714747
 30
0.0
 11
36.06508990911518
 21
4.400000026714746
 31
0.0
 12
34.46508990911518
 22
5.200000026714747
 32
0.0
 13
34.46508990911518
 23
4.400000026714746
 33
0.0
  0
SOLID
  5
2E5
330
2D9
100
AcDbEntity
  8
METAL1
100
AcDbTrace
 10
36.10328990911519
 20
5.050000026714748
 30
0.0
 11
36.10328990911519
 21
3.932400026714745
 31
0.0
 12
34.42688990911518
 22
5.050000026714748
 32
0.0
 13
34.42688990911518
 23
3.932400026714745
 33
0.0
  0
SOLID
  5
2E6
330
2D9
100
AcDbEntity
  8
METAL1
100
AcDbTrace
 10
36.10328990911519
 20
2.100000026714745
 30
0.0
 11
36.10328990911519
 21
0.9824000267147461
 31
0.0
 12
34.42688990911518
 22
2.100000026714745
 32
0.0
 13
34.42688990911518
 23
0.9824000267147461
 33
0.0
  0
SOLID
  5
2E7
330
2D9
100
AcDbEntity
  8
METAL1
100
AcDbTrace
 10
36.06508990911518
 20
1.600000026714745
 30
0.0
 11
36.06508990911518
 21
0.0000000267147477
 31
0.0
 12
34.46508990911518
 22
1.600000026714745
 32
0.0
 13
34.46508990911518
 23
0.0000000267147477
 33
0.0
  0
LWPOLYLINE
  5
2E8
330
2D9
100
AcDbEntity
  8
METAL1
100
AcDbPolyline
 90
        2
 70
     0
 43
0.2
 10
35.26508990911518
 20
0.4000000267147464
 42
1.0
 10
35.26508990911518
 20
1.200000026714747
  0
LWPOLYLINE
  5
2E9
330
2D9
100
AcDbEntity
  8
METAL1
100
AcDbPolyline
 90
        2
 70
     0
 43
0.2
 10
35.26508990911518
 20
1.200000026714747
 42
1.0
 10
35.26508990911518
 20
0.4000000267147464
  0
SOLID
  5
2EA
330
2D9
100
AcDbEntity
  8
METAL1
100
AcDbTrace
 10
31.70328990911519
 20
5.050000026714748
 30
0.0
 11
31.70328990911519
 21
3.932400026714745
 31
0.0
 12
30.02688990911519
 22
5.050000026714748
 32
0.0
 13
30.02688990911519
 23
3.932400026714745
 33
0.0
  0
SOLID
  5
2EB
330
2D9
100
AcDbEntity
  8
METAL1
100
AcDbTrace
 10
31.70328990911519
 20
2.100000026714745
 30
0.0
 11
31.70328990911519
 21
0.9824000267147461
 31
0.0
 12
30.02688990911519
 22
2.100000026714745
 32
0.0
 13
30.02688990911519
 23
0.9824000267147461
 33
0.0
  0
SOLID
  5
2EC
330
2D9
100
AcDbEntity
  8
METAL1
100
AcDbTrace
 10
31.66508990911518
 20
1.600000026714745
 30
0.0
 11
31.66508990911518
 21
0.0000000267147477
 31
0.0
 12
30.06508990911518
 22
1.600000026714745
 32
0.0
 13
30.06508990911518
 23
0.0000000267147477
 33
0.0
  0
LWPOLYLINE
  5
2ED
330
2D9
100
AcDbEntity
  8
METAL1
100
AcDbPolyline
 90
        2
 70
     0
 43
0.2
 10
30.86508990911518
 20
0.4000000267147464
 42
1.0
 10
30.86508990911518
 20
1.200000026714747
  0
LWPOLYLINE
  5
2EE
330
2D9
100
AcDbEntity
  8
METAL1
100
AcDbPolyline
 90
        2
 70
     0
 43
0.2
 10
30.86508990911518
 20
1.200000026714747
 42
1.0
 10
30.86508990911518
 20
0.4000000267147464
  0
SOLID
  5
2EF
330
2D9
100
AcDbEntity
  8
METAL1
100
AcDbTrace
 10
37.65032604703431
 20
7.515774248677425
 30
0.0
 11
36.05032604703432
 21
7.515774248677425
 31
0.0
 12
37.65032604703431
 22
9.115774248677425
 32
0.0
 13
36.05032604703432
 23
9.115774248677425
 33
0.0
  0
SOLID
  5
2F0
330
2D9
100
AcDbEntity
  8
METAL1
100
AcDbTrace
 10
37.62611251651318
 20
10.58962574156202
 30
0.0
 11
36.02611251651318
 21
10.58962574156202
 31
0.0
 12
37.62611251651318
 22
12.18962574156202
 32
0.0
 13
36.02611251651318
 23
12.18962574156202
 33
0.0
  0
SOLID
  5
2F1
330
2D9
100
AcDbEntity
  8
METAL1
100
AcDbTrace
 10
36.08195629676873
 20
4.393019069066376
 30
0.0
 11
34.48195629676873
 21
4.393019069066376
 31
0.0
 12
36.08195629676873
 22
5.993019069066377
 32
0.0
 13
34.48195629676873
 23
5.993019069066377
 33
0.0
  0
SOLID
  5
2F2
330
2D9
100
AcDbEntity
  8
METAL1
100
AcDbTrace
 10
36.13092009116498
 20
7.545722184908933
 30
0.0
 11
34.53092009116499
 21
7.545722184908933
 31
0.0
 12
36.13092009116498
 22
9.145722184908933
 32
0.0
 13
34.53092009116499
 23
9.145722184908933
 33
0.0
  0
SOLID
  5
2F3
330
2D9
100
AcDbEntity
  8
METAL1
100
AcDbTrace
 10
36.10670656064384
 20
10.61957367779353
 30
0.0
 11
34.50670656064385
 21
10.61957367779353
 31
0.0
 12
36.10670656064384
 22
12.21957367779353
 32
0.0
 13
34.50670656064385
 23
12.21957367779353
 33
0.0
  0
SOLID
  5
2F4
330
2D9
100
AcDbEntity
  8
CONSTR
100
AcDbTrace
 10
34.62511484323142
 20
4.334824548110614
 30
0.0
 11
34.62511484323142
 21
5.934824548110615
 31
0.0
 12
34.67511484323142
 22
4.334824548110614
 32
0.0
 13
34.67511484323142
 23
5.934824548110615
 33
0.0
  0
SOLID
  5
2F5
330
2D9
100
AcDbEntity
  8
CONSTR
100
AcDbTrace
 10
34.65011484323142
 20
4.309824548110615
 30
0.0
 11
31.45011484323142
 21
4.309824548110615
 31
0.0
 12
34.65011484323142
 22
4.359824548110616
 32
0.0
 13
31.45011484323142
 23
4.359824548110616
 33
0.0
  0
SOLID
  5
2F6
330
2D9
100
AcDbEntity
  8
CONSTR
100
AcDbTrace
 10
34.65011484323142
 20
5.909824548110613
 30
0.0
 11
31.45011484323142
 21
5.909824548110613
 31
0.0
 12
34.65011484323142
 22
5.959824548110614
 32
0.0
 13
31.45011484323142
 23
5.959824548110614
 33
0.0
  0
SOLID
  5
2F7
330
2D9
100
AcDbEntity
  8
CONSTR
100
AcDbTrace
 10
31.42511484323142
 20
4.334824548110614
 30
0.0
 11
31.42511484323142
 21
5.934824548110615
 31
0.0
 12
31.47511484323143
 22
4.334824548110614
 32
0.0
 13
31.47511484323143
 23
5.934824548110615
 33
0.0
  0
SOLID
  5
2F8
330
2D9
100
AcDbEntity
  8
CONSTR
100
AcDbTrace
 10
36.05011484323142
 20
4.509824548110614
 30
0.0
 11
34.45011484323142
 21
4.509824548110614
 31
0.0
 12
36.05011484323142
 22
4.559824548110615
 32
0.0
 13
34.45011484323142
 23
4.559824548110615
 33
0.0
  0
SOLID
  5
2F9
330
2D9
100
AcDbEntity
  8
CONSTR
100
AcDbTrace
 10
36.07511484323142
 20
4.534824548110613
 30
0.0
 11
36.07511484323142
 21
1.334824548110614
 31
0.0
 12
36.02511484323142
 22
4.534824548110613
 32
0.0
 13
36.02511484323142
 23
1.334824548110614
 33
0.0
  0
SOLID
  5
2FA
330
2D9
100
AcDbEntity
  8
CONSTR
100
AcDbTrace
 10
34.47511484323142
 20
4.534824548110613
 30
0.0
 11
34.47511484323142
 21
1.334824548110614
 31
0.0
 12
34.42511484323142
 22
4.534824548110613
 32
0.0
 13
34.42511484323142
 23
1.334824548110614
 33
0.0
  0
SOLID
  5
2FB
330
2D9
100
AcDbEntity
  8
CONSTR
100
AcDbTrace
 10
36.05011484323142
 20
1.309824548110615
 30
0.0
 11
34.45011484323142
 21
1.309824548110615
 31
0.0
 12
36.05011484323142
 22
1.359824548110616
 32
0.0
 13
34.45011484323142
 23
1.359824548110616
 33
0.0
  0
LWPOLYLINE
  5
2FC
330
2D9
100
AcDbEntity
  8
GND
100
AcDbPolyline
 90
        2
 70
     0
 43
0.2
 10
35.25011484323143
 20
0.334824548110614
 42
1.0
 10
35.25011484323143
 20
1.134824548110614
  0
LWPOLYLINE
  5
2FD
330
2D9
100
AcDbEntity
  8
GND
100
AcDbPolyline
 90
        2
 70
     0
 43
0.2
 10
35.25011484323143
 20
1.134824548110614
 42
1.0
 10
35.25011484323143
 20
0.334824548110614
  0
SOLID
  5
2FE
330
2D9
100
AcDbEntity
  8
CONSTR
100
AcDbTrace
 10
31.65011484323142
 20
4.509824548110614
 30
0.0
 11
30.05011484323142
 21
4.509824548110614
 31
0.0
 12
31.65011484323142
 22
4.559824548110615
 32
0.0
 13
30.05011484323142
 23
4.559824548110615
 33
0.0
  0
SOLID
  5
2FF
330
2D9
100
AcDbEntity
  8
CONSTR
100
AcDbTrace
 10
31.67511484323142
 20
4.534824548110613
 30
0.0
 11
31.67511484323142
 21
1.334824548110614
 31
0.0
 12
31.62511484323142
 22
4.534824548110613
 32
0.0
 13
31.62511484323142
 23
1.334824548110614
 33
0.0
  0
SOLID
  5
300
330
2D9
100
AcDbEntity
  8
CONSTR
100
AcDbTrace
 10
30.07511484323142
 20
4.534824548110613
 30
0.0
 11
30.07511484323142
 21
1.334824548110614
 31
0.0
 12
30.02511484323142
 22
4.534824548110613
 32
0.0
 13
30.02511484323142
 23
1.334824548110614
 33
0.0
  0
SOLID
  5
301
330
2D9
100
AcDbEntity
  8
CONSTR
100
AcDbTrace
 10
31.65011484323142
 20
1.309824548110615
 30
0.0
 11
30.05011484323142
 21
1.309824548110615
 31
0.0
 12
31.65011484323142
 22
1.359824548110616
 32
0.0
 13
30.05011484323142
 23
1.359824548110616
 33
0.0
  0
LWPOLYLINE
  5
302
330
2D9
100
AcDbEntity
  8
GND
100
AcDbPolyline
 90
        2
 70
     0
 43
0.2
 10
30.85011484323143
 20
0.334824548110614
 42
1.0
 10
30.85011484323143
 20
1.134824548110614
  0
LWPOLYLINE
  5
303
330
2D9
100
AcDbEntity
  8
GND
100
AcDbPolyline
 90
        2
 70
     0
 43
0.2
 10
30.85011484323143
 20
1.134824548110614
 42
1.0
 10
30.85011484323143
 20
0.334824548110614
  0
INSERT
  5
304
330
2D9
100
AcDbEntity
  8
CONSTR
100
AcDbBlockReference
  2
elkon
 10
29.09694051162048
 20
-0.7440783089716838
 30
0.0
  0
INSERT
  5
305
330
2D9
100
AcDbEntity
  8
CONSTR
100
AcDbBlockReference
  2
elkon
 10
41.0664667875137
 20
17.35036934610853
 30
0.0
 50
180.0
  0
INSERT
  5
306
330
2D9
100
AcDbEntity
  8
CONSTR
100
AcDbBlockReference
  2
rfc
 10
65.20245247437384
 20
41.85269327148667
 30
0.0
 41
5.747672421525731
 42
5.747672421525731
 43
5.747672421525731
 50
180.0
  0
LWPOLYLINE
  5
307
330
2D9
100
AcDbEntity
  8
CONSTR
100
AcDbPolyline
 90
        2
 70
     0
 43
0.0
 10
37.7956642874768
 20
10.17401319945006
 10
37.91142488835944
 20
9.555954282656266
  0
LWPOLYLINE
  5
308
330
2D9
100
AcDbEntity
  8
CONSTR
100
AcDbPolyline
 90
        2
 70
     0
 43
0.0
 10
37.78751678939754
 20
8.230426373617454
 10
37.32396242974976
 20
8.268959053939582
  0
MTEXT
  5
309
330
2D9
100
AcDbEntity
  8
CONSTR
100
AcDbMText
 10
32.02559040488258
 20
11.1049674270009
 30
0.0
 40
0.6
 41
1.6775
 71
     1
 72
     5
  1
1uF
 73
     1
 44
1.0
  0
MTEXT
  5
30A
330
2D9
100
AcDbEntity
  8
CONSTR
100
AcDbMText
 10
34.10179278187717
 20
13.67790889505329
 30
0.0
 40
0.6
 41
2.423099999999999
 71
     1
 72
     5
  1
10uH
 11
0.0000000000000001
 21
1.0
 31
0.0
 73
     1
 44
1.0
  0
MTEXT
  5
30B
330
2D9
100
AcDbEntity
  8
CONSTR
100
AcDbMText
 10
40.12022427364225
 20
9.690963147228899
 30
0.0
 40
0.5999999999999999
 41
3.075399999999999
 71
     1
 72
     5
  1
78L10
 11
0.0031168054897741
 21
-0.999995142749973
 31
0.0
 73
     1
 44
1.0
  0
INSERT
  5
30C
330
2D9
100
AcDbEntity
  8
CONSTR
100
AcDbBlockReference
  2
tri
 10
38.23013633027413
 20
-2.914930391004077
 30
0.0
 50
44.99999999999985
  0
LWPOLYLINE
  5
30D
330
2D9
100
AcDbEntity
  8
CONSTR
100
AcDbPolyline
 90
        2
 70
     0
 43
0.0
 10
37.90173858294842
 20
6.787128018986148
 10
38.09502778456756
 20
7.443882176018373
  0
LWPOLYLINE
  5
30E
330
2D9
100
AcDbEntity
  8
CONSTR
100
AcDbPolyline
 90
        2
 70
     0
 43
0.0
 10
37.92847282408415
 20
9.525674018232351
 10
38.04423342496681
 20
8.907615101438558
  0
LWPOLYLINE
  5
30F
330
2D9
100
AcDbEntity
  8
GND
100
AcDbPolyline
 90
        2
 70
     0
 43
0.2
 10
36.09000698094494
 20
7.897165475022493
 42
1.0
 10
36.09000698094494
 20
8.697165475022494
  0
LWPOLYLINE
  5
310
330
2D9
100
AcDbEntity
  8
GND
100
AcDbPolyline
 90
        2
 70
     0
 43
0.2
 10
36.09000698094494
 20
8.697165475022494
 42
1.0
 10
36.09000698094494
 20
7.897165475022493
  0
LWPOLYLINE
  5
311
330
2D9
100
AcDbEntity
  8
CONSTR
100
AcDbPolyline
 90
        2
 70
     0
 43
0.0
 10
37.74212994411709
 20
6.232483652670381
 10
37.93541914573622
 20
6.88923780970261
  0
LWPOLYLINE
  5
312
330
2D9
100
AcDbEntity
  8
CONSTR
100
AcDbPolyline
 90
        2
 70
     0
 43
0.0
 10
37.53659179202236
 20
5.707942742184144
 10
37.72988099364149
 20
6.364696899216372
  0
LWPOLYLINE
  5
313
330
2D9
100
AcDbEntity
  8
CONSTR
100
AcDbPolyline
 90
        2
 70
     0
 43
0.0
 10
37.65765948026032
 20
10.73104878311115
 10
37.77342008114297
 20
10.11298986631735
  0
MTEXT
  5
314
330
2D9
100
AcDbEntity
  8
CONSTR
100
AcDbMText
 10
32.43114731091761
 20
5.608499439281366
 30
0.0
 40
0.6
 41
3.8919
 71
     1
 72
     5
  1
33
 73
     1
 44
1.0
  0
MTEXT
  5
315
330
2D9
100
AcDbEntity
  8
CONSTR
100
AcDbMText
 10
30.48393174380529
 20
2.227226935514046
 30
0.0
 40
0.6
 41
5.9263
 71
     1
 72
     5
  1
1nF
 11
0.0000000000000001
 21
1.0
 31
0.0
 73
     1
 44
1.0
  0
MTEXT
  5
316
330
2D9
100
AcDbEntity
  8
CONSTR
100
AcDbMText
 10
34.9492788578954
 20
2.033139198082686
 30
0.0
 40
0.6
 41
5.8379
 71
     1
 72
     5
  1
20nF
 11
0.0000000000000001
 21
1.0
 31
0.0
 73
     1
 44
1.0
  0
MTEXT
  5
317
330
2D9
100
AcDbEntity
  8
CONSTR
100
AcDbMText
 10
32.21495330825167
 20
7.785762268761359
 30
0.0
 40
0.6
 41
1.6775
 71
     1
 72
     5
  1
1uF
 73
     1
 44
1.0
  0
LWPOLYLINE
  5
318
330
2D9
100
AcDbEntity
  8
CONSTR
100
AcDbPolyline
 90
        2
 70
     0
 43
0.0
 10
35.67269447053808
 20
13.58079698541529
 10
35.67269447053808
 20
10.87251227783444
  0
LWPOLYLINE
  5
319
330
2D9
100
AcDbEntity
  8
CONSTR
100
AcDbPolyline
 90
        2
 70
     0
 43
0.0
 10
35.61504994522098
 20
16.05858941863629
 10
35.61504994522098
 20
19.08380113372992
  0
ENDBLK
  5
31B
330
2D9
100
AcDbEntity
  8
0
100
AcDbBlockEnd
  0
BLOCK
  5
3BC
330
3B1
100
AcDbEntity
  8
0
100
AcDbBlockBegin
  2
*D8
 70
     1
 10
0.0
 20
0.0
 30
0.0
  3
*D8
  1

  0
LINE
  5
573
330
3B1
100
AcDbEntity
  8
0
 62
     0
370
    -2
100
AcDbLine
 10
-2.135045722292275
 20
19.47888736427367
 30
0.0
 11
-2.135045722292275
 21
21.69573214096482
 31
0.0
  0
LINE
  5
574
330
3B1
100
AcDbEntity
  8
0
 62
     0
370
    -2
100
AcDbLine
 10
57.85853165449139
 20
19.47888736427367
 30
0.0
 11
57.85853165449139
 21
21.69573214096482
 31
0.0
  0
LINE
  5
575
330
3B1
100
AcDbEntity
  8
0
 62
     0
370
    -2
100
AcDbLine
 10
-0.3350457222922756
 20
21.51573214096481
 30
0.0
 11
26.42174296609955
 21
21.51573214096481
 31
0.0
  0
LINE
  5
576
330
3B1
100
AcDbEntity
  8
0
 62
     0
370
    -2
100
AcDbLine
 10
56.05853165449139
 20
21.51573214096481
 30
0.0
 11
29.30174296609956
 21
21.51573214096481
 31
0.0
  0
SOLID
  5
577
330
3B1
100
AcDbEntity
  8
0
 62
     0
100
AcDbTrace
 10
-0.3350457222922756
 20
21.81573214096482
 30
0.0
 11
-0.3350457222922756
 21
21.21573214096482
 31
0.0
 12
-2.135045722292275
 22
21.51573214096481
 32
0.0
 13
-2.135045722292275
 23
21.51573214096481
 33
0.0
  0
SOLID
  5
578
330
3B1
100
AcDbEntity
  8
0
 62
     0
100
AcDbTrace
 10
56.05853165449139
 20
21.81573214096482
 30
0.0
 11
56.05853165449139
 21
21.21573214096482
 31
0.0
 12
57.85853165449139
 22
21.51573214096481
 32
0.0
 13
57.85853165449139
 23
21.51573214096481
 33
0.0
  0
MTEXT
  5
579
330
3B1
100
AcDbEntity
  8
0
 62
     0
100
AcDbMText
 10
27.86174296609956
 20
21.51573214096481
 30
0.0
 40
1.8
 41
0.0
 71
     5
 72
     1
  1
\A1;60
 73
     1
 44
1.0
  0
POINT
  5
57A
330
3B1
100
AcDbEntity
  8
Defpoints
 62
     0
100
AcDbPoint
 10
-2.135045722292275
 20
19.41638736427367
 30
0.0
  0
POINT
  5
57B
330
3B1
100
AcDbEntity
  8
Defpoints
 62
     0
100
AcDbPoint
 10
57.85853165449139
 20
19.41638736427367
 30
0.0
  0
POINT
  5
57C
330
3B1
100
AcDbEntity
  8
Defpoints
 62
     0
100
AcDbPoint
 10
57.85853165449139
 20
21.51573214096481
 30
0.0
  0
ENDBLK
  5
3BD
330
3B1
100
AcDbEntity
  8
0
100
AcDbBlockEnd
  0
BLOCK
  5
3C9
330
3BE
100
AcDbEntity
  8
0
100
AcDbBlockBegin
  2
*D9
 70
     1
 10
0.0
 20
0.0
 30
0.0
  3
*D9
  1

  0
LINE
  5
57D
330
3BE
100
AcDbEntity
  8
0
 62
     0
370
    -2
100
AcDbLine
 10
58.27105244309866
 20
-20.96101130391467
 30
0.0
 11
61.11871530578834
 21
-20.96101130391467
 31
0.0
  0
LINE
  5
57E
330
3BE
100
AcDbEntity
  8
0
 62
     0
370
    -2
100
AcDbLine
 10
58.27105244309866
 20
18.99651836427215
 30
0.0
 11
61.11871530578836
 21
18.99651836427215
 31
0.0
  0
LINE
  5
57F
330
3BE
100
AcDbEntity
  8
0
 62
     0
370
    -2
100
AcDbLine
 10
60.93871530578835
 20
-19.16101130391467
 30
0.0
 11
60.93871530578836
 21
-1.972246469821262
 31
0.0
  0
LINE
  5
580
330
3BE
100
AcDbEntity
  8
0
 62
     0
370
    -2
100
AcDbLine
 10
60.93871530578836
 20
17.19651836427215
 30
0.0
 11
60.93871530578836
 21
0.0077535301787379
 31
0.0
  0
SOLID
  5
581
330
3BE
100
AcDbEntity
  8
0
 62
     0
100
AcDbTrace
 10
60.63871530578835
 20
-19.16101130391467
 30
0.0
 11
61.23871530578835
 21
-19.16101130391467
 31
0.0
 12
60.93871530578835
 22
-20.96101130391467
 32
0.0
 13
60.93871530578835
 23
-20.96101130391467
 33
0.0
  0
SOLID
  5
582
330
3BE
100
AcDbEntity
  8
0
 62
     0
100
AcDbTrace
 10
60.63871530578836
 20
17.19651836427215
 30
0.0
 11
61.23871530578836
 21
17.19651836427215
 31
0.0
 12
60.93871530578836
 22
18.99651836427215
 32
0.0
 13
60.93871530578836
 23
18.99651836427215
 33
0.0
  0
MTEXT
  5
583
330
3BE
100
AcDbEntity
  8
0
 62
     0
100
AcDbMText
 10
60.93871530578836
 20
-0.9822464698212522
 30
0.0
 40
1.8
 41
0.0
 71
     5
 72
     1
  1
\A1;40
 73
     1
 44
1.0
  0
POINT
  5
584
330
3BE
100
AcDbEntity
  8
Defpoints
 62
     0
100
AcDbPoint
 10
58.20855244309867
 20
-20.96101130391467
 30
0.0
  0
POINT
  5
585
330
3BE
100
AcDbEntity
  8
Defpoints
 62
     0
100
AcDbPoint
 10
58.20855244309867
 20
18.99651836427215
 30
0.0
  0
POINT
  5
586
330
3BE
100
AcDbEntity
  8
Defpoints
 62
     0
100
AcDbPoint
 10
60.93871530578836
 20
18.99651836427215
 30
0.0
  0
ENDBLK
  5
3CA
330
3BE
100
AcDbEntity
  8
0
100
AcDbBlockEnd
  0
ENDSEC
  0
SECTION
  2
ENTITIES
  0
SOLID
  5
23
330
1E
100
AcDbEntity
  8
METAL1
100
AcDbTrace
 10
-0.9921681581531913
 20
1.349999999999999
 30
0.0
 11
4.007831841846808
 21
1.349999999999999
 31
0.0
 12
-0.9921681581531913
 22
-1.349999999999999
 32
0.0
 13
4.007831841846808
 23
-1.349999999999999
 33
0.0
  0
SOLID
  5
24
330
1E
100
AcDbEntity
  8
METAL1
100
AcDbTrace
 10
4.807831841846808
 20
-1.349999999999999
 30
0.0
 11
4.007831841846808
 21
-1.349999999999999
 31
0.0
 12
4.807831841846808
 22
1.349999999999999
 32
0.0
 13
4.007831841846808
 23
1.349999999999999
 33
0.0
  0
SOLID
  5
25
330
1E
100
AcDbEntity
  8
METAL1
100
AcDbTrace
 10
4.807831841846808
 20
1.349999999999999
 30
0.0
 11
5.607831841846808
 21
1.349999999999999
 31
0.0
 12
4.807831841846808
 22
-1.349999999999999
 32
0.0
 13
5.607831841846808
 23
-1.349999999999999
 33
0.0
  0
SOLID
  5
26
330
1E
100
AcDbEntity
  8
METAL1
100
AcDbTrace
 10
5.607831841846808
 20
0.0
 30
0.0
 11
5.607831841846808
 21
-1.349999999999999
 31
0.0
 12
4.007831841846808
 22
0.0
 32
0.0
 13
4.007831841846808
 23
-1.349999999999999
 33
0.0
  0
SOLID
  5
55
330
1E
100
AcDbEntity
  8
METAL1
100
AcDbTrace
 10
22.4
 20
0.8
 30
0.0
 11
23.2
 21
0.8
 31
0.0
 12
22.4
 22
-0.8
 32
0.0
 13
23.2
 23
-0.8
 33
0.0
  0
SOLID
  5
56
330
1E
100
AcDbEntity
  8
METAL1
100
AcDbTrace
 10
22.4
 20
-0.8
 30
0.0
 11
21.6
 21
-0.8
 31
0.0
 12
22.4
 22
0.8
 32
0.0
 13
21.6
 23
0.8
 33
0.0
  0
SOLID
  5
57
330
1E
100
AcDbEntity
  8
METAL1
100
AcDbTrace
 10
21.6
 20
0.0
 30
0.0
 11
21.6
 21
0.8
 31
0.0
 12
23.2
 22
0.0
 32
0.0
 13
23.2
 23
0.8
 33
0.0
  0
SOLID
  5
58
330
1E
100
AcDbEntity
  8
METAL1
100
AcDbTrace
 10
23.2
 20
0.8
 30
0.0
 11
24.9
 21
0.8
 31
0.0
 12
23.2
 22
-0.8
 32
0.0
 13
24.9
 23
-0.8
 33
0.0
  0
SOLID
  5
70
330
1E
100
AcDbEntity
  8
METAL1
100
AcDbTrace
 10
24.93
 20
-2.9
 30
0.0
 11
23.53
 21
-2.9
 31
0.0
 12
24.93
 22
-1.7
 32
0.0
 13
23.53
 23
-1.7
 33
0.0
  0
SOLID
  5
71
330
1E
100
AcDbEntity
  8
METAL1
100
AcDbTrace
 10
24.93
 20
-0.6
 30
0.0
 11
23.53
 21
-0.6
 31
0.0
 12
24.93
 22
0.6
 32
0.0
 13
23.53
 23
0.6
 33
0.0
  0
SOLID
  5
72
330
1E
100
AcDbEntity
  8
METAL1
100
AcDbTrace
 10
24.93
 20
1.75
 30
0.0
 11
23.53
 21
1.75
 31
0.0
 12
24.93
 22
2.95
 32
0.0
 13
23.53
 23
2.95
 33
0.0
  0
SOLID
  5
73
330
1E
100
AcDbEntity
  8
METAL1
100
AcDbTrace
 10
30.83
 20
-1.7
 30
0.0
 11
29.43
 21
-1.7
 31
0.0
 12
30.83
 22
1.8
 32
0.0
 13
29.43
 23
1.8
 33
0.0
  0
SOLID
  5
83
330
1E
100
AcDbEntity
  8
METAL1
100
AcDbTrace
 10
29.48
 20
-4.0
 30
0.0
 11
25.48
 21
-4.0
 31
0.0
 12
29.48
 22
4.0
 32
0.0
 13
25.48
 23
4.0
 33
0.0
  0
SOLID
  5
84
330
1E
100
AcDbEntity
  8
METAL1
100
AcDbTrace
 10
29.48
 20
4.0
 30
0.0
 11
29.73
 21
4.0
 31
0.0
 12
29.48
 22
-4.0
 32
0.0
 13
29.73
 23
-4.0
 33
0.0
  0
SOLID
  5
85
330
1E
100
AcDbEntity
  8
METAL1
100
AcDbTrace
 10
28.7668
 20
3.35
 30
0.0
 11
28.7668
 21
4.4676
 31
0.0
 12
30.4432
 22
3.35
 32
0.0
 13
30.4432
 23
4.4676
 33
0.0
  0
SOLID
  5
86
330
1E
100
AcDbEntity
  8
METAL1
100
AcDbTrace
 10
28.7668
 20
6.299999999999999
 30
0.0
 11
28.7668
 21
7.4176
 31
0.0
 12
30.4432
 22
6.299999999999999
 32
0.0
 13
30.4432
 23
7.4176
 33
0.0
  0
SOLID
  5
8B
330
1E
100
AcDbEntity
  8
METAL1
100
AcDbTrace
 10
29.48
 20
6.799999999999999
 30
0.0
 11
29.48
 21
7.049999999999999
 31
0.0
 12
29.48
 22
6.799999999999999
 32
0.0
 13
29.73
 23
6.799999999999999
 33
0.0
  0
SOLID
  5
8C
330
1E
100
AcDbEntity
  8
METAL1
100
AcDbTrace
 10
22.48
 20
7.049999999999999
 30
0.0
 11
29.48
 21
7.049999999999999
 31
0.0
 12
22.48
 22
6.799999999999999
 32
0.0
 13
29.48
 23
6.799999999999999
 33
0.0
  0
SOLID
  5
8D
330
1E
100
AcDbEntity
  8
METAL1
100
AcDbTrace
 10
22.48
 20
6.799999999999999
 30
0.0
 11
22.23
 21
6.799999999999999
 31
0.0
 12
22.48
 22
6.799999999999999
 32
0.0
 13
22.48
 23
7.049999999999999
 33
0.0
  0
SOLID
  5
8E
330
1E
100
AcDbEntity
  8
METAL1
100
AcDbTrace
 10
22.23
 20
3.799999999999999
 30
0.0
 11
22.23
 21
6.799999999999999
 31
0.0
 12
22.48
 22
3.799999999999999
 32
0.0
 13
22.48
 23
6.799999999999999
 33
0.0
  0
SOLID
  5
8F
330
1E
100
AcDbEntity
  8
METAL1
100
AcDbTrace
 10
21.5618
 20
0.15
 30
0.0
 11
21.5618
 21
1.2676
 31
0.0
 12
23.2382
 22
0.15
 32
0.0
 13
23.2382
 23
1.2676
 33
0.0
  0
SOLID
  5
90
330
1E
100
AcDbEntity
  8
METAL1
100
AcDbTrace
 10
21.5618
 20
3.1
 30
0.0
 11
21.5618
 21
4.2176
 31
0.0
 12
23.2382
 22
3.1
 32
0.0
 13
23.2382
 23
4.2176
 33
0.0
  0
SOLID
  5
95
330
1E
100
AcDbEntity
  8
METAL1
100
AcDbTrace
 10
29.73
 20
4.0
 30
0.0
 11
33.73
 21
4.0
 31
0.0
 12
29.73
 22
-4.0
 32
0.0
 13
33.73
 23
-4.0
 33
0.0
  0
SOLID
  5
96
330
1E
100
AcDbEntity
  8
METAL1
100
AcDbTrace
 10
33.08
 20
0.8381999999999999
 30
0.0
 11
34.1976
 21
0.8381999999999999
 31
0.0
 12
33.08
 22
-0.8381999999999999
 32
0.0
 13
34.1976
 23
-0.8381999999999999
 33
0.0
  0
SOLID
  5
97
330
1E
100
AcDbEntity
  8
METAL1
100
AcDbTrace
 10
36.03
 20
0.8381999999999999
 30
0.0
 11
37.1476
 21
0.8381999999999999
 31
0.0
 12
36.03
 22
-0.8381999999999999
 32
0.0
 13
37.1476
 23
-0.8381999999999999
 33
0.0
  0
SOLID
  5
9C
330
1E
100
AcDbEntity
  8
METAL1
100
AcDbTrace
 10
36.53
 20
1.35
 30
0.0
 11
51.53
 21
1.35
 31
0.0
 12
36.53
 22
-1.35
 32
0.0
 13
51.53
 23
-1.35
 33
0.0
  0
SOLID
  5
F0
330
1E
100
AcDbEntity
  8
METAL1
100
AcDbTrace
 10
24.9
 20
2.9
 30
0.0
 11
24.9
 21
1.7
 31
0.0
 12
23.7
 22
2.9
 32
0.0
 13
23.7
 23
1.7
 33
0.0
  0
LWPOLYLINE
  5
F1
330
1E
100
AcDbEntity
  8
METAL1
100
AcDbPolyline
 90
        2
 70
     0
 43
0.2
 10
24.3
 20
1.9
 42
1.0
 10
24.3
 20
2.7
  0
LWPOLYLINE
  5
F9
330
1E
100
AcDbEntity
  8
METAL1
100
AcDbPolyline
 90
        2
 70
     0
 43
0.2
 10
24.3
 20
2.7
 42
1.0
 10
24.3
 20
1.9
  0
SOLID
  5
110
330
1E
100
AcDbEntity
  8
METAL1
100
AcDbTrace
 10
3.969631841846808
 20
-4.799999999999999
 30
0.0
 11
3.969631841846808
 21
-3.682399999999999
 31
0.0
 12
5.646031841846808
 22
-4.799999999999999
 32
0.0
 13
5.646031841846808
 23
-3.682399999999999
 33
0.0
  0
SOLID
  5
111
330
1E
100
AcDbEntity
  8
METAL1
100
AcDbTrace
 10
3.969631841846808
 20
-1.849999999999999
 30
0.0
 11
3.969631841846808
 21
-0.7324000000000002
 31
0.0
 12
5.646031841846808
 22
-1.849999999999999
 32
0.0
 13
5.646031841846808
 23
-0.7324000000000002
 33
0.0
  0
SOLID
  5
116
330
1E
100
AcDbEntity
  8
METAL1
100
AcDbTrace
 10
5.607831841846808
 20
-5.75
 30
0.0
 11
4.007831841846808
 21
-5.75
 31
0.0
 12
5.607831841846808
 22
-4.15
 32
0.0
 13
4.007831841846808
 23
-4.15
 33
0.0
  0
LWPOLYLINE
  5
117
330
1E
100
AcDbEntity
  8
METAL1
100
AcDbPolyline
 90
        2
 70
     0
 43
0.2
 10
4.807831841846808
 20
-5.349999999999999
 42
1.0
 10
4.807831841846808
 20
-4.549999999999999
  0
LWPOLYLINE
  5
11F
330
1E
100
AcDbEntity
  8
METAL1
100
AcDbPolyline
 90
        2
 70
     0
 43
0.2
 10
4.807831841846808
 20
-4.549999999999999
 42
1.0
 10
4.807831841846808
 20
-5.349999999999999
  0
TEXT
  5
128
330
1E
100
AcDbEntity
  8
ERROR
100
AcDbText
 10
22.02166666666667
 20
3.674999999999999
 30
0.0
 40
0.25
  1
296
 72
     4
 11
22.355
 21
3.799999999999999
 31
0.0
100
AcDbText
  0
CIRCLE
  5
129
330
1E
100
AcDbEntity
  8
ERROR
100
AcDbCircle
 10
22.355
 20
3.799999999999999
 30
0.0
 40
0.5
  0
TEXT
  5
12A
330
1E
100
AcDbEntity
  8
ERROR
100
AcDbText
 10
22.06666666666666
 20
3.475
 30
0.0
 40
0.25
  1
296
 72
     4
 11
22.4
 21
3.6
 31
0.0
100
AcDbText
  0
CIRCLE
  5
12B
330
1E
100
AcDbEntity
  8
ERROR
100
AcDbCircle
 10
22.4
 20
3.6
 30
0.0
 40
0.5
  0
SOLID
  5
294
330
1E
100
AcDbEntity
  8
METAL1
100
AcDbTrace
 10
35.06830253916128
 20
-12.86071797409745
 30
0.0
 11
35.06830253916128
 21
-15.06071797409745
 31
0.0
 12
32.66830253916129
 22
-12.86071797409745
 32
0.0
 13
32.66830253916129
 23
-15.06071797409745
 33
0.0
  0
SOLID
  5
295
330
1E
100
AcDbEntity
  8
METAL1
100
AcDbTrace
 10
35.86222116717025
 20
-14.45804871508909
 30
0.0
 11
35.06222116717025
 21
-14.45804871508909
 31
0.0
 12
35.86222116717025
 22
-12.85804871508909
 32
0.0
 13
35.06222116717025
 23
-12.85804871508909
 33
0.0
  0
SOLID
  5
296
330
1E
100
AcDbEntity
  8
METAL1
100
AcDbTrace
 10
35.86222116717025
 20
-12.85804871508909
 30
0.0
 11
36.66222116717025
 21
-12.85804871508909
 31
0.0
 12
35.86222116717025
 22
-14.45804871508909
 32
0.0
 13
36.66222116717025
 23
-14.45804871508909
 33
0.0
  0
SOLID
  5
297
330
1E
100
AcDbEntity
  8
METAL1
100
AcDbTrace
 10
36.66222116717025
 20
-13.65804871508909
 30
0.0
 11
36.66222116717025
 21
-14.45804871508909
 31
0.0
 12
35.06222116717025
 22
-13.65804871508909
 32
0.0
 13
35.06222116717025
 23
-14.45804871508909
 33
0.0
  0
SOLID
  5
298
330
1E
100
AcDbEntity
  8
METAL1
100
AcDbTrace
 10
40.11222116717024
 20
-14.49624871508909
 30
0.0
 11
38.99462116717025
 21
-14.49624871508909
 31
0.0
 12
40.11222116717024
 22
-12.81984871508909
 32
0.0
 13
38.99462116717025
 23
-12.81984871508909
 33
0.0
  0
SOLID
  5
299
330
1E
100
AcDbEntity
  8
METAL1
100
AcDbTrace
 10
37.16222116717025
 20
-14.49624871508909
 30
0.0
 11
36.04462116717025
 21
-14.49624871508909
 31
0.0
 12
37.16222116717025
 22
-12.81984871508909
 32
0.0
 13
36.04462116717025
 23
-12.81984871508909
 33
0.0
  0
SOLID
  5
29A
330
1E
100
AcDbEntity
  8
METAL1
100
AcDbTrace
 10
41.81862270386556
 20
-14.45804871508909
 30
0.0
 11
41.01862270386556
 21
-14.45804871508909
 31
0.0
 12
41.81862270386556
 22
-12.85804871508909
 32
0.0
 13
41.01862270386556
 23
-12.85804871508909
 33
0.0
  0
SOLID
  5
29B
330
1E
100
AcDbEntity
  8
METAL1
100
AcDbTrace
 10
41.81862270386556
 20
-12.85804871508909
 30
0.0
 11
42.61862270386556
 21
-12.85804871508909
 31
0.0
 12
41.81862270386556
 22
-14.45804871508909
 32
0.0
 13
42.61862270386556
 23
-14.45804871508909
 33
0.0
  0
SOLID
  5
29C
330
1E
100
AcDbEntity
  8
METAL1
100
AcDbTrace
 10
41.06222116717024
 20
-13.65804871508909
 30
0.0
 11
41.06222116717024
 21
-14.45804871508909
 31
0.0
 12
39.46222116717024
 22
-13.65804871508909
 32
0.0
 13
39.46222116717024
 23
-14.45804871508909
 33
0.0
  0
SOLID
  5
29D
330
1E
100
AcDbEntity
  8
METAL1
100
AcDbTrace
 10
41.10042116717024
 20
-13.80804871508909
 30
0.0
 11
41.10042116717024
 21
-14.92564871508909
 31
0.0
 12
39.42402116717024
 22
-13.80804871508909
 32
0.0
 13
39.42402116717024
 23
-14.92564871508909
 33
0.0
  0
SOLID
  5
29E
330
1E
100
AcDbEntity
  8
METAL1
100
AcDbTrace
 10
41.10042116717024
 20
-16.75804871508909
 30
0.0
 11
41.10042116717024
 21
-17.87564871508909
 31
0.0
 12
39.42402116717024
 22
-16.75804871508909
 32
0.0
 13
39.42402116717024
 23
-17.87564871508909
 33
0.0
  0
SOLID
  5
29F
330
1E
100
AcDbEntity
  8
METAL1
100
AcDbTrace
 10
41.06222116717024
 20
-17.25804871508909
 30
0.0
 11
41.06222116717024
 21
-18.85804871508909
 31
0.0
 12
39.46222116717024
 22
-17.25804871508909
 32
0.0
 13
39.46222116717024
 23
-18.85804871508909
 33
0.0
  0
LWPOLYLINE
  5
2A0
330
1E
100
AcDbEntity
  8
METAL1
100
AcDbPolyline
 90
        2
 70
     0
 43
0.2
 10
40.26222116717025
 20
-18.45804871508909
 42
1.0
 10
40.26222116717025
 20
-17.65804871508909
  0
LWPOLYLINE
  5
2A1
330
1E
100
AcDbEntity
  8
METAL1
100
AcDbPolyline
 90
        2
 70
     0
 43
0.2
 10
40.26222116717025
 20
-17.65804871508909
 42
1.0
 10
40.26222116717025
 20
-18.45804871508909
  0
SOLID
  5
2A2
330
1E
100
AcDbEntity
  8
METAL1
100
AcDbTrace
 10
36.70042116717025
 20
-13.80804871508909
 30
0.0
 11
36.70042116717025
 21
-14.92564871508909
 31
0.0
 12
35.02402116717025
 22
-13.80804871508909
 32
0.0
 13
35.02402116717025
 23
-14.92564871508909
 33
0.0
  0
SOLID
  5
2A3
330
1E
100
AcDbEntity
  8
METAL1
100
AcDbTrace
 10
36.70042116717025
 20
-16.75804871508909
 30
0.0
 11
36.70042116717025
 21
-17.87564871508909
 31
0.0
 12
35.02402116717025
 22
-16.75804871508909
 32
0.0
 13
35.02402116717025
 23
-17.87564871508909
 33
0.0
  0
SOLID
  5
2A4
330
1E
100
AcDbEntity
  8
METAL1
100
AcDbTrace
 10
36.66222116717025
 20
-17.25804871508909
 30
0.0
 11
36.66222116717025
 21
-18.85804871508909
 31
0.0
 12
35.06222116717025
 22
-17.25804871508909
 32
0.0
 13
35.06222116717025
 23
-18.85804871508909
 33
0.0
  0
LWPOLYLINE
  5
2A5
330
1E
100
AcDbEntity
  8
METAL1
100
AcDbPolyline
 90
        2
 70
     0
 43
0.2
 10
35.86222116717025
 20
-18.45804871508909
 42
1.0
 10
35.86222116717025
 20
-17.65804871508909
  0
LWPOLYLINE
  5
2A6
330
1E
100
AcDbEntity
  8
METAL1
100
AcDbPolyline
 90
        2
 70
     0
 43
0.2
 10
35.86222116717025
 20
-17.65804871508909
 42
1.0
 10
35.86222116717025
 20
-18.45804871508909
  0
SOLID
  5
2A7
330
1E
100
AcDbEntity
  8
METAL1
100
AcDbTrace
 10
42.64745730508937
 20
-11.34227449312641
 30
0.0
 11
41.04745730508938
 21
-11.34227449312641
 31
0.0
 12
42.64745730508937
 22
-9.742274493126414
 32
0.0
 13
41.04745730508938
 23
-9.742274493126414
 33
0.0
  0
SOLID
  5
2A8
330
1E
100
AcDbEntity
  8
METAL1
100
AcDbTrace
 10
42.62324377456823
 20
-8.268423000241815
 30
0.0
 11
41.02324377456824
 21
-8.268423000241815
 31
0.0
 12
42.62324377456823
 22
-6.668423000241814
 32
0.0
 13
41.02324377456824
 23
-6.668423000241814
 33
0.0
  0
SOLID
  5
2A9
330
1E
100
AcDbEntity
  8
METAL1
100
AcDbTrace
 10
41.07908755482378
 20
-14.46502967273746
 30
0.0
 11
39.47908755482379
 21
-14.46502967273746
 31
0.0
 12
41.07908755482378
 22
-12.86502967273746
 32
0.0
 13
39.47908755482379
 23
-12.86502967273746
 33
0.0
  0
SOLID
  5
2AA
330
1E
100
AcDbEntity
  8
METAL1
100
AcDbTrace
 10
41.12805134922004
 20
-11.3123265568949
 30
0.0
 11
39.52805134922005
 21
-11.3123265568949
 31
0.0
 12
41.12805134922004
 22
-9.712326556894906
 32
0.0
 13
39.52805134922005
 23
-9.712326556894906
 33
0.0
  0
SOLID
  5
2AB
330
1E
100
AcDbEntity
  8
METAL1
100
AcDbTrace
 10
41.10383781869891
 20
-8.238475064010307
 30
0.0
 11
39.50383781869891
 21
-8.238475064010307
 31
0.0
 12
41.10383781869891
 22
-6.638475064010306
 32
0.0
 13
39.50383781869891
 23
-6.638475064010306
 33
0.0
  0
SOLID
  5
2D8
330
1E
100
AcDbEntity
  8
METAL1
100
AcDbTrace
 10
41.92992095206881
 20
1.350469454134943
 30
0.0
 11
56.92992095206881
 21
1.350469454134943
 31
0.0
 12
41.92992095206881
 22
-1.349530545865055
 32
0.0
 13
56.92992095206881
 23
-1.349530545865055
 33
0.0
  0
SOLID
  5
322
330
1E
100
AcDbEntity
  8
METAL1
100
AcDbTrace
 10
19.24135088170182
 20
-1.284594263556454
 30
0.0
 11
17.04135088170182
 21
-1.284594263556454
 31
0.0
 12
19.24135088170182
 22
1.115405736443546
 32
0.0
 13
17.04135088170182
 23
1.115405736443546
 33
0.0
  0
SOLID
  5
323
330
1E
100
AcDbEntity
  8
METAL1
100
AcDbTrace
 10
22.19135088170182
 20
-0.922794263556454
 30
0.0
 11
21.07375088170182
 21
-0.922794263556454
 31
0.0
 12
22.19135088170182
 22
0.753605736443546
 32
0.0
 13
21.07375088170182
 23
0.753605736443546
 33
0.0
  0
LWPOLYLINE
  5
3AE
330
1E
100
AcDbEntity
  8
0
100
AcDbPolyline
 90
        4
 70
     1
 43
0.0
 10
-2.150105310194078
 20
19.03321894540792
 10
57.84989468980592
 20
19.03321894540792
 10
57.84989468980592
 20
-20.96678105459208
 10
-2.150105310194078
 20
-20.96678105459208
  0
DIMENSION
  5
3AF
330
1E
100
AcDbEntity
  8
0
100
AcDbDimension
  2
*D8
 10
57.85853165449139
 20
21.51573214096481
 30
0.0
 11
27.86174296609956
 21
21.51573214096481
 31
0.0
 70
    32
 71
     5
 42
59.99357737678366
  3
Standard
100
AcDbAlignedDimension
 13
-2.135045722292275
 23
19.41638736427367
 33
0.0
 14
57.85853165449139
 24
19.41638736427367
 34
0.0
100
AcDbRotatedDimension
1001
ACAD
1000
DSTYLE
1002
{
1070
   271
1070
     0
1002
}
  0
DIMENSION
  5
3B0
330
1E
100
AcDbEntity
  8
0
100
AcDbDimension
  2
*D9
 10
60.93871530578836
 20
18.99651836427215
 30
0.0
 11
60.93871530578836
 21
-0.9822464698212522
 31
0.0
 70
    32
 71
     5
 42
39.95752966818682
  3
Standard
100
AcDbAlignedDimension
 13
58.20855244309867
 23
-20.96101130391467
 33
0.0
 14
58.20855244309867
 24
18.99651836427215
 34
0.0
 50
90.0
100
AcDbRotatedDimension
1001
ACAD
1000
DSTYLE
1002
{
1070
   271
1070
     0
1002
}
  0
SOLID
  5
4AE
330
1E
100
AcDbEntity
  8
CONSTR
100
AcDbTrace
 10
25.40988181421768
 20
3.24363523560283
 30
0.0
 11
28.90988181421768
 21
3.24363523560283
 31
0.0
 12
25.40988181421768
 22
3.193635235602833
 32
0.0
 13
28.90988181421768
 23
3.193635235602833
 33
0.0
  0
SOLID
  5
4AF
330
1E
100
AcDbEntity
  8
CONSTR
100
AcDbTrace
 10
28.93488181421768
 20
3.218635235602832
 30
0.0
 11
28.93488181421768
 21
-3.281364764397167
 31
0.0
 12
28.88488181421768
 22
3.218635235602832
 32
0.0
 13
28.88488181421768
 23
-3.281364764397167
 33
0.0
  0
SOLID
  5
4B0
330
1E
100
AcDbEntity
  8
CONSTR
100
AcDbTrace
 10
28.90988181421768
 20
-3.306364764397168
 30
0.0
 11
25.40988181421768
 21
-3.306364764397168
 31
0.0
 12
28.90988181421768
 22
-3.256364764397167
 32
0.0
 13
25.40988181421768
 23
-3.256364764397167
 33
0.0
  0
SOLID
  5
4B1
330
1E
100
AcDbEntity
  8
CONSTR
100
AcDbTrace
 10
25.38488181421768
 20
-3.281364764397167
 30
0.0
 11
25.38488181421768
 21
3.218635235602832
 31
0.0
 12
25.43488181421768
 22
-3.281364764397167
 32
0.0
 13
25.43488181421768
 23
3.218635235602832
 33
0.0
  0
SOLID
  5
4B2
330
1E
100
AcDbEntity
  8
CONSTR
100
AcDbTrace
 10
28.90988181421768
 20
1.468635235602832
 30
0.0
 11
30.50988181421768
 21
1.468635235602832
 31
0.0
 12
28.90988181421768
 22
-1.531364764397167
 32
0.0
 13
30.50988181421768
 23
-1.531364764397167
 33
0.0
  0
SOLID
  5
4B3
330
1E
100
AcDbEntity
  8
CONSTR
100
AcDbTrace
 10
25.40988181421768
 20
-2.631364764397169
 30
0.0
 11
23.80988181421768
 21
-2.631364764397169
 31
0.0
 12
25.40988181421768
 22
-2.031364764397167
 32
0.0
 13
23.80988181421768
 23
-2.031364764397167
 33
0.0
  0
SOLID
  5
4B4
330
1E
100
AcDbEntity
  8
CONSTR
100
AcDbTrace
 10
25.40988181421768
 20
-0.3313647643971684
 30
0.0
 11
23.80988181421768
 21
-0.3313647643971684
 31
0.0
 12
25.40988181421768
 22
0.268635235602833
 32
0.0
 13
23.80988181421768
 23
0.268635235602833
 33
0.0
  0
SOLID
  5
4B5
330
1E
100
AcDbEntity
  8
CONSTR
100
AcDbTrace
 10
25.40988181421768
 20
1.968635235602832
 30
0.0
 11
23.80988181421768
 21
1.968635235602832
 31
0.0
 12
25.40988181421768
 22
2.568635235602833
 32
0.0
 13
23.80988181421768
 23
2.568635235602833
 33
0.0
  0
SOLID
  5
4B6
330
1E
100
AcDbEntity
  8
CONSTR
100
AcDbTrace
 10
28.78488181421768
 20
3.793635235602831
 30
0.0
 11
30.38488181421768
 21
3.793635235602831
 31
0.0
 12
28.78488181421768
 22
3.74363523560283
 32
0.0
 13
30.38488181421768
 23
3.74363523560283
 33
0.0
  0
SOLID
  5
4B7
330
1E
100
AcDbEntity
  8
CONSTR
100
AcDbTrace
 10
28.75988181421768
 20
3.768635235602832
 30
0.0
 11
28.75988181421768
 21
6.968635235602832
 31
0.0
 12
28.80988181421768
 22
3.768635235602832
 32
0.0
 13
28.80988181421768
 23
6.968635235602832
 33
0.0
  0
SOLID
  5
4B8
330
1E
100
AcDbEntity
  8
CONSTR
100
AcDbTrace
 10
30.35988181421768
 20
3.768635235602832
 30
0.0
 11
30.35988181421768
 21
6.968635235602832
 31
0.0
 12
30.40988181421768
 22
3.768635235602832
 32
0.0
 13
30.40988181421768
 23
6.968635235602832
 33
0.0
  0
SOLID
  5
4B9
330
1E
100
AcDbEntity
  8
CONSTR
100
AcDbTrace
 10
28.78488181421768
 20
6.99363523560283
 30
0.0
 11
30.38488181421768
 21
6.99363523560283
 31
0.0
 12
28.78488181421768
 22
6.943635235602833
 32
0.0
 13
30.38488181421768
 23
6.943635235602833
 33
0.0
  0
SOLID
  5
4BA
330
1E
100
AcDbEntity
  8
CONSTR
100
AcDbTrace
 10
21.57988181421768
 20
0.5936352356028323
 30
0.0
 11
23.17988181421767
 21
0.5936352356028323
 31
0.0
 12
21.57988181421768
 22
0.5436352356028316
 32
0.0
 13
23.17988181421767
 23
0.5436352356028316
 33
0.0
  0
SOLID
  5
4BB
330
1E
100
AcDbEntity
  8
CONSTR
100
AcDbTrace
 10
21.55488181421768
 20
0.5686352356028337
 30
0.0
 11
21.55488181421768
 21
3.768635235602832
 31
0.0
 12
21.60488181421768
 22
0.5686352356028337
 32
0.0
 13
21.60488181421768
 23
3.768635235602832
 33
0.0
  0
SOLID
  5
4BC
330
1E
100
AcDbEntity
  8
CONSTR
100
AcDbTrace
 10
23.15488181421768
 20
0.5686352356028337
 30
0.0
 11
23.15488181421768
 21
3.768635235602832
 31
0.0
 12
23.20488181421768
 22
0.5686352356028337
 32
0.0
 13
23.20488181421768
 23
3.768635235602832
 33
0.0
  0
SOLID
  5
4BD
330
1E
100
AcDbEntity
  8
CONSTR
100
AcDbTrace
 10
21.57988181421768
 20
3.793635235602831
 30
0.0
 11
23.17988181421767
 21
3.793635235602831
 31
0.0
 12
21.57988181421768
 22
3.74363523560283
 32
0.0
 13
23.17988181421767
 23
3.74363523560283
 33
0.0
  0
SOLID
  5
4BE
330
1E
100
AcDbEntity
  8
CONSTR
100
AcDbTrace
 10
33.53488181421768
 20
0.768635235602833
 30
0.0
 11
33.53488181421768
 21
-0.8313647643971684
 31
0.0
 12
33.48488181421768
 22
0.768635235602833
 32
0.0
 13
33.48488181421768
 23
-0.8313647643971684
 33
0.0
  0
SOLID
  5
4BF
330
1E
100
AcDbEntity
  8
CONSTR
100
AcDbTrace
 10
33.50988181421768
 20
0.7936352356028316
 30
0.0
 11
36.70988181421768
 21
0.7936352356028316
 31
0.0
 12
33.50988181421768
 22
0.7436352356028309
 32
0.0
 13
36.70988181421768
 23
0.7436352356028309
 33
0.0
  0
SOLID
  5
4C0
330
1E
100
AcDbEntity
  8
CONSTR
100
AcDbTrace
 10
33.50988181421768
 20
-0.8063647643971663
 30
0.0
 11
36.70988181421768
 21
-0.8063647643971663
 31
0.0
 12
33.50988181421768
 22
-0.856364764397167
 32
0.0
 13
36.70988181421768
 23
-0.856364764397167
 33
0.0
  0
SOLID
  5
4C1
330
1E
100
AcDbEntity
  8
CONSTR
100
AcDbTrace
 10
36.73488181421768
 20
0.768635235602833
 30
0.0
 11
36.73488181421768
 21
-0.8313647643971684
 31
0.0
 12
36.68488181421768
 22
0.768635235602833
 32
0.0
 13
36.68488181421768
 23
-0.8313647643971684
 33
0.0
  0
LWPOLYLINE
  5
4C2
330
1E
100
AcDbEntity
  8
GND
100
AcDbPolyline
 90
        2
 70
     0
 43
0.2
 10
24.27988181421768
 20
1.86863523560283
 42
1.0
 10
24.27988181421768
 20
2.668635235602831
  0
LWPOLYLINE
  5
4C3
330
1E
100
AcDbEntity
  8
GND
100
AcDbPolyline
 90
        2
 70
     0
 43
0.2
 10
24.27988181421768
 20
2.668635235602831
 42
1.0
 10
24.27988181421768
 20
1.86863523560283
  0
SOLID
  5
4C4
330
1E
100
AcDbEntity
  8
CONSTR
100
AcDbTrace
 10
3.987713656064485
 20
-4.356364764397167
 30
0.0
 11
5.587713656064485
 21
-4.356364764397167
 31
0.0
 12
3.987713656064485
 22
-4.406364764397167
 32
0.0
 13
5.587713656064485
 23
-4.406364764397167
 33
0.0
  0
SOLID
  5
4C5
330
1E
100
AcDbEntity
  8
CONSTR
100
AcDbTrace
 10
3.962713656064485
 20
-4.381364764397167
 30
0.0
 11
3.962713656064485
 21
-1.181364764397166
 31
0.0
 12
4.012713656064486
 22
-4.381364764397167
 32
0.0
 13
4.012713656064486
 23
-1.181364764397166
 33
0.0
  0
SOLID
  5
4C6
330
1E
100
AcDbEntity
  8
CONSTR
100
AcDbTrace
 10
5.562713656064485
 20
-4.381364764397167
 30
0.0
 11
5.562713656064485
 21
-1.181364764397166
 31
0.0
 12
5.612713656064485
 22
-4.381364764397167
 32
0.0
 13
5.612713656064485
 23
-1.181364764397166
 33
0.0
  0
SOLID
  5
4C7
330
1E
100
AcDbEntity
  8
CONSTR
100
AcDbTrace
 10
3.956944297228929
 20
-1.156364764397167
 30
0.0
 11
5.556944297228929
 21
-1.156364764397167
 31
0.0
 12
3.956944297228929
 22
-1.206364764397168
 32
0.0
 13
5.556944297228929
 23
-1.206364764397168
 33
0.0
  0
LWPOLYLINE
  5
4C8
330
1E
100
AcDbEntity
  8
GND
100
AcDbPolyline
 90
        2
 70
     0
 43
0.2
 10
4.787713656064485
 20
-5.381364764397167
 42
1.0
 10
4.787713656064485
 20
-4.581364764397168
  0
LWPOLYLINE
  5
4C9
330
1E
100
AcDbEntity
  8
GND
100
AcDbPolyline
 90
        2
 70
     0
 43
0.2
 10
4.787713656064485
 20
-4.581364764397168
 42
1.0
 10
4.787713656064485
 20
-5.381364764397167
  0
LWPOLYLINE
  5
4CA
330
1E
100
AcDbEntity
  8
GND
100
AcDbPolyline
 90
        2
 70
     0
 43
0.2
 10
24.28263645496361
 20
-2.732252386673911
 42
1.0
 10
24.28263645496361
 20
-1.932252386673912
  0
LWPOLYLINE
  5
4CB
330
1E
100
AcDbEntity
  8
GND
100
AcDbPolyline
 90
        2
 70
     0
 43
0.2
 10
24.28263645496361
 20
-1.932252386673912
 42
1.0
 10
24.28263645496361
 20
-2.732252386673911
  0
SOLID
  5
4CC
330
1E
100
AcDbEntity
  8
CONSTR
100
AcDbTrace
 10
21.69983672316357
 20
-0.9201362283563732
 30
0.0
 11
21.69983672316357
 21
0.6798637716436283
 31
0.0
 12
21.74983672316356
 22
-0.9201362283563732
 32
0.0
 13
21.74983672316356
 23
0.6798637716436283
 33
0.0
  0
SOLID
  5
4CD
330
1E
100
AcDbEntity
  8
CONSTR
100
AcDbTrace
 10
21.72483672316356
 20
-0.9451362283563717
 30
0.0
 11
18.52483672316356
 21
-0.9451362283563717
 31
0.0
 12
21.72483672316356
 22
-0.895136228356371
 32
0.0
 13
18.52483672316356
 23
-0.895136228356371
 33
0.0
  0
SOLID
  5
4CE
330
1E
100
AcDbEntity
  8
CONSTR
100
AcDbTrace
 10
21.72483672316356
 20
0.6548637716436261
 30
0.0
 11
18.52483672316356
 21
0.6548637716436261
 31
0.0
 12
21.72483672316356
 22
0.7048637716436268
 32
0.0
 13
18.52483672316356
 23
0.7048637716436268
 33
0.0
  0
SOLID
  5
4CF
330
1E
100
AcDbEntity
  8
CONSTR
100
AcDbTrace
 10
18.49983672316356
 20
-0.9201362283563732
 30
0.0
 11
18.49983672316356
 21
0.6798637716436283
 31
0.0
 12
18.54983672316356
 22
-0.9201362283563732
 32
0.0
 13
18.54983672316356
 23
0.6798637716436283
 33
0.0
  0
MTEXT
  5
4D0
330
1E
100
AcDbEntity
  8
CONSTR
100
AcDbMText
 10
0.5070360076410907
 20
6.309909084206893
 30
0.0
 40
1.6
 41
10.6296
 71
     1
 72
     5
  1
Ant
 73
     1
 44
1.0
  0
MTEXT
  5
4D1
330
1E
100
AcDbEntity
  8
CONSTR
100
AcDbMText
 10
51.32410126979569
 20
5.996198087517839
 30
0.0
 40
1.6
 41
8.2675
 71
     1
 72
     5
  1
Rx
 73
     1
 44
1.0
  0
MTEXT
  5
4D2
330
1E
100
AcDbEntity
  8
CONSTR
100
AcDbMText
 10
21.94969366172742
 20
1.361807910319086
 30
0.0
 40
0.6
 41
3.4054
 71
     1
 72
     5
  1
680
 11
0.0000000000000001
 21
1.0
 31
0.0
 73
     1
 44
1.0
  0
MTEXT
  5
4D3
330
1E
100
AcDbEntity
  8
CONSTR
100
AcDbMText
 10
34.02750596461024
 20
2.813313664356385
 30
0.0
 40
0.6
 41
5.1303
 71
     1
 72
     5
  1
{\Ftxt.shx|c238;1.}2{\Ftxt.shx|c238;n}F
 73
     1
 44
1.0
  0
MTEXT
  5
4D4
330
1E
100
AcDbEntity
  8
CONSTR
100
AcDbMText
 10
26.6343811051341
 20
-2.407679039128154
 30
0.0
 40
0.8
 41
4.462024804239632
 71
     1
 72
     5
  1
{\fTahoma|b0|i0|c0|p32;B\fTahoma|b0|i0|c238|p32;FG135a}
 11
0.0000000000000001
 21
1.0
 31
0.0
 73
     1
 44
1.0
  0
MTEXT
  5
4D5
330
1E
100
AcDbEntity
  8
CONSTR
100
AcDbMText
 10
28.98979559036128
 20
4.590512062649125
 30
0.0
 40
0.4
 41
2.770999999999999
 71
     1
 72
     5
  1
12k+\P1{\Ftxt.shx|c238;0}nF
 11
0.0000000000000001
 21
1.0
 31
0.0
 73
     1
 44
1.0
  0
MTEXT
  5
4D6
330
1E
100
AcDbEntity
  8
CONSTR
100
AcDbMText
 10
19.33174136236714
 20
-1.84853163958698
 30
0.0
 40
0.6
 41
5.1303
 71
     1
 72
     5
  1
{\Ftxt.shx|c238;6.8n}F
 73
     1
 44
1.0
  0
SOLID
  5
4F1
330
1E
100
AcDbEntity
  8
CONSTR
100
AcDbTrace
 10
39.60212791550416
 20
-14.55458895809039
 30
0.0
 11
39.60212791550416
 21
-12.95458895809039
 31
0.0
 12
39.65212791550416
 22
-14.55458895809039
 32
0.0
 13
39.65212791550416
 23
-12.95458895809039
 33
0.0
  0
SOLID
  5
4F2
330
1E
100
AcDbEntity
  8
CONSTR
100
AcDbTrace
 10
39.62712791550416
 20
-14.57958895809039
 30
0.0
 11
36.42712791550416
 21
-14.57958895809039
 31
0.0
 12
39.62712791550416
 22
-14.52958895809039
 32
0.0
 13
36.42712791550416
 23
-14.52958895809039
 33
0.0
  0
SOLID
  5
4F3
330
1E
100
AcDbEntity
  8
CONSTR
100
AcDbTrace
 10
39.62712791550416
 20
-12.97958895809039
 30
0.0
 11
36.42712791550416
 21
-12.97958895809039
 31
0.0
 12
39.62712791550416
 22
-12.92958895809039
 32
0.0
 13
36.42712791550416
 23
-12.92958895809039
 33
0.0
  0
SOLID
  5
4F4
330
1E
100
AcDbEntity
  8
CONSTR
100
AcDbTrace
 10
36.40212791550416
 20
-14.55458895809039
 30
0.0
 11
36.40212791550416
 21
-12.95458895809039
 31
0.0
 12
36.45212791550417
 22
-14.55458895809039
 32
0.0
 13
36.45212791550417
 23
-12.95458895809039
 33
0.0
  0
SOLID
  5
4F5
330
1E
100
AcDbEntity
  8
CONSTR
100
AcDbTrace
 10
41.02712791550415
 20
-14.37958895809039
 30
0.0
 11
39.42712791550416
 21
-14.37958895809039
 31
0.0
 12
41.02712791550415
 22
-14.32958895809039
 32
0.0
 13
39.42712791550416
 23
-14.32958895809039
 33
0.0
  0
SOLID
  5
4F6
330
1E
100
AcDbEntity
  8
CONSTR
100
AcDbTrace
 10
41.05212791550416
 20
-14.35458895809039
 30
0.0
 11
41.05212791550416
 21
-17.55458895809039
 31
0.0
 12
41.00212791550416
 22
-14.35458895809039
 32
0.0
 13
41.00212791550416
 23
-17.55458895809039
 33
0.0
  0
SOLID
  5
4F7
330
1E
100
AcDbEntity
  8
CONSTR
100
AcDbTrace
 10
39.45212791550416
 20
-14.35458895809039
 30
0.0
 11
39.45212791550416
 21
-17.55458895809039
 31
0.0
 12
39.40212791550416
 22
-14.35458895809039
 32
0.0
 13
39.40212791550416
 23
-17.55458895809039
 33
0.0
  0
SOLID
  5
4F8
330
1E
100
AcDbEntity
  8
CONSTR
100
AcDbTrace
 10
41.02712791550415
 20
-17.57958895809039
 30
0.0
 11
39.42712791550416
 21
-17.57958895809039
 31
0.0
 12
41.02712791550415
 22
-17.52958895809039
 32
0.0
 13
39.42712791550416
 23
-17.52958895809039
 33
0.0
  0
LWPOLYLINE
  5
4F9
330
1E
100
AcDbEntity
  8
GND
100
AcDbPolyline
 90
        2
 70
     0
 43
0.2
 10
40.22712791550416
 20
-18.55458895809039
 42
1.0
 10
40.22712791550416
 20
-17.75458895809039
  0
LWPOLYLINE
  5
4FA
330
1E
100
AcDbEntity
  8
GND
100
AcDbPolyline
 90
        2
 70
     0
 43
0.2
 10
40.22712791550416
 20
-17.75458895809039
 42
1.0
 10
40.22712791550416
 20
-18.55458895809039
  0
SOLID
  5
4FB
330
1E
100
AcDbEntity
  8
CONSTR
100
AcDbTrace
 10
36.62712791550416
 20
-14.37958895809039
 30
0.0
 11
35.02712791550416
 21
-14.37958895809039
 31
0.0
 12
36.62712791550416
 22
-14.32958895809039
 32
0.0
 13
35.02712791550416
 23
-14.32958895809039
 33
0.0
  0
SOLID
  5
4FC
330
1E
100
AcDbEntity
  8
CONSTR
100
AcDbTrace
 10
36.65212791550416
 20
-14.35458895809039
 30
0.0
 11
36.65212791550416
 21
-17.55458895809039
 31
0.0
 12
36.60212791550416
 22
-14.35458895809039
 32
0.0
 13
36.60212791550416
 23
-17.55458895809039
 33
0.0
  0
SOLID
  5
4FD
330
1E
100
AcDbEntity
  8
CONSTR
100
AcDbTrace
 10
35.05212791550416
 20
-14.35458895809039
 30
0.0
 11
35.05212791550416
 21
-17.55458895809039
 31
0.0
 12
35.00212791550416
 22
-14.35458895809039
 32
0.0
 13
35.00212791550416
 23
-17.55458895809039
 33
0.0
  0
SOLID
  5
4FE
330
1E
100
AcDbEntity
  8
CONSTR
100
AcDbTrace
 10
36.62712791550416
 20
-17.57958895809039
 30
0.0
 11
35.02712791550416
 21
-17.57958895809039
 31
0.0
 12
36.62712791550416
 22
-17.52958895809039
 32
0.0
 13
35.02712791550416
 23
-17.52958895809039
 33
0.0
  0
LWPOLYLINE
  5
4FF
330
1E
100
AcDbEntity
  8
GND
100
AcDbPolyline
 90
        2
 70
     0
 43
0.2
 10
35.82712791550417
 20
-18.55458895809039
 42
1.0
 10
35.82712791550417
 20
-17.75458895809039
  0
LWPOLYLINE
  5
500
330
1E
100
AcDbEntity
  8
GND
100
AcDbPolyline
 90
        2
 70
     0
 43
0.2
 10
35.82712791550417
 20
-17.75458895809039
 42
1.0
 10
35.82712791550417
 20
-18.55458895809039
  0
INSERT
  5
501
330
1E
100
AcDbEntity
  8
CONSTR
100
AcDbBlockReference
  2
elkon
 10
34.07395358389322
 20
-19.63349181517269
 30
0.0
  0
INSERT
  5
502
330
1E
100
AcDbEntity
  8
CONSTR
100
AcDbBlockReference
  2
elkon
 10
46.04347985978644
 20
-1.539044160092471
 30
0.0
 50
180.0
  0
INSERT
  5
503
330
1E
100
AcDbEntity
  8
CONSTR
100
AcDbBlockReference
  2
rfc
 10
70.17946554664658
 20
22.96327976528566
 30
0.0
 41
5.747672421525734
 42
5.747672421525731
 43
5.747672421525731
 50
180.0
  0
LWPOLYLINE
  5
504
330
1E
100
AcDbEntity
  8
CONSTR
100
AcDbPolyline
 90
        2
 70
     0
 43
0.0
 10
42.77267735974954
 20
-8.715400306750948
 10
42.88843796063217
 20
-9.333459223544741
  0
LWPOLYLINE
  5
505
330
1E
100
AcDbEntity
  8
CONSTR
100
AcDbPolyline
 90
        2
 70
     0
 43
0.0
 10
42.76452986167028
 20
-10.65898713258355
 10
42.30097550202249
 20
-10.62045445226142
  0
MTEXT
  5
506
330
1E
100
AcDbEntity
  8
CONSTR
100
AcDbMText
 10
37.00260347715532
 20
-7.784446079200106
 30
0.0
 40
0.6
 41
1.6775
 71
     1
 72
     5
  1
1uF
 73
     1
 44
1.0
  0
MTEXT
  5
507
330
1E
100
AcDbEntity
  8
CONSTR
100
AcDbMText
 10
39.07880585414991
 20
-5.211504611147715
 30
0.0
 40
0.6
 41
2.423099999999999
 71
     1
 72
     5
  1
10uH
 11
0.0000000000000001
 21
1.0
 31
0.0
 73
     1
 44
1.0
  0
MTEXT
  5
508
330
1E
100
AcDbEntity
  8
CONSTR
100
AcDbMText
 10
45.09723734591499
 20
-9.198450358972108
 30
0.0
 40
0.5999999999999999
 41
3.075399999999999
 71
     1
 72
     5
  1
78L10
 11
0.0031168054897741
 21
-0.999995142749973
 31
0.0
 73
     1
 44
1.0
  0
INSERT
  5
509
330
1E
100
AcDbEntity
  8
CONSTR
100
AcDbBlockReference
  2
tri
 10
43.20714940254687
 20
-21.80434389720509
 30
0.0
 50
44.99999999999991
  0
LWPOLYLINE
  5
50A
330
1E
100
AcDbEntity
  8
CONSTR
100
AcDbPolyline
 90
        2
 70
     0
 43
0.0
 10
42.87875165522116
 20
-12.10228548721486
 10
43.0720408568403
 20
-11.44553133018263
  0
LWPOLYLINE
  5
50B
330
1E
100
AcDbEntity
  8
CONSTR
100
AcDbPolyline
 90
        2
 70
     0
 43
0.0
 10
42.90548589635689
 20
-9.363739487968656
 10
43.02124649723955
 20
-9.981798404762448
  0
LWPOLYLINE
  5
50C
330
1E
100
AcDbEntity
  8
GND
100
AcDbPolyline
 90
        2
 70
     0
 43
0.2
 10
41.06702005321767
 20
-10.99224803117851
 42
1.0
 10
41.06702005321767
 20
-10.19224803117851
  0
LWPOLYLINE
  5
50D
330
1E
100
AcDbEntity
  8
GND
100
AcDbPolyline
 90
        2
 70
     0
 43
0.2
 10
41.06702005321767
 20
-10.19224803117851
 42
1.0
 10
41.06702005321767
 20
-10.99224803117851
  0
LWPOLYLINE
  5
50E
330
1E
100
AcDbEntity
  8
CONSTR
100
AcDbPolyline
 90
        2
 70
     0
 43
0.0
 10
42.71914301638982
 20
-12.65692985353062
 10
42.91243221800896
 20
-12.0001756964984
  0
LWPOLYLINE
  5
50F
330
1E
100
AcDbEntity
  8
CONSTR
100
AcDbPolyline
 90
        2
 70
     0
 43
0.0
 10
42.5136048642951
 20
-13.18147076401686
 10
42.70689406591422
 20
-12.52471660698463
  0
LWPOLYLINE
  5
510
330
1E
100
AcDbEntity
  8
CONSTR
100
AcDbPolyline
 90
        2
 70
     0
 43
0.0
 10
42.63467255253305
 20
-8.158364723089858
 10
42.7504331534157
 20
-8.776423639883651
  0
MTEXT
  5
511
330
1E
100
AcDbEntity
  8
CONSTR
100
AcDbMText
 10
37.40816038319035
 20
-13.28091406691964
 30
0.0
 40
0.6
 41
3.8919
 71
     1
 72
     5
  1
33
 73
     1
 44
1.0
  0
MTEXT
  5
512
330
1E
100
AcDbEntity
  8
CONSTR
100
AcDbMText
 10
35.46094481607803
 20
-16.66218657068696
 30
0.0
 40
0.6
 41
5.9263
 71
     1
 72
     5
  1
1nF
 11
0.0000000000000001
 21
1.0
 31
0.0
 73
     1
 44
1.0
  0
MTEXT
  5
513
330
1E
100
AcDbEntity
  8
CONSTR
100
AcDbMText
 10
39.92629193016814
 20
-16.85627430811832
 30
0.0
 40
0.6
 41
5.8379
 71
     1
 72
     5
  1
20nF
 11
0.0000000000000001
 21
1.0
 31
0.0
 73
     1
 44
1.0
  0
MTEXT
  5
514
330
1E
100
AcDbEntity
  8
CONSTR
100
AcDbMText
 10
37.19196638052441
 20
-11.10365123743965
 30
0.0
 40
0.6
 41
1.6775
 71
     1
 72
     5
  1
1uF
 73
     1
 44
1.0
  0
LWPOLYLINE
  5
515
330
1E
100
AcDbEntity
  8
CONSTR
100
AcDbPolyline
 90
        2
 70
     0
 43
0.0
 10
40.64970754281081
 20
-5.308616520785717
 10
40.64970754281081
 20
-8.016901228366561
  0
LWPOLYLINE
  5
516
330
1E
100
AcDbEntity
  8
CONSTR
100
AcDbPolyline
 90
        2
 70
     0
 43
0.0
 10
40.59206301749371
 20
-2.830824087564719
 10
40.59206301749371
 20
0.1943876275289131
  0
LWPOLYLINE
  5
517
330
1E
100
AcDbEntity
  8
CONSTR
100
AcDbPolyline
 90
        2
 70
     0
 43
0.0
 10
6.616708174458349
 20
-0.1978854915831931
 10
7.140825396248985
 20
3.092643760519891
  0
LWPOLYLINE
  5
518
330
1E
100
AcDbEntity
  8
CONSTR
100
AcDbPolyline
 90
        2
 70
     0
 43
0.0
 10
5.208093284618181
 20
3.084587374825012
 10
6.13419413327966
 20
-3.352507798682868
  0
LWPOLYLINE
  5
519
330
1E
100
AcDbEntity
  8
CONSTR
100
AcDbPolyline
 90
        2
 70
     0
 43
0.0
 10
6.150300129411535
 20
3.07653098913012
 10
7.068347835457563
 20
-3.368620570072639
  0
LWPOLYLINE
  5
51A
330
1E
100
AcDbEntity
  8
CONSTR
100
AcDbPolyline
 90
        2
 70
     0
 43
0.0
 10
5.269687574164906
 20
3.176353180922749
 10
4.614793731561324
 20
-0.8187026147771199
  0
ARC
  5
51B
330
1E
100
AcDbEntity
  8
CONSTR
100
AcDbCircle
 10
5.678461589275123
 20
3.079861781588196
 30
0.0
 40
0.473891479268278
100
AcDbArc
 50
356.5051155470028
 51
183.4948844529972
  0
ARC
  5
51C
330
1E
100
AcDbEntity
  8
CONSTR
100
AcDbCircle
 10
7.616323682881986
 20
3.068645917266529
 30
0.0
 40
0.473891479268278
100
AcDbArc
 50
357.862839235729
 51
2.662741806488528
  0
LWPOLYLINE
  5
51D
330
1E
100
AcDbEntity
  8
CONSTR
100
AcDbPolyline
 90
        4
 70
     1
 43
0.0
 10
10.09796759254194
 20
3.510536264779084
 10
10.09796759254194
 20
3.510536264779084
 10
10.09796759254194
 20
3.510536264779084
 10
10.09796759254194
 20
3.510536264779084
  0
LINE
  5
51E
330
1E
100
AcDbEntity
  8
CONSTR
100
AcDbLine
 10
5.557067817710571
 20
-0.8173531550341586
 30
0.0
 11
5.687197714328302
 21
-0.0232267257006313
 31
0.0
  0
LWPOLYLINE
  5
51F
330
1E
100
AcDbEntity
  8
CONSTR
100
AcDbPolyline
 90
        2
 70
     0
 43
0.0
 10
7.068347835457563
 20
-3.336394810104735
 10
7.58484404720677
 20
-0.0679766142874492
  0
ARC
  5
520
330
1E
100
AcDbEntity
  8
CONSTR
100
AcDbCircle
 10
6.598693215570918
 20
-3.339084798703339
 30
0.0
 40
0.473891479268278
100
AcDbArc
 50
180.6813662363379
 51
359.3186337636621
  0
LWPOLYLINE
  5
521
330
1E
100
AcDbEntity
  8
CONSTR
100
AcDbPolyline
 90
        2
 70
     0
 43
0.0
 10
7.166269432182668
 20
3.123015287853736
 10
8.092370136294615
 20
-3.281853908497875
  0
LWPOLYLINE
  5
522
330
1E
100
AcDbEntity
  8
CONSTR
100
AcDbPolyline
 90
        2
 70
     0
 43
0.0
 10
10.51566928717003
 20
-0.1352882042814336
 10
11.03978650896066
 20
3.155241047821643
  0
LWPOLYLINE
  5
523
330
1E
100
AcDbEntity
  8
CONSTR
100
AcDbPolyline
 90
        2
 70
     0
 43
0.0
 10
8.584202710722035
 20
-0.1695082068462668
 10
9.107054397329861
 20
3.139128276431872
  0
LWPOLYLINE
  5
524
330
1E
100
AcDbEntity
  8
CONSTR
100
AcDbPolyline
 90
        2
 70
     0
 43
0.0
 10
9.042629979153891
 20
-3.281853908497875
 10
8.100423134360546
 20
3.114958902158864
  0
LWPOLYLINE
  5
525
330
1E
100
AcDbEntity
  8
CONSTR
100
AcDbPolyline
 90
        2
 70
     0
 43
0.0
 10
9.107054397329861
 20
3.147184662126768
 10
10.03315524599134
 20
-3.289910511381112
  0
LWPOLYLINE
  5
526
330
1E
100
AcDbEntity
  8
CONSTR
100
AcDbPolyline
 90
        2
 70
     0
 43
0.0
 10
10.04926124212321
 20
3.139128276431872
 10
10.96730894816925
 20
-3.30602328277088
  0
ARC
  5
527
330
1E
100
AcDbEntity
  8
CONSTR
100
AcDbCircle
 10
7.634490792750129
 20
3.113987995218611
 30
0.0
 40
0.473891479268278
100
AcDbArc
 50
359.9495733215438
 51
180.0504266784562
  0
ARC
  5
528
330
1E
100
AcDbEntity
  8
CONSTR
100
AcDbCircle
 10
9.577422701986805
 20
3.142459068889948
 30
0.0
 40
0.473891479268278
100
AcDbArc
 50
356.5051155470028
 51
183.4948844529972
  0
LWPOLYLINE
  5
529
330
1E
100
AcDbEntity
  8
CONSTR
100
AcDbPolyline
 90
        2
 70
     0
 43
0.0
 10
9.042629979153891
 20
-3.281853908497875
 10
9.558234053577972
 20
0.0111478127735829
  0
ARC
  5
52A
330
1E
100
AcDbEntity
  8
CONSTR
100
AcDbCircle
 10
8.565881399766677
 20
-3.276487511401583
 30
0.0
 40
0.473891479268278
100
AcDbArc
 50
180.6813662363379
 51
359.3186337636621
  0
LWPOLYLINE
  5
52B
330
1E
100
AcDbEntity
  8
CONSTR
100
AcDbPolyline
 90
        2
 70
     0
 43
0.0
 10
10.96730894816925
 20
-3.273797522802979
 10
11.48380515991845
 20
-0.0053793269856932
  0
ARC
  5
52C
330
1E
100
AcDbEntity
  8
CONSTR
100
AcDbCircle
 10
10.4976543282826
 20
-3.276487511401583
 30
0.0
 40
0.473891479268278
100
AcDbArc
 50
180.6813662363379
 51
359.3186337636621
  0
LWPOLYLINE
  5
52D
330
1E
100
AcDbEntity
  8
CONSTR
100
AcDbPolyline
 90
        2
 70
     0
 43
0.0
 10
12.46454472636676
 20
-0.1226615147414876
 10
12.98866194815739
 20
3.167867737361589
  0
LWPOLYLINE
  5
52E
330
1E
100
AcDbEntity
  8
CONSTR
100
AcDbPolyline
 90
        2
 70
     0
 43
0.0
 10
11.05592983652658
 20
3.159811351666714
 10
11.98203068518807
 20
-3.277283821841159
  0
LWPOLYLINE
  5
52F
330
1E
100
AcDbEntity
  8
CONSTR
100
AcDbPolyline
 90
        2
 70
     0
 43
0.0
 10
11.99813668131994
 20
3.151754965971818
 10
12.91618438736598
 20
-3.29339659323093
  0
ARC
  5
530
330
1E
100
AcDbEntity
  8
CONSTR
100
AcDbCircle
 10
11.52629814118353
 20
3.155085758429901
 30
0.0
 40
0.473891479268278
100
AcDbArc
 50
356.5051155470028
 51
183.4948844529972
  0
ARC
  5
531
330
1E
100
AcDbEntity
  8
CONSTR
100
AcDbCircle
 10
13.46416023479039
 20
3.143869894108235
 30
0.0
 40
0.473891479268278
100
AcDbArc
 50
357.862839235729
 51
2.662741806488528
  0
LWPOLYLINE
  5
532
330
1E
100
AcDbEntity
  8
CONSTR
100
AcDbPolyline
 90
        4
 70
     1
 43
0.0
 10
15.94580414445035
 20
3.585760241620789
 10
15.94580414445035
 20
3.585760241620789
 10
15.94580414445035
 20
3.585760241620789
 10
15.94580414445035
 20
3.585760241620789
  0
LWPOLYLINE
  5
533
330
1E
100
AcDbEntity
  8
CONSTR
100
AcDbPolyline
 90
        2
 70
     0
 43
0.0
 10
12.91618438736598
 20
-3.26117083326303
 10
13.43268059911518
 20
0.0072473625542528
  0
ARC
  5
534
330
1E
100
AcDbEntity
  8
CONSTR
100
AcDbCircle
 10
12.44652976747932
 20
-3.263860821861634
 30
0.0
 40
0.473891479268278
100
AcDbArc
 50
180.6813662363379
 51
359.3186337636621
  0
LWPOLYLINE
  5
535
330
1E
100
AcDbEntity
  8
CONSTR
100
AcDbPolyline
 90
        2
 70
     0
 43
0.0
 10
13.01410598409107
 20
3.198239264695448
 10
13.94020668820303
 20
-3.206629931656166
  0
LWPOLYLINE
  5
536
330
1E
100
AcDbEntity
  8
CONSTR
100
AcDbPolyline
 90
        2
 70
     0
 43
0.0
 10
16.36350583907844
 20
-0.0600642274397245
 10
16.88762306086907
 20
3.230465024663345
  0
LWPOLYLINE
  5
537
330
1E
100
AcDbEntity
  8
CONSTR
100
AcDbPolyline
 90
        2
 70
     0
 43
0.0
 10
14.43203926263044
 20
-0.0942842300045683
 10
14.95489094923826
 20
3.214352253273581
  0
LWPOLYLINE
  5
538
330
1E
100
AcDbEntity
  8
CONSTR
100
AcDbPolyline
 90
        2
 70
     0
 43
0.0
 10
14.8904665310623
 20
-3.206629931656166
 10
13.94825968626895
 20
3.190182879000573
  0
LWPOLYLINE
  5
539
330
1E
100
AcDbEntity
  8
CONSTR
100
AcDbPolyline
 90
        2
 70
     0
 43
0.0
 10
14.95489094923826
 20
3.222408638968474
 10
15.88099179789975
 20
-3.214686534539403
  0
LWPOLYLINE
  5
53A
330
1E
100
AcDbEntity
  8
CONSTR
100
AcDbPolyline
 90
        2
 70
     0
 43
0.0
 10
15.89709779403162
 20
3.214352253273581
 10
16.81514550007765
 20
-3.230799305929174
  0
ARC
  5
53B
330
1E
100
AcDbEntity
  8
CONSTR
100
AcDbCircle
 10
13.48232734465853
 20
3.18921197206032
 30
0.0
 40
0.473891479268278
100
AcDbArc
 50
359.9495733215438
 51
180.0504266784562
  0
ARC
  5
53C
330
1E
100
AcDbEntity
  8
CONSTR
100
AcDbCircle
 10
15.42525925389521
 20
3.217683045731657
 30
0.0
 40
0.473891479268278
100
AcDbArc
 50
356.5051155470028
 51
183.4948844529972
  0
LWPOLYLINE
  5
53D
330
1E
100
AcDbEntity
  8
CONSTR
100
AcDbPolyline
 90
        2
 70
     0
 43
0.0
 10
14.8904665310623
 20
-3.206629931656166
 10
15.40607060548638
 20
0.0863717896152885
  0
ARC
  5
53E
330
1E
100
AcDbEntity
  8
CONSTR
100
AcDbCircle
 10
14.41371795167508
 20
-3.201263534559881
 30
0.0
 40
0.473891479268278
100
AcDbArc
 50
180.6813662363379
 51
359.3186337636621
  0
LWPOLYLINE
  5
53F
330
1E
100
AcDbEntity
  8
CONSTR
100
AcDbPolyline
 90
        2
 70
     0
 43
0.0
 10
16.81514550007765
 20
-3.198573545961274
 10
17.33164171182685
 20
0.0698446498560124
  0
ARC
  5
540
330
1E
100
AcDbEntity
  8
CONSTR
100
AcDbCircle
 10
16.34549088019101
 20
-3.201263534559881
 30
0.0
 40
0.473891479268278
100
AcDbArc
 50
180.6813662363379
 51
359.3186337636621
  0
LWPOLYLINE
  5
541
330
1E
100
AcDbEntity
  8
CONSTR
100
AcDbPolyline
 90
        2
 70
     0
 43
0.0
 10
16.87419807309262
 20
3.26674116669945
 10
17.45473136787341
 20
-0.7684004437365282
  0
LWPOLYLINE
  5
542
330
1E
100
AcDbEntity
  8
CONSTR
100
AcDbPolyline
 90
        2
 70
     0
 43
0.0
 10
17.81640491788597
 20
3.258684781004554
 10
18.38983238210541
 20
-0.7670612567708091
  0
ARC
  5
543
330
1E
100
AcDbEntity
  8
CONSTR
100
AcDbCircle
 10
17.34456637774956
 20
3.262015573462633
 30
0.0
 40
0.473891479268278
100
AcDbArc
 50
356.5051155470028
 51
183.4948844529972
  0
ARC
  5
544
330
1E
100
AcDbEntity
  8
CONSTR
100
AcDbCircle
 10
5.047610081276843
 20
-0.7991109469356417
 30
0.0
 40
0.473891479268278
100
AcDbArc
 50
180.6813662363379
 51
359.3186337636621
  0
ARC
  5
545
330
1E
100
AcDbEntity
  8
CONSTR
100
AcDbCircle
 10
17.95479854414091
 20
-0.6568753536666421
 30
0.0
 40
0.473891479268278
100
AcDbArc
 50
180.6813662363379
 51
359.3186337636621
  0
MTEXT
  5
546
330
1E
100
AcDbEntity
  8
CONSTR
100
AcDbMText
 10
9.251026361696645
 20
-5.120588045266529
 30
0.0
 40
0.8
 41
13.3098
 71
     1
 72
     5
  1
n={\Ftxt.shx|c238;6}t.\PD=8mm\Pl=1{\Ftxt.shx|c238;5}mm\Pd={\Ftxt.shx|c238;1.5}mm \PCuAg
 73
     1
 44
1.0
  0
MTEXT
  5
547
330
1E
100
AcDbEntity
  8
CONSTR
100
AcDbMText
 10
9.865944560185283
 20
6.327689641872581
 30
0.0
 40
1.199999999999999
 41
3.8612
 71
     1
 72
     5
  1
L
 73
     1
 44
1.0
  0
MTEXT
  5
548
330
1E
100
AcDbEntity
  8
CONSTR
100
AcDbMText
 10
2.78467359720274
 20
-4.541291217469321
 30
0.0
 40
0.6
 41
3.4054
 71
     1
 72
     5
  1
{\Ftxt.shx|c238;33}0pF
 11
0.0000000000000001
 21
1.0
 31
0.0
 73
     1
 44
1.0
  0
MTEXT
  5
54F
330
1E
100
AcDbEntity
  8
METAL1
370
    30
100
AcDbMText
 10
28.12529717802477
 20
14.29564601837889
 30
0.0
 40
1.199999999999999
 41
57.7028
 71
     5
 72
     5
  1
BFG135a ULTRA HI-DYNAMIC 1-{\Ftxt.shx|c238;30} MHz LNA\PYU1AW
 73
     1
 44
1.0
  0
INSERT
  5
569
330
1E
100
AcDbEntity
  8
CONSTR
100
AcDbBlockReference
  2
rfc
 10
63.20592063733124
 20
19.92792521154543
 30
0.0
 41
5.747672421525734
 42
5.747672421525731
 43
5.747672421525731
 50
180.0
  0
MTEXT
  5
56A
330
1E
100
AcDbEntity
  8
CONSTR
100
AcDbMText
 10
32.10526094483457
 20
-8.246859164887951
 30
0.0
 40
0.6
 41
2.423099999999999
 71
     1
 72
     5
  1
10uH
 11
0.0000000000000001
 21
1.0
 31
0.0
 73
     1
 44
1.0
  0
LINE
  5
56B
330
1E
100
AcDbEntity
  8
CONSTR
100
AcDbLine
 10
33.62708715446461
 20
-5.891250335856408
 30
0.0
 11
33.62708715446461
 21
-4.0
 31
0.0
  0
LINE
  5
56C
330
1E
100
AcDbEntity
  8
CONSTR
100
AcDbLine
 10
33.64961166312782
 20
-8.345639223007239
 30
0.0
 11
33.64961166312782
 21
-12.86071797409745
 31
0.0
  0
ENDSEC
  0
SECTION
  2
OBJECTS
  0
DICTIONARY
  5
C
330
0
100
AcDbDictionary
281
     1
  3
ACAD_COLOR
350
557
  3
ACAD_GROUP
350
D
  3
ACAD_LAYOUT
350
19
  3
ACAD_MATERIAL
350
556
  3
ACAD_MLINESTYLE
350
16
  3
ACAD_PLOTSETTINGS
350
18
  3
ACAD_PLOTSTYLENAME
350
E
  3
AcDbVariableDictionary
350
13B
  0
DICTIONARY
  5
12F
330
1E
100
AcDbDictionary
280
     1
281
     1
  3
ACAD_SORTENTS
360
130
  0
DICTIONARY
  5
557
102
{ACAD_REACTORS
330
C
102
}
330
C
100
AcDbDictionary
281
     1
  0
DICTIONARY
  5
D
102
{ACAD_REACTORS
330
C
102
}
330
C
100
AcDbDictionary
281
     1
  0
DICTIONARY
  5
19
102
{ACAD_REACTORS
330
C
102
}
330
C
100
AcDbDictionary
281
     1
  3
Layout1
350
1D
  3
Model
350
21
  0
DICTIONARY
  5
556
102
{ACAD_REACTORS
330
C
102
}
330
C
100
AcDbDictionary
281
     1
  0
DICTIONARY
  5
16
102
{ACAD_REACTORS
330
C
102
}
330
C
100
AcDbDictionary
281
     1
  3
Standard
350
17
  0
DICTIONARY
  5
18
102
{ACAD_REACTORS
330
C
102
}
330
C
100
AcDbDictionary
281
     1
  0
ACDBDICTIONARYWDFLT
  5
E
102
{ACAD_REACTORS
330
C
102
}
330
C
100
AcDbDictionary
281
     1
  3
Normal
350
F
100
AcDbDictionaryWithDefault
340
F
  0
DICTIONARY
  5
13B
102
{ACAD_REACTORS
330
C
102
}
330
C
100
AcDbDictionary
281
     1
  3
DIMASSOC
350
13D
  3
SORTENTS
350
13C
  0
SORTENTSTABLE
  5
130
102
{ACAD_REACTORS
330
12F
102
}
330
12F
100
AcDbSortentsTable
330
1E
331
F1
  5
96
331
51B
  5
50F
331
4C4
  5
4C2
331
F9
  5
97
331
297
  5
D0
331
56A
  5
53F
331
523
  5
517
331
4CC
  5
4C6
331
72
  5
43
331
29F
  5
F5
331
52B
  5
51F
331
4D4
  5
4CE
331
2A7
  5
115
331
4F4
  5
4D4
331
111
  5
99
331
533
  5
527
331
4FC
  5
4F4
331
504
  5
4FA
331
53B
  5
52F
331
50C
  5
56B
331
4B5
  5
4B5
331
129
  5
9E
331
543
  5
537
331
514
  5
508
331
4BD
  5
4BD
331
23
  5
23
331
51C
  5
510
331
4C5
  5
4C3
331
3AE
  5
12B
331
298
  5
D1
331
56B
  5
540
331
524
  5
518
331
4CD
  5
4C7
331
73
  5
44
331
2A0
  5
F9
331
52C
  5
520
331
4D5
  5
4CF
331
4F5
  5
4D5
331
83
  5
45
331
8B
  5
58
331
2A8
  5
116
331
534
  5
528
331
4FD
  5
4F5
331
2D8
  5
123
331
505
  5
4FB
331
4AE
  5
4AE
331
53C
  5
530
331
50D
  5
56C
331
4B6
  5
4B6
331
12A
  5
9F
331
544
  5
538
331
515
  5
509
331
4BE
  5
4BE
331
24
  5
24
331
51D
  5
511
331
4C6
  5
4C4
331
3AF
  5
138
331
299
  5
D5
331
56C
  5
541
331
525
  5
519
331
4CE
  5
4C8
331
2A1
  5
FD
331
52D
  5
521
331
4D6
  5
4D0
331
4F6
  5
4D6
331
84
  5
55
331
8C
  5
5C
331
2A9
  5
117
331
535
  5
529
331
4FE
  5
4F6
331
506
  5
4FC
331
9C
  5
6F
331
4AF
  5
4AF
331
53D
  5
531
331
50E
  5
502
331
4B7
  5
4B7
331
12B
  5
A0
331
545
  5
539
331
516
  5
50A
331
4BF
  5
4BF
331
25
  5
25
331
55
  5
2D
331
51E
  5
512
331
4C7
  5
4C5
331
3B0
  5
139
331
29A
  5
D9
331
526
  5
51A
331
4CF
  5
4C9
331
2A2
  5
110
331
52E
  5
522
331
4F7
  5
4F1
331
85
  5
56
331
8D
  5
68
331
2AA
  5
11B
331
536
  5
52A
331
95
  5
6C
331
4FF
  5
569
331
507
  5
4FD
331
4B0
  5
4B0
331
53E
  5
532
331
50F
  5
503
331
4B8
  5
4B8
331
546
  5
53A
331
517
  5
50B
331
26
  5
26
331
56
  5
2E
331
4C0
  5
4C0
331
51F
  5
513
331
29B
  5
DD
331
4C8
  5
544
331
527
  5
51B
331
2A3
  5
111
331
4D0
  5
4CA
331
52F
  5
523
331
86
  5
57
331
4F8
  5
4F2
331
8E
  5
69
331
2AB
  5
11F
331
96
  5
6D
331
500
  5
56A
331
537
  5
52B
331
508
  5
4FE
331
4B1
  5
4B1
331
322
  5
128
331
53F
  5
533
331
510
  5
504
331
4B9
  5
4B9
331
547
  5
53B
331
54F
  5
53D
331
518
  5
50C
331
4C1
  5
4C1
331
57
  5
3F
331
294
  5
CD
331
520
  5
514
331
4C9
  5
545
331
29C
  5
E4
331
528
  5
51C
331
4D1
  5
4CB
331
2A4
  5
112
331
4F1
  5
4D1
331
530
  5
524
331
4F9
  5
548
331
8F
  5
6A
331
116
  5
9A
331
97
  5
6E
331
501
  5
4F7
331
538
  5
52C
331
509
  5
4FF
331
4B2
  5
4B2
331
323
  5
129
331
540
  5
534
331
511
  5
505
331
4BA
  5
4BA
331
548
  5
53C
331
519
  5
50D
331
4C2
  5
542
331
58
  5
40
331
295
  5
CE
331
521
  5
515
331
4CA
  5
546
331
70
  5
41
331
29D
  5
F0
331
529
  5
51D
331
4D2
  5
4CC
331
2A5
  5
113
331
4F2
  5
4D2
331
531
  5
525
331
4FA
  5
54F
331
90
  5
6B
331
117
  5
9B
331
502
  5
4F8
331
11F
  5
9C
331
539
  5
52D
331
50A
  5
500
331
4B3
  5
4B3
331
541
  5
535
331
512
  5
506
331
4BB
  5
4BB
331
F0
  5
95
331
51A
  5
50E
331
4C3
  5
543
331
296
  5
CF
331
569
  5
53E
331
522
  5
516
331
4CB
  5
547
331
71
  5
42
331
29E
  5
F1
331
52A
  5
51E
331
4D3
  5
4CD
331
2A6
  5
114
331
4F3
  5
4D3
331
110
  5
98
331
532
  5
526
331
4FB
  5
4F3
331
503
  5
4F9
331
53A
  5
52E
331
50B
  5
501
331
4B4
  5
4B4
331
128
  5
9D
331
542
  5
536
331
513
  5
507
331
4BC
  5
4BC
  0
LAYOUT
  5
1D
102
{ACAD_REACTORS
330
19
102
}
330
19
100
AcDbPlotSettings
  1

  2
E:\ACAD2000\plotters\HP LaserJet 5L.pc3
  4

  6

 40
0.0
 41
0.0
 42
0.0
 43
0.0
 44
0.0
 45
0.0
 46
0.0
 47
0.0
 48
0.0
 49
0.0
140
0.0
141
0.0
142
1.0
143
1.0
 70
   688
 72
     0
 73
     0
 74
     5
  7
acad.stb
 75
    16
147
1.0
 76
     0
 77
     2
 78
   300
148
0.0
149
0.0
100
AcDbLayout
  1
Layout1
 70
     1
 71
     1
 10
0.0
 20
0.0
 11
12.0
 21
9.0
 12
0.0
 22
0.0
 32
0.0
 14
1.000000000000000E+20
 24
1.000000000000000E+20
 34
1.000000000000000E+20
 15
-1.000000000000000E+20
 25
-1.000000000000000E+20
 35
-1.000000000000000E+20
146
0.0
 13
0.0
 23
0.0
 33
0.0
 16
1.0
 26
0.0
 36
0.0
 17
0.0
 27
1.0
 37
0.0
 76
     0
330
1A
  0
LAYOUT
  5
21
102
{ACAD_REACTORS
330
19
102
}
330
19
100
AcDbPlotSettings
  1

  2
E:\ACAD2000\plotters\HP LaserJet 5L.pc3
  4

  6

 40
0.0
 41
0.0
 42
0.0
 43
0.0
 44
0.0
 45
0.0
 46
0.0
 47
0.0
 48
0.0
 49
0.0
140
0.0
141
0.0
142
1.0
143
1.0
 70
  1712
 72
     0
 73
     0
 74
     0
  7
acad.stb
 75
     0
147
1.0
 76
     0
 77
     2
 78
   300
148
0.0
149
0.0
100
AcDbLayout
  1
Model
 70
     1
 71
     0
 10
0.0
 20
0.0
 11
12.0
 21
9.0
 12
0.0
 22
0.0
 32
0.0
 14
0.0
 24
0.0
 34
0.0
 15
0.0
 25
0.0
 35
0.0
146
0.0
 13
0.0
 23
0.0
 33
0.0
 16
1.0
 26
0.0
 36
0.0
 17
0.0
 27
1.0
 37
0.0
 76
     0
330
1E
  0
MLINESTYLE
  5
17
102
{ACAD_REACTORS
330
16
102
}
330
16
100
AcDbMlineStyle
  2
STANDARD
 70
     0
  3

 62
   256
 51
90.0
 52
90.0
 71
     2
 49
0.5
 62
   256
  6
BYLAYER
 49
-0.5
 62
   256
  6
BYLAYER
  0
ACDBPLACEHOLDER
  5
F
102
{ACAD_REACTORS
330
E
102
}
330
E
  0
DICTIONARYVAR
  5
13D
102
{ACAD_REACTORS
330
13B
102
}
330
13B
100
DictionaryVariables
280
     0
  1
1
  0
DICTIONARYVAR
  5
13C
102
{ACAD_REACTORS
330
13B
102
}
330
13B
100
DictionaryVariables
280
     0
  1
127
  0
ENDSEC
  0
EOF
