  0
SECTION
  2
HEADER
  9
$ACADVER
  1
AC1015
  9
$ACADMAINTVER
 70
    13
  9
$DWGCODEPAGE
  3
ANSI_1252
  9
$INSBASE
 10
0.0
 20
0.0
 30
0.0
  9
$EXTMIN
 10
-9.464485816995036
 20
-20.7595469189266
 30
0.0
  9
$EXTMAX
 10
54.39789438622559
 20
22.56786430614659
 30
0.0
  9
$LIMMIN
 10
0.0
 20
0.0
  9
$LIMMAX
 10
12.0
 20
9.0
  9
$ORTHOMODE
 70
     0
  9
$REGENMODE
 70
     1
  9
$FILLMODE
 70
     1
  9
$QTEXTMODE
 70
     0
  9
$MIRRTEXT
 70
     1
  9
$LTSCALE
 40
1.0
  9
$ATTMODE
 70
     1
  9
$TEXTSIZE
 40
0.2
  9
$TRACEWID
 40
0.05
  9
$TEXTSTYLE
  7
Standard
  9
$CLAYER
  8
CONSTR
  9
$CELTYPE
  6
ByLayer
  9
$CECOLOR
 62
   256
  9
$CELTSCALE
 40
1.0
  9
$DISPSILH
 70
     0
  9
$DIMSCALE
 40
1.0
  9
$DIMASZ
 40
0.18
  9
$DIMEXO
 40
0.0625
  9
$DIMDLI
 40
0.38
  9
$DIMRND
 40
0.0
  9
$DIMDLE
 40
0.0
  9
$DIMEXE
 40
0.18
  9
$DIMTP
 40
0.0
  9
$DIMTM
 40
0.0
  9
$DIMTXT
 40
0.18
  9
$DIMCEN
 40
0.09
  9
$DIMTSZ
 40
0.0
  9
$DIMTOL
 70
     0
  9
$DIMLIM
 70
     0
  9
$DIMTIH
 70
     1
  9
$DIMTOH
 70
     1
  9
$DIMSE1
 70
     0
  9
$DIMSE2
 70
     0
  9
$DIMTAD
 70
     0
  9
$DIMZIN
 70
     0
  9
$DIMBLK
  1

  9
$DIMASO
 70
     1
  9
$DIMSHO
 70
     1
  9
$DIMPOST
  1

  9
$DIMAPOST
  1

  9
$DIMALT
 70
     0
  9
$DIMALTD
 70
     2
  9
$DIMALTF
 40
25.4
  9
$DIMLFAC
 40
1.0
  9
$DIMTOFL
 70
     0
  9
$DIMTVP
 40
0.0
  9
$DIMTIX
 70
     0
  9
$DIMSOXD
 70
     0
  9
$DIMSAH
 70
     0
  9
$DIMBLK1
  1

  9
$DIMBLK2
  1

  9
$DIMSTYLE
  2
Standard
  9
$DIMCLRD
 70
     0
  9
$DIMCLRE
 70
     0
  9
$DIMCLRT
 70
     0
  9
$DIMTFAC
 40
1.0
  9
$DIMGAP
 40
0.09
  9
$DIMJUST
 70
     0
  9
$DIMSD1
 70
     0
  9
$DIMSD2
 70
     0
  9
$DIMTOLJ
 70
     1
  9
$DIMTZIN
 70
     0
  9
$DIMALTZ
 70
     0
  9
$DIMALTTZ
 70
     0
  9
$DIMUPT
 70
     0
  9
$DIMDEC
 70
     4
  9
$DIMTDEC
 70
     4
  9
$DIMALTU
 70
     2
  9
$DIMALTTD
 70
     2
  9
$DIMTXSTY
  7
Standard
  9
$DIMAUNIT
 70
     0
  9
$DIMADEC
 70
     0
  9
$DIMALTRND
 40
0.0
  9
$DIMAZIN
 70
     0
  9
$DIMDSEP
 70
    46
  9
$DIMATFIT
 70
     3
  9
$DIMFRAC
 70
     0
  9
$DIMLDRBLK
  1

  9
$DIMLUNIT
 70
     2
  9
$DIMLWD
 70
    -2
  9
$DIMLWE
 70
    -2
  9
$DIMTMOVE
 70
     0
  9
$LUNITS
 70
     2
  9
$LUPREC
 70
     4
  9
$SKETCHINC
 40
0.1
  9
$FILLETRAD
 40
0.0
  9
$AUNITS
 70
     0
  9
$AUPREC
 70
     0
  9
$MENU
  1
.
  9
$ELEVATION
 40
0.0
  9
$PELEVATION
 40
0.0
  9
$THICKNESS
 40
0.0
  9
$LIMCHECK
 70
     0
  9
$CHAMFERA
 40
0.0
  9
$CHAMFERB
 40
0.0
  9
$CHAMFERC
 40
0.0
  9
$CHAMFERD
 40
0.0
  9
$SKPOLY
 70
     0
  9
$TDCREATE
 40
2451867.659834606
  9
$TDUCREATE
 40
2451867.576501273
  9
$TDUPDATE
 40
2452548.418148912
  9
$TDUUPDATE
 40
2452548.334815578
  9
$TDINDWG
 40
0.1786882755
  9
$TDUSRTIMER
 40
0.1786882755
  9
$USRTIMER
 70
     1
  9
$ANGBASE
 50
0.0
  9
$ANGDIR
 70
     0
  9
$PDMODE
 70
     0
  9
$PDSIZE
 40
0.0
  9
$PLINEWID
 40
0.0
  9
$SPLFRAME
 70
     0
  9
$SPLINETYPE
 70
     6
  9
$SPLINESEGS
 70
     8
  9
$HANDSEED
  5
3B9
  9
$SURFTAB1
 70
     6
  9
$SURFTAB2
 70
     6
  9
$SURFTYPE
 70
     6
  9
$SURFU
 70
     6
  9
$SURFV
 70
     6
  9
$UCSBASE
  2

  9
$UCSNAME
  2

  9
$UCSORG
 10
0.0
 20
0.0
 30
0.0
  9
$UCSXDIR
 10
1.0
 20
0.0
 30
0.0
  9
$UCSYDIR
 10
0.0
 20
1.0
 30
0.0
  9
$UCSORTHOREF
  2

  9
$UCSORTHOVIEW
 70
     0
  9
$UCSORGTOP
 10
0.0
 20
0.0
 30
0.0
  9
$UCSORGBOTTOM
 10
0.0
 20
0.0
 30
0.0
  9
$UCSORGLEFT
 10
0.0
 20
0.0
 30
0.0
  9
$UCSORGRIGHT
 10
0.0
 20
0.0
 30
0.0
  9
$UCSORGFRONT
 10
0.0
 20
0.0
 30
0.0
  9
$UCSORGBACK
 10
0.0
 20
0.0
 30
0.0
  9
$PUCSBASE
  2

  9
$PUCSNAME
  2

  9
$PUCSORG
 10
0.0
 20
0.0
 30
0.0
  9
$PUCSXDIR
 10
1.0
 20
0.0
 30
0.0
  9
$PUCSYDIR
 10
0.0
 20
1.0
 30
0.0
  9
$PUCSORTHOREF
  2

  9
$PUCSORTHOVIEW
 70
     0
  9
$PUCSORGTOP
 10
0.0
 20
0.0
 30
0.0
  9
$PUCSORGBOTTOM
 10
0.0
 20
0.0
 30
0.0
  9
$PUCSORGLEFT
 10
0.0
 20
0.0
 30
0.0
  9
$PUCSORGRIGHT
 10
0.0
 20
0.0
 30
0.0
  9
$PUCSORGFRONT
 10
0.0
 20
0.0
 30
0.0
  9
$PUCSORGBACK
 10
0.0
 20
0.0
 30
0.0
  9
$USERI1
 70
     0
  9
$USERI2
 70
     0
  9
$USERI3
 70
     0
  9
$USERI4
 70
     0
  9
$USERI5
 70
     0
  9
$USERR1
 40
0.0
  9
$USERR2
 40
0.0
  9
$USERR3
 40
0.0
  9
$USERR4
 40
0.0
  9
$USERR5
 40
0.0
  9
$WORLDVIEW
 70
     1
  9
$SHADEDGE
 70
     3
  9
$SHADEDIF
 70
    70
  9
$TILEMODE
 70
     1
  9
$MAXACTVP
 70
    64
  9
$PINSBASE
 10
0.0
 20
0.0
 30
0.0
  9
$PLIMCHECK
 70
     0
  9
$PEXTMIN
 10
1.000000000000000E+20
 20
1.000000000000000E+20
 30
1.000000000000000E+20
  9
$PEXTMAX
 10
-1.000000000000000E+20
 20
-1.000000000000000E+20
 30
-1.000000000000000E+20
  9
$PLIMMIN
 10
0.0
 20
0.0
  9
$PLIMMAX
 10
12.0
 20
9.0
  9
$UNITMODE
 70
     0
  9
$VISRETAIN
 70
     1
  9
$PLINEGEN
 70
     0
  9
$PSLTSCALE
 70
     1
  9
$TREEDEPTH
 70
  3020
  9
$CMLSTYLE
  2
Standard
  9
$CMLJUST
 70
     0
  9
$CMLSCALE
 40
1.0
  9
$PROXYGRAPHICS
 70
     1
  9
$MEASUREMENT
 70
     0
  9
$CELWEIGHT
370
    -1
  9
$ENDCAPS
280
     0
  9
$JOINSTYLE
280
     0
  9
$LWDISPLAY
290
     1
  9
$INSUNITS
 70
     0
  9
$HYPERLINKBASE
  1

  9
$STYLESHEET
  1

  9
$XEDIT
290
     1
  9
$CEPSNTYPE
380
     0
  9
$PSTYLEMODE
290
     1
  9
$FINGERPRINTGUID
  2
{61AAA7DB-BD59-11D4-85D5-E6203D5D4530}
  9
$VERSIONGUID
  2
{E3AE89BA-7D71-4C12-92E6-E2F2216D18D9}
  9
$EXTNAMES
290
     1
  9
$PSVPSCALE
 40
0.0
  9
$OLESTARTUP
290
     0
  0
ENDSEC
  0
SECTION
  2
CLASSES
  0
CLASS
  1
ACDBDICTIONARYWDFLT
  2
AcDbDictionaryWithDefault
  3
AutoCAD 2000
 90
        0
280
     0
281
     0
  0
CLASS
  1
ACDBPLACEHOLDER
  2
AcDbPlaceHolder
  3
AutoCAD 2000
 90
        0
280
     0
281
     0
  0
CLASS
  1
LAYOUT
  2
AcDbLayout
  3
AutoCAD 2000
 90
        0
280
     0
281
     0
  0
CLASS
  1
DICTIONARYVAR
  2
AcDbDictionaryVar
  3
AutoCAD 2000
 90
        0
280
     0
281
     0
  0
CLASS
  1
SORTENTSTABLE
  2
AcDbSortentsTable
  3
AutoCAD 2000
 90
        0
280
     0
281
     0
  0
ENDSEC
  0
SECTION
  2
TABLES
  0
TABLE
  2
VPORT
  5
8
330
0
100
AcDbSymbolTable
 70
     2
  0
VPORT
  5
3B8
330
8
100
AcDbSymbolTableRecord
100
AcDbViewportTableRecord
  2
*Active
 70
     0
 10
0.0
 20
0.0
 11
1.0
 21
1.0
 12
22.46510610734944
 22
0.9037627912532002
 13
0.0
 23
0.0
 14
1.0
 24
1.0
 15
0.0
 25
0.0
 16
0.0
 26
0.0
 36
1.0
 17
0.0
 27
0.0
 37
0.0
 40
44.31634776227955
 41
1.448317307692307
 42
50.0
 43
0.0
 44
0.0
 50
0.0
 51
0.0
 71
     0
 72
   100
 73
     1
 74
     2
 75
     0
 76
     0
 77
     0
 78
     0
281
     0
 65
     1
110
0.0
120
0.0
130
0.0
111
1.0
121
0.0
131
0.0
112
0.0
122
1.0
132
0.0
 79
     0
146
0.0
  0
ENDTAB
  0
TABLE
  2
LTYPE
  5
5
330
0
100
AcDbSymbolTable
 70
     1
  0
LTYPE
  5
13
330
5
100
AcDbSymbolTableRecord
100
AcDbLinetypeTableRecord
  2
ByBlock
 70
     0
  3

 72
    65
 73
     0
 40
0.0
  0
LTYPE
  5
14
330
5
100
AcDbSymbolTableRecord
100
AcDbLinetypeTableRecord
  2
ByLayer
 70
     0
  3

 72
    65
 73
     0
 40
0.0
  0
LTYPE
  5
15
330
5
100
AcDbSymbolTableRecord
100
AcDbLinetypeTableRecord
  2
Continuous
 70
     0
  3
Solid line
 72
    65
 73
     0
 40
0.0
  0
ENDTAB
  0
TABLE
  2
LAYER
  5
2
330
0
100
AcDbSymbolTable
 70
     5
  0
LAYER
  5
10
330
2
100
AcDbSymbolTableRecord
100
AcDbLayerTableRecord
  2
0
 70
     0
 62
     7
  6
Continuous
370
    -3
390
F
  0
LAYER
  5
22
330
2
100
AcDbSymbolTableRecord
100
AcDbLayerTableRecord
  2
METAL1
 70
     0
 62
     7
  6
Continuous
370
    -3
390
F
  0
LAYER
  5
27
330
2
100
AcDbSymbolTableRecord
100
AcDbLayerTableRecord
  2
CONSTR
 70
     0
 62
    -3
  6
Continuous
370
    -3
390
F
  0
LAYER
  5
D8
330
2
100
AcDbSymbolTableRecord
100
AcDbLayerTableRecord
  2
GND
 70
     0
 62
     9
  6
Continuous
370
    -3
390
F
  0
LAYER
  5
20B
330
2
100
AcDbSymbolTableRecord
100
AcDbLayerTableRecord
  2
Defpoints
 70
     0
 62
     7
  6
Continuous
290
     0
370
    -3
390
F
  0
ENDTAB
  0
TABLE
  2
STYLE
  5
3
330
0
100
AcDbSymbolTable
 70
     1
  0
STYLE
  5
11
330
3
100
AcDbSymbolTableRecord
100
AcDbTextStyleTableRecord
  2
Standard
 70
     0
 40
0.0
 41
1.0
 50
0.0
 71
     0
 42
0.2
  3
txt
  4

  0
ENDTAB
  0
TABLE
  2
VIEW
  5
6
330
0
100
AcDbSymbolTable
 70
     0
  0
ENDTAB
  0
TABLE
  2
UCS
  5
7
330
0
100
AcDbSymbolTable
 70
     0
  0
ENDTAB
  0
TABLE
  2
APPID
  5
9
330
0
100
AcDbSymbolTable
 70
     1
  0
APPID
  5
12
330
9
100
AcDbSymbolTableRecord
100
AcDbRegAppTableRecord
  2
ACAD
 70
     0
  0
ENDTAB
  0
TABLE
  2
DIMSTYLE
  5
A
330
0
100
AcDbSymbolTable
 70
     1
100
AcDbDimStyleTable
 71
     1
340
117
  0
DIMSTYLE
105
117
102
{ACAD_REACTORS
330
315
330
323
102
}
330
A
100
AcDbSymbolTableRecord
100
AcDbDimStyleTableRecord
  2
Standard
 70
     0
340
11
  0
ENDTAB
  0
TABLE
  2
BLOCK_RECORD
  5
1
330
0
100
AcDbSymbolTable
 70
     9
  0
BLOCK_RECORD
  5
1E
102
{ACAD_XDICTIONARY
360
11E
102
}
330
1
100
AcDbSymbolTableRecord
100
AcDbBlockTableRecord
  2
*Model_Space
340
21
  0
BLOCK_RECORD
  5
1A
330
1
100
AcDbSymbolTableRecord
100
AcDbBlockTableRecord
  2
*Paper_Space
340
1D
  0
BLOCK_RECORD
  5
1A3
330
1
100
AcDbSymbolTableRecord
100
AcDbBlockTableRecord
  2
Inductor
340
0
310
280000002000000020000000010004000000000000020000000000000000000000000000000000000000000000008000008000000080800080000000800080008080000080808000C0C0C0000000FF0000FF000000FFFF00FF000000FF00FF00FFFF0000FFFFFF00FFFFFFFFFFFFFFFFFFFFFFFFFFFFFFFFFFFFFFFFFFFFFF
310
FFFFFFFFFFFFFFFFFFFFFFFFFFFFFFFFFFFFFFFFFFFFFFFFFFFFFFFFFFFFFFFFFFFFFFFFFFFFFFFFFFFFFFFFFFFFFFFFFFFFFFFFFFFFFFFFFFFFFFFFFFFFFFFFFFFFFFFFFFFFFFFFFFFFFFFFFFFFFFFFFFFFFFFFFFFFFFFFFFFFFFFFFFFFFFFFFFFFFFFFFFFFFFFFFFFFFFFFFFFFFFFFFFFFFFFFFFFFFFFFFFFFFFFFFFFFFF
310
FFFFFFFFFFFFFFFFFFFFFFFFFFFFFFFFFFFFFFFFFFFFFFFFFFFFFFFFFFFFFFFFFFFFFFFFFFFFFFFFFFFF0000FFFFFFFF0FFFFFF0FFFFFFF0000FFFF0FFFFFFF00FFFFFF0FFFFFFF0FFFFFFF0FFFFFFF00FFFFFF00FFFFFFF0FFFFFF0FFFFFFF00FFFFF0F0FFFFFFF0FFFFFF0FFFFFFF0F0FFFF0F0FFFFFFF0FFFFFFF0FFFFF
310
F00FFFFFF00FFFFFF0FFFFFFFF0FFFFFF00FFFFFF0FFFFFF0FFFFFFFFFF0FFFFF0F0FFFF0F0FFFFF0FFFFFFFFFFF00000FFF0000FFF00000FFFFFFFFFFFFFFFFFFFFFFFFFFFFFFFFFFFFFFFFFFFFFFFFFFFFFFFFFFFFFFFFFFFFFFFFFFFFFFFFFFFFFFFFFFFFFFFFFFFFFFFFFFFFFFFFFFFFFFFFFFFFFFFFFFFFFFFFFFFFFF
310
FFFFFFFFFFFFFFFFFFFFFFFFFFFFFFFFFFFFFFFFFFFFFFFFFFFFFFFFFFFFFFFFFFFFFFFFFFFFFFFFFFFFFFFFFFFFFFFFFFFFFFFFFFFFFFFFFFFFFFFFFFFFFFFFFFFFFFFFFFFFFFFFFFFFFFFFFFFFFFFFFFFFFFFFFFFFFFFFFFFFFFFFFFFFFFFFFFFFFFFFFFFFFFFFFFFFFFFF
102
{BLKREFS
331
1B1
102
}
1001
ACAD
1000
DesignCenter Data
1002
{
1070
     1
1070
     1
1002
}
  0
BLOCK_RECORD
  5
1AB
330
1
100
AcDbSymbolTableRecord
100
AcDbBlockTableRecord
  2
conpoint
340
0
310
28000000200000002000000001000800000000000004000000000000000000000000000000000000000000004000000080000000FF000000002000004020000080200000FF200000004000004040000080400000FF400000006000004060000080600000FF600000008000004080000080800000FF80000000A0000040A000
310
0080A00000FFA0000000C0000040C0000080C00000FFC0000000FF000040FF000080FF0000FFFF0000000020004000200080002000FF002000002020004020200080202000FF202000004020004040200080402000FF402000006020004060200080602000FF602000008020004080200080802000FF80200000A0200040A0
310
200080A02000FFA0200000C0200040C0200080C02000FFC0200000FF200040FF200080FF2000FFFF2000000040004000400080004000FF004000002040004020400080204000FF204000004040004040400080404000FF404000006040004060400080604000FF604000008040004080400080804000FF80400000A0400040
310
A0400080A04000FFA0400000C0400040C0400080C04000FFC0400000FF400040FF400080FF4000FFFF4000000060004000600080006000FF006000002060004020600080206000FF206000004060004040600080406000FF406000006060004060600080606000FF606000008060004080600080806000FF80600000A06000
310
40A0600080A06000FFA0600000C0600040C0600080C06000FFC0600000FF600040FF600080FF6000FFFF6000000080004000800080008000FF008000002080004020800080208000FF208000004080004040800080408000FF408000006080004060800080608000FF608000008080004080800080808000FF80800000A080
310
0040A0800080A08000FFA0800000C0800040C0800080C08000FFC0800000FF800040FF800080FF8000FFFF80000000A0004000A0008000A000FF00A0000020A0004020A0008020A000FF20A0000040A0004040A0008040A000FF40A0000060A0004060A0008060A000FF60A0000080A0004080A0008080A000FF80A00000A0
310
A00040A0A00080A0A000FFA0A00000C0A00040C0A00080C0A000FFC0A00000FFA00040FFA00080FFA000FFFFA0000000C0004000C0008000C000FF00C0000020C0004020C0008020C000FF20C0000040C0004040C0008040C000FF40C0000060C0004060C0008060C000FF60C0000080C0004080C0008080C000FF80C00000
310
A0C00040A0C00080A0C000FFA0C00000C0C00040C0C00080C0C000FFC0C00000FFC00040FFC00080FFC000FFFFC0000000FF004000FF008000FF00FF00FF000020FF004020FF008020FF00FF20FF000040FF004040FF008040FF00FF40FF000060FF004060FF008060FF00FF60FF000080FF004080FF008080FF00FF80FF00
310
00A0FF0040A0FF0080A0FF00FFA0FF0000C0FF0040C0FF0080C0FF00FFC0FF0000FFFF0040FFFF0080FFFF00FFFFFF000000000000000000000000000000000000000000000000000000000000000000000000000000000000000000000000FFFFFF000000000000000000000000000000000000000000000000FFFFFFFFFF
310
FF00FFFFFF0000000000000000000000000000000000000000FFFF0000FFFF0000000000FFFFFFFF00000000000000000000000000000000FF0000FFFF000000000000000000FFFFFFFF00000000000000000000000000FF00FFFF00000000000000000000000000FFFFFF0000000000000000000000FFFFFF000000000000
310
0000000000000000000000FFFF000000000000000000FF00FF00000000000000000000000000000000000000FFFF0000000000000000FFFF0000000000000000000000000000000000000000FFFF00000000000000FF00FF000000000000000000000000000000000000000000FFFF000000000000FFFF0000000000000000
310
0000000000000000000000000000FF00FF00000000FF00FF0000000000000000000000000000000000000000000000FFFF00000000FFFF000000000000000000000000000000000000000000000000FFFF00000000FFFF00000000000000000000000000000000000000000000000000FF000000FFFF000000000000000000
310
0000000000000000000000000000000000FF000000FFFF000000000000000000000000000000000000000000000000000000FF0000FF00000000000000000000000000000000000000000000000000000000FF0000FFFF0000000000000000000000000000000000000000000000000000FFFF000000FF0000000000000000
310
000000000000000000000000000000000000FF00000000FFFF000000000000000000000000000000000000000000000000FFFF00000000FFFF000000000000000000000000000000000000000000000000FFFF0000000000FFFF00000000000000000000000000000000000000000000FF00FF0000000000FFFF0000000000
310
0000000000000000000000000000000000FFFF00000000000000FFFF0000000000000000000000000000000000000000FFFF0000000000000000FFFF0000000000000000000000000000000000000000FFFF000000000000000000FFFF000000000000000000000000000000000000FFFF0000000000000000000000FFFFFF
310
0000000000000000000000000000FFFFFF00000000000000000000000000FF00FFFF00000000000000000000FFFFFFFF000000000000000000000000000000FFFF00FFFF000000000000FFFFFFFF00000000000000000000000000000000000000FFFFFFFFFF0000FFFFFFFF00000000000000000000000000000000000000
310
00000000000000FFFFFF00000000000000000000000000000000000000000000000000000000000000000000000000000000000000000000
102
{BLKREFS
331
1B2
331
1B3
102
}
1001
ACAD
1000
DesignCenter Data
1002
{
1070
     1
1070
     1
1002
}
  0
BLOCK_RECORD
  5
1B0
330
1
100
AcDbSymbolTableRecord
100
AcDbBlockTableRecord
  2
ind
340
0
310
28000000200000002000000001000800000000000004000000000000000000000000000000000000000000004000000080000000FF000000002000004020000080200000FF200000004000004040000080400000FF400000006000004060000080600000FF600000008000004080000080800000FF80000000A0000040A000
310
0080A00000FFA0000000C0000040C0000080C00000FFC0000000FF000040FF000080FF0000FFFF0000000020004000200080002000FF002000002020004020200080202000FF202000004020004040200080402000FF402000006020004060200080602000FF602000008020004080200080802000FF80200000A0200040A0
310
200080A02000FFA0200000C0200040C0200080C02000FFC0200000FF200040FF200080FF2000FFFF2000000040004000400080004000FF004000002040004020400080204000FF204000004040004040400080404000FF404000006040004060400080604000FF604000008040004080400080804000FF80400000A0400040
310
A0400080A04000FFA0400000C0400040C0400080C04000FFC0400000FF400040FF400080FF4000FFFF4000000060004000600080006000FF006000002060004020600080206000FF206000004060004040600080406000FF406000006060004060600080606000FF606000008060004080600080806000FF80600000A06000
310
40A0600080A06000FFA0600000C0600040C0600080C06000FFC0600000FF600040FF600080FF6000FFFF6000000080004000800080008000FF008000002080004020800080208000FF208000004080004040800080408000FF408000006080004060800080608000FF608000008080004080800080808000FF80800000A080
310
0040A0800080A08000FFA0800000C0800040C0800080C08000FFC0800000FF800040FF800080FF8000FFFF80000000A0004000A0008000A000FF00A0000020A0004020A0008020A000FF20A0000040A0004040A0008040A000FF40A0000060A0004060A0008060A000FF60A0000080A0004080A0008080A000FF80A00000A0
310
A00040A0A00080A0A000FFA0A00000C0A00040C0A00080C0A000FFC0A00000FFA00040FFA00080FFA000FFFFA0000000C0004000C0008000C000FF00C0000020C0004020C0008020C000FF20C0000040C0004040C0008040C000FF40C0000060C0004060C0008060C000FF60C0000080C0004080C0008080C000FF80C00000
310
A0C00040A0C00080A0C000FFA0C00000C0C00040C0C00080C0C000FFC0C00000FFC00040FFC00080FFC000FFFFC0000000FF004000FF008000FF00FF00FF000020FF004020FF008020FF00FF20FF000040FF004040FF008040FF00FF40FF000060FF004060FF008060FF00FF60FF000080FF004080FF008080FF00FF80FF00
310
00A0FF0040A0FF0080A0FF00FFA0FF0000C0FF0040C0FF0080C0FF00FFC0FF0000FFFF0040FFFF0080FFFF00FFFFFF0000000000000000000000000000000000000000000000000000000000000000000000000000000000000000000000000000FFFF00000000000000000000000000000000000000000000000000000000
310
00FFFFFFFF00000000000000000000000000000000000000000000000000000000FF0000FF00000000000000000000000000000000000000000000000000000000FFFFFFFF000000000000000000000000000000000000000000000000000000000000FF000000000000000000000000000000000000000000000000000000
310
FFFFFFFFFF0000000000000000000000000000000000000000000000000000FF00000000FF00000000000000000000000000000000000000000000000000FF00000000000000000000000000000000000000000000000000000000000000FF00000000000000000000000000000000000000000000000000000000000000FF
310
00000000000000000000000000000000000000000000000000000000000000FF0000000000000000000000000000000000000000000000000000000000000000FFFFFFFFFF000000000000000000000000000000000000000000000000000000FFFFFFFFFFFF00000000000000000000000000000000000000000000000000
310
FF00000000000000000000000000000000000000000000000000000000000000FF00000000000000000000000000000000000000000000000000000000000000FF00000000000000000000000000000000000000000000000000000000000000FF000000000000000000000000000000000000000000000000000000000000
310
0000FFFFFFFFFFFF0000000000000000000000000000000000000000000000000000FFFFFFFFFF0000000000000000000000000000000000000000000000000000FF00000000000000000000000000000000000000000000000000000000000000FF0000000000000000000000000000000000000000000000000000000000
310
0000FF00000000000000000000000000000000000000000000000000000000000000FF0000000000000000000000000000000000000000000000000000000000000000FF00000000FF000000000000000000000000000000000000000000000000000000FFFFFFFFFF00000000000000000000000000000000000000000000
310
000000000000000000FF0000000000000000000000000000000000000000000000000000000000FFFFFFFF00000000000000000000000000000000000000000000000000000000FF0000FF00000000000000000000000000000000000000000000000000000000FFFFFFFF0000000000000000000000000000000000000000
310
000000000000000000FFFF000000000000000000000000000000000000000000000000000000000000000000000000000000000000000000
102
{BLKREFS
331
1B7
102
}
1001
ACAD
1000
DesignCenter Data
1002
{
1070
     1
1070
     1
1002
}
  0
BLOCK_RECORD
  5
1B6
330
1
100
AcDbSymbolTableRecord
100
AcDbBlockTableRecord
  2
rfc
340
0
310
28000000200000002000000001000800000000000004000000000000000000000000000000000000000000004000000080000000FF000000002000004020000080200000FF200000004000004040000080400000FF400000006000004060000080600000FF600000008000004080000080800000FF80000000A0000040A000
310
0080A00000FFA0000000C0000040C0000080C00000FFC0000000FF000040FF000080FF0000FFFF0000000020004000200080002000FF002000002020004020200080202000FF202000004020004040200080402000FF402000006020004060200080602000FF602000008020004080200080802000FF80200000A0200040A0
310
200080A02000FFA0200000C0200040C0200080C02000FFC0200000FF200040FF200080FF2000FFFF2000000040004000400080004000FF004000002040004020400080204000FF204000004040004040400080404000FF404000006040004060400080604000FF604000008040004080400080804000FF80400000A0400040
310
A0400080A04000FFA0400000C0400040C0400080C04000FFC0400000FF400040FF400080FF4000FFFF4000000060004000600080006000FF006000002060004020600080206000FF206000004060004040600080406000FF406000006060004060600080606000FF606000008060004080600080806000FF80600000A06000
310
40A0600080A06000FFA0600000C0600040C0600080C06000FFC0600000FF600040FF600080FF6000FFFF6000000080004000800080008000FF008000002080004020800080208000FF208000004080004040800080408000FF408000006080004060800080608000FF608000008080004080800080808000FF80800000A080
310
0040A0800080A08000FFA0800000C0800040C0800080C08000FFC0800000FF800040FF800080FF8000FFFF80000000A0004000A0008000A000FF00A0000020A0004020A0008020A000FF20A0000040A0004040A0008040A000FF40A0000060A0004060A0008060A000FF60A0000080A0004080A0008080A000FF80A00000A0
310
A00040A0A00080A0A000FFA0A00000C0A00040C0A00080C0A000FFC0A00000FFA00040FFA00080FFA000FFFFA0000000C0004000C0008000C000FF00C0000020C0004020C0008020C000FF20C0000040C0004040C0008040C000FF40C0000060C0004060C0008060C000FF60C0000080C0004080C0008080C000FF80C00000
310
A0C00040A0C00080A0C000FFA0C00000C0C00040C0C00080C0C000FFC0C00000FFC00040FFC00080FFC000FFFFC0000000FF004000FF008000FF00FF00FF000020FF004020FF008020FF00FF20FF000040FF004040FF008040FF00FF40FF000060FF004060FF008060FF00FF60FF000080FF004080FF008080FF00FF80FF00
310
00A0FF0040A0FF0080A0FF00FFA0FF0000C0FF0040C0FF0080C0FF00FFC0FF0000FFFF0040FFFF0080FFFF00FFFFFF00000000000000000000000000000000000000000000000000000000000000000000000000000000000000000000000000000000FFFF0000000000000000000000000000000000000000000000000000
310
000000FFFFFFFF00000000000000000000000000000000000000000000000000000000FF0000FF00000000000000000000000000000000000000000000000000000000FFFFFFFF0000000000000000000000000000000000000000000000000000000000FF0000000000000000000000000000000000000000000000000000
310
00FFFFFFFFFF00000000000000000000000000000000000000000000FFFFFF00FFFF000000FF00000000000000000000000000000000000000000000FF00FF00FF000000000000000000000000000000000000000000000000000000FF00FFFF00000000000000000000000000000000000000000000000000000000FF00FF
310
FF00000000000000000000000000000000000000000000000000000000FFFFFFFFFF000000000000000000000000000000000000000000000000000000FFFFFF00FFFFFFFFFFFF00000000000000000000000000000000000000000000FFFFFF00FFFFFFFFFFFF00000000000000000000000000000000000000000000FFFF
310
FFFFFF000000000000000000000000000000000000000000000000000000FFFFFFFF00000000000000000000000000000000000000000000000000000000FFFFFFFF00000000000000000000000000000000000000000000000000000000FFFFFFFFFF000000000000000000000000000000000000000000000000000000FF
310
FFFF00FFFFFFFFFFFF00000000000000000000000000000000000000000000FFFFFF00FFFFFFFFFFFF00000000000000000000000000000000000000000000FF00FFFFFF000000000000000000000000000000000000000000000000000000FF00FFFF00000000000000000000000000000000000000000000000000000000
310
FF00FFFF00000000000000000000000000000000000000000000000000000000FF00FF00FF000000000000000000000000000000000000000000000000000000FFFFFF00FFFF000000FF000000000000000000000000000000000000000000000000000000FFFFFFFFFF000000000000000000000000000000000000000000
310
00000000000000000000FF000000000000000000000000000000000000000000000000000000000000FFFFFF0000000000000000000000000000000000000000000000000000000000FF00FFFF00000000000000000000000000000000000000000000000000000000FF00FF00000000000000000000000000000000000000
310
0000000000000000000000FF0000000000000000000000000000000000000000000000000000000000000000000000000000000000000000
102
{BLKREFS
331
1CF
331
2D8
102
}
1001
ACAD
1000
DesignCenter Data
1002
{
1070
     1
1070
     1
1002
}
  0
BLOCK_RECORD
  5
1CD
330
1
100
AcDbSymbolTableRecord
100
AcDbBlockTableRecord
  2
A$C38CF55EC
340
0
  0
BLOCK_RECORD
  5
2B8
330
1
100
AcDbSymbolTableRecord
100
AcDbBlockTableRecord
  2
elkon
340
0
310
28000000200000002000000001000800000000000004000000000000000000000000000000000000000000004000000080000000FF000000002000004020000080200000FF200000004000004040000080400000FF400000006000004060000080600000FF600000008000004080000080800000FF80000000A0000040A000
310
0080A00000FFA0000000C0000040C0000080C00000FFC0000000FF000040FF000080FF0000FFFF0000000020004000200080002000FF002000002020004020200080202000FF202000004020004040200080402000FF402000006020004060200080602000FF602000008020004080200080802000FF80200000A0200040A0
310
200080A02000FFA0200000C0200040C0200080C02000FFC0200000FF200040FF200080FF2000FFFF2000000040004000400080004000FF004000002040004020400080204000FF204000004040004040400080404000FF404000006040004060400080604000FF604000008040004080400080804000FF80400000A0400040
310
A0400080A04000FFA0400000C0400040C0400080C04000FFC0400000FF400040FF400080FF4000FFFF4000000060004000600080006000FF006000002060004020600080206000FF206000004060004040600080406000FF406000006060004060600080606000FF606000008060004080600080806000FF80600000A06000
310
40A0600080A06000FFA0600000C0600040C0600080C06000FFC0600000FF600040FF600080FF6000FFFF6000000080004000800080008000FF008000002080004020800080208000FF208000004080004040800080408000FF408000006080004060800080608000FF608000008080004080800080808000FF80800000A080
310
0040A0800080A08000FFA0800000C0800040C0800080C08000FFC0800000FF800040FF800080FF8000FFFF80000000A0004000A0008000A000FF00A0000020A0004020A0008020A000FF20A0000040A0004040A0008040A000FF40A0000060A0004060A0008060A000FF60A0000080A0004080A0008080A000FF80A00000A0
310
A00040A0A00080A0A000FFA0A00000C0A00040C0A00080C0A000FFC0A00000FFA00040FFA00080FFA000FFFFA0000000C0004000C0008000C000FF00C0000020C0004020C0008020C000FF20C0000040C0004040C0008040C000FF40C0000060C0004060C0008060C000FF60C0000080C0004080C0008080C000FF80C00000
310
A0C00040A0C00080A0C000FFA0C00000C0C00040C0C00080C0C000FFC0C00000FFC00040FFC00080FFC000FFFFC0000000FF004000FF008000FF00FF00FF000020FF004020FF008020FF00FF20FF000040FF004040FF008040FF00FF40FF000060FF004060FF008060FF00FF60FF000080FF004080FF008080FF00FF80FF00
310
00A0FF0040A0FF0080A0FF00FFA0FF0000C0FF0040C0FF0080C0FF00FFC0FF0000FFFF0040FFFF0080FFFF00FFFFFF000000000000000000000000000000000000000000000000000000000000000000000000000000000000000000000000FF00000000000000000000000000000000000000000000000000000000000000
310
FF00000000000000000000000000000000000000000000000000000000000000FF00000000000000000000000000000000000000000000000000000000000000FF00000000000000000000000000000000000000000000000000000000000000FF000000000000000000000000000000000000000000000000000000000000
310
00FF00000000000000000000000000000000000000000000000000000000000000FF00000000000000000000000000000000000000000000000000000000000000FF00000000000000000000000000000000000000000000000000000000000000FF0000000000000000000000000000000000000000000000000000000000
310
0000FF00000000000000000000000000000000000000000000000000000000000000FF0000000000000000000000000000000000000000FFFFFFFFFFFFFFFFFFFFFFFFFFFFFFFFFFFFFFFFFFFFFFFF0000000000000000FF00000000000000000000000000000000000000000000FF0000000000000000FF00000000000000
310
000000000000000000000000000000FF0000000000000000FFFFFFFFFFFFFFFFFFFFFFFFFFFFFFFFFFFFFFFFFFFFFFFF00000000000000000000000000000000000000000000000000000000000000000000000000000000FFFFFFFFFFFFFFFFFFFFFFFFFFFFFFFFFFFFFFFFFFFFFFFF0000000000000000FF0000FFFFFFFF
310
FFFF000000000000FFFFFFFFFFFF0000FF0000000000000000FF0000000000FFFFFFFFFFFFFFFFFFFFFF000000000000FF0000000000000000FFFFFFFFFFFFFFFFFFFFFFFFFFFFFFFFFFFFFFFFFFFFFFFF00000000000000000000000000000000000000FF0000000000000000000000000000000000000000000000000000
310
0000000000FF00000000000000000000000000000000000000000000000000000000000000FF00000000000000000000000000000000000000000000000000000000000000FF00000000000000000000000000000000000000000000000000000000000000FF00000000000000000000000000000000000000000000000000
310
000000000000FF00000000000000000000000000000000000000000000000000000000000000FF00000000000000000000000000000000000000000000000000000000000000FF00000000000000000000000000000000000000000000000000000000000000FF000000000000000000000000000000000000000000000000
310
00000000000000FF000000000000000000000000000000000000000000000000000000000000000000000000000000000000000000000000
102
{BLKREFS
331
2D6
331
2D7
102
}
  0
BLOCK_RECORD
  5
2C0
330
1
100
AcDbSymbolTableRecord
100
AcDbBlockTableRecord
  2
tri
340
0
310
28000000200000002000000001000800000000000004000000000000000000000000000000000000000000004000000080000000FF000000002000004020000080200000FF200000004000004040000080400000FF400000006000004060000080600000FF600000008000004080000080800000FF80000000A0000040A000
310
0080A00000FFA0000000C0000040C0000080C00000FFC0000000FF000040FF000080FF0000FFFF0000000020004000200080002000FF002000002020004020200080202000FF202000004020004040200080402000FF402000006020004060200080602000FF602000008020004080200080802000FF80200000A0200040A0
310
200080A02000FFA0200000C0200040C0200080C02000FFC0200000FF200040FF200080FF2000FFFF2000000040004000400080004000FF004000002040004020400080204000FF204000004040004040400080404000FF404000006040004060400080604000FF604000008040004080400080804000FF80400000A0400040
310
A0400080A04000FFA0400000C0400040C0400080C04000FFC0400000FF400040FF400080FF4000FFFF4000000060004000600080006000FF006000002060004020600080206000FF206000004060004040600080406000FF406000006060004060600080606000FF606000008060004080600080806000FF80600000A06000
310
40A0600080A06000FFA0600000C0600040C0600080C06000FFC0600000FF600040FF600080FF6000FFFF6000000080004000800080008000FF008000002080004020800080208000FF208000004080004040800080408000FF408000006080004060800080608000FF608000008080004080800080808000FF80800000A080
310
0040A0800080A08000FFA0800000C0800040C0800080C08000FFC0800000FF800040FF800080FF8000FFFF80000000A0004000A0008000A000FF00A0000020A0004020A0008020A000FF20A0000040A0004040A0008040A000FF40A0000060A0004060A0008060A000FF60A0000080A0004080A0008080A000FF80A00000A0
310
A00040A0A00080A0A000FFA0A00000C0A00040C0A00080C0A000FFC0A00000FFA00040FFA00080FFA000FFFFA0000000C0004000C0008000C000FF00C0000020C0004020C0008020C000FF20C0000040C0004040C0008040C000FF40C0000060C0004060C0008060C000FF60C0000080C0004080C0008080C000FF80C00000
310
A0C00040A0C00080A0C000FFA0C00000C0C00040C0C00080C0C000FFC0C00000FFC00040FFC00080FFC000FFFFC0000000FF004000FF008000FF00FF00FF000020FF004020FF008020FF00FF20FF000040FF004040FF008040FF00FF40FF000060FF004060FF008060FF00FF60FF000080FF004080FF008080FF00FF80FF00
310
00A0FF0040A0FF0080A0FF00FFA0FF0000C0FF0040C0FF0080C0FF00FFC0FF0000FFFF0040FFFF0080FFFF00FFFFFF0000000000000000000000000000000000000000000000000000000000000000000000000000000000000000FF00000000000000000000000000000000000000000000000000000000000000FFFF0000
310
0000000000000000000000000000000000000000000000000000FFFF0000FF00000000000000000000000000000000000000000000000000FFFF0000000000FF0000000000000000000000000000000000000000000000FF0000000000000000FF000000000000000000000000000000000000000000FF0000000000000000
310
0000FF00000000000000000000000000000000000000FF000000000000000000000000FF000000000000000000000000000000000000FF00000000000000000000000000FF00000000000000000000000000000000FF000000000000000000000000000000FF000000000000000000000000000000FF000000000000000000
310
00000000000000FF00000000000000000000000000FF000000000000000000000000000000000000FF000000000000000000000000FF00000000000000000000000000000000000000FF00000000000000000000FF000000000000000000000000000000000000000000FF000000000000000000FF00000000000000000000
310
000000000000000000000000FF0000000000000000FF0000000000000000000000000000000000000000000000FF00000000000000FF000000000000000000000000000000000000000000000000FF000000000000FF00000000000000000000000000000000000000000000000000FF000000000000FF0000000000000000
310
0000000000000000000000000000000000FF0000000000FF0000000000000000000000000000000000000000000000000000FF00000000FF0000000000000000000000000000000000000000000000000000FFFF00000000FF00000000000000000000000000000000000000000000000000FF0000000000FF000000000000
310
000000000000000000000000000000000000FF00000000000000FF0000000000000000000000000000000000000000000000FF0000000000000000FF000000000000000000000000000000000000000000FF00000000000000000000FF00000000000000000000000000000000000000FF000000000000000000000000FF00
310
00000000000000000000000000000000FF0000000000000000000000000000FF0000000000000000000000000000FFFF00000000000000000000000000000000FFFF0000000000000000000000FF0000000000000000000000000000000000000000FFFFFFFFFFFFFFFFFFFFFF000000000000000000000000000000000000
310
0000000000000000000000000000000000000000000000000000000000000000000000000000000000000000000000000000000000000000
102
{BLKREFS
331
2E2
102
}
  0
BLOCK_RECORD
  5
316
330
1
100
AcDbSymbolTableRecord
100
AcDbBlockTableRecord
  2
*D7
340
0
  0
BLOCK_RECORD
  5
324
330
1
100
AcDbSymbolTableRecord
100
AcDbBlockTableRecord
  2
*D8
340
0
  0
ENDTAB
  0
ENDSEC
  0
SECTION
  2
BLOCKS
  0
BLOCK
  5
1F
330
1E
100
AcDbEntity
  8
0
100
AcDbBlockBegin
  2
*Model_Space
 70
     0
 10
0.0
 20
0.0
 30
0.0
  3
*Model_Space
  1

  0
ENDBLK
  5
20
330
1E
100
AcDbEntity
  8
0
100
AcDbBlockEnd
  0
BLOCK
  5
1B
330
1A
100
AcDbEntity
 67
     1
  8
0
100
AcDbBlockBegin
  2
*Paper_Space
 70
     0
 10
0.0
 20
0.0
 30
0.0
  3
*Paper_Space
  1

  0
ENDBLK
  5
1C
330
1A
100
AcDbEntity
 67
     1
  8
0
100
AcDbBlockEnd
  0
BLOCK
  5
1A9
330
1A3
100
AcDbEntity
  8
0
100
AcDbBlockBegin
  2
Inductor
 70
     2
 10
0.0
 20
0.0
 30
0.0
  3
Inductor
  1
INDUCTOR
  4
DesignCenter Basic Electronics example
  0
LINE
  5
1A4
330
1A3
100
AcDbEntity
  8
0
 62
     7
100
AcDbLine
 10
0.3500000000000001
 20
0.0
 30
0.0
 11
0.3999999999999999
 21
0.0
 31
0.0
  0
ARC
  5
1A5
330
1A3
100
AcDbEntity
  8
0
 62
     7
100
AcDbCircle
 10
0.2999999999999998
 20
0.0374999999999997
 30
0.0
 40
0.0625
100
AcDbArc
 50
323.1301
 51
216.8699
  0
LINE
  5
1A6
330
1A3
100
AcDbEntity
  8
0
 62
     7
100
AcDbLine
 10
0.0
 20
0.0
 30
0.0
 11
0.0499999999999998
 21
0.0
 31
0.0
  0
ARC
  5
1A7
330
1A3
100
AcDbEntity
  8
0
 62
     7
100
AcDbCircle
 10
0.1000000000000001
 20
0.0374999999999997
 30
0.0
 40
0.0625
100
AcDbArc
 50
323.1301
 51
216.8699
  0
ARC
  5
1A8
330
1A3
100
AcDbEntity
  8
0
 62
     7
100
AcDbCircle
 10
0.2000000000000002
 20
0.0374999999999997
 30
0.0
 40
0.0625
100
AcDbArc
 50
323.1301
 51
216.8699
  0
ENDBLK
  5
1AA
330
1A3
100
AcDbEntity
  8
0
100
AcDbBlockEnd
  0
BLOCK
  5
1AE
330
1AB
100
AcDbEntity
  8
0
100
AcDbBlockBegin
  2
conpoint
 70
     0
 10
0.0
 20
0.0
 30
0.0
  3
conpoint
  1

  0
HATCH
  5
1AC
330
1AB
100
AcDbEntity
  8
0
100
AcDbHatch
 10
0.0
 20
0.0
 30
0.0
210
0.0
220
0.0
230
1.0
  2
SOLID
 70
     1
 71
     1
 91
        1
 92
        1
 93
        1
 72
     2
 10
3.932944225599126
 20
4.517912367231916
 40
0.0251551376970127
 50
0.0
 51
360.0
 73
     1
 97
        1
330
1AD
 75
     0
 76
     1
 98
        1
 10
0.0
 20
0.0
  0
CIRCLE
  5
1AD
102
{ACAD_REACTORS
330
1AC
102
}
330
1AB
100
AcDbEntity
  8
0
100
AcDbCircle
 10
3.932944225599126
 20
4.517912367231916
 30
0.0
 40
0.0251551376970127
  0
ENDBLK
  5
1AF
330
1AB
100
AcDbEntity
  8
0
100
AcDbBlockEnd
  0
BLOCK
  5
1B4
330
1B0
100
AcDbEntity
  8
0
100
AcDbBlockBegin
  2
ind
 70
     0
 10
0.0
 20
0.0
 30
0.0
  3
ind
  1

  0
INSERT
  5
1B1
330
1B0
100
AcDbEntity
  8
0
100
AcDbBlockReference
  2
Inductor
 10
5.142686818928233
 20
4.506130839892044
 30
0.0
 50
90.0
  0
INSERT
  5
1B2
330
1B0
100
AcDbEntity
  8
0
100
AcDbBlockReference
  2
conpoint
 10
1.213283901823427
 20
-0.0258025784579612
 30
0.0
  0
INSERT
  5
1B3
330
1B0
100
AcDbEntity
  8
0
100
AcDbBlockReference
  2
conpoint
 10
1.20936500961606
 20
0.4012205201373665
 30
0.0
  0
ENDBLK
  5
1B5
330
1B0
100
AcDbEntity
  8
0
100
AcDbBlockEnd
  0
BLOCK
  5
1BA
330
1B6
100
AcDbEntity
  8
0
100
AcDbBlockBegin
  2
rfc
 70
     0
 10
0.0
 20
0.0
 30
0.0
  3
rfc
  1

  0
INSERT
  5
1B7
330
1B6
100
AcDbEntity
  8
0
100
AcDbBlockReference
  2
ind
 10
0.0
 20
0.0
 30
0.0
  0
HATCH
  5
1B8
330
1B6
100
AcDbEntity
  8
0
100
AcDbHatch
 10
0.0
 20
0.0
 30
0.0
210
0.0
220
0.0
230
1.0
  2
SOLID
 70
     1
 71
     1
 91
        1
 92
        1
 93
        4
 72
     1
 10
5.019171584733157
 20
4.850883942041264
 11
4.991736945333968
 21
4.850883942041264
 72
     1
 10
4.991736945333968
 20
4.850883942041264
 11
4.991736945333968
 21
4.557060643284785
 72
     1
 10
4.991736945333968
 20
4.557060643284785
 11
5.019171584733157
 21
4.557060643284785
 72
     1
 10
5.019171584733157
 20
4.557060643284785
 11
5.019171584733157
 21
4.850883942041264
 97
        1
330
1B9
 75
     0
 76
     1
 98
        1
 10
0.0
 20
0.0
  0
LWPOLYLINE
  5
1B9
102
{ACAD_REACTORS
330
1B8
102
}
330
1B6
100
AcDbEntity
  8
0
100
AcDbPolyline
 90
        4
 70
     1
 43
0.0
 10
5.019171584733157
 20
4.850883942041264
 10
4.991736945333968
 20
4.850883942041264
 10
4.991736945333968
 20
4.557060643284785
 10
5.019171584733157
 20
4.557060643284785
  0
ENDBLK
  5
1BB
330
1B6
100
AcDbEntity
  8
0
100
AcDbBlockEnd
  0
BLOCK
  5
1D1
330
1CD
100
AcDbEntity
  8
0
 62
     3
100
AcDbBlockBegin
  2
A$C38CF55EC
 70
     0
 10
0.0
 20
0.0
 30
0.0
  3
A$C38CF55EC
  1

  0
MTEXT
  5
1CE
330
1CD
100
AcDbEntity
  8
0
 62
     3
100
AcDbMText
 10
-0.0000000196864391
 20
6.710114783395795
 30
0.0
 40
0.5
 41
2.816399999999999
 71
     1
 72
     5
  1
BFP196
 11
0.0000000000000001
 21
1.0
 31
0.0
 73
     1
 44
1.0
  0
INSERT
  5
1CF
330
1CD
100
AcDbEntity
  8
CONSTR
100
AcDbBlockReference
  2
rfc
 10
-42.8924235945596
 20
-53.54591120857048
 30
0.0
 41
11.98711769948618
 42
11.98711769948618
 43
11.98711769948618
  0
MTEXT
  5
1D0
330
1CD
100
AcDbEntity
  8
0
 62
     3
100
AcDbMText
 10
19.44379258077894
 20
3.23806040961206
 30
0.0
 40
0.6
 41
8.181699999999999
 71
     1
 72
     5
  1
10uH
 73
     1
 44
1.0
  0
ENDBLK
  5
1D2
330
1CD
100
AcDbEntity
  8
0
 62
     3
100
AcDbBlockEnd
  0
BLOCK
  5
2BE
330
2B8
100
AcDbEntity
  8
0
100
AcDbBlockBegin
  2
elkon
 70
     0
 10
0.0
 20
0.0
 30
0.0
  3
elkon
  1

  0
LWPOLYLINE
  5
2B9
102
{ACAD_REACTORS
330
2BD
102
}
330
2B8
100
AcDbEntity
  8
0
100
AcDbPolyline
 90
        4
 70
     1
 43
0.0
 10
5.277469087657244
 20
7.736467907658294
 10
6.725437308244949
 20
7.736467907658294
 10
6.725437308244949
 20
7.545307269129267
 10
5.277469087657244
 20
7.545307269129267
  0
LWPOLYLINE
  5
2BA
330
2B8
100
AcDbEntity
  8
0
100
AcDbPolyline
 90
        4
 70
     1
 43
0.0
 10
5.277469087657244
 20
7.381455311208465
 10
6.725437308244949
 20
7.381455311208465
 10
6.725437308244949
 20
7.190294672679439
 10
5.277469087657244
 20
7.190294672679439
  0
LWPOLYLINE
  5
2BB
330
2B8
100
AcDbEntity
  8
0
100
AcDbPolyline
 90
        2
 70
     0
 43
0.0
 10
5.987793119210273
 20
7.736467907658294
 10
5.987793119210273
 20
8.337258440989323
  0
LWPOLYLINE
  5
2BC
330
2B8
100
AcDbEntity
  8
0
100
AcDbPolyline
 90
        2
 70
     0
 43
0.0
 10
5.987793119210273
 20
7.190294672679439
 10
5.987793119210273
 20
6.507578139433253
  0
HATCH
  5
2BD
330
2B8
100
AcDbEntity
  8
0
100
AcDbHatch
 10
0.0
 20
0.0
 30
0.0
210
0.0
220
0.0
230
1.0
  2
SOLID
 70
     1
 71
     1
 91
        1
 92
        1
 93
        4
 72
     1
 10
5.277469087657244
 20
7.736467907658294
 11
6.725437308244949
 21
7.736467907658294
 72
     1
 10
6.725437308244949
 20
7.736467907658294
 11
6.725437308244949
 21
7.545307269129267
 72
     1
 10
6.725437308244949
 20
7.545307269129267
 11
5.277469087657244
 21
7.545307269129267
 72
     1
 10
5.277469087657244
 20
7.545307269129267
 11
5.277469087657244
 21
7.736467907658294
 97
        1
330
2B9
 75
     0
 76
     1
 98
        1
 10
0.0
 20
0.0
  0
ENDBLK
  5
2BF
330
2B8
100
AcDbEntity
  8
0
100
AcDbBlockEnd
  0
BLOCK
  5
2C3
330
2C0
100
AcDbEntity
  8
0
100
AcDbBlockBegin
  2
tri
 70
     0
 10
0.0
 20
0.0
 30
0.0
  3
tri
  1

  0
ARC
  5
2C1
330
2C0
100
AcDbEntity
  8
CONSTR
370
    50
100
AcDbCircle
 10
8.146085339866083
 20
7.572615928782735
 30
0.0
 40
0.8498249588931228
100
AcDbArc
 50
17.41576346451058
 51
252.8164832811067
  0
LWPOLYLINE
  5
2C2
330
2C0
100
AcDbEntity
  8
CONSTR
370
    50
100
AcDbPolyline
 90
        2
 70
     0
 43
0.0
 10
7.888244942516251
 20
6.7539228815622
 10
8.968782859461427
 20
7.838849627961277
  0
ENDBLK
  5
2C4
330
2C0
100
AcDbEntity
  8
0
100
AcDbBlockEnd
  0
BLOCK
  5
321
330
316
100
AcDbEntity
  8
0
100
AcDbBlockBegin
  2
*D7
 70
     1
 10
0.0
 20
0.0
 30
0.0
  3
*D7
  1

  0
LINE
  5
363
330
316
100
AcDbEntity
  8
METAL1
 62
     0
370
    -2
100
AcDbLine
 10
-9.409482571512668
 20
21.41923056964686
 30
0.0
 11
-9.409482571512668
 21
21.84786430614659
 31
0.0
  0
LINE
  5
364
330
316
100
AcDbEntity
  8
METAL1
 62
     0
370
    -2
100
AcDbLine
 10
50.55789932011652
 20
21.41923056964686
 30
0.0
 11
50.55789932011652
 21
21.84786430614659
 31
0.0
  0
LINE
  5
365
330
316
100
AcDbEntity
  8
METAL1
 62
     0
370
    -2
100
AcDbLine
 10
-7.609482571512669
 20
21.6678643061466
 30
0.0
 11
18.32420837430192
 21
21.6678643061466
 31
0.0
  0
LINE
  5
366
330
316
100
AcDbEntity
  8
METAL1
 62
     0
370
    -2
100
AcDbLine
 10
48.75789932011652
 20
21.6678643061466
 30
0.0
 11
22.82420837430192
 21
21.6678643061466
 31
0.0
  0
SOLID
  5
367
330
316
100
AcDbEntity
  8
METAL1
 62
     0
100
AcDbTrace
 10
-7.609482571512669
 20
21.96786430614659
 30
0.0
 11
-7.609482571512669
 21
21.36786430614659
 31
0.0
 12
-9.409482571512668
 22
21.6678643061466
 32
0.0
 13
-9.409482571512668
 23
21.6678643061466
 33
0.0
  0
SOLID
  5
368
330
316
100
AcDbEntity
  8
METAL1
 62
     0
100
AcDbTrace
 10
48.75789932011652
 20
21.96786430614659
 30
0.0
 11
48.75789932011652
 21
21.36786430614659
 31
0.0
 12
50.55789932011652
 22
21.6678643061466
 32
0.0
 13
50.55789932011652
 23
21.6678643061466
 33
0.0
  0
MTEXT
  5
369
330
316
100
AcDbEntity
  8
METAL1
 62
     0
100
AcDbMText
 10
20.57420837430192
 20
21.6678643061466
 30
0.0
 40
1.8
 41
0.0
 71
     5
 72
     1
  1
\A1;60
 73
     1
 44
1.0
  0
POINT
  5
36A
330
316
100
AcDbEntity
  8
Defpoints
 62
     0
100
AcDbPoint
 10
-9.409482571512668
 20
21.35673056964687
 30
0.0
  0
POINT
  5
36B
330
316
100
AcDbEntity
  8
Defpoints
 62
     0
100
AcDbPoint
 10
50.55789932011652
 20
21.35673056964687
 30
0.0
  0
POINT
  5
36C
330
316
100
AcDbEntity
  8
Defpoints
 62
     0
100
AcDbPoint
 10
50.55789932011652
 20
21.6678643061466
 30
0.0
  0
ENDBLK
  5
322
330
316
100
AcDbEntity
  8
0
100
AcDbBlockEnd
  0
BLOCK
  5
32F
330
324
100
AcDbEntity
  8
0
100
AcDbBlockBegin
  2
*D8
 70
     1
 10
0.0
 20
0.0
 30
0.0
  3
*D8
  1

  0
LINE
  5
3A9
330
324
100
AcDbEntity
  8
METAL1
 62
     0
370
    -2
100
AcDbLine
 10
52.38414579493099
 20
19.17879451472158
 30
0.0
 11
53.22789438622561
 21
19.17879451472158
 31
0.0
  0
LINE
  5
3AA
330
324
100
AcDbEntity
  8
METAL1
 62
     0
370
    -2
100
AcDbLine
 10
52.38414579493099
 20
-20.75003372882169
 30
0.0
 11
53.2278943862256
 21
-20.75003372882169
 31
0.0
  0
LINE
  5
3AB
330
324
100
AcDbEntity
  8
METAL1
 62
     0
370
    -2
100
AcDbLine
 10
53.04789438622561
 20
17.37879451472158
 30
0.0
 11
53.0478943862256
 21
1.014380392949947
 31
0.0
  0
LINE
  5
3AC
330
324
100
AcDbEntity
  8
METAL1
 62
     0
370
    -2
100
AcDbLine
 10
53.0478943862256
 20
-18.95003372882169
 30
0.0
 11
53.0478943862256
 21
-2.585619607050052
 31
0.0
  0
SOLID
  5
3AD
330
324
100
AcDbEntity
  8
METAL1
 62
     0
100
AcDbTrace
 10
52.74789438622562
 20
17.37879451472158
 30
0.0
 11
53.34789438622561
 21
17.37879451472158
 31
0.0
 12
53.04789438622561
 22
19.17879451472158
 32
0.0
 13
53.04789438622561
 23
19.17879451472158
 33
0.0
  0
SOLID
  5
3AE
330
324
100
AcDbEntity
  8
METAL1
 62
     0
100
AcDbTrace
 10
52.7478943862256
 20
-18.95003372882169
 30
0.0
 11
53.3478943862256
 21
-18.95003372882169
 31
0.0
 12
53.0478943862256
 22
-20.75003372882169
 32
0.0
 13
53.0478943862256
 23
-20.75003372882169
 33
0.0
  0
MTEXT
  5
3AF
330
324
100
AcDbEntity
  8
METAL1
 62
     0
100
AcDbMText
 10
53.0478943862256
 20
-0.7856196070500442
 30
0.0
 40
1.8
 41
0.0
 71
     5
 72
     1
  1
\A1;40
 73
     1
 44
1.0
  0
POINT
  5
3B0
330
324
100
AcDbEntity
  8
Defpoints
 62
     0
100
AcDbPoint
 10
52.32164579493098
 20
19.17879451472158
 30
0.0
  0
POINT
  5
3B1
330
324
100
AcDbEntity
  8
Defpoints
 62
     0
100
AcDbPoint
 10
52.32164579493098
 20
-20.75003372882169
 30
0.0
  0
POINT
  5
3B2
330
324
100
AcDbEntity
  8
Defpoints
 62
     0
100
AcDbPoint
 10
53.0478943862256
 20
-20.75003372882169
 30
0.0
  0
ENDBLK
  5
330
330
324
100
AcDbEntity
  8
0
100
AcDbBlockEnd
  0
ENDSEC
  0
SECTION
  2
ENTITIES
  0
SOLID
  5
23
330
1E
100
AcDbEntity
  8
METAL1
100
AcDbTrace
 10
-6.029947971601288
 20
1.311606983719222
 30
0.0
 11
-1.029947971601288
 21
1.311606983719222
 31
0.0
 12
-6.029947971601288
 22
-1.388393016280778
 32
0.0
 13
-1.029947971601288
 23
-1.388393016280778
 33
0.0
  0
SOLID
  5
24
330
1E
100
AcDbEntity
  8
METAL1
100
AcDbTrace
 10
-0.2299479716012884
 20
-1.388393016280778
 30
0.0
 11
-1.029947971601288
 21
-1.388393016280778
 31
0.0
 12
-0.2299479716012884
 22
1.311606983719222
 32
0.0
 13
-1.029947971601288
 23
1.311606983719222
 33
0.0
  0
SOLID
  5
25
330
1E
100
AcDbEntity
  8
METAL1
100
AcDbTrace
 10
-0.2299479716012884
 20
1.311606983719222
 30
0.0
 11
0.5700520283987114
 21
1.311606983719222
 31
0.0
 12
-0.2299479716012884
 22
-1.388393016280778
 32
0.0
 13
0.5700520283987114
 23
-1.388393016280778
 33
0.0
  0
SOLID
  5
26
330
1E
100
AcDbEntity
  8
METAL1
100
AcDbTrace
 10
0.5700520283987114
 20
-0.0383930162807786
 30
0.0
 11
0.5700520283987114
 21
-1.388393016280778
 31
0.0
 12
-1.029947971601288
 22
-0.0383930162807786
 32
0.0
 13
-1.029947971601288
 23
-1.388393016280778
 33
0.0
  0
SOLID
  5
3D
330
1E
100
AcDbEntity
  8
METAL1
100
AcDbTrace
 10
2.270052028398712
 20
-1.238393016280777
 30
0.0
 11
0.0700520283987114
 21
-1.238393016280777
 31
0.0
 12
2.270052028398712
 22
1.16160698371922
 32
0.0
 13
0.0700520283987114
 23
1.16160698371922
 33
0.0
  0
SOLID
  5
3E
330
1E
100
AcDbEntity
  8
METAL1
100
AcDbTrace
 10
12.79485632597346
 20
-1.238393016280777
 30
0.0
 11
10.59485632597346
 21
-1.238393016280777
 31
0.0
 12
12.79485632597346
 22
1.16160698371922
 32
0.0
 13
10.59485632597346
 23
1.16160698371922
 33
0.0
  0
TEXT
  5
4D
330
1E
100
AcDbEntity
  8
CONSTR
100
AcDbText
 10
13.84485632597346
 20
-0.8383930162807793
 30
0.0
 40
0.3
  1
C
100
AcDbText
  0
SOLID
  5
52
330
1E
100
AcDbEntity
  8
CONSTR
100
AcDbTrace
 10
21.625
 20
2.5
 30
0.0
 11
21.625
 21
-0.1
 31
0.0
 12
21.575
 22
2.5
 32
0.0
 13
21.575
 23
-0.1
 33
0.0
  0
SOLID
  5
53
330
1E
100
AcDbEntity
  8
METAL1
100
AcDbTrace
 10
13.99485632597346
 20
-1.238393016280777
 30
0.0
 11
11.79485632597346
 21
-1.238393016280777
 31
0.0
 12
13.99485632597346
 22
1.16160698371922
 32
0.0
 13
11.79485632597346
 23
1.16160698371922
 33
0.0
  0
SOLID
  5
54
330
1E
100
AcDbEntity
  8
METAL1
100
AcDbTrace
 10
22.1
 20
-1.199999999999999
 30
0.0
 11
19.9
 21
-1.199999999999999
 31
0.0
 12
22.1
 22
1.199999999999999
 32
0.0
 13
19.9
 23
1.199999999999999
 33
0.0
  0
SOLID
  5
64
330
1E
100
AcDbEntity
  8
METAL1
100
AcDbTrace
 10
22.39999999999999
 20
0.125
 30
0.0
 11
23.19999999999999
 21
0.125
 31
0.0
 12
22.39999999999999
 22
-0.125
 32
0.0
 13
23.19999999999999
 23
-0.125
 33
0.0
  0
SOLID
  5
65
330
1E
100
AcDbEntity
  8
METAL1
100
AcDbTrace
 10
22.39999999999999
 20
-0.125
 30
0.0
 11
21.6
 21
-0.125
 31
0.0
 12
22.39999999999999
 22
0.125
 32
0.0
 13
21.6
 23
0.125
 33
0.0
  0
SOLID
  5
66
330
1E
100
AcDbEntity
  8
METAL1
100
AcDbTrace
 10
21.6
 20
0.0
 30
0.0
 11
21.6
 21
0.125
 31
0.0
 12
23.19999999999999
 22
0.0
 32
0.0
 13
23.19999999999999
 23
0.125
 33
0.0
  0
SOLID
  5
67
330
1E
100
AcDbEntity
  8
METAL1
100
AcDbTrace
 10
23.19999999999999
 20
0.5
 30
0.0
 11
23.9
 21
0.5
 31
0.0
 12
23.19999999999999
 22
-0.5
 32
0.0
 13
23.9
 23
-0.5
 33
0.0
  0
SOLID
  5
77
330
1E
100
AcDbEntity
  8
CONSTR
100
AcDbTrace
 10
23.875
 20
-2.41
 30
0.0
 11
23.875
 21
0.0
 31
0.0
 12
23.925
 22
-2.41
 32
0.0
 13
23.925
 23
0.0
 33
0.0
  0
SOLID
  5
78
330
1E
100
AcDbEntity
  8
CONSTR
100
AcDbTrace
 10
23.875
 20
0.0
 30
0.0
 11
23.875
 21
0.51
 31
0.0
 12
23.925
 22
0.0
 32
0.0
 13
23.925
 23
0.51
 33
0.0
  0
SOLID
  5
79
330
1E
100
AcDbEntity
  8
CONSTR
100
AcDbTrace
 10
23.9
 20
0.5350000000000001
 30
0.0
 11
25.19
 21
0.5350000000000001
 31
0.0
 12
23.9
 22
0.485
 32
0.0
 13
25.19
 23
0.485
 33
0.0
  0
SOLID
  5
7A
330
1E
100
AcDbEntity
  8
CONSTR
100
AcDbTrace
 10
25.215
 20
0.51
 30
0.0
 11
25.215
 21
-2.41
 31
0.0
 12
25.165
 22
0.51
 32
0.0
 13
25.165
 23
-2.41
 33
0.0
  0
SOLID
  5
7B
330
1E
100
AcDbEntity
  8
CONSTR
100
AcDbTrace
 10
25.19
 20
-2.435
 30
0.0
 11
23.9
 21
-2.435
 31
0.0
 12
25.19
 22
-2.384999999999999
 32
0.0
 13
23.9
 23
-2.384999999999999
 33
0.0
  0
SOLID
  5
7C
330
1E
100
AcDbEntity
  8
CONSTR
100
AcDbTrace
 10
23.91
 20
-0.22
 30
0.0
 11
23.41
 21
-0.22
 31
0.0
 12
23.91
 22
0.22
 32
0.0
 13
23.41
 23
0.22
 33
0.0
  0
SOLID
  5
7E
330
1E
100
AcDbEntity
  8
CONSTR
100
AcDbTrace
 10
23.9
 20
-2.12
 30
0.0
 11
23.39999999999999
 21
-2.12
 31
0.0
 12
23.9
 22
-1.679999999999999
 32
0.0
 13
23.39999999999999
 23
-1.679999999999999
 33
0.0
  0
SOLID
  5
80
330
1E
100
AcDbEntity
  8
CONSTR
100
AcDbTrace
 10
25.19
 20
-1.27
 30
0.0
 11
25.69
 21
-1.27
 31
0.0
 12
25.19
 22
-2.129999999999999
 32
0.0
 13
25.69
 23
-2.129999999999999
 33
0.0
  0
SOLID
  5
82
330
1E
100
AcDbEntity
  8
CONSTR
100
AcDbTrace
 10
25.19
 20
0.22
 30
0.0
 11
25.69
 21
0.22
 31
0.0
 12
25.19
 22
-0.22
 32
0.0
 13
25.69
 23
-0.22
 33
0.0
  0
SOLID
  5
93
330
1E
100
AcDbEntity
  8
METAL1
100
AcDbTrace
 10
25.19
 20
-1.1
 30
0.0
 11
26.69
 21
-1.1
 31
0.0
 12
25.19
 22
-2.299999999999999
 32
0.0
 13
26.69
 23
-2.299999999999999
 33
0.0
  0
SOLID
  5
94
330
1E
100
AcDbEntity
  8
METAL1
100
AcDbTrace
 10
27.49
 20
-2.299999999999999
 30
0.0
 11
26.69
 21
-2.299999999999999
 31
0.0
 12
27.49
 22
-1.1
 32
0.0
 13
26.69
 23
-1.1
 33
0.0
  0
SOLID
  5
95
330
1E
100
AcDbEntity
  8
METAL1
100
AcDbTrace
 10
27.49
 20
-0.9
 30
0.0
 11
28.29
 21
-0.9
 31
0.0
 12
27.49
 22
-2.5
 32
0.0
 13
28.29
 23
-2.5
 33
0.0
  0
SOLID
  5
96
330
1E
100
AcDbEntity
  8
METAL1
100
AcDbTrace
 10
26.69
 20
-1.7
 30
0.0
 11
26.69
 21
-0.9
 31
0.0
 12
28.29
 22
-1.7
 32
0.0
 13
28.29
 23
-0.9
 33
0.0
  0
SOLID
  5
97
330
1E
100
AcDbEntity
  8
METAL1
100
AcDbTrace
 10
27.61499999999999
 20
-1.7
 30
0.0
 11
27.61499999999999
 21
-2.5
 31
0.0
 12
27.36499999999999
 22
-1.7
 32
0.0
 13
27.36499999999999
 23
-2.5
 33
0.0
  0
SOLID
  5
98
330
1E
100
AcDbEntity
  8
METAL1
100
AcDbTrace
 10
26.6518
 20
-1.55
 30
0.0
 11
26.6518
 21
-0.4324
 31
0.0
 12
28.32819999999999
 22
-1.55
 32
0.0
 13
28.32819999999999
 23
-0.4324
 33
0.0
  0
SOLID
  5
99
330
1E
100
AcDbEntity
  8
METAL1
100
AcDbTrace
 10
26.6518
 20
1.399999999999999
 30
0.0
 11
26.6518
 21
2.517599999999999
 31
0.0
 12
28.32819999999999
 22
1.399999999999999
 32
0.0
 13
28.32819999999999
 23
2.517599999999999
 33
0.0
  0
SOLID
  5
9A
330
1E
100
AcDbEntity
  8
CONSTR
100
AcDbTrace
 10
26.69
 20
-1.074999999999999
 30
0.0
 11
28.29
 21
-1.074999999999999
 31
0.0
 12
26.69
 22
-1.125
 32
0.0
 13
28.29
 23
-1.125
 33
0.0
  0
SOLID
  5
9B
330
1E
100
AcDbEntity
  8
CONSTR
100
AcDbTrace
 10
26.665
 20
-1.1
 30
0.0
 11
26.665
 21
2.1
 31
0.0
 12
26.71499999999999
 22
-1.1
 32
0.0
 13
26.71499999999999
 23
2.1
 33
0.0
  0
SOLID
  5
9C
330
1E
100
AcDbEntity
  8
CONSTR
100
AcDbTrace
 10
28.265
 20
-1.1
 30
0.0
 11
28.265
 21
2.1
 31
0.0
 12
28.315
 22
-1.1
 32
0.0
 13
28.315
 23
2.1
 33
0.0
  0
SOLID
  5
9D
330
1E
100
AcDbEntity
  8
CONSTR
100
AcDbTrace
 10
26.69
 20
2.125
 30
0.0
 11
28.29
 21
2.125
 31
0.0
 12
26.69
 22
2.075
 32
0.0
 13
28.29
 23
2.075
 33
0.0
  0
SOLID
  5
9E
330
1E
100
AcDbEntity
  8
METAL1
100
AcDbTrace
 10
27.36499999999999
 20
1.9
 30
0.0
 11
27.36499999999999
 21
2.9
 31
0.0
 12
27.61499999999999
 22
1.9
 32
0.0
 13
27.61499999999999
 23
2.9
 33
0.0
  0
SOLID
  5
9F
330
1E
100
AcDbEntity
  8
METAL1
100
AcDbTrace
 10
27.36499999999999
 20
2.9
 30
0.0
 11
27.36499999999999
 21
3.149999999999999
 31
0.0
 12
27.36499999999999
 22
2.9
 32
0.0
 13
27.61499999999999
 23
2.9
 33
0.0
  0
SOLID
  5
A0
330
1E
100
AcDbEntity
  8
METAL1
100
AcDbTrace
 10
22.665
 20
3.149999999999999
 30
0.0
 11
27.36499999999999
 21
3.149999999999999
 31
0.0
 12
22.665
 22
2.9
 32
0.0
 13
27.36499999999999
 23
2.9
 33
0.0
  0
SOLID
  5
A1
330
1E
100
AcDbEntity
  8
METAL1
100
AcDbTrace
 10
22.665
 20
2.9
 30
0.0
 11
22.41499999999999
 21
2.9
 31
0.0
 12
22.665
 22
2.9
 32
0.0
 13
22.665
 23
3.149999999999999
 33
0.0
  0
SOLID
  5
A2
330
1E
100
AcDbEntity
  8
METAL1
100
AcDbTrace
 10
21.5618
 20
-0.525
 30
0.0
 11
21.5618
 21
0.5926000000000001
 31
0.0
 12
23.23819999999999
 22
-0.525
 32
0.0
 13
23.23819999999999
 23
0.5926000000000001
 33
0.0
  0
SOLID
  5
A3
330
1E
100
AcDbEntity
  8
METAL1
100
AcDbTrace
 10
21.5618
 20
2.424999999999999
 30
0.0
 11
21.5618
 21
3.5426
 31
0.0
 12
23.23819999999999
 22
2.424999999999999
 32
0.0
 13
23.23819999999999
 23
3.5426
 33
0.0
  0
SOLID
  5
A4
330
1E
100
AcDbEntity
  8
CONSTR
100
AcDbTrace
 10
21.6
 20
-0.05
 30
0.0
 11
23.19999999999999
 21
-0.05
 31
0.0
 12
21.6
 22
-0.1
 32
0.0
 13
23.19999999999999
 23
-0.1
 33
0.0
  0
SOLID
  5
A5
330
1E
100
AcDbEntity
  8
CONSTR
100
AcDbTrace
 10
21.575
 20
-0.075
 30
0.0
 11
21.575
 21
3.125
 31
0.0
 12
21.625
 22
-0.075
 32
0.0
 13
21.625
 23
3.125
 33
0.0
  0
SOLID
  5
A6
330
1E
100
AcDbEntity
  8
CONSTR
100
AcDbTrace
 10
23.175
 20
-0.075
 30
0.0
 11
23.175
 21
3.125
 31
0.0
 12
23.225
 22
-0.075
 32
0.0
 13
23.225
 23
3.125
 33
0.0
  0
SOLID
  5
A7
330
1E
100
AcDbEntity
  8
CONSTR
100
AcDbTrace
 10
21.6
 20
3.149999999999999
 30
0.0
 11
23.19999999999999
 21
3.149999999999999
 31
0.0
 12
21.6
 22
3.1
 32
0.0
 13
23.19999999999999
 23
3.1
 33
0.0
  0
SOLID
  5
A8
330
1E
100
AcDbEntity
  8
METAL1
100
AcDbTrace
 10
27.64
 20
-0.8618
 30
0.0
 11
28.7576
 21
-0.8618
 31
0.0
 12
27.64
 22
-2.538199999999999
 32
0.0
 13
28.7576
 23
-2.538199999999999
 33
0.0
  0
SOLID
  5
A9
330
1E
100
AcDbEntity
  8
METAL1
100
AcDbTrace
 10
30.59
 20
-0.8618
 30
0.0
 11
31.7076
 21
-0.8618
 31
0.0
 12
30.59
 22
-2.538199999999999
 32
0.0
 13
31.7076
 23
-2.538199999999999
 33
0.0
  0
SOLID
  5
AA
330
1E
100
AcDbEntity
  8
CONSTR
100
AcDbTrace
 10
28.115
 20
-0.9
 30
0.0
 11
28.115
 21
-2.5
 31
0.0
 12
28.065
 22
-0.9
 32
0.0
 13
28.065
 23
-2.5
 33
0.0
  0
SOLID
  5
AB
330
1E
100
AcDbEntity
  8
CONSTR
100
AcDbTrace
 10
28.09
 20
-0.875
 30
0.0
 11
31.29
 21
-0.875
 31
0.0
 12
28.09
 22
-0.925
 32
0.0
 13
31.29
 23
-0.925
 33
0.0
  0
SOLID
  5
AC
330
1E
100
AcDbEntity
  8
CONSTR
100
AcDbTrace
 10
28.09
 20
-2.475
 30
0.0
 11
31.29
 21
-2.475
 31
0.0
 12
28.09
 22
-2.524999999999999
 32
0.0
 13
31.29
 23
-2.524999999999999
 33
0.0
  0
SOLID
  5
AD
330
1E
100
AcDbEntity
  8
CONSTR
100
AcDbTrace
 10
31.315
 20
-0.9
 30
0.0
 11
31.315
 21
-2.5
 31
0.0
 12
31.265
 22
-0.9
 32
0.0
 13
31.265
 23
-2.5
 33
0.0
  0
SOLID
  5
AE
330
1E
100
AcDbEntity
  8
METAL1
100
AcDbTrace
 10
31.08999999999999
 20
-0.35
 30
0.0
 11
46.09
 21
-0.35
 31
0.0
 12
31.08999999999999
 22
-3.049999999999999
 32
0.0
 13
46.09
 23
-3.049999999999999
 33
0.0
  0
SOLID
  5
AF
330
1E
100
AcDbEntity
  8
METAL1
100
AcDbTrace
 10
27.36499999999999
 20
-6.5
 30
0.0
 11
27.36499999999999
 21
-2.5
 31
0.0
 12
27.61499999999999
 22
-6.5
 32
0.0
 13
27.61499999999999
 23
-2.5
 33
0.0
  0
SOLID
  5
B0
330
1E
100
AcDbEntity
  8
METAL1
100
AcDbTrace
 10
27.61499999999999
 20
-6.5
 30
0.0
 11
27.61499999999999
 21
-14.9607
 31
0.0
 12
27.36499999999999
 22
-6.5
 32
0.0
 13
27.36499999999999
 23
-14.9607
 33
0.0
  0
SOLID
  5
B1
330
1E
100
AcDbEntity
  8
METAL1
100
AcDbTrace
 10
27.36499999999999
 20
-14.7107
 30
0.0
 11
28.115
 21
-14.7107
 31
0.0
 12
27.36499999999999
 22
-14.9607
 32
0.0
 13
28.115
 23
-14.9607
 33
0.0
  0
SOLID
  5
B2
330
1E
100
AcDbEntity
  8
METAL1
100
AcDbTrace
 10
27.865
 20
-14.7107
 30
0.0
 11
36.07569999999999
 21
-14.7107
 31
0.0
 12
27.865
 22
-14.9607
 32
0.0
 13
36.07569999999999
 23
-14.9607
 33
0.0
  0
SOLID
  5
B3
330
1E
100
AcDbEntity
  8
METAL1
100
AcDbTrace
 10
35.8257
 20
-14.9607
 30
0.0
 11
35.8257
 21
-14.2107
 31
0.0
 12
36.07569999999999
 22
-14.9607
 32
0.0
 13
36.07569999999999
 23
-14.2107
 33
0.0
  0
SOLID
  5
B4
330
1E
100
AcDbEntity
  8
METAL1
100
AcDbTrace
 10
35.8257
 20
-14.46069999999999
 30
0.0
 11
35.8257
 21
-6.5
 31
0.0
 12
36.07569999999999
 22
-14.46069999999999
 32
0.0
 13
36.07569999999999
 23
-6.5
 33
0.0
  0
SOLID
  5
B5
330
1E
100
AcDbEntity
  8
METAL1
100
AcDbTrace
 10
36.07569999999999
 20
-6.75
 30
0.0
 11
35.32569999999999
 21
-6.75
 31
0.0
 12
36.07569999999999
 22
-6.5
 32
0.0
 13
35.32569999999999
 23
-6.5
 33
0.0
  0
SOLID
  5
B6
330
1E
100
AcDbEntity
  8
METAL1
100
AcDbTrace
 10
35.5757
 20
-6.75
 30
0.0
 11
27.865
 21
-6.75
 31
0.0
 12
35.5757
 22
-6.5
 32
0.0
 13
27.865
 23
-6.5
 33
0.0
  0
SOLID
  5
B7
330
1E
100
AcDbEntity
  8
METAL1
100
AcDbTrace
 10
28.115
 20
-6.5
 30
0.0
 11
28.115
 21
-14.46069999999999
 31
0.0
 12
27.865
 22
-6.5
 32
0.0
 13
27.865
 23
-14.46069999999999
 33
0.0
  0
SOLID
  5
B8
330
1E
100
AcDbEntity
  8
METAL1
100
AcDbTrace
 10
27.865
 20
-14.2107
 30
0.0
 11
35.5757
 21
-14.2107
 31
0.0
 12
27.865
 22
-14.46069999999999
 32
0.0
 13
35.5757
 23
-14.46069999999999
 33
0.0
  0
SOLID
  5
B9
330
1E
100
AcDbEntity
  8
METAL1
100
AcDbTrace
 10
35.32569999999999
 20
-14.46069999999999
 30
0.0
 11
35.32569999999999
 21
-7.0
 31
0.0
 12
35.5757
 22
-14.46069999999999
 32
0.0
 13
35.5757
 23
-7.0
 33
0.0
  0
SOLID
  5
BA
330
1E
100
AcDbEntity
  8
METAL1
100
AcDbTrace
 10
35.5757
 20
-7.25
 30
0.0
 11
28.365
 21
-7.25
 31
0.0
 12
35.5757
 22
-7.0
 32
0.0
 13
28.365
 23
-7.0
 33
0.0
  0
SOLID
  5
BB
330
1E
100
AcDbEntity
  8
METAL1
100
AcDbTrace
 10
28.61499999999999
 20
-7.0
 30
0.0
 11
28.61499999999999
 21
-13.96069999999999
 31
0.0
 12
28.365
 22
-7.0
 32
0.0
 13
28.365
 23
-13.96069999999999
 33
0.0
  0
SOLID
  5
BC
330
1E
100
AcDbEntity
  8
METAL1
100
AcDbTrace
 10
28.365
 20
-13.7107
 30
0.0
 11
35.07569999999999
 21
-13.7107
 31
0.0
 12
28.365
 22
-13.96069999999999
 32
0.0
 13
35.07569999999999
 23
-13.96069999999999
 33
0.0
  0
SOLID
  5
BD
330
1E
100
AcDbEntity
  8
METAL1
100
AcDbTrace
 10
34.82569999999999
 20
-13.96069999999999
 30
0.0
 11
34.82569999999999
 21
-7.5
 31
0.0
 12
35.07569999999999
 22
-13.96069999999999
 32
0.0
 13
35.07569999999999
 23
-7.5
 33
0.0
  0
SOLID
  5
BE
330
1E
100
AcDbEntity
  8
METAL1
100
AcDbTrace
 10
35.07569999999999
 20
-7.75
 30
0.0
 11
28.86499999999999
 21
-7.75
 31
0.0
 12
35.07569999999999
 22
-7.5
 32
0.0
 13
28.86499999999999
 23
-7.5
 33
0.0
  0
SOLID
  5
BF
330
1E
100
AcDbEntity
  8
METAL1
100
AcDbTrace
 10
29.115
 20
-7.5
 30
0.0
 11
29.115
 21
-13.4607
 31
0.0
 12
28.86499999999999
 22
-7.5
 32
0.0
 13
28.86499999999999
 23
-13.4607
 33
0.0
  0
SOLID
  5
C0
330
1E
100
AcDbEntity
  8
METAL1
100
AcDbTrace
 10
28.86499999999999
 20
-13.21069999999999
 30
0.0
 11
34.5757
 21
-13.21069999999999
 31
0.0
 12
28.86499999999999
 22
-13.4607
 32
0.0
 13
34.5757
 23
-13.4607
 33
0.0
  0
SOLID
  5
C1
330
1E
100
AcDbEntity
  8
METAL1
100
AcDbTrace
 10
34.3257
 20
-13.4607
 30
0.0
 11
34.3257
 21
-12.9607
 31
0.0
 12
34.5757
 22
-13.4607
 32
0.0
 13
34.5757
 23
-12.9607
 33
0.0
  0
SOLID
  5
C2
330
1E
100
AcDbEntity
  8
METAL1
100
AcDbTrace
 10
33.48787969947093
 20
-13.41113053409592
 30
0.0
 11
33.48787969947093
 21
-12.41113053409592
 31
0.0
 12
34.48787969947094
 22
-13.41113053409592
 32
0.0
 13
34.48787969947094
 23
-12.41113053409592
 33
0.0
  0
SOLID
  5
C3
330
1E
100
AcDbEntity
  8
METAL1
100
AcDbTrace
 10
34.5757
 20
-12.9607
 30
0.0
 11
34.3257
 21
-12.9607
 31
0.0
 12
34.5757
 22
-12.71069999999999
 32
0.0
 13
34.3257
 23
-12.71069999999999
 33
0.0
  0
SOLID
  5
C4
330
1E
100
AcDbEntity
  8
CONSTR
100
AcDbTrace
 10
34.11287969947093
 20
-12.53613053409592
 30
0.0
 11
39.11287969947093
 21
-12.53613053409592
 31
0.0
 12
34.11287969947093
 22
-13.03613053409592
 32
0.0
 13
39.11287969947093
 23
-13.03613053409592
 33
0.0
  0
SOLID
  5
C5
330
1E
100
AcDbEntity
  8
METAL1
100
AcDbTrace
 10
39.91287969947094
 20
-13.58613053409593
 30
0.0
 11
39.11287969947093
 21
-13.58613053409593
 31
0.0
 12
39.91287969947094
 22
-11.98613053409592
 32
0.0
 13
39.11287969947093
 23
-11.98613053409592
 33
0.0
  0
SOLID
  5
C6
330
1E
100
AcDbEntity
  8
METAL1
100
AcDbTrace
 10
39.91287969947094
 20
-11.98613053409592
 30
0.0
 11
40.71287969947094
 21
-11.98613053409592
 31
0.0
 12
39.91287969947094
 22
-13.58613053409593
 32
0.0
 13
40.71287969947094
 23
-13.58613053409593
 33
0.0
  0
SOLID
  5
C7
330
1E
100
AcDbEntity
  8
METAL1
100
AcDbTrace
 10
40.71287969947094
 20
-12.78613053409592
 30
0.0
 11
40.71287969947094
 21
-13.58613053409593
 31
0.0
 12
39.11287969947093
 22
-12.78613053409592
 32
0.0
 13
39.11287969947093
 23
-13.58613053409593
 33
0.0
  0
SOLID
  5
C8
330
1E
100
AcDbEntity
  8
METAL1
100
AcDbTrace
 10
44.16287969947094
 20
-13.62433053409592
 30
0.0
 11
43.04527969947094
 21
-13.62433053409592
 31
0.0
 12
44.16287969947094
 22
-11.94793053409592
 32
0.0
 13
43.04527969947094
 23
-11.94793053409592
 33
0.0
  0
SOLID
  5
C9
330
1E
100
AcDbEntity
  8
METAL1
100
AcDbTrace
 10
41.21287969947093
 20
-13.62433053409592
 30
0.0
 11
40.09527969947094
 21
-13.62433053409592
 31
0.0
 12
41.21287969947093
 22
-11.94793053409592
 32
0.0
 13
40.09527969947094
 23
-11.94793053409592
 33
0.0
  0
SOLID
  5
CA
330
1E
100
AcDbEntity
  8
CONSTR
100
AcDbTrace
 10
43.68787969947094
 20
-13.58613053409593
 30
0.0
 11
43.68787969947094
 21
-11.98613053409592
 31
0.0
 12
43.73787969947094
 22
-13.58613053409593
 32
0.0
 13
43.73787969947094
 23
-11.98613053409592
 33
0.0
  0
SOLID
  5
CB
330
1E
100
AcDbEntity
  8
CONSTR
100
AcDbTrace
 10
43.71287969947093
 20
-13.61113053409592
 30
0.0
 11
40.51287969947094
 21
-13.61113053409592
 31
0.0
 12
43.71287969947093
 22
-13.56113053409592
 32
0.0
 13
40.51287969947094
 23
-13.56113053409592
 33
0.0
  0
SOLID
  5
CC
330
1E
100
AcDbEntity
  8
CONSTR
100
AcDbTrace
 10
43.71287969947093
 20
-12.01113053409593
 30
0.0
 11
40.51287969947094
 21
-12.01113053409593
 31
0.0
 12
43.71287969947093
 22
-11.96113053409592
 32
0.0
 13
40.51287969947094
 23
-11.96113053409592
 33
0.0
  0
SOLID
  5
CD
330
1E
100
AcDbEntity
  8
CONSTR
100
AcDbTrace
 10
40.48787969947094
 20
-13.58613053409593
 30
0.0
 11
40.48787969947094
 21
-11.98613053409592
 31
0.0
 12
40.53787969947094
 22
-13.58613053409593
 32
0.0
 13
40.53787969947094
 23
-11.98613053409592
 33
0.0
  0
SOLID
  5
CE
330
1E
100
AcDbEntity
  8
METAL1
100
AcDbTrace
 10
44.31287969947094
 20
-13.58613053409593
 30
0.0
 11
43.51287969947094
 21
-13.58613053409593
 31
0.0
 12
44.31287969947094
 22
-11.98613053409592
 32
0.0
 13
43.51287969947094
 23
-11.98613053409592
 33
0.0
  0
SOLID
  5
CF
330
1E
100
AcDbEntity
  8
METAL1
100
AcDbTrace
 10
44.31287969947094
 20
-11.98613053409592
 30
0.0
 11
45.11287969947093
 21
-11.98613053409592
 31
0.0
 12
44.31287969947094
 22
-13.58613053409593
 32
0.0
 13
45.11287969947093
 23
-13.58613053409593
 33
0.0
  0
SOLID
  5
D0
330
1E
100
AcDbEntity
  8
METAL1
100
AcDbTrace
 10
45.11287969947093
 20
-12.78613053409592
 30
0.0
 11
45.11287969947093
 21
-13.58613053409593
 31
0.0
 12
43.51287969947094
 22
-12.78613053409592
 32
0.0
 13
43.51287969947094
 23
-13.58613053409593
 33
0.0
  0
SOLID
  5
D1
330
1E
100
AcDbEntity
  8
METAL1
100
AcDbTrace
 10
45.15107969947094
 20
-12.93613053409592
 30
0.0
 11
45.15107969947094
 21
-14.05373053409593
 31
0.0
 12
43.47467969947094
 22
-12.93613053409592
 32
0.0
 13
43.47467969947094
 23
-14.05373053409593
 33
0.0
  0
SOLID
  5
D2
330
1E
100
AcDbEntity
  8
METAL1
100
AcDbTrace
 10
45.15107969947094
 20
-15.88613053409592
 30
0.0
 11
45.15107969947094
 21
-17.00373053409593
 31
0.0
 12
43.47467969947094
 22
-15.88613053409592
 32
0.0
 13
43.47467969947094
 23
-17.00373053409593
 33
0.0
  0
SOLID
  5
D3
330
1E
100
AcDbEntity
  8
CONSTR
100
AcDbTrace
 10
45.11287969947093
 20
-13.41113053409592
 30
0.0
 11
43.51287969947094
 21
-13.41113053409592
 31
0.0
 12
45.11287969947093
 22
-13.36113053409593
 32
0.0
 13
43.51287969947094
 23
-13.36113053409593
 33
0.0
  0
SOLID
  5
D4
330
1E
100
AcDbEntity
  8
CONSTR
100
AcDbTrace
 10
45.13787969947094
 20
-13.38613053409593
 30
0.0
 11
45.13787969947094
 21
-16.58613053409593
 31
0.0
 12
45.08787969947094
 22
-13.38613053409593
 32
0.0
 13
45.08787969947094
 23
-16.58613053409593
 33
0.0
  0
SOLID
  5
D5
330
1E
100
AcDbEntity
  8
CONSTR
100
AcDbTrace
 10
43.53787969947094
 20
-13.38613053409593
 30
0.0
 11
43.53787969947094
 21
-16.58613053409593
 31
0.0
 12
43.48787969947093
 22
-13.38613053409593
 32
0.0
 13
43.48787969947093
 23
-16.58613053409593
 33
0.0
  0
SOLID
  5
D6
330
1E
100
AcDbEntity
  8
CONSTR
100
AcDbTrace
 10
45.11287969947093
 20
-16.61113053409592
 30
0.0
 11
43.51287969947094
 21
-16.61113053409592
 31
0.0
 12
45.11287969947093
 22
-16.56113053409593
 32
0.0
 13
43.51287969947094
 23
-16.56113053409593
 33
0.0
  0
SOLID
  5
D7
330
1E
100
AcDbEntity
  8
METAL1
100
AcDbTrace
 10
45.11287969947093
 20
-16.38613053409593
 30
0.0
 11
45.11287969947093
 21
-17.98613053409592
 31
0.0
 12
43.51287969947094
 22
-16.38613053409593
 32
0.0
 13
43.51287969947094
 23
-17.98613053409592
 33
0.0
  0
LWPOLYLINE
  5
D9
330
1E
100
AcDbEntity
  8
GND
100
AcDbPolyline
 90
        2
 70
     0
 43
0.2
 10
44.31287969947094
 20
-17.58613053409592
 42
1.0
 10
44.31287969947094
 20
-16.78613053409592
  0
LWPOLYLINE
  5
DD
330
1E
100
AcDbEntity
  8
GND
100
AcDbPolyline
 90
        2
 70
     0
 43
0.2
 10
44.31287969947094
 20
-16.78613053409592
 42
1.0
 10
44.31287969947094
 20
-17.58613053409592
  0
SOLID
  5
E1
330
1E
100
AcDbEntity
  8
METAL1
100
AcDbTrace
 10
40.75107969947094
 20
-12.93613053409592
 30
0.0
 11
40.75107969947094
 21
-14.05373053409593
 31
0.0
 12
39.07467969947094
 22
-12.93613053409592
 32
0.0
 13
39.07467969947094
 23
-14.05373053409593
 33
0.0
  0
SOLID
  5
E2
330
1E
100
AcDbEntity
  8
METAL1
100
AcDbTrace
 10
40.75107969947094
 20
-15.88613053409592
 30
0.0
 11
40.75107969947094
 21
-17.00373053409593
 31
0.0
 12
39.07467969947094
 22
-15.88613053409592
 32
0.0
 13
39.07467969947094
 23
-17.00373053409593
 33
0.0
  0
SOLID
  5
E3
330
1E
100
AcDbEntity
  8
CONSTR
100
AcDbTrace
 10
40.71287969947094
 20
-13.41113053409592
 30
0.0
 11
39.11287969947093
 21
-13.41113053409592
 31
0.0
 12
40.71287969947094
 22
-13.36113053409593
 32
0.0
 13
39.11287969947093
 23
-13.36113053409593
 33
0.0
  0
SOLID
  5
E4
330
1E
100
AcDbEntity
  8
CONSTR
100
AcDbTrace
 10
40.73787969947093
 20
-13.38613053409593
 30
0.0
 11
40.73787969947093
 21
-16.58613053409593
 31
0.0
 12
40.68787969947094
 22
-13.38613053409593
 32
0.0
 13
40.68787969947094
 23
-16.58613053409593
 33
0.0
  0
SOLID
  5
E5
330
1E
100
AcDbEntity
  8
CONSTR
100
AcDbTrace
 10
39.13787969947094
 20
-13.38613053409593
 30
0.0
 11
39.13787969947094
 21
-16.58613053409593
 31
0.0
 12
39.08787969947093
 22
-13.38613053409593
 32
0.0
 13
39.08787969947093
 23
-16.58613053409593
 33
0.0
  0
SOLID
  5
E6
330
1E
100
AcDbEntity
  8
CONSTR
100
AcDbTrace
 10
40.71287969947094
 20
-16.61113053409592
 30
0.0
 11
39.11287969947093
 21
-16.61113053409592
 31
0.0
 12
40.71287969947094
 22
-16.56113053409593
 32
0.0
 13
39.11287969947093
 23
-16.56113053409593
 33
0.0
  0
SOLID
  5
E7
330
1E
100
AcDbEntity
  8
METAL1
100
AcDbTrace
 10
40.71287969947094
 20
-16.38613053409593
 30
0.0
 11
40.71287969947094
 21
-17.98613053409592
 31
0.0
 12
39.11287969947093
 22
-16.38613053409593
 32
0.0
 13
39.11287969947093
 23
-17.98613053409592
 33
0.0
  0
LWPOLYLINE
  5
E8
330
1E
100
AcDbEntity
  8
GND
100
AcDbPolyline
 90
        2
 70
     0
 43
0.2
 10
39.91287969947094
 20
-17.58613053409592
 42
1.0
 10
39.91287969947094
 20
-16.78613053409592
  0
LWPOLYLINE
  5
EC
330
1E
100
AcDbEntity
  8
GND
100
AcDbPolyline
 90
        2
 70
     0
 43
0.2
 10
39.91287969947094
 20
-16.78613053409592
 42
1.0
 10
39.91287969947094
 20
-17.58613053409592
  0
SOLID
  5
FF
330
1E
100
AcDbEntity
  8
METAL1
100
AcDbTrace
 10
23.9
 20
-1.31
 30
0.0
 11
23.9
 21
-2.509999999999999
 31
0.0
 12
22.7
 22
-1.31
 32
0.0
 13
22.7
 23
-2.509999999999999
 33
0.0
  0
LWPOLYLINE
  5
100
330
1E
100
AcDbEntity
  8
GND
100
AcDbPolyline
 90
        2
 70
     0
 43
0.2
 10
23.3
 20
-2.31
 42
1.0
 10
23.3
 20
-1.509999999999999
  0
LWPOLYLINE
  5
104
330
1E
100
AcDbEntity
  8
GND
100
AcDbPolyline
 90
        2
 70
     0
 43
0.2
 10
23.3
 20
-1.509999999999999
 42
1.0
 10
23.3
 20
-2.31
  0
SOLID
  5
108
330
1E
100
AcDbEntity
  8
METAL1
100
AcDbTrace
 10
-1.068147971601288
 20
-4.838393016280779
 30
0.0
 11
-1.068147971601288
 21
-3.720793016280778
 31
0.0
 12
0.6082520283987121
 22
-4.838393016280779
 32
0.0
 13
0.6082520283987121
 23
-3.720793016280778
 33
0.0
  0
SOLID
  5
109
330
1E
100
AcDbEntity
  8
METAL1
100
AcDbTrace
 10
-1.068147971601288
 20
-1.888393016280778
 30
0.0
 11
-1.068147971601288
 21
-0.7707930162807788
 31
0.0
 12
0.6082520283987121
 22
-1.888393016280778
 32
0.0
 13
0.6082520283987121
 23
-0.7707930162807788
 33
0.0
  0
SOLID
  5
10A
330
1E
100
AcDbEntity
  8
CONSTR
100
AcDbTrace
 10
-1.029947971601288
 20
-4.363393016280777
 30
0.0
 11
0.5700520283987114
 21
-4.363393016280777
 31
0.0
 12
-1.029947971601288
 22
-4.413393016280778
 32
0.0
 13
0.5700520283987114
 23
-4.413393016280778
 33
0.0
  0
SOLID
  5
10B
330
1E
100
AcDbEntity
  8
CONSTR
100
AcDbTrace
 10
-1.054947971601288
 20
-4.388393016280778
 30
0.0
 11
-1.054947971601288
 21
-1.188393016280778
 31
0.0
 12
-1.004947971601287
 22
-4.388393016280778
 32
0.0
 13
-1.004947971601287
 23
-1.188393016280778
 33
0.0
  0
SOLID
  5
10C
330
1E
100
AcDbEntity
  8
CONSTR
100
AcDbTrace
 10
0.545052028398712
 20
-4.388393016280778
 30
0.0
 11
0.545052028398712
 21
-1.188393016280778
 31
0.0
 12
0.5950520283987118
 22
-4.388393016280778
 32
0.0
 13
0.5950520283987118
 23
-1.188393016280778
 33
0.0
  0
SOLID
  5
10D
330
1E
100
AcDbEntity
  8
CONSTR
100
AcDbTrace
 10
-1.029947971601288
 20
-1.163393016280778
 30
0.0
 11
0.5700520283987114
 21
-1.163393016280778
 31
0.0
 12
-1.029947971601288
 22
-1.213393016280779
 32
0.0
 13
0.5700520283987114
 23
-1.213393016280779
 33
0.0
  0
SOLID
  5
10E
330
1E
100
AcDbEntity
  8
METAL1
100
AcDbTrace
 10
0.5700520283987114
 20
-5.788393016280778
 30
0.0
 11
-1.029947971601288
 21
-5.788393016280778
 31
0.0
 12
0.5700520283987114
 22
-4.188393016280778
 32
0.0
 13
-1.029947971601288
 23
-4.188393016280778
 33
0.0
  0
LWPOLYLINE
  5
10F
330
1E
100
AcDbEntity
  8
GND
100
AcDbPolyline
 90
        2
 70
     0
 43
0.2
 10
-0.2299479716012884
 20
-5.388393016280778
 42
1.0
 10
-0.2299479716012884
 20
-4.588393016280778
  0
LWPOLYLINE
  5
113
330
1E
100
AcDbEntity
  8
GND
100
AcDbPolyline
 90
        2
 70
     0
 43
0.2
 10
-0.2299479716012884
 20
-4.588393016280778
 42
1.0
 10
-0.2299479716012884
 20
-5.388393016280778
  0
CIRCLE
  5
15F
330
1E
100
AcDbEntity
  8
CONSTR
370
    30
100
AcDbCircle
 10
16.90513374174422
 20
-0.1087767021927704
 30
0.0
 40
1.136483575809477
  0
LWPOLYLINE
  5
160
330
1E
100
AcDbEntity
  8
CONSTR
370
    30
100
AcDbPolyline
 90
        2
 70
     0
 43
0.0
 10
15.81498059855177
 20
-0.1995889789701977
 10
17.94986374695922
 20
-0.1995889789701977
  0
LWPOLYLINE
  5
161
330
1E
100
AcDbEntity
  8
CONSTR
370
    30
100
AcDbPolyline
 90
        2
 70
     0
 43
0.0
 10
15.9058267469616
 20
-0.0179643373510174
 10
18.04070989536906
 20
-0.0179643373510174
  0
LWPOLYLINE
  5
162
330
1E
100
AcDbEntity
  8
CONSTR
100
AcDbPolyline
 90
        2
 70
     0
 43
0.0
 10
1.400785813879362
 20
2.160245627346395
 10
2.037107782817752
 20
-2.240527376841523
  0
LWPOLYLINE
  5
163
330
1E
100
AcDbEntity
  8
CONSTR
100
AcDbPolyline
 90
        2
 70
     0
 43
0.0
 10
3.702151854337394
 20
-0.0785282816988726
 10
4.062271764670622
 20
2.182387883520334
  0
LWPOLYLINE
  5
164
330
1E
100
AcDbEntity
  8
CONSTR
100
AcDbPolyline
 90
        2
 70
     0
 43
0.0
 10
2.375044975563756
 20
-0.102040778031558
 10
2.734295339166582
 20
2.171316830048212
  0
LWPOLYLINE
  5
165
330
1E
100
AcDbEntity
  8
CONSTR
100
AcDbPolyline
 90
        2
 70
     0
 43
0.0
 10
2.690029448384484
 20
-2.240527376841527
 10
2.04264098192063
 20
2.154710100610344
  0
LWPOLYLINE
  5
166
330
1E
100
AcDbEntity
  8
CONSTR
100
AcDbPolyline
 90
        2
 70
     0
 43
0.0
 10
2.734295339166582
 20
2.17685235678428
 10
3.370617407424667
 20
-2.246063052807276
  0
LWPOLYLINE
  5
167
330
1E
100
AcDbEntity
  8
CONSTR
100
AcDbPolyline
 90
        2
 70
     0
 43
0.0
 10
3.381683805630439
 20
2.171316830048212
 10
4.012472575465952
 20
-2.257134106279398
  0
LWPOLYLINE
  5
168
330
1E
100
AcDbEntity
  8
CONSTR
100
AcDbPolyline
 90
        2
 70
     0
 43
0.0
 10
1.417385510507685
 20
2.25988570551426
 10
0.9674092417057504
 20
-0.4851092595593869
  0
ARC
  5
169
330
1E
100
AcDbEntity
  8
CONSTR
100
AcDbCircle
 10
1.722499788107464
 20
2.154042992364839
 30
0.0
 40
0.3256099016146134
100
AcDbArc
 50
359.9495733215438
 51
180.0504266784561
  0
ARC
  5
16A
330
1E
100
AcDbEntity
  8
CONSTR
100
AcDbCircle
 10
3.057484474448068
 20
2.173605410982919
 30
0.0
 40
0.3256099016146134
100
AcDbArc
 50
356.5051155470028
 51
183.4948844529971
  0
ARC
  5
16B
330
1E
100
AcDbEntity
  8
CONSTR
100
AcDbCircle
 10
4.388985700459366
 20
2.165899012708067
 30
0.0
 40
0.3256099016146134
100
AcDbArc
 50
357.8628392357289
 51
2.662741806488528
  0
LWPOLYLINE
  5
16C
330
1E
100
AcDbEntity
  8
CONSTR
100
AcDbPolyline
 90
        4
 70
     1
 43
0.0
 10
6.094118340773068
 20
2.469520999750706
 10
6.094118340773068
 20
2.469520999750706
 10
6.094118340773068
 20
2.469520999750706
 10
6.094118340773068
 20
2.469520999750706
  0
LWPOLYLINE
  5
16D
330
1E
100
AcDbEntity
  8
CONSTR
100
AcDbPolyline
 90
        2
 70
     0
 43
0.0
 10
2.690029448384484
 20
-2.240527376841527
 10
3.044299991937084
 20
0.0220876170713353
  0
LINE
  5
16E
330
1E
100
AcDbEntity
  8
CONSTR
100
AcDbLine
 10
1.614843909572744
 20
-0.4841820484290729
 30
0.0
 11
1.70425590512127
 21
0.0614606563608788
 31
0.0
  0
ARC
  5
16F
330
1E
100
AcDbEntity
  8
CONSTR
100
AcDbCircle
 10
2.362456438907988
 20
-2.236840135971007
 30
0.0
 40
0.3256099016146134
100
AcDbArc
 50
180.6813662363378
 51
359.3186337636621
  0
LWPOLYLINE
  5
170
330
1E
100
AcDbEntity
  8
CONSTR
100
AcDbPolyline
 90
        2
 70
     0
 43
0.0
 10
4.012472575465952
 20
-2.234991850105458
 10
4.367356104816714
 20
0.0107318519090285
  0
ARC
  5
171
330
1E
100
AcDbEntity
  8
CONSTR
100
AcDbCircle
 10
3.68977381158384
 20
-2.236840135971007
 30
0.0
 40
0.3256099016146134
100
AcDbArc
 50
180.6813662363378
 51
359.3186337636621
  0
LWPOLYLINE
  5
172
330
1E
100
AcDbEntity
  8
CONSTR
100
AcDbPolyline
 90
        2
 70
     0
 43
0.0
 10
4.079754311623856
 20
2.203256100105129
 10
4.716076280562245
 20
-2.197516904082789
  0
LWPOLYLINE
  5
173
330
1E
100
AcDbEntity
  8
CONSTR
100
AcDbPolyline
 90
        2
 70
     0
 43
0.0
 10
6.381120352081888
 20
-0.0355178089401314
 10
6.741240262415114
 20
2.225398356279072
  0
LWPOLYLINE
  5
174
330
1E
100
AcDbEntity
  8
CONSTR
100
AcDbPolyline
 90
        2
 70
     0
 43
0.0
 10
5.05401347330825
 20
-0.0590303052728203
 10
5.413263836911075
 20
2.21432730280695
  0
LWPOLYLINE
  5
175
330
1E
100
AcDbEntity
  8
CONSTR
100
AcDbPolyline
 90
        2
 70
     0
 43
0.0
 10
5.368997946128978
 20
-2.197516904082789
 10
4.721609479665125
 20
2.197720573369078
  0
LWPOLYLINE
  5
176
330
1E
100
AcDbEntity
  8
CONSTR
100
AcDbPolyline
 90
        2
 70
     0
 43
0.0
 10
5.413263836911075
 20
2.219862829543018
 10
6.049585905169164
 20
-2.203052580048538
  0
LWPOLYLINE
  5
177
330
1E
100
AcDbEntity
  8
CONSTR
100
AcDbPolyline
 90
        2
 70
     0
 43
0.0
 10
6.060652303374931
 20
2.21432730280695
 10
6.69144107321045
 20
-2.214123633520657
  0
ARC
  5
178
330
1E
100
AcDbEntity
  8
CONSTR
100
AcDbCircle
 10
4.401468285851958
 20
2.197053465123577
 30
0.0
 40
0.3256099016146134
100
AcDbArc
 50
359.9495733215438
 51
180.0504266784561
  0
ARC
  5
179
330
1E
100
AcDbEntity
  8
CONSTR
100
AcDbCircle
 10
5.736452972192562
 20
2.216615883741656
 30
0.0
 40
0.3256099016146134
100
AcDbArc
 50
356.5051155470028
 51
183.4948844529971
  0
LWPOLYLINE
  5
17A
330
1E
100
AcDbEntity
  8
CONSTR
100
AcDbPolyline
 90
        2
 70
     0
 43
0.0
 10
5.368997946128978
 20
-2.197516904082789
 10
5.723268489681577
 20
0.065098089830073
  0
ARC
  5
17B
330
1E
100
AcDbEntity
  8
CONSTR
100
AcDbCircle
 10
5.041424936652482
 20
-2.19382966321227
 30
0.0
 40
0.3256099016146134
100
AcDbArc
 50
180.6813662363378
 51
359.3186337636621
  0
LWPOLYLINE
  5
17C
330
1E
100
AcDbEntity
  8
CONSTR
100
AcDbPolyline
 90
        2
 70
     0
 43
0.0
 10
6.69144107321045
 20
-2.191981377346721
 10
7.046324602561208
 20
0.0537423246677662
  0
ARC
  5
17D
330
1E
100
AcDbEntity
  8
CONSTR
100
AcDbCircle
 10
6.368742309328332
 20
-2.19382966321227
 30
0.0
 40
0.3256099016146134
100
AcDbArc
 50
180.6813662363378
 51
359.3186337636621
  0
LWPOLYLINE
  5
17E
330
1E
100
AcDbEntity
  8
CONSTR
100
AcDbPolyline
 90
        2
 70
     0
 43
0.0
 10
7.720188826146474
 20
-0.0268420354377916
 10
8.0803087364797
 20
2.234074129781411
  0
LWPOLYLINE
  5
17F
330
1E
100
AcDbEntity
  8
CONSTR
100
AcDbPolyline
 90
        2
 70
     0
 43
0.0
 10
6.75233231097566
 20
2.228538603045358
 10
7.38865437923375
 20
-2.194376806546195
  0
LWPOLYLINE
  5
180
330
1E
100
AcDbEntity
  8
CONSTR
100
AcDbPolyline
 90
        2
 70
     0
 43
0.0
 10
7.399720777439517
 20
2.223003076309289
 10
8.030509547275036
 20
-2.205447860018317
  0
ARC
  5
181
330
1E
100
AcDbEntity
  8
CONSTR
100
AcDbCircle
 10
7.075521446257148
 20
2.225291657244
 30
0.0
 40
0.3256099016146134
100
AcDbArc
 50
356.5051155470028
 51
183.4948844529971
  0
ARC
  5
182
330
1E
100
AcDbEntity
  8
CONSTR
100
AcDbCircle
 10
8.407022672268446
 20
2.217585258969144
 30
0.0
 40
0.3256099016146134
100
AcDbArc
 50
357.8628392357289
 51
2.662741806488528
  0
LWPOLYLINE
  5
183
330
1E
100
AcDbEntity
  8
CONSTR
100
AcDbPolyline
 90
        4
 70
     1
 43
0.0
 10
10.11215531258214
 20
2.521207246011783
 10
10.11215531258214
 20
2.521207246011783
 10
10.11215531258214
 20
2.521207246011783
 10
10.11215531258214
 20
2.521207246011783
  0
LWPOLYLINE
  5
184
330
1E
100
AcDbEntity
  8
CONSTR
100
AcDbPolyline
 90
        2
 70
     0
 43
0.0
 10
8.030509547275036
 20
-2.183305603844377
 10
8.385393076625794
 20
0.0624180981701059
  0
ARC
  5
185
330
1E
100
AcDbEntity
  8
CONSTR
100
AcDbCircle
 10
7.707810783392918
 20
-2.18515388970993
 30
0.0
 40
0.3256099016146134
100
AcDbArc
 50
180.6813662363378
 51
359.3186337636621
  0
LWPOLYLINE
  5
186
330
1E
100
AcDbEntity
  8
CONSTR
100
AcDbPolyline
 90
        2
 70
     0
 43
0.0
 10
8.097791283432936
 20
2.254942346366213
 10
8.734113252371329
 20
-2.145830657821708
  0
LWPOLYLINE
  5
187
330
1E
100
AcDbEntity
  8
CONSTR
100
AcDbPolyline
 90
        2
 70
     0
 43
0.0
 10
10.39915732389096
 20
0.0161684373209496
 10
10.75927723422419
 20
2.277084602540149
  0
LWPOLYLINE
  5
188
330
1E
100
AcDbEntity
  8
CONSTR
100
AcDbPolyline
 90
        2
 70
     0
 43
0.0
 10
9.07205044511733
 20
-0.0073440590117428
 10
9.431300808720154
 20
2.266013549068031
  0
LWPOLYLINE
  5
189
330
1E
100
AcDbEntity
  8
CONSTR
100
AcDbPolyline
 90
        2
 70
     0
 43
0.0
 10
9.387034917938061
 20
-2.145830657821708
 10
8.739646451474204
 20
2.249406819630159
  0
LWPOLYLINE
  5
18A
330
1E
100
AcDbEntity
  8
CONSTR
100
AcDbPolyline
 90
        2
 70
     0
 43
0.0
 10
9.431300808720154
 20
2.271549075804099
 10
10.06762287697824
 20
-2.151366333787457
  0
LWPOLYLINE
  5
18B
330
1E
100
AcDbEntity
  8
CONSTR
100
AcDbPolyline
 90
        2
 70
     0
 43
0.0
 10
10.07868927518401
 20
2.266013549068031
 10
10.70947804501953
 20
-2.162437387259579
  0
ARC
  5
18C
330
1E
100
AcDbEntity
  8
CONSTR
100
AcDbCircle
 10
8.419505257661038
 20
2.248739711384658
 30
0.0
 40
0.3256099016146134
100
AcDbArc
 50
359.9495733215438
 51
180.0504266784561
  0
ARC
  5
18D
330
1E
100
AcDbEntity
  8
CONSTR
100
AcDbCircle
 10
9.75448994400164
 20
2.268302130002737
 30
0.0
 40
0.3256099016146134
100
AcDbArc
 50
356.5051155470028
 51
183.4948844529971
  0
LWPOLYLINE
  5
18E
330
1E
100
AcDbEntity
  8
CONSTR
100
AcDbPolyline
 90
        2
 70
     0
 43
0.0
 10
9.387034917938061
 20
-2.145830657821708
 10
9.741305461490657
 20
0.116784336091154
  0
ARC
  5
18F
330
1E
100
AcDbEntity
  8
CONSTR
100
AcDbCircle
 10
9.05946190846156
 20
-2.142143416951192
 30
0.0
 40
0.3256099016146134
100
AcDbArc
 50
180.6813662363378
 51
359.3186337636621
  0
LWPOLYLINE
  5
190
330
1E
100
AcDbEntity
  8
CONSTR
100
AcDbPolyline
 90
        2
 70
     0
 43
0.0
 10
10.70947804501953
 20
-2.14029513108564
 10
11.06436157437028
 20
0.1054285709288472
  0
ARC
  5
191
330
1E
100
AcDbEntity
  8
CONSTR
100
AcDbCircle
 10
10.38677928113741
 20
-2.142143416951192
 30
0.0
 40
0.3256099016146134
100
AcDbArc
 50
180.6813662363378
 51
359.3186337636621
  0
LWPOLYLINE
  5
192
330
1E
100
AcDbEntity
  8
CONSTR
100
AcDbPolyline
 90
        2
 70
     0
 43
0.0
 10
10.75005295157657
 20
2.302009868251978
 10
11.14893623449496
 20
-0.4705279811388117
  0
LWPOLYLINE
  5
193
330
1E
100
AcDbEntity
  8
CONSTR
100
AcDbPolyline
 90
        2
 70
     0
 43
0.0
 10
11.39744141804043
 20
2.29647434151591
 10
11.79144229878196
 20
-0.4696078284134977
  0
ARC
  5
194
330
1E
100
AcDbEntity
  8
CONSTR
100
AcDbCircle
 10
11.07324208685806
 20
2.298762922450617
 30
0.0
 40
0.3256099016146134
100
AcDbArc
 50
356.5051155470028
 51
183.4948844529971
  0
ARC
  5
195
330
1E
100
AcDbEntity
  8
CONSTR
100
AcDbCircle
 10
1.26479650274212
 20
-0.4716478631903698
 30
0.0
 40
0.3256099016146134
100
AcDbArc
 50
180.6813662363378
 51
359.3186337636621
  0
ARC
  5
196
330
1E
100
AcDbEntity
  8
CONSTR
100
AcDbCircle
 10
11.49253140593922
 20
-0.3938993115090312
 30
0.0
 40
0.3256099016146134
100
AcDbArc
 50
180.6813662363378
 51
359.3186337636621
  0
MTEXT
  5
1A2
330
1E
100
AcDbEntity
  8
CONSTR
100
AcDbMText
 10
3.632293237384303
 20
-4.375928538584318
 30
0.0
 40
0.8
 41
13.3098
 71
     1
 72
     5
  1
n=8zav.\PD=8mm\Pl=10mm\Pd=1mm CuAg
 73
     1
 44
1.0
  0
MTEXT
  5
1C7
330
1E
100
AcDbEntity
  8
CONSTR
100
AcDbMText
 10
-0.6151664013617478
 20
-3.684819552970637
 30
0.0
 40
0.6
 41
3.3612
 71
     1
 72
     5
  1
27pF
 11
0.0000000000000001
 21
1.0
 31
0.0
 73
     1
 44
1.0
  0
MTEXT
  5
1C8
330
1E
100
AcDbEntity
  8
CONSTR
100
AcDbMText
 10
22.24986667485835
 20
1.222483230412137
 30
0.0
 40
0.6
 41
3.4054
 71
     1
 72
     5
  1
1k
 11
0.0000000000000001
 21
1.0
 31
0.0
 73
     1
 44
1.0
  0
MTEXT
  5
1C9
330
1E
100
AcDbEntity
  8
CONSTR
100
AcDbMText
 10
41.39988469260186
 20
-12.39417672841017
 30
0.0
 40
0.6
 41
3.8919
 71
     1
 72
     5
  1
82
 73
     1
 44
1.0
  0
MTEXT
  5
1CA
330
1E
100
AcDbEntity
  8
CONSTR
100
AcDbMText
 10
39.5866035737616
 20
-15.97518156009575
 30
0.0
 40
0.5
 41
5.9263
 71
     1
 72
     5
  1
680pF
 11
0.0000000000000001
 21
1.0
 31
0.0
 73
     1
 44
1.0
  0
MTEXT
  5
1CB
330
1E
100
AcDbEntity
  8
CONSTR
100
AcDbMText
 10
44.05346687722802
 20
-15.93097154696946
 30
0.0
 40
0.6
 41
5.8379
 71
     1
 72
     5
  1
20nF
 11
0.0000000000000001
 21
1.0
 31
0.0
 73
     1
 44
1.0
  0
MTEXT
  5
1CC
330
1E
100
AcDbEntity
  8
CONSTR
100
AcDbMText
 10
28.79536943759049
 20
-1.253273125737379
 30
0.0
 40
0.6
 41
5.1303
 71
     1
 72
     5
  1
6.8pF
 73
     1
 44
1.0
  0
MTEXT
  5
1D8
330
1E
100
AcDbEntity
  8
CONSTR
100
AcDbMText
 10
24.37273240287284
 20
-2.358521496720186
 30
0.0
 40
0.5
 41
2.816399999999999
 71
     1
 72
     5
  1
BFP196
 11
0.0000000000000001
 21
1.0
 31
0.0
 73
     1
 44
1.0
  0
MTEXT
  5
1DE
330
1E
100
AcDbEntity
  8
CONSTR
100
AcDbMText
 10
27.02631434421923
 20
-0.2806544750723248
 30
0.0
 40
0.4
 41
2.770999999999999
 71
     1
 72
     5
  1
33k+\P10nF
 11
0.0000000000000001
 21
1.0
 31
0.0
 73
     1
 44
1.0
  0
MTEXT
  5
1E7
330
1E
100
AcDbEntity
  8
CONSTR
100
AcDbMText
 10
-6.010783645455788
 20
4.455064015486897
 30
0.0
 40
1.6
 41
10.6296
 71
     1
 72
     5
  1
Ant
 73
     1
 44
1.0
  0
MTEXT
  5
1EE
330
1E
100
AcDbEntity
  8
CONSTR
100
AcDbMText
 10
4.86890337361136
 20
5.870858209206332
 30
0.0
 40
1.199999999999999
 41
3.8612
 71
     1
 72
     5
  1
L
 73
     1
 44
1.0
  0
MTEXT
  5
1EF
330
1E
100
AcDbEntity
  8
CONSTR
100
AcDbMText
 10
14.81715746719109
 20
6.097903022212747
 30
0.0
 40
1.199999999999999
 41
7.449799999999999
 71
     1
 72
     5
  1
C{\H0.5x;trimer}
 73
     1
 44
1.0
  0
MTEXT
  5
1F0
330
1E
100
AcDbEntity
  8
CONSTR
100
AcDbMText
 10
15.35055299483036
 20
-4.126918926343066
 30
0.0
 40
0.6
 41
5.1303
 71
     1
 72
     5
  1
2-10pF\P(4.3pf)
 73
     1
 44
1.0
  0
LWPOLYLINE
  5
1F1
330
1E
100
AcDbEntity
  8
METAL1
100
AcDbPolyline
 90
        4
 70
     1
 43
0.0
 10
-9.464485816995036
 20
19.24045308107339
 10
50.53551418300497
 20
19.24045308107339
 10
50.53551418300497
 20
-20.7595469189266
 10
-9.464485816995036
 20
-20.7595469189266
  0
MTEXT
  5
1F9
330
1E
100
AcDbEntity
  8
CONSTR
100
AcDbMText
 10
43.18198005671945
 20
2.603407589462648
 30
0.0
 40
1.6
 41
8.2675
 71
     1
 72
     5
  1
Rx
 73
     1
 44
1.0
  0
SOLID
  5
206
330
1E
100
AcDbEntity
  8
METAL1
100
AcDbTrace
 10
26.33799590511304
 20
0.6359134999056715
 30
0.0
 11
26.33799590511304
 21
-0.5640865000943283
 31
0.0
 12
25.13799590511304
 22
0.6359134999056715
 32
0.0
 13
25.13799590511304
 23
-0.5640865000943283
 33
0.0
  0
LWPOLYLINE
  5
207
330
1E
100
AcDbEntity
  8
GND
100
AcDbPolyline
 90
        2
 70
     0
 43
0.2
 10
25.73799590511304
 20
-0.3640865000943285
 42
1.0
 10
25.73799590511304
 20
0.4359134999056716
  0
LWPOLYLINE
  5
208
330
1E
100
AcDbEntity
  8
GND
100
AcDbPolyline
 90
        2
 70
     0
 43
0.2
 10
25.73799590511304
 20
0.4359134999056716
 42
1.0
 10
25.73799590511304
 20
-0.3640865000943285
  0
MTEXT
  5
297
330
1E
100
AcDbEntity
  8
METAL1
370
    30
100
AcDbMText
 10
21.18560252701762
 20
15.769614066559
 30
0.0
 40
1.8
 41
57.7028
 71
     5
 72
     5
  1
BFP196 HI-DYNAMIC 144 MHz LNA YU1AW
 73
     1
 44
1.0
  0
CIRCLE
  5
29A
330
1E
100
AcDbEntity
  8
CONSTR
370
    30
100
AcDbCircle
 10
16.85604593658354
 20
-0.0668143783277628
 30
0.0
 40
3.12552617030451
  0
SOLID
  5
2AC
330
1E
100
AcDbEntity
  8
METAL1
100
AcDbTrace
 10
45.14527939128299
 20
-6.588268678117959
 30
0.0
 11
45.14527939128299
 21
-8.188268678117957
 31
0.0
 12
43.545279391283
 22
-6.588268678117959
 32
0.0
 13
43.545279391283
 23
-8.188268678117957
 33
0.0
  0
SOLID
  5
2B5
330
1E
100
AcDbEntity
  8
METAL1
100
AcDbTrace
 10
45.09449165940071
 20
-9.329790902770145
 30
0.0
 11
45.09449165940071
 21
-10.92979090277014
 31
0.0
 12
43.49449165940072
 22
-9.329790902770145
 32
0.0
 13
43.49449165940072
 23
-10.92979090277014
 33
0.0
  0
LWPOLYLINE
  5
2B6
330
1E
100
AcDbEntity
  8
GND
100
AcDbPolyline
 90
        2
 70
     0
 43
0.2
 10
44.29449165940072
 20
-10.52979090277014
 42
1.0
 10
44.29449165940072
 20
-9.729790902770144
  0
LWPOLYLINE
  5
2B7
330
1E
100
AcDbEntity
  8
GND
100
AcDbPolyline
 90
        2
 70
     0
 43
0.2
 10
44.29449165940072
 20
-9.729790902770144
 42
1.0
 10
44.29449165940072
 20
-10.52979090277014
  0
INSERT
  5
2D6
330
1E
100
AcDbEntity
  8
CONSTR
100
AcDbBlockReference
  2
elkon
 10
37.62941698154524
 20
-18.82721118640856
 30
0.0
  0
INSERT
  5
2D7
330
1E
100
AcDbEntity
  8
CONSTR
100
AcDbBlockReference
  2
elkon
 10
49.6202202832995
 20
-1.331128078967029
 30
0.0
 50
180.0
  0
INSERT
  5
2D8
330
1E
100
AcDbEntity
  8
CONSTR
100
AcDbBlockReference
  2
rfc
 10
73.92875523030753
 20
22.27449376488519
 30
0.0
 41
5.747672421525731
 42
5.747672421525731
 43
5.747672421525731
 50
180.0
  0
LWPOLYLINE
  5
2D9
330
1E
100
AcDbEntity
  8
CONSTR
100
AcDbPolyline
 90
        2
 70
     0
 43
0.0
 10
44.37024024791286
 20
-3.530426826050863
 10
44.37024024791286
 20
-2.273641114399161
  0
LWPOLYLINE
  5
2DA
330
1E
100
AcDbEntity
  8
CONSTR
100
AcDbPolyline
 90
        2
 70
     0
 43
0.0
 10
44.37024024791286
 20
-6.016676800990921
 10
44.37024024791286
 20
-7.082212500038821
  0
LWPOLYLINE
  5
2DB
330
1E
100
AcDbEntity
  8
CONSTR
100
AcDbPolyline
 90
        2
 70
     0
 43
0.0
 10
45.1511019638997
 20
-8.098274296866536
 10
45.26686256478234
 20
-8.716333213660329
  0
LWPOLYLINE
  5
2DC
330
1E
100
AcDbEntity
  8
CONSTR
100
AcDbPolyline
 90
        2
 70
     0
 43
0.0
 10
45.04774119865713
 20
-12.12295650437646
 10
45.24103040027625
 20
-11.46620234734424
  0
LWPOLYLINE
  5
2DD
330
1E
100
AcDbEntity
  8
CONSTR
100
AcDbPolyline
 90
        2
 70
     0
 43
0.0
 10
45.34162180671518
 20
-10.18143338311511
 10
44.87806744706739
 20
-10.14290070279298
  0
MTEXT
  5
2DE
330
1E
100
AcDbEntity
  8
CONSTR
100
AcDbMText
 10
41.43757393871957
 20
-7.623741114458304
 30
0.0
 40
0.6
 41
1.6775
 71
     1
 72
     5
  1
1uF
 73
     1
 44
1.0
  0
MTEXT
  5
2DF
330
1E
100
AcDbEntity
  8
CONSTR
100
AcDbMText
 10
42.95939463865091
 20
-5.998766869165848
 30
0.0
 40
0.6
 41
2.423099999999999
 71
     1
 72
     5
  1
10uH
 11
0.0000000000000001
 21
1.0
 31
0.0
 73
     1
 44
1.0
  0
MTEXT
  5
2E0
330
1E
100
AcDbEntity
  8
CONSTR
100
AcDbMText
 10
41.76787964535917
 20
-10.13495564797711
 30
0.0
 40
0.6
 41
1.6775
 71
     1
 72
     5
  1
1uF
 73
     1
 44
1.0
  0
MTEXT
  5
2E1
330
1E
100
AcDbEntity
  8
CONSTR
100
AcDbMText
 10
46.78859736868107
 20
-11.72738054655817
 30
0.0
 40
0.5999999999999999
 41
3.075399999999999
 71
     1
 72
     5
  1
78L10
 11
-0.0031168054897748
 21
0.999995142749973
 31
0.0
 73
     1
 44
1.0
  0
INSERT
  5
2E2
330
1E
100
AcDbEntity
  8
CONSTR
100
AcDbBlockReference
  2
tri
 10
45.58557400669704
 20
-21.18721788732066
 30
0.0
 50
45.0
  0
LWPOLYLINE
  5
2E9
330
1E
100
AcDbEntity
  8
CONSTR
100
AcDbPolyline
 90
        2
 70
     0
 43
0.0
 10
45.25717625937134
 20
-11.48515947733044
 10
45.45046546099047
 20
-10.82840532029822
  0
LWPOLYLINE
  5
2F0
330
1E
100
AcDbEntity
  8
CONSTR
100
AcDbPolyline
 90
        2
 70
     0
 43
0.0
 10
45.28391050050706
 20
-8.746613478084244
 10
45.39967110138972
 20
-9.364672394878036
  0
MTEXT
  5
2FD
330
1E
100
AcDbEntity
  8
CONSTR
100
AcDbMText
 10
36.26772302742478
 20
-10.60455689452396
 30
0.0
 40
0.6
 41
6.372399999999999
 71
     1
 72
     5
  1
0.3-0.4mm\PCul
 73
     1
 44
1.0
  0
DIMENSION
  5
315
330
1E
100
AcDbEntity
  8
METAL1
100
AcDbDimension
  2
*D7
 10
50.55789932011652
 20
21.6678643061466
 30
0.0
 11
20.57420837430192
 21
21.6678643061466
 31
0.0
 70
    32
 71
     5
 42
59.96738189162918
  3
Standard
100
AcDbAlignedDimension
 13
-9.409482571512668
 23
21.35673056964687
 33
0.0
 14
50.55789932011652
 24
21.35673056964687
 34
0.0
100
AcDbRotatedDimension
1001
ACAD
1000
DSTYLE
1002
{
1070
   147
1040
0.9
1070
   140
1040
1.8
1070
    41
1040
1.8
1070
   271
1070
     0
1002
}
  0
DIMENSION
  5
323
330
1E
100
AcDbEntity
  8
METAL1
100
AcDbDimension
  2
*D8
 10
53.0478943862256
 20
-20.75003372882169
 30
0.0
 11
53.0478943862256
 21
-0.7856196070500442
 31
0.0
 70
    32
 71
     5
 42
39.92882824354328
  3
Standard
100
AcDbAlignedDimension
 13
52.32164579493098
 23
19.17879451472158
 33
0.0
 14
52.32164579493098
 24
-20.75003372882169
 34
0.0
 50
90.0
100
AcDbRotatedDimension
1001
ACAD
1000
DSTYLE
1002
{
1070
    41
1040
1.8
1070
   140
1040
1.8
1070
   147
1040
0.9
1070
   271
1070
     0
1002
}
  0
ENDSEC
  0
SECTION
  2
OBJECTS
  0
DICTIONARY
  5
C
330
0
100
AcDbDictionary
281
     1
  3
ACAD_GROUP
350
D
  3
ACAD_LAYOUT
350
19
  3
ACAD_MLINESTYLE
350
16
  3
ACAD_PLOTSETTINGS
350
18
  3
ACAD_PLOTSTYLENAME
350
E
  3
AcDbVariableDictionary
350
11C
  0
DICTIONARY
  5
11E
330
1E
100
AcDbDictionary
280
     1
281
     1
  3
ACAD_SORTENTS
360
11F
  0
DICTIONARY
  5
D
102
{ACAD_REACTORS
330
C
102
}
330
C
100
AcDbDictionary
281
     1
  0
DICTIONARY
  5
19
102
{ACAD_REACTORS
330
C
102
}
330
C
100
AcDbDictionary
281
     1
  3
Layout1
350
1D
  3
Model
350
21
  0
DICTIONARY
  5
16
102
{ACAD_REACTORS
330
C
102
}
330
C
100
AcDbDictionary
281
     1
  3
Standard
350
17
  0
DICTIONARY
  5
18
102
{ACAD_REACTORS
330
C
102
}
330
C
100
AcDbDictionary
281
     1
  0
ACDBDICTIONARYWDFLT
  5
E
102
{ACAD_REACTORS
330
C
102
}
330
C
100
AcDbDictionary
281
     1
  3
Normal
350
F
100
AcDbDictionaryWithDefault
340
F
  0
DICTIONARY
  5
11C
102
{ACAD_REACTORS
330
C
102
}
330
C
100
AcDbDictionary
281
     1
  3
DIMASSOC
350
3B7
  3
SORTENTS
350
11D
  0
SORTENTSTABLE
  5
11F
102
{ACAD_REACTORS
330
11E
102
}
330
11E
100
AcDbSortentsTable
330
1E
331
98
  5
9B
331
1CC
  5
196
331
CF
  5
CA
331
185
  5
17E
331
A0
  5
A0
331
18D
  5
186
331
D7
  5
CF
331
2DA
  5
297
331
2E2
  5
2D9
331
195
  5
18E
331
E7
  5
D4
331
A8
  5
A8
331
166
  5
15E
331
79
  5
104
331
B0
  5
AF
331
16E
  5
167
331
B8
  5
B7
331
FF
  5
23
331
176
  5
16F
331
C0
  5
BF
331
10F
  5
E1
331
17E
  5
177
331
99
  5
9C
331
C8
  5
C7
331
186
  5
17F
331
A1
  5
A1
331
D0
  5
CB
331
18E
  5
187
331
52
  5
78
331
2DB
  5
29A
331
196
  5
18F
331
15F
  5
10A
331
E8
  5
D5
331
A9
  5
A9
331
167
  5
15F
331
7A
  5
108
331
B1
  5
B0
331
2AC
  5
1F0
331
16F
  5
168
331
100
  5
24
331
82
  5
96
331
B9
  5
B8
331
177
  5
170
331
108
  5
D7
331
C1
  5
C0
331
17F
  5
178
331
23
  5
52
331
C9
  5
C8
331
9A
  5
E5
331
187
  5
180
331
A2
  5
A2
331
D1
  5
CC
331
2DC
  5
2AC
331
53
  5
79
331
D9
  5
D0
331
18F
  5
188
331
1DE
  5
1C2
331
E1
  5
D1
331
160
  5
10B
331
AA
  5
AA
331
B2
  5
B1
331
168
  5
161
331
7B
  5
109
331
1EE
  5
1C8
331
170
  5
169
331
BA
  5
B9
331
2B5
  5
1F1
331
178
  5
171
331
109
  5
D9
331
C2
  5
C1
331
1C7
  5
191
331
93
  5
26
331
24
  5
54
331
180
  5
179
331
9B
  5
9D
331
CA
  5
E7
331
188
  5
181
331
A3
  5
A3
331
D2
  5
CD
331
206
  5
3D
331
2DD
  5
2B5
331
54
  5
7A
331
190
  5
189
331
E2
  5
D2
331
64
  5
7B
331
161
  5
10C
331
AB
  5
AB
331
1E7
  5
1C7
331
B3
  5
B2
331
169
  5
162
331
7C
  5
93
331
2B6
  5
1F9
331
171
  5
16A
331
BB
  5
BA
331
1EF
  5
1C9
331
2FD
  5
2DD
331
10A
  5
2E1
331
C3
  5
C2
331
179
  5
172
331
25
  5
64
331
94
  5
97
331
1C8
  5
192
331
181
  5
17A
331
9C
  5
1D8
331
3D
  5
66
331
CB
  5
E8
331
2D6
  5
207
331
189
  5
182
331
A4
  5
A4
331
4D
  5
77
331
D3
  5
CE
331
207
  5
3E
331
2DE
  5
2B7
331
1D8
  5
1A2
331
191
  5
18A
331
297
  5
1EE
331
E3
  5
D3
331
65
  5
7C
331
AC
  5
AC
331
162
  5
10D
331
16A
  5
163
331
B4
  5
B3
331
2B7
  5
206
331
172
  5
16B
331
BC
  5
BB
331
1F0
  5
1CA
331
17A
  5
173
331
C4
  5
C3
331
10B
  5
2DE
331
95
  5
98
331
26
  5
65
331
1C9
  5
193
331
182
  5
17B
331
113
  5
E2
331
9D
  5
E6
331
3E
  5
67
331
CC
  5
2DC
331
2D7
  5
208
331
208
  5
4D
331
D4
  5
2E2
331
18A
  5
183
331
A5
  5
A5
331
192
  5
18B
331
2DF
  5
2D6
331
E4
  5
2F0
331
1A2
  5
190
331
66
  5
7E
331
163
  5
10E
331
AD
  5
AD
331
EC
  5
D6
331
16B
  5
164
331
7E
  5
94
331
B5
  5
B4
331
1F1
  5
1CB
331
104
  5
25
331
BD
  5
BC
331
173
  5
16C
331
1F9
  5
1CC
331
17B
  5
174
331
10C
  5
2DF
331
C5
  5
C4
331
96
  5
99
331
183
  5
17C
331
9E
  5
9E
331
CD
  5
E4
331
1CA
  5
194
331
2D8
  5
20A
331
D5
  5
2E9
331
18B
  5
184
331
A6
  5
A6
331
193
  5
18C
331
DD
  5
E3
331
2E0
  5
2D7
331
E5
  5
2FD
331
67
  5
80
331
164
  5
10F
331
77
  5
100
331
AE
  5
53
331
16C
  5
165
331
B6
  5
B5
331
2F0
  5
2DB
331
BE
  5
BD
331
174
  5
16D
331
17C
  5
175
331
10D
  5
2E0
331
C6
  5
C5
331
97
  5
9A
331
1CB
  5
195
331
9F
  5
9F
331
CE
  5
C9
331
184
  5
17D
331
18C
  5
185
331
A7
  5
A7
331
D6
  5
EC
331
2D9
  5
24B
331
194
  5
18D
331
2E1
  5
2D8
331
29A
  5
1EF
331
E6
  5
FF
331
2E9
  5
2DA
331
165
  5
113
331
78
  5
82
331
AF
  5
AE
331
80
  5
95
331
B7
  5
B6
331
16D
  5
166
331
175
  5
16E
331
BF
  5
BE
331
17D
  5
176
331
10E
  5
DD
331
C7
  5
C6
  0
LAYOUT
  5
1D
102
{ACAD_REACTORS
330
19
102
}
330
19
100
AcDbPlotSettings
  1

  2
C:\PROGRAM FILES\ACAD2000\plotters\LaserJet 5L.pc3
  4

  6

 40
0.0
 41
0.0
 42
0.0
 43
0.0
 44
0.0
 45
0.0
 46
0.0
 47
0.0
 48
0.0
 49
0.0
140
0.0
141
0.0
142
1.0
143
1.0
 70
   688
 72
     0
 73
     0
 74
     5
  7

 75
    16
147
1.0
148
0.0
149
0.0
100
AcDbLayout
  1
Layout1
 70
     1
 71
     1
 10
0.0
 20
0.0
 11
12.0
 21
9.0
 12
0.0
 22
0.0
 32
0.0
 14
1.000000000000000E+20
 24
1.000000000000000E+20
 34
1.000000000000000E+20
 15
-1.000000000000000E+20
 25
-1.000000000000000E+20
 35
-1.000000000000000E+20
146
0.0
 13
0.0
 23
0.0
 33
0.0
 16
1.0
 26
0.0
 36
0.0
 17
0.0
 27
1.0
 37
0.0
 76
     0
330
1A
  0
LAYOUT
  5
21
102
{ACAD_REACTORS
330
19
102
}
330
19
100
AcDbPlotSettings
  1

  2
HP LaserJet 5L PCL
  4
A4
  6

 40
6.297083377838134
 41
7.143756389617919
 42
7.397750854492187
 43
7.14373779296875
 44
210.0579986572265
 45
296.9259948730469
 46
0.0
 47
0.0
 48
0.0
 49
0.0
140
0.0
141
0.0
142
1.0
143
0.2213375977064907
 70
 11952
 72
     1
 73
     1
 74
     0
  7

 75
     0
147
4.517985242281659
148
9.615682192682278
149
21.57685537062987
100
AcDbLayout
  1
Model
 70
     1
 71
     0
 10
0.0
 20
0.0
 11
12.0
 21
9.0
 12
0.0
 22
0.0
 32
0.0
 14
0.0
 24
0.0
 34
0.0
 15
0.0
 25
0.0
 35
0.0
146
0.0
 13
0.0
 23
0.0
 33
0.0
 16
1.0
 26
0.0
 36
0.0
 17
0.0
 27
1.0
 37
0.0
 76
     0
330
1E
  0
MLINESTYLE
  5
17
102
{ACAD_REACTORS
330
16
102
}
330
16
100
AcDbMlineStyle
  2
STANDARD
 70
     0
  3

 62
   256
 51
90.0
 52
90.0
 71
     2
 49
0.5
 62
   256
  6
BYLAYER
 49
-0.5
 62
   256
  6
BYLAYER
  0
ACDBPLACEHOLDER
  5
F
102
{ACAD_REACTORS
330
E
102
}
330
E
  0
DICTIONARYVAR
  5
3B7
102
{ACAD_REACTORS
330
11C
102
}
330
11C
100
DictionaryVariables
280
     0
  1
1
  0
DICTIONARYVAR
  5
11D
102
{ACAD_REACTORS
330
11C
102
}
330
11C
100
DictionaryVariables
280
     0
  1
127
  0
ENDSEC
  0
EOF
