  0
SECTION
  2
HEADER
  9
$ACADVER
  1
AC1015
  9
$ACADMAINTVER
 70
    13
  9
$DWGCODEPAGE
  3
ANSI_1252
  9
$INSBASE
 10
0.0
 20
0.0
 30
0.0
  9
$EXTMIN
 10
-2.150105310194078
 20
-20.96678105459207
 30
0.0
  9
$EXTMAX
 10
62.28871530578834
 20
22.41573214096481
 30
0.0
  9
$LIMMIN
 10
0.0
 20
0.0
  9
$LIMMAX
 10
12.0
 20
9.0
  9
$ORTHOMODE
 70
     0
  9
$REGENMODE
 70
     1
  9
$FILLMODE
 70
     1
  9
$QTEXTMODE
 70
     0
  9
$MIRRTEXT
 70
     1
  9
$LTSCALE
 40
1.0
  9
$ATTMODE
 70
     1
  9
$TEXTSIZE
 40
0.2
  9
$TRACEWID
 40
0.05
  9
$TEXTSTYLE
  7
Standard
  9
$CLAYER
  8
0
  9
$CELTYPE
  6
ByLayer
  9
$CECOLOR
 62
   256
  9
$CELTSCALE
 40
1.0
  9
$DISPSILH
 70
     0
  9
$DIMSCALE
 40
1.0
  9
$DIMASZ
 40
1.8
  9
$DIMEXO
 40
0.0625
  9
$DIMDLI
 40
0.38
  9
$DIMRND
 40
0.0
  9
$DIMDLE
 40
0.0
  9
$DIMEXE
 40
0.18
  9
$DIMTP
 40
0.0
  9
$DIMTM
 40
0.0
  9
$DIMTXT
 40
1.8
  9
$DIMCEN
 40
0.09
  9
$DIMTSZ
 40
0.0
  9
$DIMTOL
 70
     0
  9
$DIMLIM
 70
     0
  9
$DIMTIH
 70
     1
  9
$DIMTOH
 70
     1
  9
$DIMSE1
 70
     0
  9
$DIMSE2
 70
     0
  9
$DIMTAD
 70
     0
  9
$DIMZIN
 70
     0
  9
$DIMBLK
  1

  9
$DIMASO
 70
     1
  9
$DIMSHO
 70
     1
  9
$DIMPOST
  1

  9
$DIMAPOST
  1

  9
$DIMALT
 70
     0
  9
$DIMALTD
 70
     2
  9
$DIMALTF
 40
25.4
  9
$DIMLFAC
 40
1.0
  9
$DIMTOFL
 70
     0
  9
$DIMTVP
 40
0.0
  9
$DIMTIX
 70
     0
  9
$DIMSOXD
 70
     0
  9
$DIMSAH
 70
     0
  9
$DIMBLK1
  1

  9
$DIMBLK2
  1

  9
$DIMSTYLE
  2
Standard
  9
$DIMCLRD
 70
     0
  9
$DIMCLRE
 70
     0
  9
$DIMCLRT
 70
     0
  9
$DIMTFAC
 40
1.0
  9
$DIMGAP
 40
0.09
  9
$DIMJUST
 70
     0
  9
$DIMSD1
 70
     0
  9
$DIMSD2
 70
     0
  9
$DIMTOLJ
 70
     1
  9
$DIMTZIN
 70
     0
  9
$DIMALTZ
 70
     0
  9
$DIMALTTZ
 70
     0
  9
$DIMUPT
 70
     0
  9
$DIMDEC
 70
     4
  9
$DIMTDEC
 70
     4
  9
$DIMALTU
 70
     2
  9
$DIMALTTD
 70
     2
  9
$DIMTXSTY
  7
Standard
  9
$DIMAUNIT
 70
     0
  9
$DIMADEC
 70
     0
  9
$DIMALTRND
 40
0.0
  9
$DIMAZIN
 70
     0
  9
$DIMDSEP
 70
    46
  9
$DIMATFIT
 70
     3
  9
$DIMFRAC
 70
     0
  9
$DIMLDRBLK
  1

  9
$DIMLUNIT
 70
     2
  9
$DIMLWD
 70
    -2
  9
$DIMLWE
 70
    -2
  9
$DIMTMOVE
 70
     0
  9
$LUNITS
 70
     2
  9
$LUPREC
 70
     4
  9
$SKETCHINC
 40
0.1
  9
$FILLETRAD
 40
0.0
  9
$AUNITS
 70
     0
  9
$AUPREC
 70
     0
  9
$MENU
  1
.
  9
$ELEVATION
 40
0.0
  9
$PELEVATION
 40
0.0
  9
$THICKNESS
 40
0.0
  9
$LIMCHECK
 70
     0
  9
$CHAMFERA
 40
0.0
  9
$CHAMFERB
 40
0.0
  9
$CHAMFERC
 40
0.0
  9
$CHAMFERD
 40
0.0
  9
$SKPOLY
 70
     0
  9
$TDCREATE
 40
2452723.857537615
  9
$TDUCREATE
 40
2452723.774204282
  9
$TDUPDATE
 40
2452732.353613634
  9
$TDUUPDATE
 40
2452732.270280301
  9
$TDINDWG
 40
0.0461758449
  9
$TDUSRTIMER
 40
0.0461758449
  9
$USRTIMER
 70
     1
  9
$ANGBASE
 50
0.0
  9
$ANGDIR
 70
     0
  9
$PDMODE
 70
     0
  9
$PDSIZE
 40
0.0
  9
$PLINEWID
 40
0.0
  9
$SPLFRAME
 70
     0
  9
$SPLINETYPE
 70
     6
  9
$SPLINESEGS
 70
     8
  9
$HANDSEED
  5
673
  9
$SURFTAB1
 70
     6
  9
$SURFTAB2
 70
     6
  9
$SURFTYPE
 70
     6
  9
$SURFU
 70
     6
  9
$SURFV
 70
     6
  9
$UCSBASE
  2

  9
$UCSNAME
  2

  9
$UCSORG
 10
0.0
 20
0.0
 30
0.0
  9
$UCSXDIR
 10
1.0
 20
0.0
 30
0.0
  9
$UCSYDIR
 10
0.0
 20
1.0
 30
0.0
  9
$UCSORTHOREF
  2

  9
$UCSORTHOVIEW
 70
     0
  9
$UCSORGTOP
 10
0.0
 20
0.0
 30
0.0
  9
$UCSORGBOTTOM
 10
0.0
 20
0.0
 30
0.0
  9
$UCSORGLEFT
 10
0.0
 20
0.0
 30
0.0
  9
$UCSORGRIGHT
 10
0.0
 20
0.0
 30
0.0
  9
$UCSORGFRONT
 10
0.0
 20
0.0
 30
0.0
  9
$UCSORGBACK
 10
0.0
 20
0.0
 30
0.0
  9
$PUCSBASE
  2

  9
$PUCSNAME
  2

  9
$PUCSORG
 10
0.0
 20
0.0
 30
0.0
  9
$PUCSXDIR
 10
1.0
 20
0.0
 30
0.0
  9
$PUCSYDIR
 10
0.0
 20
1.0
 30
0.0
  9
$PUCSORTHOREF
  2

  9
$PUCSORTHOVIEW
 70
     0
  9
$PUCSORGTOP
 10
0.0
 20
0.0
 30
0.0
  9
$PUCSORGBOTTOM
 10
0.0
 20
0.0
 30
0.0
  9
$PUCSORGLEFT
 10
0.0
 20
0.0
 30
0.0
  9
$PUCSORGRIGHT
 10
0.0
 20
0.0
 30
0.0
  9
$PUCSORGFRONT
 10
0.0
 20
0.0
 30
0.0
  9
$PUCSORGBACK
 10
0.0
 20
0.0
 30
0.0
  9
$USERI1
 70
     0
  9
$USERI2
 70
     0
  9
$USERI3
 70
     0
  9
$USERI4
 70
     0
  9
$USERI5
 70
     0
  9
$USERR1
 40
0.0
  9
$USERR2
 40
0.0
  9
$USERR3
 40
0.0
  9
$USERR4
 40
0.0
  9
$USERR5
 40
0.0
  9
$WORLDVIEW
 70
     1
  9
$SHADEDGE
 70
     3
  9
$SHADEDIF
 70
    70
  9
$TILEMODE
 70
     1
  9
$MAXACTVP
 70
    64
  9
$PINSBASE
 10
0.0
 20
0.0
 30
0.0
  9
$PLIMCHECK
 70
     0
  9
$PEXTMIN
 10
1.000000000000000E+20
 20
1.000000000000000E+20
 30
1.000000000000000E+20
  9
$PEXTMAX
 10
-1.000000000000000E+20
 20
-1.000000000000000E+20
 30
-1.000000000000000E+20
  9
$PLIMMIN
 10
0.0
 20
0.0
  9
$PLIMMAX
 10
12.0
 20
9.0
  9
$UNITMODE
 70
     0
  9
$VISRETAIN
 70
     1
  9
$PLINEGEN
 70
     0
  9
$PSLTSCALE
 70
     1
  9
$TREEDEPTH
 70
  3020
  9
$CMLSTYLE
  2
Standard
  9
$CMLJUST
 70
     0
  9
$CMLSCALE
 40
1.0
  9
$PROXYGRAPHICS
 70
     1
  9
$MEASUREMENT
 70
     0
  9
$CELWEIGHT
370
    -1
  9
$ENDCAPS
280
     0
  9
$JOINSTYLE
280
     0
  9
$LWDISPLAY
290
     1
  9
$INSUNITS
 70
     0
  9
$HYPERLINKBASE
  1

  9
$STYLESHEET
  1

  9
$XEDIT
290
     1
  9
$CEPSNTYPE
380
     0
  9
$PSTYLEMODE
290
     0
  9
$FINGERPRINTGUID
  2
{BA126EAD-B9BC-49FE-ACB9-D2C5E1346469}
  9
$VERSIONGUID
  2
{10E0FC10-E23B-4BD8-A00B-F0AEF3B784DE}
  9
$EXTNAMES
290
     1
  9
$PSVPSCALE
 40
0.0
  9
$OLESTARTUP
290
     0
  0
ENDSEC
  0
SECTION
  2
CLASSES
  0
CLASS
  1
ACDBDICTIONARYWDFLT
  2
AcDbDictionaryWithDefault
  3
AutoCAD 2000
 90
        0
280
     0
281
     0
  0
CLASS
  1
ACDBPLACEHOLDER
  2
AcDbPlaceHolder
  3
AutoCAD 2000
 90
        0
280
     0
281
     0
  0
CLASS
  1
LAYOUT
  2
AcDbLayout
  3
AutoCAD 2000
 90
        0
280
     0
281
     0
  0
CLASS
  1
SORTENTSTABLE
  2
AcDbSortentsTable
  3
AutoCAD 2000
 90
        0
280
     0
281
     0
  0
CLASS
  1
DICTIONARYVAR
  2
AcDbDictionaryVar
  3
AutoCAD 2000
 90
        0
280
     0
281
     0
  0
ENDSEC
  0
SECTION
  2
TABLES
  0
TABLE
  2
VPORT
  5
8
330
0
100
AcDbSymbolTable
 70
     6
  0
VPORT
  5
672
330
8
100
AcDbSymbolTableRecord
100
AcDbViewportTableRecord
  2
*Active
 70
     0
 10
0.0
 20
0.0
 11
1.0
 21
1.0
 12
30.06930514783045
 22
0.7244756441941505
 13
0.0
 23
0.0
 14
1.0
 24
1.0
 15
0.0
 25
0.0
 16
0.0
 26
0.0
 36
1.0
 17
0.0
 27
0.0
 37
0.0
 40
44.71619919263392
 41
1.448317307692307
 42
50.0
 43
0.0
 44
0.0
 50
0.0
 51
0.0
 71
     0
 72
   100
 73
     1
 74
     2
 75
     0
 76
     0
 77
     0
 78
     0
281
     0
 65
     1
110
0.0
120
0.0
130
0.0
111
1.0
121
0.0
131
0.0
112
0.0
122
1.0
132
0.0
 79
     0
146
0.0
  0
ENDTAB
  0
TABLE
  2
LTYPE
  5
5
330
0
100
AcDbSymbolTable
 70
     2
  0
LTYPE
  5
13
330
5
100
AcDbSymbolTableRecord
100
AcDbLinetypeTableRecord
  2
ByBlock
 70
     0
  3

 72
    65
 73
     0
 40
0.0
  0
LTYPE
  5
14
330
5
100
AcDbSymbolTableRecord
100
AcDbLinetypeTableRecord
  2
ByLayer
 70
     0
  3

 72
    65
 73
     0
 40
0.0
  0
LTYPE
  5
15
330
5
100
AcDbSymbolTableRecord
100
AcDbLinetypeTableRecord
  2
Continuous
 70
     0
  3
Solid line
 72
    65
 73
     0
 40
0.0
  0
LTYPE
  5
16B
330
5
100
AcDbSymbolTableRecord
100
AcDbLinetypeTableRecord
  2
DASHED
 70
     0
  3
Dashed __ __ __ __ __ __ __ __ __ __ __ __ __ _
 72
    65
 73
     2
 40
0.75
 49
0.5
 74
     0
 49
-0.25
 74
     0
  0
ENDTAB
  0
TABLE
  2
LAYER
  5
2
330
0
100
AcDbSymbolTable
 70
     6
  0
LAYER
  5
10
330
2
100
AcDbSymbolTableRecord
100
AcDbLayerTableRecord
  2
0
 70
     0
 62
     7
  6
Continuous
370
    -3
390
F
  0
LAYER
  5
22
330
2
100
AcDbSymbolTableRecord
100
AcDbLayerTableRecord
  2
METAL1
 70
     0
 62
     7
  6
Continuous
370
    -3
390
F
  0
LAYER
  5
27
330
2
100
AcDbSymbolTableRecord
100
AcDbLayerTableRecord
  2
CONSTR
 70
     0
 62
   -92
  6
Continuous
370
    -3
390
F
  0
LAYER
  5
BD
330
2
100
AcDbSymbolTableRecord
100
AcDbLayerTableRecord
  2
GND
 70
     0
 62
     9
  6
Continuous
370
    -3
390
F
  0
LAYER
  5
127
330
2
100
AcDbSymbolTableRecord
100
AcDbLayerTableRecord
  2
ERROR
 70
     0
 62
    -1
  6
Continuous
370
    -3
390
F
  0
LAYER
  5
3A6
330
2
100
AcDbSymbolTableRecord
100
AcDbLayerTableRecord
  2
Defpoints
 70
     0
 62
     7
  6
Continuous
290
     0
370
    -3
390
F
  0
ENDTAB
  0
TABLE
  2
STYLE
  5
3
330
0
100
AcDbSymbolTable
 70
     1
  0
STYLE
  5
11
330
3
100
AcDbSymbolTableRecord
100
AcDbTextStyleTableRecord
  2
Standard
 70
     0
 40
0.0
 41
1.0
 50
0.0
 71
     0
 42
0.2
  3
txt
  4

  0
ENDTAB
  0
TABLE
  2
VIEW
  5
6
330
0
100
AcDbSymbolTable
 70
     0
  0
ENDTAB
  0
TABLE
  2
UCS
  5
7
330
0
100
AcDbSymbolTable
 70
     0
  0
ENDTAB
  0
TABLE
  2
APPID
  5
9
330
0
100
AcDbSymbolTable
 70
     1
  0
APPID
  5
12
330
9
100
AcDbSymbolTableRecord
100
AcDbRegAppTableRecord
  2
ACAD
 70
     0
  0
ENDTAB
  0
TABLE
  2
DIMSTYLE
  5
A
330
0
100
AcDbSymbolTable
 70
     1
100
AcDbDimStyleTable
 71
     1
340
12C
  0
DIMSTYLE
105
12C
102
{ACAD_REACTORS
330
3AF
330
3B0
102
}
330
A
100
AcDbSymbolTableRecord
100
AcDbDimStyleTableRecord
  2
Standard
 70
     0
 41
1.8
140
1.8
340
11
  0
ENDTAB
  0
TABLE
  2
BLOCK_RECORD
  5
1
330
0
100
AcDbSymbolTable
 70
    14
  0
BLOCK_RECORD
  5
1E
102
{ACAD_XDICTIONARY
360
12F
102
}
330
1
100
AcDbSymbolTableRecord
100
AcDbBlockTableRecord
  2
*Model_Space
340
21
  0
BLOCK_RECORD
  5
1A
330
1
100
AcDbSymbolTableRecord
100
AcDbBlockTableRecord
  2
*Paper_Space
340
1D
  0
BLOCK_RECORD
  5
13E
330
1
100
AcDbSymbolTableRecord
100
AcDbBlockTableRecord
  2
Inductor
340
0
310
280000002000000020000000010004000000000000020000000000000000000000000000000000000000000000008000008000000080800080000000800080008080000080808000C0C0C0000000FF0000FF000000FFFF00FF000000FF00FF00FFFF0000FFFFFF00FFFFFFFFFFFFFFFFFFFFFFFFFFFFFFFFFFFFFFFFFFFFFF
310
FFFFFFFFFFFFFFFFFFFFFFFFFFFFFFFFFFFFFFFFFFFFFFFFFFFFFFFFFFFFFFFFFFFFFFFFFFFFFFFFFFFFFFFFFFFFFFFFFFFFFFFFFFFFFFFFFFFFFFFFFFFFFFFFFFFFFFFFFFFFFFFFFFFFFFFFFFFFFFFFFFFFFFFFFFFFFFFFFFFFFFFFFFFFFFFFFFFFFFFFFFFFFFFFFFFFFFFFFFFFFFFFFFFFFFFFFFFFFFFFFFFFFFFFFFFFFF
310
FFFFFFFFFFFFFFFFFFFFFFFFFFFFFFFFFFFFFFFFFFFFFFFFFFFFFFFFFFFFFFFFFFFFFFFFFFFFFFFFFFFF0000FFFFFFFF0FFFFFF0FFFFFFF0000FFFF0FFFFFFF00FFFFFF0FFFFFFF0FFFFFFF0FFFFFFF00FFFFFF00FFFFFFF0FFFFFF0FFFFFFF00FFFFF0F0FFFFFFF0FFFFFF0FFFFFFF0F0FFFF0F0FFFFFFF0FFFFFFF0FFFFF
310
F00FFFFFF00FFFFFF0FFFFFFFF0FFFFFF00FFFFFF0FFFFFF0FFFFFFFFFF0FFFFF0F0FFFF0F0FFFFF0FFFFFFFFFFF00000FFF0000FFF00000FFFFFFFFFFFFFFFFFFFFFFFFFFFFFFFFFFFFFFFFFFFFFFFFFFFFFFFFFFFFFFFFFFFFFFFFFFFFFFFFFFFFFFFFFFFFFFFFFFFFFFFFFFFFFFFFFFFFFFFFFFFFFFFFFFFFFFFFFFFFFF
310
FFFFFFFFFFFFFFFFFFFFFFFFFFFFFFFFFFFFFFFFFFFFFFFFFFFFFFFFFFFFFFFFFFFFFFFFFFFFFFFFFFFFFFFFFFFFFFFFFFFFFFFFFFFFFFFFFFFFFFFFFFFFFFFFFFFFFFFFFFFFFFFFFFFFFFFFFFFFFFFFFFFFFFFFFFFFFFFFFFFFFFFFFFFFFFFFFFFFFFFFFFFFFFFFFFFFFFFF
102
{BLKREFS
331
14C
102
}
1001
ACAD
1000
DesignCenter Data
1002
{
1070
     1
1070
     1
1002
}
  0
BLOCK_RECORD
  5
146
330
1
100
AcDbSymbolTableRecord
100
AcDbBlockTableRecord
  2
conpoint
340
0
310
28000000200000002000000001000800000000000004000000000000000000000000000000000000000000004000000080000000FF000000002000004020000080200000FF200000004000004040000080400000FF400000006000004060000080600000FF600000008000004080000080800000FF80000000A0000040A000
310
0080A00000FFA0000000C0000040C0000080C00000FFC0000000FF000040FF000080FF0000FFFF0000000020004000200080002000FF002000002020004020200080202000FF202000004020004040200080402000FF402000006020004060200080602000FF602000008020004080200080802000FF80200000A0200040A0
310
200080A02000FFA0200000C0200040C0200080C02000FFC0200000FF200040FF200080FF2000FFFF2000000040004000400080004000FF004000002040004020400080204000FF204000004040004040400080404000FF404000006040004060400080604000FF604000008040004080400080804000FF80400000A0400040
310
A0400080A04000FFA0400000C0400040C0400080C04000FFC0400000FF400040FF400080FF4000FFFF4000000060004000600080006000FF006000002060004020600080206000FF206000004060004040600080406000FF406000006060004060600080606000FF606000008060004080600080806000FF80600000A06000
310
40A0600080A06000FFA0600000C0600040C0600080C06000FFC0600000FF600040FF600080FF6000FFFF6000000080004000800080008000FF008000002080004020800080208000FF208000004080004040800080408000FF408000006080004060800080608000FF608000008080004080800080808000FF80800000A080
310
0040A0800080A08000FFA0800000C0800040C0800080C08000FFC0800000FF800040FF800080FF8000FFFF80000000A0004000A0008000A000FF00A0000020A0004020A0008020A000FF20A0000040A0004040A0008040A000FF40A0000060A0004060A0008060A000FF60A0000080A0004080A0008080A000FF80A00000A0
310
A00040A0A00080A0A000FFA0A00000C0A00040C0A00080C0A000FFC0A00000FFA00040FFA00080FFA000FFFFA0000000C0004000C0008000C000FF00C0000020C0004020C0008020C000FF20C0000040C0004040C0008040C000FF40C0000060C0004060C0008060C000FF60C0000080C0004080C0008080C000FF80C00000
310
A0C00040A0C00080A0C000FFA0C00000C0C00040C0C00080C0C000FFC0C00000FFC00040FFC00080FFC000FFFFC0000000FF004000FF008000FF00FF00FF000020FF004020FF008020FF00FF20FF000040FF004040FF008040FF00FF40FF000060FF004060FF008060FF00FF60FF000080FF004080FF008080FF00FF80FF00
310
00A0FF0040A0FF0080A0FF00FFA0FF0000C0FF0040C0FF0080C0FF00FFC0FF0000FFFF0040FFFF0080FFFF00FFFFFF000000000000000000000000000000000000000000000000000000000000000000000000000000000000000000000000FFFFFF000000000000000000000000000000000000000000000000FFFFFFFFFF
310
FF00FFFFFF0000000000000000000000000000000000000000FFFF0000FFFF0000000000FFFFFFFF00000000000000000000000000000000FF0000FFFF000000000000000000FFFFFFFF00000000000000000000000000FF00FFFF00000000000000000000000000FFFFFF0000000000000000000000FFFFFF000000000000
310
0000000000000000000000FFFF000000000000000000FF00FF00000000000000000000000000000000000000FFFF0000000000000000FFFF0000000000000000000000000000000000000000FFFF00000000000000FF00FF000000000000000000000000000000000000000000FFFF000000000000FFFF0000000000000000
310
0000000000000000000000000000FF00FF00000000FF00FF0000000000000000000000000000000000000000000000FFFF00000000FFFF000000000000000000000000000000000000000000000000FFFF00000000FFFF00000000000000000000000000000000000000000000000000FF000000FFFF000000000000000000
310
0000000000000000000000000000000000FF000000FFFF000000000000000000000000000000000000000000000000000000FF0000FF00000000000000000000000000000000000000000000000000000000FF0000FFFF0000000000000000000000000000000000000000000000000000FFFF000000FF0000000000000000
310
000000000000000000000000000000000000FF00000000FFFF000000000000000000000000000000000000000000000000FFFF00000000FFFF000000000000000000000000000000000000000000000000FFFF0000000000FFFF00000000000000000000000000000000000000000000FF00FF0000000000FFFF0000000000
310
0000000000000000000000000000000000FFFF00000000000000FFFF0000000000000000000000000000000000000000FFFF0000000000000000FFFF0000000000000000000000000000000000000000FFFF000000000000000000FFFF000000000000000000000000000000000000FFFF0000000000000000000000FFFFFF
310
0000000000000000000000000000FFFFFF00000000000000000000000000FF00FFFF00000000000000000000FFFFFFFF000000000000000000000000000000FFFF00FFFF000000000000FFFFFFFF00000000000000000000000000000000000000FFFFFFFFFF0000FFFFFFFF00000000000000000000000000000000000000
310
00000000000000FFFFFF00000000000000000000000000000000000000000000000000000000000000000000000000000000000000000000
102
{BLKREFS
331
14D
331
14E
102
}
1001
ACAD
1000
DesignCenter Data
1002
{
1070
     1
1070
     1
1002
}
  0
BLOCK_RECORD
  5
14B
330
1
100
AcDbSymbolTableRecord
100
AcDbBlockTableRecord
  2
ind
340
0
310
28000000200000002000000001000800000000000004000000000000000000000000000000000000000000004000000080000000FF000000002000004020000080200000FF200000004000004040000080400000FF400000006000004060000080600000FF600000008000004080000080800000FF80000000A0000040A000
310
0080A00000FFA0000000C0000040C0000080C00000FFC0000000FF000040FF000080FF0000FFFF0000000020004000200080002000FF002000002020004020200080202000FF202000004020004040200080402000FF402000006020004060200080602000FF602000008020004080200080802000FF80200000A0200040A0
310
200080A02000FFA0200000C0200040C0200080C02000FFC0200000FF200040FF200080FF2000FFFF2000000040004000400080004000FF004000002040004020400080204000FF204000004040004040400080404000FF404000006040004060400080604000FF604000008040004080400080804000FF80400000A0400040
310
A0400080A04000FFA0400000C0400040C0400080C04000FFC0400000FF400040FF400080FF4000FFFF4000000060004000600080006000FF006000002060004020600080206000FF206000004060004040600080406000FF406000006060004060600080606000FF606000008060004080600080806000FF80600000A06000
310
40A0600080A06000FFA0600000C0600040C0600080C06000FFC0600000FF600040FF600080FF6000FFFF6000000080004000800080008000FF008000002080004020800080208000FF208000004080004040800080408000FF408000006080004060800080608000FF608000008080004080800080808000FF80800000A080
310
0040A0800080A08000FFA0800000C0800040C0800080C08000FFC0800000FF800040FF800080FF8000FFFF80000000A0004000A0008000A000FF00A0000020A0004020A0008020A000FF20A0000040A0004040A0008040A000FF40A0000060A0004060A0008060A000FF60A0000080A0004080A0008080A000FF80A00000A0
310
A00040A0A00080A0A000FFA0A00000C0A00040C0A00080C0A000FFC0A00000FFA00040FFA00080FFA000FFFFA0000000C0004000C0008000C000FF00C0000020C0004020C0008020C000FF20C0000040C0004040C0008040C000FF40C0000060C0004060C0008060C000FF60C0000080C0004080C0008080C000FF80C00000
310
A0C00040A0C00080A0C000FFA0C00000C0C00040C0C00080C0C000FFC0C00000FFC00040FFC00080FFC000FFFFC0000000FF004000FF008000FF00FF00FF000020FF004020FF008020FF00FF20FF000040FF004040FF008040FF00FF40FF000060FF004060FF008060FF00FF60FF000080FF004080FF008080FF00FF80FF00
310
00A0FF0040A0FF0080A0FF00FFA0FF0000C0FF0040C0FF0080C0FF00FFC0FF0000FFFF0040FFFF0080FFFF00FFFFFF0000000000000000000000000000000000000000000000000000000000000000000000000000000000000000000000000000FFFF00000000000000000000000000000000000000000000000000000000
310
00FFFFFFFF00000000000000000000000000000000000000000000000000000000FF0000FF00000000000000000000000000000000000000000000000000000000FFFFFFFF000000000000000000000000000000000000000000000000000000000000FF000000000000000000000000000000000000000000000000000000
310
FFFFFFFFFF0000000000000000000000000000000000000000000000000000FF00000000FF00000000000000000000000000000000000000000000000000FF00000000000000000000000000000000000000000000000000000000000000FF00000000000000000000000000000000000000000000000000000000000000FF
310
00000000000000000000000000000000000000000000000000000000000000FF0000000000000000000000000000000000000000000000000000000000000000FFFFFFFFFF000000000000000000000000000000000000000000000000000000FFFFFFFFFFFF00000000000000000000000000000000000000000000000000
310
FF00000000000000000000000000000000000000000000000000000000000000FF00000000000000000000000000000000000000000000000000000000000000FF00000000000000000000000000000000000000000000000000000000000000FF000000000000000000000000000000000000000000000000000000000000
310
0000FFFFFFFFFFFF0000000000000000000000000000000000000000000000000000FFFFFFFFFF0000000000000000000000000000000000000000000000000000FF00000000000000000000000000000000000000000000000000000000000000FF0000000000000000000000000000000000000000000000000000000000
310
0000FF00000000000000000000000000000000000000000000000000000000000000FF0000000000000000000000000000000000000000000000000000000000000000FF00000000FF000000000000000000000000000000000000000000000000000000FFFFFFFFFF00000000000000000000000000000000000000000000
310
000000000000000000FF0000000000000000000000000000000000000000000000000000000000FFFFFFFF00000000000000000000000000000000000000000000000000000000FF0000FF00000000000000000000000000000000000000000000000000000000FFFFFFFF0000000000000000000000000000000000000000
310
000000000000000000FFFF000000000000000000000000000000000000000000000000000000000000000000000000000000000000000000
102
{BLKREFS
331
152
102
}
1001
ACAD
1000
DesignCenter Data
1002
{
1070
     1
1070
     1
1002
}
  0
BLOCK_RECORD
  5
151
330
1
100
AcDbSymbolTableRecord
100
AcDbBlockTableRecord
  2
rfc
340
0
310
28000000200000002000000001000800000000000004000000000000000000000000000000000000000000004000000080000000FF000000002000004020000080200000FF200000004000004040000080400000FF400000006000004060000080600000FF600000008000004080000080800000FF80000000A0000040A000
310
0080A00000FFA0000000C0000040C0000080C00000FFC0000000FF000040FF000080FF0000FFFF0000000020004000200080002000FF002000002020004020200080202000FF202000004020004040200080402000FF402000006020004060200080602000FF602000008020004080200080802000FF80200000A0200040A0
310
200080A02000FFA0200000C0200040C0200080C02000FFC0200000FF200040FF200080FF2000FFFF2000000040004000400080004000FF004000002040004020400080204000FF204000004040004040400080404000FF404000006040004060400080604000FF604000008040004080400080804000FF80400000A0400040
310
A0400080A04000FFA0400000C0400040C0400080C04000FFC0400000FF400040FF400080FF4000FFFF4000000060004000600080006000FF006000002060004020600080206000FF206000004060004040600080406000FF406000006060004060600080606000FF606000008060004080600080806000FF80600000A06000
310
40A0600080A06000FFA0600000C0600040C0600080C06000FFC0600000FF600040FF600080FF6000FFFF6000000080004000800080008000FF008000002080004020800080208000FF208000004080004040800080408000FF408000006080004060800080608000FF608000008080004080800080808000FF80800000A080
310
0040A0800080A08000FFA0800000C0800040C0800080C08000FFC0800000FF800040FF800080FF8000FFFF80000000A0004000A0008000A000FF00A0000020A0004020A0008020A000FF20A0000040A0004040A0008040A000FF40A0000060A0004060A0008060A000FF60A0000080A0004080A0008080A000FF80A00000A0
310
A00040A0A00080A0A000FFA0A00000C0A00040C0A00080C0A000FFC0A00000FFA00040FFA00080FFA000FFFFA0000000C0004000C0008000C000FF00C0000020C0004020C0008020C000FF20C0000040C0004040C0008040C000FF40C0000060C0004060C0008060C000FF60C0000080C0004080C0008080C000FF80C00000
310
A0C00040A0C00080A0C000FFA0C00000C0C00040C0C00080C0C000FFC0C00000FFC00040FFC00080FFC000FFFFC0000000FF004000FF008000FF00FF00FF000020FF004020FF008020FF00FF20FF000040FF004040FF008040FF00FF40FF000060FF004060FF008060FF00FF60FF000080FF004080FF008080FF00FF80FF00
310
00A0FF0040A0FF0080A0FF00FFA0FF0000C0FF0040C0FF0080C0FF00FFC0FF0000FFFF0040FFFF0080FFFF00FFFFFF00000000000000000000000000000000000000000000000000000000000000000000000000000000000000000000000000000000FFFF0000000000000000000000000000000000000000000000000000
310
000000FFFFFFFF00000000000000000000000000000000000000000000000000000000FF0000FF00000000000000000000000000000000000000000000000000000000FFFFFFFF0000000000000000000000000000000000000000000000000000000000FF0000000000000000000000000000000000000000000000000000
310
00FFFFFFFFFF00000000000000000000000000000000000000000000FFFFFF00FFFF000000FF00000000000000000000000000000000000000000000FF00FF00FF000000000000000000000000000000000000000000000000000000FF00FFFF00000000000000000000000000000000000000000000000000000000FF00FF
310
FF00000000000000000000000000000000000000000000000000000000FFFFFFFFFF000000000000000000000000000000000000000000000000000000FFFFFF00FFFFFFFFFFFF00000000000000000000000000000000000000000000FFFFFF00FFFFFFFFFFFF00000000000000000000000000000000000000000000FFFF
310
FFFFFF000000000000000000000000000000000000000000000000000000FFFFFFFF00000000000000000000000000000000000000000000000000000000FFFFFFFF00000000000000000000000000000000000000000000000000000000FFFFFFFFFF000000000000000000000000000000000000000000000000000000FF
310
FFFF00FFFFFFFFFFFF00000000000000000000000000000000000000000000FFFFFF00FFFFFFFFFFFF00000000000000000000000000000000000000000000FF00FFFFFF000000000000000000000000000000000000000000000000000000FF00FFFF00000000000000000000000000000000000000000000000000000000
310
FF00FFFF00000000000000000000000000000000000000000000000000000000FF00FF00FF000000000000000000000000000000000000000000000000000000FFFFFF00FFFF000000FF000000000000000000000000000000000000000000000000000000FFFFFFFFFF000000000000000000000000000000000000000000
310
00000000000000000000FF000000000000000000000000000000000000000000000000000000000000FFFFFF0000000000000000000000000000000000000000000000000000000000FF00FFFF00000000000000000000000000000000000000000000000000000000FF00FF00000000000000000000000000000000000000
310
0000000000000000000000FF0000000000000000000000000000000000000000000000000000000000000000000000000000000000000000
102
{BLKREFS
331
306
331
503
331
5B9
331
641
102
}
1001
ACAD
1000
DesignCenter Data
1002
{
1070
     1
1070
     1
1002
}
  0
BLOCK_RECORD
  5
157
330
1
100
AcDbSymbolTableRecord
100
AcDbBlockTableRecord
  2
elkon
340
0
310
28000000200000002000000001000800000000000004000000000000000000000000000000000000000000004000000080000000FF000000002000004020000080200000FF200000004000004040000080400000FF400000006000004060000080600000FF600000008000004080000080800000FF80000000A0000040A000
310
0080A00000FFA0000000C0000040C0000080C00000FFC0000000FF000040FF000080FF0000FFFF0000000020004000200080002000FF002000002020004020200080202000FF202000004020004040200080402000FF402000006020004060200080602000FF602000008020004080200080802000FF80200000A0200040A0
310
200080A02000FFA0200000C0200040C0200080C02000FFC0200000FF200040FF200080FF2000FFFF2000000040004000400080004000FF004000002040004020400080204000FF204000004040004040400080404000FF404000006040004060400080604000FF604000008040004080400080804000FF80400000A0400040
310
A0400080A04000FFA0400000C0400040C0400080C04000FFC0400000FF400040FF400080FF4000FFFF4000000060004000600080006000FF006000002060004020600080206000FF206000004060004040600080406000FF406000006060004060600080606000FF606000008060004080600080806000FF80600000A06000
310
40A0600080A06000FFA0600000C0600040C0600080C06000FFC0600000FF600040FF600080FF6000FFFF6000000080004000800080008000FF008000002080004020800080208000FF208000004080004040800080408000FF408000006080004060800080608000FF608000008080004080800080808000FF80800000A080
310
0040A0800080A08000FFA0800000C0800040C0800080C08000FFC0800000FF800040FF800080FF8000FFFF80000000A0004000A0008000A000FF00A0000020A0004020A0008020A000FF20A0000040A0004040A0008040A000FF40A0000060A0004060A0008060A000FF60A0000080A0004080A0008080A000FF80A00000A0
310
A00040A0A00080A0A000FFA0A00000C0A00040C0A00080C0A000FFC0A00000FFA00040FFA00080FFA000FFFFA0000000C0004000C0008000C000FF00C0000020C0004020C0008020C000FF20C0000040C0004040C0008040C000FF40C0000060C0004060C0008060C000FF60C0000080C0004080C0008080C000FF80C00000
310
A0C00040A0C00080A0C000FFA0C00000C0C00040C0C00080C0C000FFC0C00000FFC00040FFC00080FFC000FFFFC0000000FF004000FF008000FF00FF00FF000020FF004020FF008020FF00FF20FF000040FF004040FF008040FF00FF40FF000060FF004060FF008060FF00FF60FF000080FF004080FF008080FF00FF80FF00
310
00A0FF0040A0FF0080A0FF00FFA0FF0000C0FF0040C0FF0080C0FF00FFC0FF0000FFFF0040FFFF0080FFFF00FFFFFF000000000000000000000000000000000000000000000000000000000000000000000000000000000000000000000000FF00000000000000000000000000000000000000000000000000000000000000
310
FF00000000000000000000000000000000000000000000000000000000000000FF00000000000000000000000000000000000000000000000000000000000000FF00000000000000000000000000000000000000000000000000000000000000FF000000000000000000000000000000000000000000000000000000000000
310
00FF00000000000000000000000000000000000000000000000000000000000000FF00000000000000000000000000000000000000000000000000000000000000FF00000000000000000000000000000000000000000000000000000000000000FF0000000000000000000000000000000000000000000000000000000000
310
0000FF00000000000000000000000000000000000000000000000000000000000000FF0000000000000000000000000000000000000000FFFFFFFFFFFFFFFFFFFFFFFFFFFFFFFFFFFFFFFFFFFFFFFF0000000000000000FF00000000000000000000000000000000000000000000FF0000000000000000FF00000000000000
310
000000000000000000000000000000FF0000000000000000FFFFFFFFFFFFFFFFFFFFFFFFFFFFFFFFFFFFFFFFFFFFFFFF00000000000000000000000000000000000000000000000000000000000000000000000000000000FFFFFFFFFFFFFFFFFFFFFFFFFFFFFFFFFFFFFFFFFFFFFFFF0000000000000000FF0000FFFFFFFF
310
FFFF000000000000FFFFFFFFFFFF0000FF0000000000000000FF0000000000FFFFFFFFFFFFFFFFFFFFFF000000000000FF0000000000000000FFFFFFFFFFFFFFFFFFFFFFFFFFFFFFFFFFFFFFFFFFFFFFFF00000000000000000000000000000000000000FF0000000000000000000000000000000000000000000000000000
310
0000000000FF00000000000000000000000000000000000000000000000000000000000000FF00000000000000000000000000000000000000000000000000000000000000FF00000000000000000000000000000000000000000000000000000000000000FF00000000000000000000000000000000000000000000000000
310
000000000000FF00000000000000000000000000000000000000000000000000000000000000FF00000000000000000000000000000000000000000000000000000000000000FF00000000000000000000000000000000000000000000000000000000000000FF000000000000000000000000000000000000000000000000
310
00000000000000FF000000000000000000000000000000000000000000000000000000000000000000000000000000000000000000000000
102
{BLKREFS
331
304
331
305
331
501
331
502
331
5B7
331
5B8
331
63F
331
640
102
}
  0
BLOCK_RECORD
  5
15F
330
1
100
AcDbSymbolTableRecord
100
AcDbBlockTableRecord
  2
tri
340
0
310
28000000200000002000000001000800000000000004000000000000000000000000000000000000000000004000000080000000FF000000002000004020000080200000FF200000004000004040000080400000FF400000006000004060000080600000FF600000008000004080000080800000FF80000000A0000040A000
310
0080A00000FFA0000000C0000040C0000080C00000FFC0000000FF000040FF000080FF0000FFFF0000000020004000200080002000FF002000002020004020200080202000FF202000004020004040200080402000FF402000006020004060200080602000FF602000008020004080200080802000FF80200000A0200040A0
310
200080A02000FFA0200000C0200040C0200080C02000FFC0200000FF200040FF200080FF2000FFFF2000000040004000400080004000FF004000002040004020400080204000FF204000004040004040400080404000FF404000006040004060400080604000FF604000008040004080400080804000FF80400000A0400040
310
A0400080A04000FFA0400000C0400040C0400080C04000FFC0400000FF400040FF400080FF4000FFFF4000000060004000600080006000FF006000002060004020600080206000FF206000004060004040600080406000FF406000006060004060600080606000FF606000008060004080600080806000FF80600000A06000
310
40A0600080A06000FFA0600000C0600040C0600080C06000FFC0600000FF600040FF600080FF6000FFFF6000000080004000800080008000FF008000002080004020800080208000FF208000004080004040800080408000FF408000006080004060800080608000FF608000008080004080800080808000FF80800000A080
310
0040A0800080A08000FFA0800000C0800040C0800080C08000FFC0800000FF800040FF800080FF8000FFFF80000000A0004000A0008000A000FF00A0000020A0004020A0008020A000FF20A0000040A0004040A0008040A000FF40A0000060A0004060A0008060A000FF60A0000080A0004080A0008080A000FF80A00000A0
310
A00040A0A00080A0A000FFA0A00000C0A00040C0A00080C0A000FFC0A00000FFA00040FFA00080FFA000FFFFA0000000C0004000C0008000C000FF00C0000020C0004020C0008020C000FF20C0000040C0004040C0008040C000FF40C0000060C0004060C0008060C000FF60C0000080C0004080C0008080C000FF80C00000
310
A0C00040A0C00080A0C000FFA0C00000C0C00040C0C00080C0C000FFC0C00000FFC00040FFC00080FFC000FFFFC0000000FF004000FF008000FF00FF00FF000020FF004020FF008020FF00FF20FF000040FF004040FF008040FF00FF40FF000060FF004060FF008060FF00FF60FF000080FF004080FF008080FF00FF80FF00
310
00A0FF0040A0FF0080A0FF00FFA0FF0000C0FF0040C0FF0080C0FF00FFC0FF0000FFFF0040FFFF0080FFFF00FFFFFF0000000000000000000000000000000000000000000000000000000000000000000000000000000000000000FF00000000000000000000000000000000000000000000000000000000000000FFFF0000
310
0000000000000000000000000000000000000000000000000000FFFF0000FF00000000000000000000000000000000000000000000000000FFFF0000000000FF0000000000000000000000000000000000000000000000FF0000000000000000FF000000000000000000000000000000000000000000FF0000000000000000
310
0000FF00000000000000000000000000000000000000FF000000000000000000000000FF000000000000000000000000000000000000FF00000000000000000000000000FF00000000000000000000000000000000FF000000000000000000000000000000FF000000000000000000000000000000FF000000000000000000
310
00000000000000FF00000000000000000000000000FF000000000000000000000000000000000000FF000000000000000000000000FF00000000000000000000000000000000000000FF00000000000000000000FF000000000000000000000000000000000000000000FF000000000000000000FF00000000000000000000
310
000000000000000000000000FF0000000000000000FF0000000000000000000000000000000000000000000000FF00000000000000FF000000000000000000000000000000000000000000000000FF000000000000FF00000000000000000000000000000000000000000000000000FF000000000000FF0000000000000000
310
0000000000000000000000000000000000FF0000000000FF0000000000000000000000000000000000000000000000000000FF00000000FF0000000000000000000000000000000000000000000000000000FFFF00000000FF00000000000000000000000000000000000000000000000000FF0000000000FF000000000000
310
000000000000000000000000000000000000FF00000000000000FF0000000000000000000000000000000000000000000000FF0000000000000000FF000000000000000000000000000000000000000000FF00000000000000000000FF00000000000000000000000000000000000000FF000000000000000000000000FF00
310
00000000000000000000000000000000FF0000000000000000000000000000FF0000000000000000000000000000FFFF00000000000000000000000000000000FFFF0000000000000000000000FF0000000000000000000000000000000000000000FFFFFFFFFFFFFFFFFFFFFF000000000000000000000000000000000000
310
0000000000000000000000000000000000000000000000000000000000000000000000000000000000000000000000000000000000000000
102
{BLKREFS
331
30C
331
509
331
5BF
331
647
102
}
  0
BLOCK_RECORD
  5
164
330
1
100
AcDbSymbolTableRecord
100
AcDbBlockTableRecord
  2
A$C7F5B3850
340
0
102
{BLKREFS
331
4DA
331
4DB
331
4DC
331
4E1
331
4E2
331
4E3
331
4E4
331
4E5
331
4EA
331
4EB
331
4EC
331
590
331
591
331
592
331
597
331
598
331
599
331
59A
331
59B
331
5A0
331
5A1
331
5A2
331
618
331
619
331
61A
331
61F
331
620
331
621
331
622
331
623
331
628
331
629
331
62A
102
}
  0
BLOCK_RECORD
  5
2D9
330
1
100
AcDbSymbolTableRecord
100
AcDbBlockTableRecord
  2
A$C79166BDB
340
0
  0
BLOCK_RECORD
  5
3B1
330
1
100
AcDbSymbolTableRecord
100
AcDbBlockTableRecord
  2
*D10
340
0
  0
BLOCK_RECORD
  5
3BE
330
1
100
AcDbSymbolTableRecord
100
AcDbBlockTableRecord
  2
*D11
340
0
  0
ENDTAB
  0
ENDSEC
  0
SECTION
  2
BLOCKS
  0
BLOCK
  5
1F
330
1E
100
AcDbEntity
  8
0
100
AcDbBlockBegin
  2
*Model_Space
 70
     0
 10
0.0
 20
0.0
 30
0.0
  3
*Model_Space
  1

  0
ENDBLK
  5
20
330
1E
100
AcDbEntity
  8
0
100
AcDbBlockEnd
  0
BLOCK
  5
1B
330
1A
100
AcDbEntity
 67
     1
  8
0
100
AcDbBlockBegin
  2
*Paper_Space
 70
     0
 10
0.0
 20
0.0
 30
0.0
  3
*Paper_Space
  1

  0
ENDBLK
  5
1C
330
1A
100
AcDbEntity
 67
     1
  8
0
100
AcDbBlockEnd
  0
BLOCK
  5
144
330
13E
100
AcDbEntity
  8
0
100
AcDbBlockBegin
  2
Inductor
 70
     2
 10
0.0
 20
0.0
 30
0.0
  3
Inductor
  1
INDUCTOR
  4
DesignCenter Basic Electronics example
  0
LINE
  5
13F
330
13E
100
AcDbEntity
  8
0
 62
     7
100
AcDbLine
 10
0.3500000000000001
 20
0.0
 30
0.0
 11
0.3999999999999999
 21
0.0
 31
0.0
  0
ARC
  5
140
330
13E
100
AcDbEntity
  8
0
 62
     7
100
AcDbCircle
 10
0.2999999999999998
 20
0.0374999999999997
 30
0.0
 40
0.0625
100
AcDbArc
 50
323.1301
 51
216.8699
  0
LINE
  5
141
330
13E
100
AcDbEntity
  8
0
 62
     7
100
AcDbLine
 10
0.0
 20
0.0
 30
0.0
 11
0.0499999999999998
 21
0.0
 31
0.0
  0
ARC
  5
142
330
13E
100
AcDbEntity
  8
0
 62
     7
100
AcDbCircle
 10
0.1000000000000001
 20
0.0374999999999997
 30
0.0
 40
0.0625
100
AcDbArc
 50
323.1301
 51
216.8699
  0
ARC
  5
143
330
13E
100
AcDbEntity
  8
0
 62
     7
100
AcDbCircle
 10
0.2000000000000002
 20
0.0374999999999997
 30
0.0
 40
0.0625
100
AcDbArc
 50
323.1301
 51
216.8699
  0
ENDBLK
  5
145
330
13E
100
AcDbEntity
  8
0
100
AcDbBlockEnd
  0
BLOCK
  5
149
330
146
100
AcDbEntity
  8
0
100
AcDbBlockBegin
  2
conpoint
 70
     0
 10
0.0
 20
0.0
 30
0.0
  3
conpoint
  1

  0
HATCH
  5
147
330
146
100
AcDbEntity
  8
0
100
AcDbHatch
 10
0.0
 20
0.0
 30
0.0
210
0.0
220
0.0
230
1.0
  2
SOLID
 70
     1
 71
     1
 91
        1
 92
        1
 93
        1
 72
     2
 10
3.932944225599126
 20
4.517912367231916
 40
0.0251551376970127
 50
0.0
 51
360.0
 73
     1
 97
        1
330
148
 75
     0
 76
     1
 98
        1
 10
0.0
 20
0.0
  0
CIRCLE
  5
148
102
{ACAD_REACTORS
330
147
102
}
330
146
100
AcDbEntity
  8
0
100
AcDbCircle
 10
3.932944225599126
 20
4.517912367231916
 30
0.0
 40
0.0251551376970127
  0
ENDBLK
  5
14A
330
146
100
AcDbEntity
  8
0
100
AcDbBlockEnd
  0
BLOCK
  5
14F
330
14B
100
AcDbEntity
  8
0
100
AcDbBlockBegin
  2
ind
 70
     0
 10
0.0
 20
0.0
 30
0.0
  3
ind
  1

  0
INSERT
  5
14C
330
14B
100
AcDbEntity
  8
0
100
AcDbBlockReference
  2
Inductor
 10
5.142686818928233
 20
4.506130839892044
 30
0.0
 50
90.0
  0
INSERT
  5
14D
330
14B
100
AcDbEntity
  8
0
100
AcDbBlockReference
  2
conpoint
 10
1.213283901823427
 20
-0.0258025784579612
 30
0.0
  0
INSERT
  5
14E
330
14B
100
AcDbEntity
  8
0
100
AcDbBlockReference
  2
conpoint
 10
1.20936500961606
 20
0.4012205201373665
 30
0.0
  0
ENDBLK
  5
150
330
14B
100
AcDbEntity
  8
0
100
AcDbBlockEnd
  0
BLOCK
  5
155
330
151
100
AcDbEntity
  8
0
100
AcDbBlockBegin
  2
rfc
 70
     0
 10
0.0
 20
0.0
 30
0.0
  3
rfc
  1

  0
INSERT
  5
152
330
151
100
AcDbEntity
  8
0
100
AcDbBlockReference
  2
ind
 10
0.0
 20
0.0
 30
0.0
  0
HATCH
  5
153
330
151
100
AcDbEntity
  8
0
100
AcDbHatch
 10
0.0
 20
0.0
 30
0.0
210
0.0
220
0.0
230
1.0
  2
SOLID
 70
     1
 71
     1
 91
        1
 92
        1
 93
        4
 72
     1
 10
5.019171584733157
 20
4.850883942041264
 11
4.991736945333968
 21
4.850883942041264
 72
     1
 10
4.991736945333968
 20
4.850883942041264
 11
4.991736945333968
 21
4.557060643284785
 72
     1
 10
4.991736945333968
 20
4.557060643284785
 11
5.019171584733157
 21
4.557060643284785
 72
     1
 10
5.019171584733157
 20
4.557060643284785
 11
5.019171584733157
 21
4.850883942041264
 97
        1
330
154
 75
     0
 76
     1
 98
        1
 10
0.0
 20
0.0
  0
LWPOLYLINE
  5
154
102
{ACAD_REACTORS
330
153
102
}
330
151
100
AcDbEntity
  8
0
100
AcDbPolyline
 90
        4
 70
     1
 43
0.0
 10
5.019171584733157
 20
4.850883942041264
 10
4.991736945333968
 20
4.850883942041264
 10
4.991736945333968
 20
4.557060643284785
 10
5.019171584733157
 20
4.557060643284785
  0
ENDBLK
  5
156
330
151
100
AcDbEntity
  8
0
100
AcDbBlockEnd
  0
BLOCK
  5
15D
330
157
100
AcDbEntity
  8
0
100
AcDbBlockBegin
  2
elkon
 70
     0
 10
0.0
 20
0.0
 30
0.0
  3
elkon
  1

  0
LWPOLYLINE
  5
158
102
{ACAD_REACTORS
330
15C
102
}
330
157
100
AcDbEntity
  8
0
100
AcDbPolyline
 90
        4
 70
     1
 43
0.0
 10
5.277469087657244
 20
7.736467907658294
 10
6.725437308244949
 20
7.736467907658294
 10
6.725437308244949
 20
7.545307269129267
 10
5.277469087657244
 20
7.545307269129267
  0
LWPOLYLINE
  5
159
330
157
100
AcDbEntity
  8
0
100
AcDbPolyline
 90
        4
 70
     1
 43
0.0
 10
5.277469087657244
 20
7.381455311208465
 10
6.725437308244949
 20
7.381455311208465
 10
6.725437308244949
 20
7.190294672679439
 10
5.277469087657244
 20
7.190294672679439
  0
LWPOLYLINE
  5
15A
330
157
100
AcDbEntity
  8
0
100
AcDbPolyline
 90
        2
 70
     0
 43
0.0
 10
5.987793119210273
 20
7.736467907658294
 10
5.987793119210273
 20
8.337258440989323
  0
LWPOLYLINE
  5
15B
330
157
100
AcDbEntity
  8
0
100
AcDbPolyline
 90
        2
 70
     0
 43
0.0
 10
5.987793119210273
 20
7.190294672679439
 10
5.987793119210273
 20
6.507578139433253
  0
HATCH
  5
15C
330
157
100
AcDbEntity
  8
0
100
AcDbHatch
 10
0.0
 20
0.0
 30
0.0
210
0.0
220
0.0
230
1.0
  2
SOLID
 70
     1
 71
     1
 91
        1
 92
        1
 93
        4
 72
     1
 10
5.277469087657244
 20
7.736467907658294
 11
6.725437308244949
 21
7.736467907658294
 72
     1
 10
6.725437308244949
 20
7.736467907658294
 11
6.725437308244949
 21
7.545307269129267
 72
     1
 10
6.725437308244949
 20
7.545307269129267
 11
5.277469087657244
 21
7.545307269129267
 72
     1
 10
5.277469087657244
 20
7.545307269129267
 11
5.277469087657244
 21
7.736467907658294
 97
        1
330
158
 75
     0
 76
     1
 98
        1
 10
0.0
 20
0.0
  0
ENDBLK
  5
15E
330
157
100
AcDbEntity
  8
0
100
AcDbBlockEnd
  0
BLOCK
  5
162
330
15F
100
AcDbEntity
  8
0
100
AcDbBlockBegin
  2
tri
 70
     0
 10
0.0
 20
0.0
 30
0.0
  3
tri
  1

  0
ARC
  5
160
330
15F
100
AcDbEntity
  8
CONSTR
370
    50
100
AcDbCircle
 10
8.146085339866083
 20
7.572615928782735
 30
0.0
 40
0.8498249588931228
100
AcDbArc
 50
17.41576346451058
 51
252.8164832811067
  0
LWPOLYLINE
  5
161
330
15F
100
AcDbEntity
  8
CONSTR
370
    50
100
AcDbPolyline
 90
        2
 70
     0
 43
0.0
 10
7.888244942516251
 20
6.7539228815622
 10
8.968782859461427
 20
7.838849627961277
  0
ENDBLK
  5
163
330
15F
100
AcDbEntity
  8
0
100
AcDbBlockEnd
  0
BLOCK
  5
169
330
164
100
AcDbEntity
  8
0
100
AcDbBlockBegin
  2
A$C7F5B3850
 70
     0
 10
0.0
 20
0.0
 30
0.0
  3
A$C7F5B3850
  1

  0
ARC
  5
165
330
164
100
AcDbEntity
  8
CONSTR
  6
DASHED
100
AcDbCircle
 10
0.2989705366022122
 20
0.1443359241437809
 30
0.0
 40
0.1444277739574447
100
AcDbArc
 50
179.9551739112651
 51
4.134120587586902
  0
ARC
  5
166
330
164
100
AcDbEntity
  8
CONSTR
  6
DASHED
100
AcDbCircle
 10
0.1444277297558756
 20
4.851212641492161
 30
0.0
 40
0.1444277739574447
100
AcDbArc
 50
355.8658794124129
 51
180.0448260887349
  0
LWPOLYLINE
  5
167
330
164
100
AcDbEntity
  8
CONSTR
100
AcDbPolyline
 90
        2
 70
     0
 43
0.0
 10
0.0026085461590242
 20
4.832665928043525
 10
0.1545813162707645
 20
0.1628932215950272
  0
LWPOLYLINE
  5
168
330
164
100
AcDbEntity
  8
CONSTR
100
AcDbPolyline
 90
        2
 70
     0
 43
0.0
 10
0.2867314536172216
 20
4.83927086197923
 10
0.4453113941061702
 20
0.1562880295128366
  0
ENDBLK
  5
16A
330
164
100
AcDbEntity
  8
0
100
AcDbBlockEnd
  0
BLOCK
  5
31A
330
2D9
100
AcDbEntity
  8
0
100
AcDbBlockBegin
  2
A$C79166BDB
 70
     0
 10
0.0
 20
0.0
 30
0.0
  3
A$C79166BDB
  1

  0
SOLID
  5
2DA
330
2D9
100
AcDbEntity
  8
METAL1
100
AcDbTrace
 10
30.07117128110621
 20
5.997330767706383
 30
0.0
 11
30.07117128110621
 21
3.797330767706384
 31
0.0
 12
27.67117128110622
 22
5.997330767706383
 32
0.0
 13
27.67117128110622
 23
3.797330767706384
 33
0.0
  0
SOLID
  5
2DB
330
2D9
100
AcDbEntity
  8
METAL1
100
AcDbTrace
 10
2.200000004114286
 20
17.56283635493939
 30
0.0
 11
0.0000000041142876
 21
17.56283635493939
 31
0.0
 12
2.200000004114286
 22
19.96283635493939
 32
0.0
 13
0.0000000041142876
 23
19.96283635493939
 33
0.0
  0
SOLID
  5
2DC
330
2D9
100
AcDbEntity
  8
METAL1
100
AcDbTrace
 10
5.150000004114286
 20
17.92463635493939
 30
0.0
 11
4.032400004114286
 21
17.92463635493939
 31
0.0
 12
5.150000004114286
 22
19.60103635493939
 32
0.0
 13
4.032400004114286
 23
19.60103635493939
 33
0.0
  0
SOLID
  5
2DD
330
2D9
100
AcDbEntity
  8
METAL1
100
AcDbTrace
 10
30.86508990911518
 20
4.400000026714746
 30
0.0
 11
30.06508990911518
 21
4.400000026714746
 31
0.0
 12
30.86508990911518
 22
6.000000026714747
 32
0.0
 13
30.06508990911518
 23
6.000000026714747
 33
0.0
  0
SOLID
  5
2DE
330
2D9
100
AcDbEntity
  8
METAL1
100
AcDbTrace
 10
30.86508990911518
 20
6.000000026714747
 30
0.0
 11
31.66508990911518
 21
6.000000026714747
 31
0.0
 12
30.86508990911518
 22
4.400000026714746
 32
0.0
 13
31.66508990911518
 23
4.400000026714746
 33
0.0
  0
SOLID
  5
2DF
330
2D9
100
AcDbEntity
  8
METAL1
100
AcDbTrace
 10
31.66508990911518
 20
5.200000026714747
 30
0.0
 11
31.66508990911518
 21
4.400000026714746
 31
0.0
 12
30.06508990911518
 22
5.200000026714747
 32
0.0
 13
30.06508990911518
 23
4.400000026714746
 33
0.0
  0
SOLID
  5
2E0
330
2D9
100
AcDbEntity
  8
METAL1
100
AcDbTrace
 10
35.11508990911517
 20
4.361800026714746
 30
0.0
 11
33.99748990911518
 21
4.361800026714746
 31
0.0
 12
35.11508990911517
 22
6.038200026714747
 32
0.0
 13
33.99748990911518
 23
6.038200026714747
 33
0.0
  0
SOLID
  5
2E1
330
2D9
100
AcDbEntity
  8
METAL1
100
AcDbTrace
 10
32.16508990911518
 20
4.361800026714746
 30
0.0
 11
31.04748990911518
 21
4.361800026714746
 31
0.0
 12
32.16508990911518
 22
6.038200026714747
 32
0.0
 13
31.04748990911518
 23
6.038200026714747
 33
0.0
  0
SOLID
  5
2E2
330
2D9
100
AcDbEntity
  8
METAL1
100
AcDbTrace
 10
36.8214914458105
 20
4.400000026714746
 30
0.0
 11
36.0214914458105
 21
4.400000026714746
 31
0.0
 12
36.8214914458105
 22
6.000000026714747
 32
0.0
 13
36.0214914458105
 23
6.000000026714747
 33
0.0
  0
SOLID
  5
2E3
330
2D9
100
AcDbEntity
  8
METAL1
100
AcDbTrace
 10
36.8214914458105
 20
6.000000026714747
 30
0.0
 11
37.6214914458105
 21
6.000000026714747
 31
0.0
 12
36.8214914458105
 22
4.400000026714746
 32
0.0
 13
37.6214914458105
 23
4.400000026714746
 33
0.0
  0
SOLID
  5
2E4
330
2D9
100
AcDbEntity
  8
METAL1
100
AcDbTrace
 10
36.06508990911517
 20
5.200000026714747
 30
0.0
 11
36.06508990911517
 21
4.400000026714746
 31
0.0
 12
34.46508990911517
 22
5.200000026714747
 32
0.0
 13
34.46508990911517
 23
4.400000026714746
 33
0.0
  0
SOLID
  5
2E5
330
2D9
100
AcDbEntity
  8
METAL1
100
AcDbTrace
 10
36.10328990911518
 20
5.050000026714748
 30
0.0
 11
36.10328990911518
 21
3.932400026714745
 31
0.0
 12
34.42688990911517
 22
5.050000026714748
 32
0.0
 13
34.42688990911517
 23
3.932400026714745
 33
0.0
  0
SOLID
  5
2E6
330
2D9
100
AcDbEntity
  8
METAL1
100
AcDbTrace
 10
36.10328990911518
 20
2.100000026714745
 30
0.0
 11
36.10328990911518
 21
0.9824000267147461
 31
0.0
 12
34.42688990911517
 22
2.100000026714745
 32
0.0
 13
34.42688990911517
 23
0.9824000267147461
 33
0.0
  0
SOLID
  5
2E7
330
2D9
100
AcDbEntity
  8
METAL1
100
AcDbTrace
 10
36.06508990911517
 20
1.600000026714745
 30
0.0
 11
36.06508990911517
 21
0.0000000267147477
 31
0.0
 12
34.46508990911517
 22
1.600000026714745
 32
0.0
 13
34.46508990911517
 23
0.0000000267147477
 33
0.0
  0
LWPOLYLINE
  5
2E8
330
2D9
100
AcDbEntity
  8
METAL1
100
AcDbPolyline
 90
        2
 70
     0
 43
0.2
 10
35.26508990911518
 20
0.4000000267147464
 42
1.0
 10
35.26508990911518
 20
1.200000026714747
  0
LWPOLYLINE
  5
2E9
330
2D9
100
AcDbEntity
  8
METAL1
100
AcDbPolyline
 90
        2
 70
     0
 43
0.2
 10
35.26508990911518
 20
1.200000026714747
 42
1.0
 10
35.26508990911518
 20
0.4000000267147464
  0
SOLID
  5
2EA
330
2D9
100
AcDbEntity
  8
METAL1
100
AcDbTrace
 10
31.70328990911518
 20
5.050000026714748
 30
0.0
 11
31.70328990911518
 21
3.932400026714745
 31
0.0
 12
30.02688990911518
 22
5.050000026714748
 32
0.0
 13
30.02688990911518
 23
3.932400026714745
 33
0.0
  0
SOLID
  5
2EB
330
2D9
100
AcDbEntity
  8
METAL1
100
AcDbTrace
 10
31.70328990911518
 20
2.100000026714745
 30
0.0
 11
31.70328990911518
 21
0.9824000267147461
 31
0.0
 12
30.02688990911518
 22
2.100000026714745
 32
0.0
 13
30.02688990911518
 23
0.9824000267147461
 33
0.0
  0
SOLID
  5
2EC
330
2D9
100
AcDbEntity
  8
METAL1
100
AcDbTrace
 10
31.66508990911518
 20
1.600000026714745
 30
0.0
 11
31.66508990911518
 21
0.0000000267147477
 31
0.0
 12
30.06508990911518
 22
1.600000026714745
 32
0.0
 13
30.06508990911518
 23
0.0000000267147477
 33
0.0
  0
LWPOLYLINE
  5
2ED
330
2D9
100
AcDbEntity
  8
METAL1
100
AcDbPolyline
 90
        2
 70
     0
 43
0.2
 10
30.86508990911518
 20
0.4000000267147464
 42
1.0
 10
30.86508990911518
 20
1.200000026714747
  0
LWPOLYLINE
  5
2EE
330
2D9
100
AcDbEntity
  8
METAL1
100
AcDbPolyline
 90
        2
 70
     0
 43
0.2
 10
30.86508990911518
 20
1.200000026714747
 42
1.0
 10
30.86508990911518
 20
0.4000000267147464
  0
SOLID
  5
2EF
330
2D9
100
AcDbEntity
  8
METAL1
100
AcDbTrace
 10
37.65032604703431
 20
7.515774248677425
 30
0.0
 11
36.05032604703431
 21
7.515774248677425
 31
0.0
 12
37.65032604703431
 22
9.115774248677425
 32
0.0
 13
36.05032604703431
 23
9.115774248677425
 33
0.0
  0
SOLID
  5
2F0
330
2D9
100
AcDbEntity
  8
METAL1
100
AcDbTrace
 10
37.62611251651317
 20
10.58962574156202
 30
0.0
 11
36.02611251651318
 21
10.58962574156202
 31
0.0
 12
37.62611251651317
 22
12.18962574156202
 32
0.0
 13
36.02611251651318
 23
12.18962574156202
 33
0.0
  0
SOLID
  5
2F1
330
2D9
100
AcDbEntity
  8
METAL1
100
AcDbTrace
 10
36.08195629676872
 20
4.393019069066376
 30
0.0
 11
34.48195629676872
 21
4.393019069066376
 31
0.0
 12
36.08195629676872
 22
5.993019069066377
 32
0.0
 13
34.48195629676872
 23
5.993019069066377
 33
0.0
  0
SOLID
  5
2F2
330
2D9
100
AcDbEntity
  8
METAL1
100
AcDbTrace
 10
36.13092009116498
 20
7.545722184908933
 30
0.0
 11
34.53092009116498
 21
7.545722184908933
 31
0.0
 12
36.13092009116498
 22
9.145722184908933
 32
0.0
 13
34.53092009116498
 23
9.145722184908933
 33
0.0
  0
SOLID
  5
2F3
330
2D9
100
AcDbEntity
  8
METAL1
100
AcDbTrace
 10
36.10670656064384
 20
10.61957367779353
 30
0.0
 11
34.50670656064385
 21
10.61957367779353
 31
0.0
 12
36.10670656064384
 22
12.21957367779353
 32
0.0
 13
34.50670656064385
 23
12.21957367779353
 33
0.0
  0
SOLID
  5
2F4
330
2D9
100
AcDbEntity
  8
CONSTR
100
AcDbTrace
 10
34.62511484323141
 20
4.334824548110614
 30
0.0
 11
34.62511484323141
 21
5.934824548110615
 31
0.0
 12
34.67511484323142
 22
4.334824548110614
 32
0.0
 13
34.67511484323142
 23
5.934824548110615
 33
0.0
  0
SOLID
  5
2F5
330
2D9
100
AcDbEntity
  8
CONSTR
100
AcDbTrace
 10
34.65011484323142
 20
4.309824548110615
 30
0.0
 11
31.45011484323141
 21
4.309824548110615
 31
0.0
 12
34.65011484323142
 22
4.359824548110616
 32
0.0
 13
31.45011484323141
 23
4.359824548110616
 33
0.0
  0
SOLID
  5
2F6
330
2D9
100
AcDbEntity
  8
CONSTR
100
AcDbTrace
 10
34.65011484323142
 20
5.909824548110613
 30
0.0
 11
31.45011484323141
 21
5.909824548110613
 31
0.0
 12
34.65011484323142
 22
5.959824548110614
 32
0.0
 13
31.45011484323141
 23
5.959824548110614
 33
0.0
  0
SOLID
  5
2F7
330
2D9
100
AcDbEntity
  8
CONSTR
100
AcDbTrace
 10
31.42511484323142
 20
4.334824548110614
 30
0.0
 11
31.42511484323142
 21
5.934824548110615
 31
0.0
 12
31.47511484323142
 22
4.334824548110614
 32
0.0
 13
31.47511484323142
 23
5.934824548110615
 33
0.0
  0
SOLID
  5
2F8
330
2D9
100
AcDbEntity
  8
CONSTR
100
AcDbTrace
 10
36.05011484323142
 20
4.509824548110614
 30
0.0
 11
34.45011484323142
 21
4.509824548110614
 31
0.0
 12
36.05011484323142
 22
4.559824548110615
 32
0.0
 13
34.45011484323142
 23
4.559824548110615
 33
0.0
  0
SOLID
  5
2F9
330
2D9
100
AcDbEntity
  8
CONSTR
100
AcDbTrace
 10
36.07511484323142
 20
4.534824548110613
 30
0.0
 11
36.07511484323142
 21
1.334824548110614
 31
0.0
 12
36.02511484323142
 22
4.534824548110613
 32
0.0
 13
36.02511484323142
 23
1.334824548110614
 33
0.0
  0
SOLID
  5
2FA
330
2D9
100
AcDbEntity
  8
CONSTR
100
AcDbTrace
 10
34.47511484323142
 20
4.534824548110613
 30
0.0
 11
34.47511484323142
 21
1.334824548110614
 31
0.0
 12
34.42511484323142
 22
4.534824548110613
 32
0.0
 13
34.42511484323142
 23
1.334824548110614
 33
0.0
  0
SOLID
  5
2FB
330
2D9
100
AcDbEntity
  8
CONSTR
100
AcDbTrace
 10
36.05011484323142
 20
1.309824548110615
 30
0.0
 11
34.45011484323142
 21
1.309824548110615
 31
0.0
 12
36.05011484323142
 22
1.359824548110616
 32
0.0
 13
34.45011484323142
 23
1.359824548110616
 33
0.0
  0
LWPOLYLINE
  5
2FC
330
2D9
100
AcDbEntity
  8
GND
100
AcDbPolyline
 90
        2
 70
     0
 43
0.2
 10
35.25011484323142
 20
0.334824548110614
 42
1.0
 10
35.25011484323142
 20
1.134824548110614
  0
LWPOLYLINE
  5
2FD
330
2D9
100
AcDbEntity
  8
GND
100
AcDbPolyline
 90
        2
 70
     0
 43
0.2
 10
35.25011484323142
 20
1.134824548110614
 42
1.0
 10
35.25011484323142
 20
0.334824548110614
  0
SOLID
  5
2FE
330
2D9
100
AcDbEntity
  8
CONSTR
100
AcDbTrace
 10
31.65011484323142
 20
4.509824548110614
 30
0.0
 11
30.05011484323142
 21
4.509824548110614
 31
0.0
 12
31.65011484323142
 22
4.559824548110615
 32
0.0
 13
30.05011484323142
 23
4.559824548110615
 33
0.0
  0
SOLID
  5
2FF
330
2D9
100
AcDbEntity
  8
CONSTR
100
AcDbTrace
 10
31.67511484323142
 20
4.534824548110613
 30
0.0
 11
31.67511484323142
 21
1.334824548110614
 31
0.0
 12
31.62511484323141
 22
4.534824548110613
 32
0.0
 13
31.62511484323141
 23
1.334824548110614
 33
0.0
  0
SOLID
  5
300
330
2D9
100
AcDbEntity
  8
CONSTR
100
AcDbTrace
 10
30.07511484323142
 20
4.534824548110613
 30
0.0
 11
30.07511484323142
 21
1.334824548110614
 31
0.0
 12
30.02511484323142
 22
4.534824548110613
 32
0.0
 13
30.02511484323142
 23
1.334824548110614
 33
0.0
  0
SOLID
  5
301
330
2D9
100
AcDbEntity
  8
CONSTR
100
AcDbTrace
 10
31.65011484323142
 20
1.309824548110615
 30
0.0
 11
30.05011484323142
 21
1.309824548110615
 31
0.0
 12
31.65011484323142
 22
1.359824548110616
 32
0.0
 13
30.05011484323142
 23
1.359824548110616
 33
0.0
  0
LWPOLYLINE
  5
302
330
2D9
100
AcDbEntity
  8
GND
100
AcDbPolyline
 90
        2
 70
     0
 43
0.2
 10
30.85011484323142
 20
0.334824548110614
 42
1.0
 10
30.85011484323142
 20
1.134824548110614
  0
LWPOLYLINE
  5
303
330
2D9
100
AcDbEntity
  8
GND
100
AcDbPolyline
 90
        2
 70
     0
 43
0.2
 10
30.85011484323142
 20
1.134824548110614
 42
1.0
 10
30.85011484323142
 20
0.334824548110614
  0
INSERT
  5
304
330
2D9
100
AcDbEntity
  8
CONSTR
100
AcDbBlockReference
  2
elkon
 10
29.09694051162048
 20
-0.7440783089716838
 30
0.0
  0
INSERT
  5
305
330
2D9
100
AcDbEntity
  8
CONSTR
100
AcDbBlockReference
  2
elkon
 10
41.0664667875137
 20
17.35036934610853
 30
0.0
 50
180.0
  0
INSERT
  5
306
330
2D9
100
AcDbEntity
  8
CONSTR
100
AcDbBlockReference
  2
rfc
 10
65.20245247437384
 20
41.85269327148667
 30
0.0
 41
5.747672421525731
 42
5.747672421525731
 43
5.747672421525731
 50
180.0
  0
LWPOLYLINE
  5
307
330
2D9
100
AcDbEntity
  8
CONSTR
100
AcDbPolyline
 90
        2
 70
     0
 43
0.0
 10
37.7956642874768
 20
10.17401319945005
 10
37.91142488835944
 20
9.555954282656266
  0
LWPOLYLINE
  5
308
330
2D9
100
AcDbEntity
  8
CONSTR
100
AcDbPolyline
 90
        2
 70
     0
 43
0.0
 10
37.78751678939754
 20
8.230426373617454
 10
37.32396242974975
 20
8.268959053939582
  0
MTEXT
  5
309
330
2D9
100
AcDbEntity
  8
CONSTR
100
AcDbMText
 10
32.02559040488258
 20
11.1049674270009
 30
0.0
 40
0.6
 41
1.6775
 71
     1
 72
     5
  1
1uF
 73
     1
 44
1.0
  0
MTEXT
  5
30A
330
2D9
100
AcDbEntity
  8
CONSTR
100
AcDbMText
 10
34.10179278187716
 20
13.67790889505329
 30
0.0
 40
0.6
 41
2.423099999999999
 71
     1
 72
     5
  1
10uH
 11
0.0000000000000001
 21
1.0
 31
0.0
 73
     1
 44
1.0
  0
MTEXT
  5
30B
330
2D9
100
AcDbEntity
  8
CONSTR
100
AcDbMText
 10
40.12022427364225
 20
9.690963147228899
 30
0.0
 40
0.5999999999999999
 41
3.075399999999999
 71
     1
 72
     5
  1
78L10
 11
0.0031168054897741
 21
-0.999995142749973
 31
0.0
 73
     1
 44
1.0
  0
INSERT
  5
30C
330
2D9
100
AcDbEntity
  8
CONSTR
100
AcDbBlockReference
  2
tri
 10
38.23013633027413
 20
-2.914930391004077
 30
0.0
 50
44.99999999999985
  0
LWPOLYLINE
  5
30D
330
2D9
100
AcDbEntity
  8
CONSTR
100
AcDbPolyline
 90
        2
 70
     0
 43
0.0
 10
37.90173858294842
 20
6.787128018986148
 10
38.09502778456756
 20
7.443882176018373
  0
LWPOLYLINE
  5
30E
330
2D9
100
AcDbEntity
  8
CONSTR
100
AcDbPolyline
 90
        2
 70
     0
 43
0.0
 10
37.92847282408415
 20
9.525674018232351
 10
38.04423342496681
 20
8.907615101438558
  0
LWPOLYLINE
  5
30F
330
2D9
100
AcDbEntity
  8
GND
100
AcDbPolyline
 90
        2
 70
     0
 43
0.2
 10
36.09000698094493
 20
7.897165475022493
 42
1.0
 10
36.09000698094493
 20
8.697165475022494
  0
LWPOLYLINE
  5
310
330
2D9
100
AcDbEntity
  8
GND
100
AcDbPolyline
 90
        2
 70
     0
 43
0.2
 10
36.09000698094493
 20
8.697165475022494
 42
1.0
 10
36.09000698094493
 20
7.897165475022493
  0
LWPOLYLINE
  5
311
330
2D9
100
AcDbEntity
  8
CONSTR
100
AcDbPolyline
 90
        2
 70
     0
 43
0.0
 10
37.74212994411708
 20
6.232483652670381
 10
37.93541914573621
 20
6.88923780970261
  0
LWPOLYLINE
  5
312
330
2D9
100
AcDbEntity
  8
CONSTR
100
AcDbPolyline
 90
        2
 70
     0
 43
0.0
 10
37.53659179202236
 20
5.707942742184144
 10
37.72988099364148
 20
6.364696899216372
  0
LWPOLYLINE
  5
313
330
2D9
100
AcDbEntity
  8
CONSTR
100
AcDbPolyline
 90
        2
 70
     0
 43
0.0
 10
37.65765948026032
 20
10.73104878311115
 10
37.77342008114296
 20
10.11298986631735
  0
MTEXT
  5
314
330
2D9
100
AcDbEntity
  8
CONSTR
100
AcDbMText
 10
32.43114731091761
 20
5.608499439281366
 30
0.0
 40
0.6
 41
3.8919
 71
     1
 72
     5
  1
33
 73
     1
 44
1.0
  0
MTEXT
  5
315
330
2D9
100
AcDbEntity
  8
CONSTR
100
AcDbMText
 10
30.48393174380528
 20
2.227226935514046
 30
0.0
 40
0.6
 41
5.9263
 71
     1
 72
     5
  1
1nF
 11
0.0000000000000001
 21
1.0
 31
0.0
 73
     1
 44
1.0
  0
MTEXT
  5
316
330
2D9
100
AcDbEntity
  8
CONSTR
100
AcDbMText
 10
34.94927885789539
 20
2.033139198082686
 30
0.0
 40
0.6
 41
5.8379
 71
     1
 72
     5
  1
20nF
 11
0.0000000000000001
 21
1.0
 31
0.0
 73
     1
 44
1.0
  0
MTEXT
  5
317
330
2D9
100
AcDbEntity
  8
CONSTR
100
AcDbMText
 10
32.21495330825166
 20
7.785762268761359
 30
0.0
 40
0.6
 41
1.6775
 71
     1
 72
     5
  1
1uF
 73
     1
 44
1.0
  0
LWPOLYLINE
  5
318
330
2D9
100
AcDbEntity
  8
CONSTR
100
AcDbPolyline
 90
        2
 70
     0
 43
0.0
 10
35.67269447053807
 20
13.58079698541529
 10
35.67269447053807
 20
10.87251227783444
  0
LWPOLYLINE
  5
319
330
2D9
100
AcDbEntity
  8
CONSTR
100
AcDbPolyline
 90
        2
 70
     0
 43
0.0
 10
35.61504994522097
 20
16.05858941863628
 10
35.61504994522097
 20
19.08380113372992
  0
ENDBLK
  5
31B
330
2D9
100
AcDbEntity
  8
0
100
AcDbBlockEnd
  0
BLOCK
  5
3BC
330
3B1
100
AcDbEntity
  8
0
100
AcDbBlockBegin
  2
*D10
 70
     1
 10
0.0
 20
0.0
 30
0.0
  3
*D10
  1

  0
LINE
  5
3F3
330
3B1
100
AcDbEntity
  8
0
 62
     0
370
    -2
100
AcDbLine
 10
-2.135045722292275
 20
19.47888736427367
 30
0.0
 11
-2.135045722292275
 21
21.69573214096481
 31
0.0
  0
LINE
  5
3F4
330
3B1
100
AcDbEntity
  8
0
 62
     0
370
    -2
100
AcDbLine
 10
57.85853165449139
 20
19.47888736427367
 30
0.0
 11
57.85853165449139
 21
21.69573214096481
 31
0.0
  0
LINE
  5
3F5
330
3B1
100
AcDbEntity
  8
0
 62
     0
370
    -2
100
AcDbLine
 10
-0.3350457222922756
 20
21.51573214096481
 30
0.0
 11
26.42174296609955
 21
21.51573214096481
 31
0.0
  0
LINE
  5
3F6
330
3B1
100
AcDbEntity
  8
0
 62
     0
370
    -2
100
AcDbLine
 10
56.05853165449139
 20
21.51573214096481
 30
0.0
 11
29.30174296609955
 21
21.51573214096481
 31
0.0
  0
SOLID
  5
3F7
330
3B1
100
AcDbEntity
  8
0
 62
     0
100
AcDbTrace
 10
-0.3350457222922756
 20
21.81573214096481
 30
0.0
 11
-0.3350457222922756
 21
21.21573214096481
 31
0.0
 12
-2.135045722292275
 22
21.51573214096481
 32
0.0
 13
-2.135045722292275
 23
21.51573214096481
 33
0.0
  0
SOLID
  5
3F8
330
3B1
100
AcDbEntity
  8
0
 62
     0
100
AcDbTrace
 10
56.05853165449139
 20
21.81573214096481
 30
0.0
 11
56.05853165449139
 21
21.21573214096481
 31
0.0
 12
57.85853165449139
 22
21.51573214096481
 32
0.0
 13
57.85853165449139
 23
21.51573214096481
 33
0.0
  0
MTEXT
  5
3F9
330
3B1
100
AcDbEntity
  8
0
 62
     0
100
AcDbMText
 10
27.86174296609955
 20
21.51573214096481
 30
0.0
 40
1.8
 41
0.0
 71
     5
 72
     1
  1
\A1;60
 73
     1
 44
1.0
  0
POINT
  5
3FA
330
3B1
100
AcDbEntity
  8
Defpoints
 62
     0
100
AcDbPoint
 10
-2.135045722292275
 20
19.41638736427367
 30
0.0
  0
POINT
  5
3FB
330
3B1
100
AcDbEntity
  8
Defpoints
 62
     0
100
AcDbPoint
 10
57.85853165449139
 20
19.41638736427367
 30
0.0
  0
POINT
  5
3FC
330
3B1
100
AcDbEntity
  8
Defpoints
 62
     0
100
AcDbPoint
 10
57.85853165449139
 20
21.51573214096481
 30
0.0
  0
ENDBLK
  5
3BD
330
3B1
100
AcDbEntity
  8
0
100
AcDbBlockEnd
  0
BLOCK
  5
3C9
330
3BE
100
AcDbEntity
  8
0
100
AcDbBlockBegin
  2
*D11
 70
     1
 10
0.0
 20
0.0
 30
0.0
  3
*D11
  1

  0
LINE
  5
3FD
330
3BE
100
AcDbEntity
  8
0
 62
     0
370
    -2
100
AcDbLine
 10
58.27105244309866
 20
-20.96101130391467
 30
0.0
 11
61.11871530578834
 21
-20.96101130391467
 31
0.0
  0
LINE
  5
3FE
330
3BE
100
AcDbEntity
  8
0
 62
     0
370
    -2
100
AcDbLine
 10
58.27105244309866
 20
18.99651836427215
 30
0.0
 11
61.11871530578836
 21
18.99651836427215
 31
0.0
  0
LINE
  5
3FF
330
3BE
100
AcDbEntity
  8
0
 62
     0
370
    -2
100
AcDbLine
 10
60.93871530578835
 20
-19.16101130391467
 30
0.0
 11
60.93871530578836
 21
-1.972246469821262
 31
0.0
  0
LINE
  5
400
330
3BE
100
AcDbEntity
  8
0
 62
     0
370
    -2
100
AcDbLine
 10
60.93871530578836
 20
17.19651836427214
 30
0.0
 11
60.93871530578836
 21
0.0077535301787379
 31
0.0
  0
SOLID
  5
401
330
3BE
100
AcDbEntity
  8
0
 62
     0
100
AcDbTrace
 10
60.63871530578835
 20
-19.16101130391467
 30
0.0
 11
61.23871530578835
 21
-19.16101130391467
 31
0.0
 12
60.93871530578835
 22
-20.96101130391467
 32
0.0
 13
60.93871530578835
 23
-20.96101130391467
 33
0.0
  0
SOLID
  5
402
330
3BE
100
AcDbEntity
  8
0
 62
     0
100
AcDbTrace
 10
60.63871530578836
 20
17.19651836427214
 30
0.0
 11
61.23871530578836
 21
17.19651836427214
 31
0.0
 12
60.93871530578836
 22
18.99651836427215
 32
0.0
 13
60.93871530578836
 23
18.99651836427215
 33
0.0
  0
MTEXT
  5
403
330
3BE
100
AcDbEntity
  8
0
 62
     0
100
AcDbMText
 10
60.93871530578836
 20
-0.9822464698212522
 30
0.0
 40
1.8
 41
0.0
 71
     5
 72
     1
  1
\A1;40
 73
     1
 44
1.0
  0
POINT
  5
404
330
3BE
100
AcDbEntity
  8
Defpoints
 62
     0
100
AcDbPoint
 10
58.20855244309867
 20
-20.96101130391467
 30
0.0
  0
POINT
  5
405
330
3BE
100
AcDbEntity
  8
Defpoints
 62
     0
100
AcDbPoint
 10
58.20855244309867
 20
18.99651836427215
 30
0.0
  0
POINT
  5
406
330
3BE
100
AcDbEntity
  8
Defpoints
 62
     0
100
AcDbPoint
 10
60.93871530578836
 20
18.99651836427215
 30
0.0
  0
ENDBLK
  5
3CA
330
3BE
100
AcDbEntity
  8
0
100
AcDbBlockEnd
  0
ENDSEC
  0
SECTION
  2
ENTITIES
  0
SOLID
  5
23
330
1E
100
AcDbEntity
  8
METAL1
100
AcDbTrace
 10
1.688885976513262
 20
1.349999999999999
 30
0.0
 11
6.688885976513262
 21
1.349999999999999
 31
0.0
 12
1.688885976513262
 22
-1.349999999999999
 32
0.0
 13
6.688885976513262
 23
-1.349999999999999
 33
0.0
  0
SOLID
  5
24
330
1E
100
AcDbEntity
  8
METAL1
100
AcDbTrace
 10
7.488885976513262
 20
-1.349999999999999
 30
0.0
 11
6.688885976513262
 21
-1.349999999999999
 31
0.0
 12
7.488885976513262
 22
1.349999999999999
 32
0.0
 13
6.688885976513262
 23
1.349999999999999
 33
0.0
  0
SOLID
  5
26
330
1E
100
AcDbEntity
  8
METAL1
100
AcDbTrace
 10
8.288885976513263
 20
0.0
 30
0.0
 11
8.288885976513263
 21
-1.349999999999999
 31
0.0
 12
6.688885976513262
 22
0.0
 32
0.0
 13
6.688885976513262
 23
-1.349999999999999
 33
0.0
  0
SOLID
  5
55
330
1E
100
AcDbEntity
  8
METAL1
100
AcDbTrace
 10
18.5872385190077
 20
0.7999999999999999
 30
0.0
 11
19.3872385190077
 21
0.7999999999999999
 31
0.0
 12
18.5872385190077
 22
-0.7999999999999999
 32
0.0
 13
19.3872385190077
 23
-0.7999999999999999
 33
0.0
  0
SOLID
  5
56
330
1E
100
AcDbEntity
  8
METAL1
100
AcDbTrace
 10
18.5872385190077
 20
-0.7999999999999999
 30
0.0
 11
17.7872385190077
 21
-0.7999999999999999
 31
0.0
 12
18.5872385190077
 22
0.7999999999999999
 32
0.0
 13
17.7872385190077
 23
0.7999999999999999
 33
0.0
  0
SOLID
  5
57
330
1E
100
AcDbEntity
  8
METAL1
100
AcDbTrace
 10
17.7872385190077
 20
0.0
 30
0.0
 11
17.7872385190077
 21
0.7999999999999999
 31
0.0
 12
19.3872385190077
 22
0.0
 32
0.0
 13
19.3872385190077
 23
0.7999999999999999
 33
0.0
  0
SOLID
  5
58
330
1E
100
AcDbEntity
  8
METAL1
100
AcDbTrace
 10
19.3872385190077
 20
0.7999999999999999
 30
0.0
 11
21.0872385190077
 21
0.7999999999999999
 31
0.0
 12
19.3872385190077
 22
-0.7999999999999999
 32
0.0
 13
21.0872385190077
 23
-0.7999999999999999
 33
0.0
  0
SOLID
  5
70
330
1E
100
AcDbEntity
  8
METAL1
100
AcDbTrace
 10
21.1172385190077
 20
-2.9
 30
0.0
 11
19.7172385190077
 21
-2.9
 31
0.0
 12
21.1172385190077
 22
-1.7
 32
0.0
 13
19.7172385190077
 23
-1.7
 33
0.0
  0
SOLID
  5
71
330
1E
100
AcDbEntity
  8
METAL1
100
AcDbTrace
 10
21.1172385190077
 20
-0.5999999999999997
 30
0.0
 11
19.7172385190077
 21
-0.5999999999999997
 31
0.0
 12
21.1172385190077
 22
0.5999999999999997
 32
0.0
 13
19.7172385190077
 23
0.5999999999999997
 33
0.0
  0
SOLID
  5
72
330
1E
100
AcDbEntity
  8
METAL1
100
AcDbTrace
 10
21.1172385190077
 20
1.75
 30
0.0
 11
19.7172385190077
 21
1.75
 31
0.0
 12
21.1172385190077
 22
2.95
 32
0.0
 13
19.7172385190077
 23
2.95
 33
0.0
  0
SOLID
  5
73
330
1E
100
AcDbEntity
  8
METAL1
100
AcDbTrace
 10
27.0172385190077
 20
-1.7
 30
0.0
 11
25.61723851900771
 21
-1.7
 31
0.0
 12
27.0172385190077
 22
1.799999999999999
 32
0.0
 13
25.61723851900771
 23
1.799999999999999
 33
0.0
  0
SOLID
  5
83
330
1E
100
AcDbEntity
  8
METAL1
100
AcDbTrace
 10
25.6672385190077
 20
-4.0
 30
0.0
 11
21.6672385190077
 21
-4.0
 31
0.0
 12
25.6672385190077
 22
4.0
 32
0.0
 13
21.6672385190077
 23
4.0
 33
0.0
  0
SOLID
  5
84
330
1E
100
AcDbEntity
  8
METAL1
100
AcDbTrace
 10
25.6672385190077
 20
4.0
 30
0.0
 11
25.9172385190077
 21
4.0
 31
0.0
 12
25.6672385190077
 22
-4.0
 32
0.0
 13
25.9172385190077
 23
-4.0
 33
0.0
  0
SOLID
  5
85
330
1E
100
AcDbEntity
  8
METAL1
100
AcDbTrace
 10
24.9540385190077
 20
3.35
 30
0.0
 11
24.9540385190077
 21
4.4676
 31
0.0
 12
26.6304385190077
 22
3.35
 32
0.0
 13
26.6304385190077
 23
4.4676
 33
0.0
  0
SOLID
  5
86
330
1E
100
AcDbEntity
  8
METAL1
100
AcDbTrace
 10
24.9540385190077
 20
6.299999999999999
 30
0.0
 11
24.9540385190077
 21
7.4176
 31
0.0
 12
26.6304385190077
 22
6.299999999999999
 32
0.0
 13
26.6304385190077
 23
7.4176
 33
0.0
  0
SOLID
  5
8B
330
1E
100
AcDbEntity
  8
METAL1
100
AcDbTrace
 10
25.6672385190077
 20
6.799999999999999
 30
0.0
 11
25.6672385190077
 21
7.049999999999999
 31
0.0
 12
25.6672385190077
 22
6.799999999999999
 32
0.0
 13
25.9172385190077
 23
6.799999999999999
 33
0.0
  0
SOLID
  5
8C
330
1E
100
AcDbEntity
  8
METAL1
100
AcDbTrace
 10
18.6672385190077
 20
7.049999999999999
 30
0.0
 11
25.6672385190077
 21
7.049999999999999
 31
0.0
 12
18.6672385190077
 22
6.799999999999999
 32
0.0
 13
25.6672385190077
 23
6.799999999999999
 33
0.0
  0
SOLID
  5
8D
330
1E
100
AcDbEntity
  8
METAL1
100
AcDbTrace
 10
18.6672385190077
 20
6.799999999999999
 30
0.0
 11
18.4172385190077
 21
6.799999999999999
 31
0.0
 12
18.6672385190077
 22
6.799999999999999
 32
0.0
 13
18.6672385190077
 23
7.049999999999999
 33
0.0
  0
SOLID
  5
8E
330
1E
100
AcDbEntity
  8
METAL1
100
AcDbTrace
 10
18.4172385190077
 20
3.799999999999999
 30
0.0
 11
18.4172385190077
 21
6.799999999999999
 31
0.0
 12
18.6672385190077
 22
3.799999999999999
 32
0.0
 13
18.6672385190077
 23
6.799999999999999
 33
0.0
  0
SOLID
  5
8F
330
1E
100
AcDbEntity
  8
METAL1
100
AcDbTrace
 10
17.7490385190077
 20
0.1500000000000003
 30
0.0
 11
17.7490385190077
 21
1.267599999999999
 31
0.0
 12
19.4254385190077
 22
0.1500000000000003
 32
0.0
 13
19.4254385190077
 23
1.267599999999999
 33
0.0
  0
SOLID
  5
90
330
1E
100
AcDbEntity
  8
METAL1
100
AcDbTrace
 10
17.7490385190077
 20
3.1
 30
0.0
 11
17.7490385190077
 21
4.2176
 31
0.0
 12
19.4254385190077
 22
3.1
 32
0.0
 13
19.4254385190077
 23
4.2176
 33
0.0
  0
SOLID
  5
95
330
1E
100
AcDbEntity
  8
METAL1
100
AcDbTrace
 10
25.9172385190077
 20
4.0
 30
0.0
 11
29.9172385190077
 21
4.0
 31
0.0
 12
25.9172385190077
 22
-4.0
 32
0.0
 13
29.9172385190077
 23
-4.0
 33
0.0
  0
SOLID
  5
96
330
1E
100
AcDbEntity
  8
METAL1
100
AcDbTrace
 10
29.2672385190077
 20
0.8381999999999996
 30
0.0
 11
30.38483851900771
 21
0.8381999999999996
 31
0.0
 12
29.2672385190077
 22
-0.8381999999999996
 32
0.0
 13
30.38483851900771
 23
-0.8381999999999996
 33
0.0
  0
SOLID
  5
97
330
1E
100
AcDbEntity
  8
METAL1
100
AcDbTrace
 10
32.21723851900771
 20
0.8381999999999996
 30
0.0
 11
33.3348385190077
 21
0.8381999999999996
 31
0.0
 12
32.21723851900771
 22
-0.8381999999999996
 32
0.0
 13
33.3348385190077
 23
-0.8381999999999996
 33
0.0
  0
SOLID
  5
9C
330
1E
100
AcDbEntity
  8
METAL1
100
AcDbTrace
 10
32.7172385190077
 20
1.35
 30
0.0
 11
47.7172385190077
 21
1.35
 31
0.0
 12
32.7172385190077
 22
-1.349999999999999
 32
0.0
 13
47.7172385190077
 23
-1.349999999999999
 33
0.0
  0
SOLID
  5
F0
330
1E
100
AcDbEntity
  8
METAL1
100
AcDbTrace
 10
21.0872385190077
 20
2.9
 30
0.0
 11
21.0872385190077
 21
1.7
 31
0.0
 12
19.8872385190077
 22
2.9
 32
0.0
 13
19.8872385190077
 23
1.7
 33
0.0
  0
LWPOLYLINE
  5
F1
330
1E
100
AcDbEntity
  8
METAL1
100
AcDbPolyline
 90
        2
 70
     0
 43
0.2
 10
20.4872385190077
 20
1.9
 42
1.0
 10
20.4872385190077
 20
2.7
  0
LWPOLYLINE
  5
F9
330
1E
100
AcDbEntity
  8
METAL1
100
AcDbPolyline
 90
        2
 70
     0
 43
0.2
 10
20.4872385190077
 20
2.7
 42
1.0
 10
20.4872385190077
 20
1.9
  0
SOLID
  5
110
330
1E
100
AcDbEntity
  8
METAL1
100
AcDbTrace
 10
6.650685976513258
 20
-4.8
 30
0.0
 11
6.650685976513258
 21
-3.682399999999999
 31
0.0
 12
8.327085976513263
 22
-4.8
 32
0.0
 13
8.327085976513263
 23
-3.682399999999999
 33
0.0
  0
SOLID
  5
111
330
1E
100
AcDbEntity
  8
METAL1
100
AcDbTrace
 10
6.650685976513258
 20
-1.849999999999999
 30
0.0
 11
6.650685976513258
 21
-0.7324000000000002
 31
0.0
 12
8.327085976513263
 22
-1.849999999999999
 32
0.0
 13
8.327085976513263
 23
-0.7324000000000002
 33
0.0
  0
SOLID
  5
116
330
1E
100
AcDbEntity
  8
METAL1
100
AcDbTrace
 10
8.288885976513263
 20
-5.75
 30
0.0
 11
6.688885976513262
 21
-5.75
 31
0.0
 12
8.288885976513263
 22
-4.15
 32
0.0
 13
6.688885976513262
 23
-4.15
 33
0.0
  0
LWPOLYLINE
  5
117
330
1E
100
AcDbEntity
  8
METAL1
100
AcDbPolyline
 90
        2
 70
     0
 43
0.2
 10
7.488885976513262
 20
-5.349999999999999
 42
1.0
 10
7.488885976513262
 20
-4.549999999999999
  0
LWPOLYLINE
  5
11F
330
1E
100
AcDbEntity
  8
METAL1
100
AcDbPolyline
 90
        2
 70
     0
 43
0.2
 10
7.488885976513262
 20
-4.549999999999999
 42
1.0
 10
7.488885976513262
 20
-5.349999999999999
  0
TEXT
  5
128
330
1E
100
AcDbEntity
  8
ERROR
100
AcDbText
 10
22.02166666666666
 20
3.674999999999999
 30
0.0
 40
0.25
  1
296
 72
     4
 11
22.355
 21
3.799999999999999
 31
0.0
100
AcDbText
  0
CIRCLE
  5
129
330
1E
100
AcDbEntity
  8
ERROR
100
AcDbCircle
 10
22.355
 20
3.799999999999999
 30
0.0
 40
0.5
  0
TEXT
  5
12A
330
1E
100
AcDbEntity
  8
ERROR
100
AcDbText
 10
22.06666666666666
 20
3.475
 30
0.0
 40
0.25
  1
296
 72
     4
 11
22.39999999999999
 21
3.6
 31
0.0
100
AcDbText
  0
CIRCLE
  5
12B
330
1E
100
AcDbEntity
  8
ERROR
100
AcDbCircle
 10
22.39999999999999
 20
3.6
 30
0.0
 40
0.5
  0
SOLID
  5
294
330
1E
100
AcDbEntity
  8
METAL1
100
AcDbTrace
 10
43.70278717642913
 20
-12.86071797409745
 30
0.0
 11
43.70278717642913
 21
-15.06071797409745
 31
0.0
 12
41.30278717642915
 22
-12.86071797409745
 32
0.0
 13
41.30278717642915
 23
-15.06071797409745
 33
0.0
  0
SOLID
  5
295
330
1E
100
AcDbEntity
  8
METAL1
100
AcDbTrace
 10
44.4967058044381
 20
-14.45804871508909
 30
0.0
 11
43.6967058044381
 21
-14.45804871508909
 31
0.0
 12
44.4967058044381
 22
-12.85804871508909
 32
0.0
 13
43.6967058044381
 23
-12.85804871508909
 33
0.0
  0
SOLID
  5
296
330
1E
100
AcDbEntity
  8
METAL1
100
AcDbTrace
 10
44.4967058044381
 20
-12.85804871508909
 30
0.0
 11
45.2967058044381
 21
-12.85804871508909
 31
0.0
 12
44.4967058044381
 22
-14.45804871508909
 32
0.0
 13
45.2967058044381
 23
-14.45804871508909
 33
0.0
  0
SOLID
  5
297
330
1E
100
AcDbEntity
  8
METAL1
100
AcDbTrace
 10
45.2967058044381
 20
-13.65804871508909
 30
0.0
 11
45.2967058044381
 21
-14.45804871508909
 31
0.0
 12
43.6967058044381
 22
-13.65804871508909
 32
0.0
 13
43.6967058044381
 23
-14.45804871508909
 33
0.0
  0
SOLID
  5
298
330
1E
100
AcDbEntity
  8
METAL1
100
AcDbTrace
 10
48.7467058044381
 20
-14.49624871508909
 30
0.0
 11
47.6291058044381
 21
-14.49624871508909
 31
0.0
 12
48.7467058044381
 22
-12.81984871508909
 32
0.0
 13
47.6291058044381
 23
-12.81984871508909
 33
0.0
  0
SOLID
  5
299
330
1E
100
AcDbEntity
  8
METAL1
100
AcDbTrace
 10
45.7967058044381
 20
-14.49624871508909
 30
0.0
 11
44.67910580443811
 21
-14.49624871508909
 31
0.0
 12
45.7967058044381
 22
-12.81984871508909
 32
0.0
 13
44.67910580443811
 23
-12.81984871508909
 33
0.0
  0
SOLID
  5
29A
330
1E
100
AcDbEntity
  8
METAL1
100
AcDbTrace
 10
50.45310734113343
 20
-14.45804871508909
 30
0.0
 11
49.65310734113342
 21
-14.45804871508909
 31
0.0
 12
50.45310734113343
 22
-12.85804871508909
 32
0.0
 13
49.65310734113342
 23
-12.85804871508909
 33
0.0
  0
SOLID
  5
29B
330
1E
100
AcDbEntity
  8
METAL1
100
AcDbTrace
 10
50.45310734113343
 20
-12.85804871508909
 30
0.0
 11
51.25310734113342
 21
-12.85804871508909
 31
0.0
 12
50.45310734113343
 22
-14.45804871508909
 32
0.0
 13
51.25310734113342
 23
-14.45804871508909
 33
0.0
  0
SOLID
  5
29C
330
1E
100
AcDbEntity
  8
METAL1
100
AcDbTrace
 10
49.69670580443811
 20
-13.65804871508909
 30
0.0
 11
49.69670580443811
 21
-14.45804871508909
 31
0.0
 12
48.0967058044381
 22
-13.65804871508909
 32
0.0
 13
48.0967058044381
 23
-14.45804871508909
 33
0.0
  0
SOLID
  5
29D
330
1E
100
AcDbEntity
  8
METAL1
100
AcDbTrace
 10
49.73490580443811
 20
-13.80804871508909
 30
0.0
 11
49.73490580443811
 21
-14.92564871508909
 31
0.0
 12
48.05850580443809
 22
-13.80804871508909
 32
0.0
 13
48.05850580443809
 23
-14.92564871508909
 33
0.0
  0
SOLID
  5
29E
330
1E
100
AcDbEntity
  8
METAL1
100
AcDbTrace
 10
49.73490580443811
 20
-16.75804871508909
 30
0.0
 11
49.73490580443811
 21
-17.87564871508909
 31
0.0
 12
48.05850580443809
 22
-16.75804871508909
 32
0.0
 13
48.05850580443809
 23
-17.87564871508909
 33
0.0
  0
SOLID
  5
29F
330
1E
100
AcDbEntity
  8
METAL1
100
AcDbTrace
 10
49.69670580443811
 20
-17.25804871508909
 30
0.0
 11
49.69670580443811
 21
-18.85804871508909
 31
0.0
 12
48.0967058044381
 22
-17.25804871508909
 32
0.0
 13
48.0967058044381
 23
-18.85804871508909
 33
0.0
  0
LWPOLYLINE
  5
2A0
330
1E
100
AcDbEntity
  8
METAL1
100
AcDbPolyline
 90
        2
 70
     0
 43
0.2
 10
48.8967058044381
 20
-18.45804871508909
 42
1.0
 10
48.8967058044381
 20
-17.65804871508909
  0
LWPOLYLINE
  5
2A1
330
1E
100
AcDbEntity
  8
METAL1
100
AcDbPolyline
 90
        2
 70
     0
 43
0.2
 10
48.8967058044381
 20
-17.65804871508909
 42
1.0
 10
48.8967058044381
 20
-18.45804871508909
  0
SOLID
  5
2A2
330
1E
100
AcDbEntity
  8
METAL1
100
AcDbTrace
 10
45.3349058044381
 20
-13.80804871508909
 30
0.0
 11
45.3349058044381
 21
-14.92564871508909
 31
0.0
 12
43.65850580443811
 22
-13.80804871508909
 32
0.0
 13
43.65850580443811
 23
-14.92564871508909
 33
0.0
  0
SOLID
  5
2A3
330
1E
100
AcDbEntity
  8
METAL1
100
AcDbTrace
 10
45.3349058044381
 20
-16.75804871508909
 30
0.0
 11
45.3349058044381
 21
-17.87564871508909
 31
0.0
 12
43.65850580443811
 22
-16.75804871508909
 32
0.0
 13
43.65850580443811
 23
-17.87564871508909
 33
0.0
  0
SOLID
  5
2A4
330
1E
100
AcDbEntity
  8
METAL1
100
AcDbTrace
 10
45.2967058044381
 20
-17.25804871508909
 30
0.0
 11
45.2967058044381
 21
-18.85804871508909
 31
0.0
 12
43.6967058044381
 22
-17.25804871508909
 32
0.0
 13
43.6967058044381
 23
-18.85804871508909
 33
0.0
  0
LWPOLYLINE
  5
2A5
330
1E
100
AcDbEntity
  8
METAL1
100
AcDbPolyline
 90
        2
 70
     0
 43
0.2
 10
44.4967058044381
 20
-18.45804871508909
 42
1.0
 10
44.4967058044381
 20
-17.65804871508909
  0
LWPOLYLINE
  5
2A6
330
1E
100
AcDbEntity
  8
METAL1
100
AcDbPolyline
 90
        2
 70
     0
 43
0.2
 10
44.4967058044381
 20
-17.65804871508909
 42
1.0
 10
44.4967058044381
 20
-18.45804871508909
  0
SOLID
  5
2A7
330
1E
100
AcDbEntity
  8
METAL1
100
AcDbTrace
 10
51.28194194235724
 20
-11.34227449312641
 30
0.0
 11
49.68194194235724
 21
-11.34227449312641
 31
0.0
 12
51.28194194235724
 22
-9.742274493126416
 32
0.0
 13
49.68194194235724
 23
-9.742274493126416
 33
0.0
  0
SOLID
  5
2A8
330
1E
100
AcDbEntity
  8
METAL1
100
AcDbTrace
 10
51.2577284118361
 20
-8.268423000241817
 30
0.0
 11
49.65772841183611
 21
-8.268423000241817
 31
0.0
 12
51.2577284118361
 22
-6.668423000241816
 32
0.0
 13
49.65772841183611
 23
-6.668423000241816
 33
0.0
  0
SOLID
  5
2A9
330
1E
100
AcDbEntity
  8
METAL1
100
AcDbTrace
 10
49.71357219209164
 20
-14.46502967273746
 30
0.0
 11
48.11357219209165
 21
-14.46502967273746
 31
0.0
 12
49.71357219209164
 22
-12.86502967273746
 32
0.0
 13
48.11357219209165
 23
-12.86502967273746
 33
0.0
  0
SOLID
  5
2AA
330
1E
100
AcDbEntity
  8
METAL1
100
AcDbTrace
 10
49.7625359864879
 20
-11.3123265568949
 30
0.0
 11
48.16253598648791
 21
-11.3123265568949
 31
0.0
 12
49.7625359864879
 22
-9.712326556894907
 32
0.0
 13
48.16253598648791
 23
-9.712326556894907
 33
0.0
  0
SOLID
  5
2AB
330
1E
100
AcDbEntity
  8
METAL1
100
AcDbTrace
 10
49.73832245596677
 20
-8.238475064010309
 30
0.0
 11
48.13832245596677
 21
-8.238475064010309
 31
0.0
 12
49.73832245596677
 22
-6.638475064010307
 32
0.0
 13
48.13832245596677
 23
-6.638475064010307
 33
0.0
  0
SOLID
  5
2D8
330
1E
100
AcDbEntity
  8
METAL1
100
AcDbTrace
 10
41.33921156701489
 20
1.333424118793621
 30
0.0
 11
56.33921156701489
 21
1.333424118793621
 31
0.0
 12
41.33921156701489
 22
-1.366575881206378
 32
0.0
 13
56.33921156701489
 23
-1.366575881206378
 33
0.0
  0
SOLID
  5
322
330
1E
100
AcDbEntity
  8
METAL1
100
AcDbTrace
 10
15.42858940070952
 20
-1.284594263556454
 30
0.0
 11
13.22858940070952
 21
-1.284594263556454
 31
0.0
 12
15.42858940070952
 22
1.115405736443546
 32
0.0
 13
13.22858940070952
 23
1.115405736443546
 33
0.0
  0
SOLID
  5
323
330
1E
100
AcDbEntity
  8
METAL1
100
AcDbTrace
 10
18.37858940070952
 20
-0.9227942635564536
 30
0.0
 11
17.26098940070952
 21
-0.9227942635564536
 31
0.0
 12
18.37858940070952
 22
0.7536057364435465
 32
0.0
 13
17.26098940070952
 23
0.7536057364435465
 33
0.0
  0
LWPOLYLINE
  5
3AE
330
1E
100
AcDbEntity
  8
0
100
AcDbPolyline
 90
        4
 70
     1
 43
0.0
 10
-2.150105310194078
 20
19.03321894540792
 10
57.84989468980592
 20
19.03321894540792
 10
57.84989468980592
 20
-20.96678105459207
 10
-2.150105310194078
 20
-20.96678105459207
  0
DIMENSION
  5
3AF
330
1E
100
AcDbEntity
  8
0
100
AcDbDimension
  2
*D10
 10
57.85853165449139
 20
21.51573214096481
 30
0.0
 11
27.86174296609955
 21
21.51573214096481
 31
0.0
 70
    32
 71
     5
 42
59.99357737678366
  3
Standard
100
AcDbAlignedDimension
 13
-2.135045722292275
 23
19.41638736427367
 33
0.0
 14
57.85853165449139
 24
19.41638736427367
 34
0.0
100
AcDbRotatedDimension
1001
ACAD
1000
DSTYLE
1002
{
1070
   271
1070
     0
1002
}
  0
DIMENSION
  5
3B0
330
1E
100
AcDbEntity
  8
0
100
AcDbDimension
  2
*D11
 10
60.93871530578836
 20
18.99651836427215
 30
0.0
 11
60.93871530578836
 21
-0.9822464698212522
 31
0.0
 70
    32
 71
     5
 42
39.95752966818682
  3
Standard
100
AcDbAlignedDimension
 13
58.20855244309867
 23
-20.96101130391467
 33
0.0
 14
58.20855244309867
 24
18.99651836427215
 34
0.0
 50
90.0
100
AcDbRotatedDimension
1001
ACAD
1000
DSTYLE
1002
{
1070
   271
1070
     0
1002
}
  0
MTEXT
  5
54F
330
1E
100
AcDbEntity
  8
METAL1
370
    30
100
AcDbMText
 10
28.12529717802476
 20
14.29564601837889
 30
0.0
 40
1.199999999999999
 41
57.7028
 71
     5
 72
     5
  1
BFG135a ULTRA HI-DYNAMIC 50-70 MHz LNA\PYU1AW
 73
     1
 44
1.0
  0
SOLID
  5
560
330
1E
100
AcDbEntity
  8
METAL1
100
AcDbTrace
 10
-0.7081748273803044
 20
1.366958296571544
 30
0.0
 11
4.291825172619695
 21
1.366958296571544
 31
0.0
 12
-0.7081748273803044
 22
-1.333041703428454
 32
0.0
 13
4.291825172619695
 23
-1.333041703428454
 33
0.0
  0
SOLID
  5
5EC
330
1E
100
AcDbEntity
  8
CONSTR
100
AcDbTrace
 10
21.65475241119231
 20
3.243890833903968
 30
0.0
 11
25.15475241119231
 21
3.243890833903968
 31
0.0
 12
21.65475241119231
 22
3.193890833903971
 32
0.0
 13
25.15475241119231
 23
3.193890833903971
 33
0.0
  0
SOLID
  5
5ED
330
1E
100
AcDbEntity
  8
CONSTR
100
AcDbTrace
 10
25.17975241119231
 20
3.218890833903969
 30
0.0
 11
25.17975241119231
 21
-3.28110916609603
 31
0.0
 12
25.12975241119231
 22
3.218890833903969
 32
0.0
 13
25.12975241119231
 23
-3.28110916609603
 33
0.0
  0
SOLID
  5
5EE
330
1E
100
AcDbEntity
  8
CONSTR
100
AcDbTrace
 10
25.15475241119231
 20
-3.30610916609603
 30
0.0
 11
21.65475241119231
 21
-3.30610916609603
 31
0.0
 12
25.15475241119231
 22
-3.256109166096029
 32
0.0
 13
21.65475241119231
 23
-3.256109166096029
 33
0.0
  0
SOLID
  5
5EF
330
1E
100
AcDbEntity
  8
CONSTR
100
AcDbTrace
 10
21.62975241119231
 20
-3.28110916609603
 30
0.0
 11
21.62975241119231
 21
3.218890833903969
 31
0.0
 12
21.67975241119231
 22
-3.28110916609603
 32
0.0
 13
21.67975241119231
 23
3.218890833903969
 33
0.0
  0
SOLID
  5
5F0
330
1E
100
AcDbEntity
  8
CONSTR
100
AcDbTrace
 10
25.15475241119231
 20
1.468890833903969
 30
0.0
 11
26.75475241119231
 21
1.468890833903969
 31
0.0
 12
25.15475241119231
 22
-1.53110916609603
 32
0.0
 13
26.75475241119231
 23
-1.53110916609603
 33
0.0
  0
SOLID
  5
5F1
330
1E
100
AcDbEntity
  8
CONSTR
100
AcDbTrace
 10
21.65475241119231
 20
-2.631109166096031
 30
0.0
 11
20.05475241119231
 21
-2.631109166096031
 31
0.0
 12
21.65475241119231
 22
-2.03110916609603
 32
0.0
 13
20.05475241119231
 23
-2.03110916609603
 33
0.0
  0
SOLID
  5
5F2
330
1E
100
AcDbEntity
  8
CONSTR
100
AcDbTrace
 10
21.65475241119231
 20
-0.3311091660960308
 30
0.0
 11
20.05475241119231
 21
-0.3311091660960308
 31
0.0
 12
21.65475241119231
 22
0.2688908339039706
 32
0.0
 13
20.05475241119231
 23
0.2688908339039706
 33
0.0
  0
SOLID
  5
5F3
330
1E
100
AcDbEntity
  8
CONSTR
100
AcDbTrace
 10
21.65475241119231
 20
1.968890833903969
 30
0.0
 11
20.05475241119231
 21
1.968890833903969
 31
0.0
 12
21.65475241119231
 22
2.568890833903971
 32
0.0
 13
20.05475241119231
 23
2.568890833903971
 33
0.0
  0
SOLID
  5
5F4
330
1E
100
AcDbEntity
  8
CONSTR
100
AcDbTrace
 10
25.02975241119231
 20
3.793890833903969
 30
0.0
 11
26.62975241119231
 21
3.793890833903969
 31
0.0
 12
25.02975241119231
 22
3.743890833903968
 32
0.0
 13
26.62975241119231
 23
3.743890833903968
 33
0.0
  0
SOLID
  5
5F5
330
1E
100
AcDbEntity
  8
CONSTR
100
AcDbTrace
 10
25.00475241119231
 20
3.76889083390397
 30
0.0
 11
25.00475241119231
 21
6.968890833903969
 31
0.0
 12
25.05475241119231
 22
3.76889083390397
 32
0.0
 13
25.05475241119231
 23
6.968890833903969
 33
0.0
  0
SOLID
  5
5F6
330
1E
100
AcDbEntity
  8
CONSTR
100
AcDbTrace
 10
26.60475241119231
 20
3.76889083390397
 30
0.0
 11
26.60475241119231
 21
6.968890833903969
 31
0.0
 12
26.65475241119231
 22
3.76889083390397
 32
0.0
 13
26.65475241119231
 23
6.968890833903969
 33
0.0
  0
SOLID
  5
5F7
330
1E
100
AcDbEntity
  8
CONSTR
100
AcDbTrace
 10
25.02975241119231
 20
6.993890833903968
 30
0.0
 11
26.62975241119231
 21
6.993890833903968
 31
0.0
 12
25.02975241119231
 22
6.943890833903971
 32
0.0
 13
26.62975241119231
 23
6.943890833903971
 33
0.0
  0
SOLID
  5
5F8
330
1E
100
AcDbEntity
  8
CONSTR
100
AcDbTrace
 10
17.82475241119231
 20
0.5938908339039699
 30
0.0
 11
19.42475241119231
 21
0.5938908339039699
 31
0.0
 12
17.82475241119231
 22
0.5438908339039692
 32
0.0
 13
19.42475241119231
 23
0.5438908339039692
 33
0.0
  0
SOLID
  5
5F9
330
1E
100
AcDbEntity
  8
CONSTR
100
AcDbTrace
 10
17.79975241119231
 20
0.5688908339039714
 30
0.0
 11
17.79975241119231
 21
3.76889083390397
 31
0.0
 12
17.84975241119231
 22
0.5688908339039714
 32
0.0
 13
17.84975241119231
 23
3.76889083390397
 33
0.0
  0
SOLID
  5
5FA
330
1E
100
AcDbEntity
  8
CONSTR
100
AcDbTrace
 10
19.39975241119231
 20
0.5688908339039714
 30
0.0
 11
19.39975241119231
 21
3.76889083390397
 31
0.0
 12
19.44975241119231
 22
0.5688908339039714
 32
0.0
 13
19.44975241119231
 23
3.76889083390397
 33
0.0
  0
SOLID
  5
5FB
330
1E
100
AcDbEntity
  8
CONSTR
100
AcDbTrace
 10
17.82475241119231
 20
3.793890833903969
 30
0.0
 11
19.42475241119231
 21
3.793890833903969
 31
0.0
 12
17.82475241119231
 22
3.743890833903968
 32
0.0
 13
19.42475241119231
 23
3.743890833903968
 33
0.0
  0
SOLID
  5
5FC
330
1E
100
AcDbEntity
  8
CONSTR
100
AcDbTrace
 10
29.77975241119231
 20
0.7688908339039707
 30
0.0
 11
29.77975241119231
 21
-0.8311091660960308
 31
0.0
 12
29.72975241119231
 22
0.7688908339039707
 32
0.0
 13
29.72975241119231
 23
-0.8311091660960308
 33
0.0
  0
SOLID
  5
5FD
330
1E
100
AcDbEntity
  8
CONSTR
100
AcDbTrace
 10
29.75475241119231
 20
0.7938908339039692
 30
0.0
 11
32.9547524111923
 21
0.7938908339039692
 31
0.0
 12
29.75475241119231
 22
0.7438908339039685
 32
0.0
 13
32.9547524111923
 23
0.7438908339039685
 33
0.0
  0
SOLID
  5
5FE
330
1E
100
AcDbEntity
  8
CONSTR
100
AcDbTrace
 10
29.75475241119231
 20
-0.8061091660960286
 30
0.0
 11
32.9547524111923
 21
-0.8061091660960286
 31
0.0
 12
29.75475241119231
 22
-0.8561091660960293
 32
0.0
 13
32.9547524111923
 23
-0.8561091660960293
 33
0.0
  0
SOLID
  5
5FF
330
1E
100
AcDbEntity
  8
CONSTR
100
AcDbTrace
 10
32.97975241119231
 20
0.7688908339039707
 30
0.0
 11
32.97975241119231
 21
-0.8311091660960308
 31
0.0
 12
32.92975241119231
 22
0.7688908339039707
 32
0.0
 13
32.92975241119231
 23
-0.8311091660960308
 33
0.0
  0
LWPOLYLINE
  5
600
330
1E
100
AcDbEntity
  8
GND
100
AcDbPolyline
 90
        2
 70
     0
 43
0.2
 10
20.52475241119231
 20
1.868890833903968
 42
1.0
 10
20.52475241119231
 20
2.668890833903969
  0
LWPOLYLINE
  5
601
330
1E
100
AcDbEntity
  8
GND
100
AcDbPolyline
 90
        2
 70
     0
 43
0.2
 10
20.52475241119231
 20
2.668890833903969
 42
1.0
 10
20.52475241119231
 20
1.868890833903968
  0
SOLID
  5
602
330
1E
100
AcDbEntity
  8
CONSTR
100
AcDbTrace
 10
6.726399868697868
 20
-4.356109166096029
 30
0.0
 11
8.326399868697869
 21
-4.356109166096029
 31
0.0
 12
6.726399868697868
 22
-4.40610916609603
 32
0.0
 13
8.326399868697869
 23
-4.40610916609603
 33
0.0
  0
SOLID
  5
603
330
1E
100
AcDbEntity
  8
CONSTR
100
AcDbTrace
 10
6.701399868697869
 20
-4.381109166096029
 30
0.0
 11
6.701399868697869
 21
-1.181109166096028
 31
0.0
 12
6.751399868697866
 22
-4.381109166096029
 32
0.0
 13
6.751399868697866
 23
-1.181109166096028
 33
0.0
  0
SOLID
  5
604
330
1E
100
AcDbEntity
  8
CONSTR
100
AcDbTrace
 10
8.301399868697867
 20
-4.381109166096029
 30
0.0
 11
8.301399868697867
 21
-1.181109166096028
 31
0.0
 12
8.351399868697868
 22
-4.381109166096029
 32
0.0
 13
8.351399868697868
 23
-1.181109166096028
 33
0.0
  0
SOLID
  5
605
330
1E
100
AcDbEntity
  8
CONSTR
100
AcDbTrace
 10
6.695630509862311
 20
-1.15610916609603
 30
0.0
 11
8.295630509862313
 21
-1.15610916609603
 31
0.0
 12
6.695630509862311
 22
-1.20610916609603
 32
0.0
 13
8.295630509862313
 23
-1.20610916609603
 33
0.0
  0
LWPOLYLINE
  5
606
330
1E
100
AcDbEntity
  8
GND
100
AcDbPolyline
 90
        2
 70
     0
 43
0.2
 10
7.526399868697868
 20
-5.381109166096029
 42
1.0
 10
7.526399868697868
 20
-4.58110916609603
  0
LWPOLYLINE
  5
607
330
1E
100
AcDbEntity
  8
GND
100
AcDbPolyline
 90
        2
 70
     0
 43
0.2
 10
7.526399868697868
 20
-4.58110916609603
 42
1.0
 10
7.526399868697868
 20
-5.381109166096029
  0
LWPOLYLINE
  5
608
330
1E
100
AcDbEntity
  8
GND
100
AcDbPolyline
 90
        2
 70
     0
 43
0.2
 10
20.52750705193824
 20
-2.731996788372773
 42
1.0
 10
20.52750705193824
 20
-1.931996788372774
  0
LWPOLYLINE
  5
609
330
1E
100
AcDbEntity
  8
GND
100
AcDbPolyline
 90
        2
 70
     0
 43
0.2
 10
20.52750705193824
 20
-1.931996788372774
 42
1.0
 10
20.52750705193824
 20
-2.731996788372773
  0
SOLID
  5
60A
330
1E
100
AcDbEntity
  8
CONSTR
100
AcDbTrace
 10
17.94470732013819
 20
-0.9198806300552355
 30
0.0
 11
17.94470732013819
 21
0.6801193699447659
 31
0.0
 12
17.99470732013819
 22
-0.9198806300552355
 32
0.0
 13
17.99470732013819
 23
0.6801193699447659
 33
0.0
  0
SOLID
  5
60B
330
1E
100
AcDbEntity
  8
CONSTR
100
AcDbTrace
 10
17.9697073201382
 20
-0.9448806300552341
 30
0.0
 11
14.76970732013819
 21
-0.9448806300552341
 31
0.0
 12
17.9697073201382
 22
-0.8948806300552334
 32
0.0
 13
14.76970732013819
 23
-0.8948806300552334
 33
0.0
  0
SOLID
  5
60C
330
1E
100
AcDbEntity
  8
CONSTR
100
AcDbTrace
 10
17.9697073201382
 20
0.6551193699447638
 30
0.0
 11
14.76970732013819
 21
0.6551193699447638
 31
0.0
 12
17.9697073201382
 22
0.7051193699447645
 32
0.0
 13
14.76970732013819
 23
0.7051193699447645
 33
0.0
  0
SOLID
  5
60D
330
1E
100
AcDbEntity
  8
CONSTR
100
AcDbTrace
 10
14.74470732013819
 20
-0.9198806300552355
 30
0.0
 11
14.74470732013819
 21
0.6801193699447659
 31
0.0
 12
14.79470732013819
 22
-0.9198806300552355
 32
0.0
 13
14.79470732013819
 23
0.6801193699447659
 33
0.0
  0
MTEXT
  5
60E
330
1E
100
AcDbEntity
  8
CONSTR
100
AcDbMText
 10
3.245722220274473
 20
6.31016468250803
 30
0.0
 40
1.6
 41
10.6296
 71
     1
 72
     5
  1
Ant
 73
     1
 44
1.0
  0
MTEXT
  5
60F
330
1E
100
AcDbEntity
  8
CONSTR
100
AcDbMText
 10
47.56897186677032
 20
5.996453685818977
 30
0.0
 40
1.6
 41
8.2675
 71
     1
 72
     5
  1
Rx
 73
     1
 44
1.0
  0
MTEXT
  5
610
330
1E
100
AcDbEntity
  8
CONSTR
100
AcDbMText
 10
18.19456425870205
 20
1.362063508620224
 30
0.0
 40
0.6
 41
3.4054
 71
     1
 72
     5
  1
680
 11
0.0000000000000001
 21
1.0
 31
0.0
 73
     1
 44
1.0
  0
MTEXT
  5
611
330
1E
100
AcDbEntity
  8
CONSTR
100
AcDbMText
 10
30.15677777804194
 20
0.3293277490877386
 30
0.0
 40
0.6
 41
5.1303
 71
     1
 72
     5
  1
{\fTahoma|b0|i0|c0|p32;3\fTahoma|b0|i0|c238|p32;9}pF
 73
     1
 44
1.0
  0
MTEXT
  5
612
330
1E
100
AcDbEntity
  8
CONSTR
100
AcDbMText
 10
22.87925170210873
 20
-2.407423440827017
 30
0.0
 40
0.8
 41
4.462024804239632
 71
     1
 72
     5
  1
{\fTahoma|b0|i0|c0|p32;B\fTahoma|b0|i0|c238|p32;FG135a}
 11
0.0000000000000001
 21
1.0
 31
0.0
 73
     1
 44
1.0
  0
MTEXT
  5
613
330
1E
100
AcDbEntity
  8
CONSTR
100
AcDbMText
 10
25.23466618733591
 20
4.590767660950263
 30
0.0
 40
0.4
 41
2.770999999999999
 71
     1
 72
     5
  1
12k+\P1nF
 11
0.0000000000000001
 21
1.0
 31
0.0
 73
     1
 44
1.0
  0
MTEXT
  5
614
330
1E
100
AcDbEntity
  8
CONSTR
100
AcDbMText
 10
15.46101317579881
 20
0.3471002453818954
 30
0.0
 40
0.6
 41
5.1303
 71
     1
 72
     5
  1
150pF
 73
     1
 44
1.0
  0
MTEXT
  5
615
330
1E
100
AcDbEntity
  8
CONSTR
100
AcDbMText
 10
24.01642064208391
 20
-5.926869500920233
 30
0.0
 40
0.8
 41
13.3098
 71
     1
 72
     5
  1
n=7t.\PD=7mm\Pl=8mm\Pd=0.8mm\PCul
 73
     1
 44
1.0
  0
ARC
  5
616
330
1E
100
AcDbEntity
  8
CONSTR
  6
DASHED
100
AcDbCircle
 10
41.23614152569945
 20
-5.997361067061611
 30
0.0
 40
0.3234710754397226
100
AcDbArc
 50
269.9551739112651
 51
94.13412058758686
  0
ARC
  5
617
330
1E
100
AcDbEntity
  8
CONSTR
  6
DASHED
100
AcDbCircle
 10
30.69427390561492
 20
-6.343486514835854
 30
0.0
 40
0.3234710754397226
100
AcDbArc
 50
85.86587941241296
 51
270.0448260887347
  0
INSERT
  5
618
330
1E
100
AcDbEntity
  8
CONSTR
100
AcDbBlockReference
  2
A$C7F5B3850
 10
41.54961510719423
 20
-6.009973875799373
 30
0.0
 41
2.239673620774855
 42
2.239673620774855
 43
2.239673620774856
 50
90.0
  0
INSERT
  5
619
330
1E
100
AcDbEntity
  8
CONSTR
100
AcDbBlockReference
  2
A$C7F5B3850
 10
41.57920147796362
 20
-5.358833389705594
 30
0.0
 41
2.239673620774855
 42
2.239673620774855
 43
2.239673620774856
 50
90.0
  0
INSERT
  5
61A
330
1E
100
AcDbEntity
  8
CONSTR
100
AcDbBlockReference
  2
A$C7F5B3850
 10
41.57920147796362
 20
-4.707692066247291
 30
0.0
 41
2.239673620774855
 42
2.239673620774855
 43
2.239673620774856
 50
90.0
  0
ARC
  5
61B
330
1E
100
AcDbEntity
  8
CONSTR
  6
DASHED
100
AcDbCircle
 10
41.16271320012187
 20
-12.54140619128392
 30
0.0
 40
0.3234710754397226
100
AcDbArc
 50
269.9551739112651
 51
94.13412058758686
  0
ARC
  5
61C
330
1E
100
AcDbEntity
  8
CONSTR
  6
DASHED
100
AcDbCircle
 10
30.63770863134914
 20
-12.89501698546156
 30
0.0
 40
0.3234710754397226
100
AcDbArc
 50
85.86587941241296
 51
270.0448260887347
  0
LWPOLYLINE
  5
61D
330
1E
100
AcDbEntity
  8
CONSTR
100
AcDbPolyline
 90
        2
 70
     0
 43
0.0
 10
30.67924721621212
 20
-13.21264566988326
 10
41.13801396185922
 20
-12.87227626558791
  0
LWPOLYLINE
  5
61E
330
1E
100
AcDbEntity
  8
CONSTR
100
AcDbPolyline
 90
        2
 70
     0
 43
0.0
 10
30.66445431990937
 20
-12.57630308899128
 10
41.15280743632586
 20
-12.22113577949413
  0
INSERT
  5
61F
330
1E
100
AcDbEntity
  8
CONSTR
100
AcDbBlockReference
  2
A$C7F5B3850
 10
41.49304983292845
 20
-12.56150434642508
 30
0.0
 41
2.239673620774855
 42
2.239673620774855
 43
2.239673620774856
 50
90.0
  0
INSERT
  5
620
330
1E
100
AcDbEntity
  8
CONSTR
100
AcDbBlockReference
  2
A$C7F5B3850
 10
41.52263620369784
 20
-11.91036386033131
 30
0.0
 41
2.239673620774855
 42
2.239673620774855
 43
2.239673620774856
 50
90.0
  0
INSERT
  5
621
330
1E
100
AcDbEntity
  8
CONSTR
100
AcDbBlockReference
  2
A$C7F5B3850
 10
41.52263620369784
 20
-11.259222536873
 30
0.0
 41
2.239673620774855
 42
2.239673620774855
 43
2.239673620774856
 50
90.0
  0
INSERT
  5
622
330
1E
100
AcDbEntity
  8
CONSTR
100
AcDbBlockReference
  2
A$C7F5B3850
 10
41.53742967816447
 20
-10.5932824708485
 30
0.0
 41
2.239673620774855
 42
2.239673620774855
 43
2.239673620774856
 50
90.0
  0
INSERT
  5
623
330
1E
100
AcDbEntity
  8
CONSTR
100
AcDbBlockReference
  2
A$C7F5B3850
 10
41.52263620369784
 20
-9.92734240482401
 30
0.0
 41
2.239673620774855
 42
2.239673620774855
 43
2.239673620774856
 50
90.0
  0
ARC
  5
624
330
1E
100
AcDbEntity
  8
CONSTR
  6
DASHED
100
AcDbCircle
 10
41.17957625143366
 20
-8.606605494513352
 30
0.0
 40
0.3234710754397226
100
AcDbArc
 50
269.9551739112651
 51
94.13412058758693
  0
ARC
  5
625
330
1E
100
AcDbEntity
  8
CONSTR
  6
DASHED
100
AcDbCircle
 10
30.63770863134914
 20
-8.952730942287598
 30
0.0
 40
0.3234710754397226
100
AcDbArc
 50
85.86587941241287
 51
270.0448260887347
  0
LWPOLYLINE
  5
626
330
1E
100
AcDbEntity
  8
CONSTR
100
AcDbPolyline
 90
        2
 70
     0
 43
0.0
 10
30.67924721621212
 20
-9.270359626709291
 10
41.13801396185922
 20
-8.929990222413945
  0
LWPOLYLINE
  5
627
330
1E
100
AcDbEntity
  8
CONSTR
100
AcDbPolyline
 90
        2
 70
     0
 43
0.0
 10
30.66445431990937
 20
-8.63401704581731
 10
41.15280743632586
 20
-8.278849736320164
  0
INSERT
  5
628
330
1E
100
AcDbEntity
  8
CONSTR
100
AcDbBlockReference
  2
A$C7F5B3850
 10
41.49304983292845
 20
-8.619218303251116
 30
0.0
 41
2.239673620774855
 42
2.239673620774855
 43
2.239673620774856
 50
90.0
  0
INSERT
  5
629
330
1E
100
AcDbEntity
  8
CONSTR
100
AcDbBlockReference
  2
A$C7F5B3850
 10
41.52263620369784
 20
-7.968077817157336
 30
0.0
 41
2.239673620774855
 42
2.239673620774855
 43
2.239673620774856
 50
90.0
  0
INSERT
  5
62A
330
1E
100
AcDbEntity
  8
CONSTR
100
AcDbBlockReference
  2
A$C7F5B3850
 10
41.52263620369784
 20
-7.316936493699035
 30
0.0
 41
2.239673620774855
 42
2.239673620774855
 43
2.239673620774856
 50
90.0
  0
ARC
  5
62B
330
1E
100
AcDbEntity
  8
CONSTR
  6
DASHED
100
AcDbCircle
 10
41.2257318773988
 20
-3.35760427959677
 30
0.0
 40
0.3234710754397225
100
AcDbArc
 50
269.9551739112651
 51
94.13412058758687
  0
LWPOLYLINE
  5
62C
330
1E
100
AcDbEntity
  8
CONSTR
100
AcDbPolyline
 90
        2
 70
     0
 43
0.0
 10
30.72540284217726
 20
-4.021358411792707
 10
41.18416958782437
 20
-3.680989007497363
  0
LWPOLYLINE
  5
62D
330
1E
100
AcDbEntity
  8
CONSTR
100
AcDbPolyline
 90
        4
 70
     0
 43
0.0
 10
30.65447368934743
 20
-13.19985696511938
 10
42.28025884930184
 20
-13.7394250336915
 10
42.23873822266983
 20
-12.99233085933816
 10
39.58141585418981
 20
-12.95082562329415
  0
LWPOLYLINE
  5
62E
330
1E
100
AcDbEntity
  8
CONSTR
100
AcDbPolyline
 90
        4
 70
     0
 43
0.0
 10
41.15920106774945
 20
-3.03107510204181
 10
29.28429193238095
 20
-3.404622226437908
 10
29.24277130574894
 20
-4.027200692659221
 10
30.69599442379048
 20
-3.985695456615204
  0
SOLID
  5
62F
330
1E
100
AcDbEntity
  8
CONSTR
100
AcDbTrace
 10
48.29424463073895
 20
-14.55433335978925
 30
0.0
 11
48.29424463073895
 21
-12.95433335978925
 31
0.0
 12
48.34424463073895
 22
-14.55433335978925
 32
0.0
 13
48.34424463073895
 23
-12.95433335978925
 33
0.0
  0
SOLID
  5
630
330
1E
100
AcDbEntity
  8
CONSTR
100
AcDbTrace
 10
48.31924463073895
 20
-14.57933335978925
 30
0.0
 11
45.11924463073895
 21
-14.57933335978925
 31
0.0
 12
48.31924463073895
 22
-14.52933335978925
 32
0.0
 13
45.11924463073895
 23
-14.52933335978925
 33
0.0
  0
SOLID
  5
631
330
1E
100
AcDbEntity
  8
CONSTR
100
AcDbTrace
 10
48.31924463073895
 20
-12.97933335978926
 30
0.0
 11
45.11924463073895
 21
-12.97933335978926
 31
0.0
 12
48.31924463073895
 22
-12.92933335978925
 32
0.0
 13
45.11924463073895
 23
-12.92933335978925
 33
0.0
  0
SOLID
  5
632
330
1E
100
AcDbEntity
  8
CONSTR
100
AcDbTrace
 10
45.09424463073894
 20
-14.55433335978925
 30
0.0
 11
45.09424463073894
 21
-12.95433335978925
 31
0.0
 12
45.14424463073895
 22
-14.55433335978925
 32
0.0
 13
45.14424463073895
 23
-12.95433335978925
 33
0.0
  0
SOLID
  5
633
330
1E
100
AcDbEntity
  8
CONSTR
100
AcDbTrace
 10
49.71924463073895
 20
-14.37933335978925
 30
0.0
 11
48.11924463073895
 21
-14.37933335978925
 31
0.0
 12
49.71924463073895
 22
-14.32933335978925
 32
0.0
 13
48.11924463073895
 23
-14.32933335978925
 33
0.0
  0
SOLID
  5
634
330
1E
100
AcDbEntity
  8
CONSTR
100
AcDbTrace
 10
49.74424463073894
 20
-14.35433335978926
 30
0.0
 11
49.74424463073894
 21
-17.55433335978925
 31
0.0
 12
49.69424463073895
 22
-14.35433335978926
 32
0.0
 13
49.69424463073895
 23
-17.55433335978925
 33
0.0
  0
SOLID
  5
635
330
1E
100
AcDbEntity
  8
CONSTR
100
AcDbTrace
 10
48.14424463073895
 20
-14.35433335978926
 30
0.0
 11
48.14424463073895
 21
-17.55433335978925
 31
0.0
 12
48.09424463073895
 22
-14.35433335978926
 32
0.0
 13
48.09424463073895
 23
-17.55433335978925
 33
0.0
  0
SOLID
  5
636
330
1E
100
AcDbEntity
  8
CONSTR
100
AcDbTrace
 10
49.71924463073895
 20
-17.57933335978925
 30
0.0
 11
48.11924463073895
 21
-17.57933335978925
 31
0.0
 12
49.71924463073895
 22
-17.52933335978925
 32
0.0
 13
48.11924463073895
 23
-17.52933335978925
 33
0.0
  0
LWPOLYLINE
  5
637
330
1E
100
AcDbEntity
  8
GND
100
AcDbPolyline
 90
        2
 70
     0
 43
0.2
 10
48.91924463073895
 20
-18.55433335978925
 42
1.0
 10
48.91924463073895
 20
-17.75433335978925
  0
LWPOLYLINE
  5
638
330
1E
100
AcDbEntity
  8
GND
100
AcDbPolyline
 90
        2
 70
     0
 43
0.2
 10
48.91924463073895
 20
-17.75433335978925
 42
1.0
 10
48.91924463073895
 20
-18.55433335978925
  0
SOLID
  5
639
330
1E
100
AcDbEntity
  8
CONSTR
100
AcDbTrace
 10
45.31924463073894
 20
-14.37933335978925
 30
0.0
 11
43.71924463073894
 21
-14.37933335978925
 31
0.0
 12
45.31924463073894
 22
-14.32933335978925
 32
0.0
 13
43.71924463073894
 23
-14.32933335978925
 33
0.0
  0
SOLID
  5
63A
330
1E
100
AcDbEntity
  8
CONSTR
100
AcDbTrace
 10
45.34424463073895
 20
-14.35433335978926
 30
0.0
 11
45.34424463073895
 21
-17.55433335978925
 31
0.0
 12
45.29424463073894
 22
-14.35433335978926
 32
0.0
 13
45.29424463073894
 23
-17.55433335978925
 33
0.0
  0
SOLID
  5
63B
330
1E
100
AcDbEntity
  8
CONSTR
100
AcDbTrace
 10
43.74424463073895
 20
-14.35433335978926
 30
0.0
 11
43.74424463073895
 21
-17.55433335978925
 31
0.0
 12
43.69424463073895
 22
-14.35433335978926
 32
0.0
 13
43.69424463073895
 23
-17.55433335978925
 33
0.0
  0
SOLID
  5
63C
330
1E
100
AcDbEntity
  8
CONSTR
100
AcDbTrace
 10
45.31924463073894
 20
-17.57933335978925
 30
0.0
 11
43.71924463073894
 21
-17.57933335978925
 31
0.0
 12
45.31924463073894
 22
-17.52933335978925
 32
0.0
 13
43.71924463073894
 23
-17.52933335978925
 33
0.0
  0
LWPOLYLINE
  5
63D
330
1E
100
AcDbEntity
  8
GND
100
AcDbPolyline
 90
        2
 70
     0
 43
0.2
 10
44.51924463073895
 20
-18.55433335978925
 42
1.0
 10
44.51924463073895
 20
-17.75433335978925
  0
LWPOLYLINE
  5
63E
330
1E
100
AcDbEntity
  8
GND
100
AcDbPolyline
 90
        2
 70
     0
 43
0.2
 10
44.51924463073895
 20
-17.75433335978925
 42
1.0
 10
44.51924463073895
 20
-18.55433335978925
  0
INSERT
  5
63F
330
1E
100
AcDbEntity
  8
CONSTR
100
AcDbBlockReference
  2
elkon
 10
42.76607029912801
 20
-19.63323621687155
 30
0.0
  0
INSERT
  5
640
330
1E
100
AcDbEntity
  8
CONSTR
100
AcDbBlockReference
  2
elkon
 10
54.73559657502123
 20
-1.538788561791335
 30
0.0
 50
180.0
  0
INSERT
  5
641
330
1E
100
AcDbEntity
  8
CONSTR
100
AcDbBlockReference
  2
rfc
 10
78.87158226188137
 20
22.9635353635868
 30
0.0
 41
5.747672421525734
 42
5.747672421525731
 43
5.747672421525731
 50
180.0
  0
LWPOLYLINE
  5
642
330
1E
100
AcDbEntity
  8
CONSTR
100
AcDbPolyline
 90
        2
 70
     0
 43
0.0
 10
51.46479407498432
 20
-8.715144708449813
 10
51.58055467586697
 20
-9.333203625243605
  0
LWPOLYLINE
  5
643
330
1E
100
AcDbEntity
  8
CONSTR
100
AcDbPolyline
 90
        2
 70
     0
 43
0.0
 10
51.45664657690507
 20
-10.65873153428241
 10
50.99309221725729
 20
-10.62019885396028
  0
MTEXT
  5
644
330
1E
100
AcDbEntity
  8
CONSTR
100
AcDbMText
 10
45.6947201923901
 20
-7.784190480898971
 30
0.0
 40
0.6
 41
1.6775
 71
     1
 72
     5
  1
1uF
 73
     1
 44
1.0
  0
MTEXT
  5
645
330
1E
100
AcDbEntity
  8
CONSTR
100
AcDbMText
 10
47.77092256938469
 20
-5.211249012846579
 30
0.0
 40
0.6
 41
2.423099999999999
 71
     1
 72
     5
  1
10uH
 11
0.0000000000000001
 21
1.0
 31
0.0
 73
     1
 44
1.0
  0
MTEXT
  5
646
330
1E
100
AcDbEntity
  8
CONSTR
100
AcDbMText
 10
53.78935406114979
 20
-9.198194760670972
 30
0.0
 40
0.5999999999999999
 41
3.075399999999999
 71
     1
 72
     5
  1
78L10
 11
0.0031168054897741
 21
-0.999995142749973
 31
0.0
 73
     1
 44
1.0
  0
INSERT
  5
647
330
1E
100
AcDbEntity
  8
CONSTR
100
AcDbBlockReference
  2
tri
 10
51.89926611778165
 20
-21.80408829890394
 30
0.0
 50
44.99999999999989
  0
LWPOLYLINE
  5
648
330
1E
100
AcDbEntity
  8
CONSTR
100
AcDbPolyline
 90
        2
 70
     0
 43
0.0
 10
51.57086837045596
 20
-12.10202988891372
 10
51.76415757207509
 20
-11.44527573188149
  0
LWPOLYLINE
  5
649
330
1E
100
AcDbEntity
  8
CONSTR
100
AcDbPolyline
 90
        2
 70
     0
 43
0.0
 10
51.59760261159168
 20
-9.36348388966752
 10
51.71336321247434
 20
-9.981542806461312
  0
LWPOLYLINE
  5
64A
330
1E
100
AcDbEntity
  8
GND
100
AcDbPolyline
 90
        2
 70
     0
 43
0.2
 10
49.75913676845246
 20
-10.99199243287737
 42
1.0
 10
49.75913676845246
 20
-10.19199243287737
  0
LWPOLYLINE
  5
64B
330
1E
100
AcDbEntity
  8
GND
100
AcDbPolyline
 90
        2
 70
     0
 43
0.2
 10
49.75913676845246
 20
-10.19199243287737
 42
1.0
 10
49.75913676845246
 20
-10.99199243287737
  0
LWPOLYLINE
  5
64C
330
1E
100
AcDbEntity
  8
CONSTR
100
AcDbPolyline
 90
        2
 70
     0
 43
0.0
 10
51.41125973162462
 20
-12.65667425522948
 10
51.60454893324375
 20
-11.99992009819726
  0
LWPOLYLINE
  5
64D
330
1E
100
AcDbEntity
  8
CONSTR
100
AcDbPolyline
 90
        2
 70
     0
 43
0.0
 10
51.20572157952988
 20
-13.18121516571572
 10
51.39901078114902
 20
-12.5244610086835
  0
LWPOLYLINE
  5
64E
330
1E
100
AcDbEntity
  8
CONSTR
100
AcDbPolyline
 90
        2
 70
     0
 43
0.0
 10
51.32678926776785
 20
-8.158109124788722
 10
51.4425498686505
 20
-8.776168041582515
  0
MTEXT
  5
64F
330
1E
100
AcDbEntity
  8
CONSTR
100
AcDbMText
 10
46.10027709842514
 20
-13.2806584686185
 30
0.0
 40
0.6
 41
3.8919
 71
     1
 72
     5
  1
33
 73
     1
 44
1.0
  0
MTEXT
  5
650
330
1E
100
AcDbEntity
  8
CONSTR
100
AcDbMText
 10
44.15306153131282
 20
-16.66193097238582
 30
0.0
 40
0.6
 41
5.9263
 71
     1
 72
     5
  1
1nF
 11
0.0000000000000001
 21
1.0
 31
0.0
 73
     1
 44
1.0
  0
MTEXT
  5
651
330
1E
100
AcDbEntity
  8
CONSTR
100
AcDbMText
 10
48.61840864540292
 20
-16.85601870981718
 30
0.0
 40
0.6
 41
5.8379
 71
     1
 72
     5
  1
20nF
 11
0.0000000000000001
 21
1.0
 31
0.0
 73
     1
 44
1.0
  0
MTEXT
  5
652
330
1E
100
AcDbEntity
  8
CONSTR
100
AcDbMText
 10
45.88408309575919
 20
-11.10339563913851
 30
0.0
 40
0.6
 41
1.6775
 71
     1
 72
     5
  1
1uF
 73
     1
 44
1.0
  0
LWPOLYLINE
  5
653
330
1E
100
AcDbEntity
  8
CONSTR
100
AcDbPolyline
 90
        2
 70
     0
 43
0.0
 10
49.34182425804561
 20
-5.308360922484581
 10
49.34182425804561
 20
-8.016645630065426
  0
LWPOLYLINE
  5
654
330
1E
100
AcDbEntity
  8
CONSTR
100
AcDbPolyline
 90
        2
 70
     0
 43
0.0
 10
49.2841797327285
 20
-2.830568489263583
 10
49.2841797327285
 20
0.194643225830049
  0
LWPOLYLINE
  5
655
330
1E
100
AcDbEntity
  8
CONSTR
100
AcDbPolyline
 90
        2
 70
     0
 43
0.0
 10
6.847190709658907
 20
0.0333022732182116
 10
7.363686921408108
 20
3.301720469035497
  0
LWPOLYLINE
  5
656
330
1E
100
AcDbEntity
  8
CONSTR
100
AcDbPolyline
 90
        2
 70
     0
 43
0.0
 10
8.709415323341394
 20
-0.1224059164403499
 10
9.233532545132025
 20
3.168123335662727
  0
LWPOLYLINE
  5
657
330
1E
100
AcDbEntity
  8
CONSTR
100
AcDbPolyline
 90
        2
 70
     0
 43
0.0
 10
7.300800433501221
 20
3.160066949967852
 10
8.226901282162705
 20
-3.277028223540021
  0
LWPOLYLINE
  5
658
330
1E
100
AcDbEntity
  8
CONSTR
100
AcDbPolyline
 90
        2
 70
     0
 43
0.0
 10
8.243007278294577
 20
3.152010564272956
 10
9.161054984340614
 20
-3.293140994929792
  0
ARC
  5
659
330
1E
100
AcDbEntity
  8
CONSTR
100
AcDbCircle
 10
7.771168738158166
 20
3.155341356731039
 30
0.0
 40
0.473891479268278
100
AcDbArc
 50
356.5051155470028
 51
183.4948844529971
  0
ARC
  5
65A
330
1E
100
AcDbEntity
  8
CONSTR
100
AcDbCircle
 10
9.70903083176503
 20
3.144125492409372
 30
0.0
 40
0.473891479268278
100
AcDbArc
 50
357.8628392357289
 51
2.662741806488529
  0
LWPOLYLINE
  5
65B
330
1E
100
AcDbEntity
  8
CONSTR
100
AcDbPolyline
 90
        4
 70
     1
 43
0.0
 10
12.19067474142498
 20
3.586015839921927
 10
12.19067474142498
 20
3.586015839921927
 10
12.19067474142498
 20
3.586015839921927
 10
12.19067474142498
 20
3.586015839921927
  0
LWPOLYLINE
  5
65C
330
1E
100
AcDbEntity
  8
CONSTR
100
AcDbPolyline
 90
        2
 70
     0
 43
0.0
 10
9.161054984340614
 20
-3.260915234961892
 10
9.677551196089815
 20
0.0075029608553905
  0
ARC
  5
65D
330
1E
100
AcDbEntity
  8
CONSTR
100
AcDbCircle
 10
8.691400364453961
 20
-3.263605223560496
 30
0.0
 40
0.473891479268278
100
AcDbArc
 50
180.6813662363378
 51
359.3186337636621
  0
LWPOLYLINE
  5
65E
330
1E
100
AcDbEntity
  8
CONSTR
100
AcDbPolyline
 90
        2
 70
     0
 43
0.0
 10
9.258976581065709
 20
3.198494862996586
 10
10.18507728517766
 20
-3.206374333355029
  0
LWPOLYLINE
  5
65F
330
1E
100
AcDbEntity
  8
CONSTR
100
AcDbPolyline
 90
        2
 70
     0
 43
0.0
 10
12.60837643605307
 20
-0.0598086291385869
 10
13.1324936578437
 20
3.230720622964483
  0
LWPOLYLINE
  5
660
330
1E
100
AcDbEntity
  8
CONSTR
100
AcDbPolyline
 90
        2
 70
     0
 43
0.0
 10
10.67690985960507
 20
-0.0940286317034307
 10
11.1997615462129
 20
3.214607851574719
  0
LWPOLYLINE
  5
661
330
1E
100
AcDbEntity
  8
CONSTR
100
AcDbPolyline
 90
        2
 70
     0
 43
0.0
 10
11.13533712803693
 20
-3.206374333355029
 10
10.19313028324358
 20
3.190438477301711
  0
LWPOLYLINE
  5
662
330
1E
100
AcDbEntity
  8
CONSTR
100
AcDbPolyline
 90
        2
 70
     0
 43
0.0
 10
11.1997615462129
 20
3.222664237269611
 10
12.12586239487438
 20
-3.214430936238265
  0
LWPOLYLINE
  5
663
330
1E
100
AcDbEntity
  8
CONSTR
100
AcDbPolyline
 90
        2
 70
     0
 43
0.0
 10
12.14196839100625
 20
3.214607851574719
 10
13.06001609705229
 20
-3.230543707628036
  0
ARC
  5
664
330
1E
100
AcDbEntity
  8
CONSTR
100
AcDbCircle
 10
9.727197941633171
 20
3.189467570361458
 30
0.0
 40
0.473891479268278
100
AcDbArc
 50
359.9495733215438
 51
180.0504266784561
  0
ARC
  5
665
330
1E
100
AcDbEntity
  8
CONSTR
100
AcDbCircle
 10
11.67012985086984
 20
3.217938644032795
 30
0.0
 40
0.473891479268278
100
AcDbArc
 50
356.5051155470028
 51
183.4948844529971
  0
LWPOLYLINE
  5
666
330
1E
100
AcDbEntity
  8
CONSTR
100
AcDbPolyline
 90
        2
 70
     0
 43
0.0
 10
11.13533712803693
 20
-3.206374333355029
 10
11.65094120246101
 20
0.0866273879164261
  0
ARC
  5
667
330
1E
100
AcDbEntity
  8
CONSTR
100
AcDbCircle
 10
10.65858854864971
 20
-3.201007936258744
 30
0.0
 40
0.473891479268278
100
AcDbArc
 50
180.6813662363378
 51
359.3186337636621
  0
LWPOLYLINE
  5
668
330
1E
100
AcDbEntity
  8
CONSTR
100
AcDbPolyline
 90
        2
 70
     0
 43
0.0
 10
13.06001609705229
 20
-3.198317947660136
 10
13.57651230880149
 20
0.07010024815715
  0
ARC
  5
669
330
1E
100
AcDbEntity
  8
CONSTR
100
AcDbCircle
 10
12.59036147716564
 20
-3.201007936258744
 30
0.0
 40
0.473891479268278
100
AcDbArc
 50
180.6813662363378
 51
359.3186337636621
  0
LWPOLYLINE
  5
66A
330
1E
100
AcDbEntity
  8
CONSTR
100
AcDbPolyline
 90
        2
 70
     0
 43
0.0
 10
13.11906867006725
 20
3.266996765000587
 10
13.69960196484804
 20
-0.7681448454353906
  0
LWPOLYLINE
  5
66B
330
1E
100
AcDbEntity
  8
CONSTR
100
AcDbPolyline
 90
        2
 70
     0
 43
0.0
 10
14.06127551486061
 20
3.258940379305691
 10
14.63470297908004
 20
-0.7668056584696715
  0
ARC
  5
66C
330
1E
100
AcDbEntity
  8
CONSTR
100
AcDbCircle
 10
13.5894369747242
 20
3.262271171763771
 30
0.0
 40
0.473891479268278
100
AcDbArc
 50
356.5051155470028
 51
183.4948844529971
  0
ARC
  5
66D
330
1E
100
AcDbEntity
  8
CONSTR
100
AcDbCircle
 10
14.19966914111554
 20
-0.6566197553655045
 30
0.0
 40
0.473891479268278
100
AcDbArc
 50
180.6813662363378
 51
359.3186337636621
  0
MTEXT
  5
66E
330
1E
100
AcDbEntity
  8
CONSTR
100
AcDbMText
 10
10.18348570735527
 20
-4.690438280608475
 30
0.0
 40
0.8
 41
13.3098
 71
     1
 72
     5
  1
n=4t.\PD=8mm\Pl=6mm\Pd=1mm \PCuAg
 73
     1
 44
1.0
  0
MTEXT
  5
66F
330
1E
100
AcDbEntity
  8
CONSTR
100
AcDbMText
 10
12.60463077281866
 20
6.327945240173718
 30
0.0
 40
1.199999999999999
 41
3.8612
 71
     1
 72
     5
  1
L
 73
     1
 44
1.0
  0
MTEXT
  5
670
330
1E
100
AcDbEntity
  8
CONSTR
100
AcDbMText
 10
7.199542090800562
 20
-3.847758908021873
 30
0.0
 40
0.6
 41
3.4054
 71
     1
 72
     5
  1
82pF
 11
0.0000000000000001
 21
1.0
 31
0.0
 73
     1
 44
1.0
  0
ENDSEC
  0
SECTION
  2
OBJECTS
  0
DICTIONARY
  5
C
330
0
100
AcDbDictionary
281
     1
  3
ACAD_GROUP
350
D
  3
ACAD_LAYOUT
350
19
  3
ACAD_MLINESTYLE
350
16
  3
ACAD_PLOTSETTINGS
350
18
  3
ACAD_PLOTSTYLENAME
350
E
  3
AcDbVariableDictionary
350
13B
  0
DICTIONARY
  5
12F
330
1E
100
AcDbDictionary
280
     1
281
     1
  3
ACAD_SORTENTS
360
130
  0
DICTIONARY
  5
D
102
{ACAD_REACTORS
330
C
102
}
330
C
100
AcDbDictionary
281
     1
  0
DICTIONARY
  5
19
102
{ACAD_REACTORS
330
C
102
}
330
C
100
AcDbDictionary
281
     1
  3
Layout1
350
1D
  3
Model
350
21
  0
DICTIONARY
  5
16
102
{ACAD_REACTORS
330
C
102
}
330
C
100
AcDbDictionary
281
     1
  3
Standard
350
17
  0
DICTIONARY
  5
18
102
{ACAD_REACTORS
330
C
102
}
330
C
100
AcDbDictionary
281
     1
  0
ACDBDICTIONARYWDFLT
  5
E
102
{ACAD_REACTORS
330
C
102
}
330
C
100
AcDbDictionary
281
     1
  3
Normal
350
F
100
AcDbDictionaryWithDefault
340
F
  0
DICTIONARY
  5
13B
102
{ACAD_REACTORS
330
C
102
}
330
C
100
AcDbDictionary
281
     1
  3
DIMASSOC
350
13D
  3
SORTENTS
350
13C
  0
SORTENTSTABLE
  5
130
102
{ACAD_REACTORS
330
12F
102
}
330
12F
100
AcDbSortentsTable
330
1E
331
25
  5
11B
331
55
  5
3F
331
50D
  5
50E
331
29A
  5
CE
331
4D6
  5
4D7
331
515
  5
516
331
2A2
  5
F0
331
4DE
  5
4DF
331
4E6
  5
4E7
331
4AF
  5
4B0
331
85
  5
58
331
2AA
  5
113
331
8D
  5
6A
331
52D
  5
52E
331
4EE
  5
4EF
331
4B7
  5
4B8
331
95
  5
6E
331
3B0
  5
139
331
535
  5
536
331
4F6
  5
4F7
331
4BF
  5
4C0
331
53D
  5
53E
331
4FE
  5
4FF
331
4C7
  5
4C8
331
545
  5
546
331
506
  5
507
331
4CF
  5
4D0
331
26
  5
25
331
56
  5
40
331
50E
  5
50F
331
29B
  5
CF
331
4D7
  5
4D8
331
516
  5
52B
331
2A3
  5
F1
331
4DF
  5
4E0
331
4E7
  5
4E8
331
86
  5
5C
331
2AB
  5
114
331
4B0
  5
4B1
331
8E
  5
6B
331
52E
  5
52F
331
4EF
  5
4F0
331
96
  5
6F
331
4B8
  5
4B9
331
536
  5
537
331
4F7
  5
4F8
331
322
  5
116
331
4C0
  5
4C1
331
53E
  5
53F
331
4FF
  5
500
331
4C8
  5
4C9
331
546
  5
547
331
507
  5
508
331
294
  5
9C
331
4D0
  5
4D1
331
57
  5
41
331
50F
  5
510
331
29C
  5
D0
331
4D8
  5
4D9
331
2A4
  5
F5
331
4E0
  5
4E1
331
4E8
  5
4E9
331
4B1
  5
4B2
331
8F
  5
6C
331
116
  5
2E
331
52F
  5
530
331
4F0
  5
4F1
331
97
  5
95
331
4B9
  5
4BA
331
537
  5
538
331
4F8
  5
4F9
331
323
  5
117
331
4C1
  5
4C2
331
53F
  5
540
331
500
  5
501
331
4C9
  5
4CA
331
547
  5
548
331
508
  5
509
331
295
  5
9D
331
4D1
  5
4D2
331
58
  5
42
331
510
  5
511
331
54F
  5
4AE
331
29D
  5
D1
331
4D9
  5
4DA
331
70
  5
43
331
2A5
  5
F9
331
4E1
  5
4E2
331
4E9
  5
4EA
331
117
  5
9A
331
4B2
  5
4B3
331
90
  5
6D
331
530
  5
531
331
4F1
  5
4F2
331
11F
  5
9B
331
4BA
  5
4BB
331
538
  5
539
331
4F9
  5
4FA
331
4C2
  5
4C3
331
540
  5
541
331
501
  5
502
331
4CA
  5
4CB
331
F0
  5
97
331
548
  5
54F
331
509
  5
50A
331
296
  5
9E
331
4D2
  5
4D3
331
511
  5
512
331
29E
  5
D5
331
4DA
  5
4DB
331
71
  5
44
331
2A6
  5
FD
331
4E2
  5
4E3
331
110
  5
26
331
4EA
  5
4EB
331
4B3
  5
4B4
331
531
  5
532
331
4F2
  5
4F3
331
4BB
  5
4BC
331
539
  5
53A
331
4FA
  5
4FB
331
128
  5
11F
331
4C3
  5
4C4
331
541
  5
542
331
502
  5
503
331
4CB
  5
4CC
331
F1
  5
98
331
50A
  5
50B
331
297
  5
9F
331
4D3
  5
4D4
331
F9
  5
99
331
512
  5
513
331
29F
  5
D9
331
4DB
  5
4DC
331
72
  5
45
331
2A7
  5
110
331
4E3
  5
4E4
331
111
  5
2D
331
4EB
  5
4EC
331
4B4
  5
4B5
331
532
  5
533
331
4F3
  5
4F4
331
4BC
  5
4BD
331
53A
  5
53B
331
4FB
  5
4FC
331
129
  5
123
331
4C4
  5
4C5
331
542
  5
543
331
503
  5
504
331
4CC
  5
4CD
331
23
  5
23
331
50B
  5
50C
331
298
  5
A0
331
4D4
  5
4D5
331
513
  5
514
331
2A0
  5
DD
331
4DC
  5
4DD
331
73
  5
55
331
4E4
  5
4E5
331
83
  5
56
331
2A8
  5
111
331
8B
  5
68
331
52B
  5
52D
331
4EC
  5
4ED
331
4B5
  5
4B6
331
2D8
  5
115
331
3AE
  5
12B
331
533
  5
534
331
4F4
  5
4F5
331
4BD
  5
4BE
331
53B
  5
53C
331
4FC
  5
4FD
331
12A
  5
128
331
4C5
  5
4C6
331
543
  5
545
331
504
  5
505
331
4CD
  5
4CE
331
24
  5
24
331
50C
  5
50D
331
299
  5
CD
331
4D5
  5
4D6
331
514
  5
515
331
2A1
  5
E4
331
4DD
  5
4DE
331
4E5
  5
4E6
331
4AE
  5
4AF
331
84
  5
57
331
2A9
  5
112
331
8C
  5
69
331
4ED
  5
4EE
331
4B6
  5
4B7
331
3AF
  5
138
331
534
  5
535
331
4F5
  5
4F6
331
9C
  5
96
331
4BE
  5
4BF
331
53C
  5
53D
331
4FD
  5
4FE
331
12B
  5
129
331
4C6
  5
4C7
331
505
  5
506
331
4CE
  5
4CF
  0
LAYOUT
  5
1D
102
{ACAD_REACTORS
330
19
102
}
330
19
100
AcDbPlotSettings
  1

  2
E:\ACAD2000\plotters\HP LaserJet 5L.pc3
  4

  6

 40
0.0
 41
0.0
 42
0.0
 43
0.0
 44
0.0
 45
0.0
 46
0.0
 47
0.0
 48
0.0
 49
0.0
140
0.0
141
0.0
142
1.0
143
1.0
 70
   688
 72
     0
 73
     0
 74
     5
  7
acad.stb
 75
    16
147
1.0
148
0.0
149
0.0
100
AcDbLayout
  1
Layout1
 70
     1
 71
     1
 10
0.0
 20
0.0
 11
12.0
 21
9.0
 12
0.0
 22
0.0
 32
0.0
 14
1.000000000000000E+20
 24
1.000000000000000E+20
 34
1.000000000000000E+20
 15
-1.000000000000000E+20
 25
-1.000000000000000E+20
 35
-1.000000000000000E+20
146
0.0
 13
0.0
 23
0.0
 33
0.0
 16
1.0
 26
0.0
 36
0.0
 17
0.0
 27
1.0
 37
0.0
 76
     0
330
1A
  0
LAYOUT
  5
21
102
{ACAD_REACTORS
330
19
102
}
330
19
100
AcDbPlotSettings
  1

  2
E:\ACAD2000\plotters\HP LaserJet 5L.pc3
  4

  6

 40
0.0
 41
0.0
 42
0.0
 43
0.0
 44
0.0
 45
0.0
 46
0.0
 47
0.0
 48
0.0
 49
0.0
140
0.0
141
0.0
142
1.0
143
1.0
 70
  1712
 72
     0
 73
     0
 74
     0
  7
acad.stb
 75
     0
147
1.0
148
0.0
149
0.0
100
AcDbLayout
  1
Model
 70
     1
 71
     0
 10
0.0
 20
0.0
 11
12.0
 21
9.0
 12
0.0
 22
0.0
 32
0.0
 14
0.0
 24
0.0
 34
0.0
 15
0.0
 25
0.0
 35
0.0
146
0.0
 13
0.0
 23
0.0
 33
0.0
 16
1.0
 26
0.0
 36
0.0
 17
0.0
 27
1.0
 37
0.0
 76
     0
330
1E
  0
MLINESTYLE
  5
17
102
{ACAD_REACTORS
330
16
102
}
330
16
100
AcDbMlineStyle
  2
STANDARD
 70
     0
  3

 62
   256
 51
90.0
 52
90.0
 71
     2
 49
0.5
 62
   256
  6
BYLAYER
 49
-0.5
 62
   256
  6
BYLAYER
  0
ACDBPLACEHOLDER
  5
F
102
{ACAD_REACTORS
330
E
102
}
330
E
  0
DICTIONARYVAR
  5
13D
102
{ACAD_REACTORS
330
13B
102
}
330
13B
100
DictionaryVariables
280
     0
  1
1
  0
DICTIONARYVAR
  5
13C
102
{ACAD_REACTORS
330
13B
102
}
330
13B
100
DictionaryVariables
280
     0
  1
127
  0
ENDSEC
  0
EOF
