  0
SECTION
  2
HEADER
  9
$ACADVER
  1
AC1015
  9
$ACADMAINTVER
 70
    13
  9
$DWGCODEPAGE
  3
ANSI_1252
  9
$INSBASE
 10
0.0
 20
0.0
 30
0.0
  9
$EXTMIN
 10
-7.572070875951538
 20
-24.91818662641097
 30
0.0
  9
$EXTMAX
 10
55.56537632958319
 20
18.50159041493304
 30
0.0
  9
$LIMMIN
 10
0.0
 20
0.0
  9
$LIMMAX
 10
12.0
 20
9.0
  9
$ORTHOMODE
 70
     0
  9
$REGENMODE
 70
     1
  9
$FILLMODE
 70
     1
  9
$QTEXTMODE
 70
     0
  9
$MIRRTEXT
 70
     1
  9
$LTSCALE
 40
1.0
  9
$ATTMODE
 70
     1
  9
$TEXTSIZE
 40
0.2
  9
$TRACEWID
 40
0.05
  9
$TEXTSTYLE
  7
Standard
  9
$CLAYER
  8
METAL1
  9
$CELTYPE
  6
ByLayer
  9
$CECOLOR
 62
   256
  9
$CELTSCALE
 40
1.0
  9
$DISPSILH
 70
     0
  9
$DIMSCALE
 40
1.0
  9
$DIMASZ
 40
1.0
  9
$DIMEXO
 40
0.0625
  9
$DIMDLI
 40
0.38
  9
$DIMRND
 40
0.0
  9
$DIMDLE
 40
0.0
  9
$DIMEXE
 40
0.18
  9
$DIMTP
 40
0.0
  9
$DIMTM
 40
0.0
  9
$DIMTXT
 40
0.18
  9
$DIMCEN
 40
0.09
  9
$DIMTSZ
 40
0.0
  9
$DIMTOL
 70
     0
  9
$DIMLIM
 70
     0
  9
$DIMTIH
 70
     1
  9
$DIMTOH
 70
     1
  9
$DIMSE1
 70
     0
  9
$DIMSE2
 70
     0
  9
$DIMTAD
 70
     0
  9
$DIMZIN
 70
     0
  9
$DIMBLK
  1

  9
$DIMASO
 70
     1
  9
$DIMSHO
 70
     1
  9
$DIMPOST
  1

  9
$DIMAPOST
  1

  9
$DIMALT
 70
     0
  9
$DIMALTD
 70
     2
  9
$DIMALTF
 40
25.4
  9
$DIMLFAC
 40
1.0
  9
$DIMTOFL
 70
     0
  9
$DIMTVP
 40
0.0
  9
$DIMTIX
 70
     0
  9
$DIMSOXD
 70
     0
  9
$DIMSAH
 70
     0
  9
$DIMBLK1
  1

  9
$DIMBLK2
  1

  9
$DIMSTYLE
  2
Standard
  9
$DIMCLRD
 70
     0
  9
$DIMCLRE
 70
     0
  9
$DIMCLRT
 70
     0
  9
$DIMTFAC
 40
1.0
  9
$DIMGAP
 40
0.09
  9
$DIMJUST
 70
     0
  9
$DIMSD1
 70
     0
  9
$DIMSD2
 70
     0
  9
$DIMTOLJ
 70
     1
  9
$DIMTZIN
 70
     0
  9
$DIMALTZ
 70
     0
  9
$DIMALTTZ
 70
     0
  9
$DIMUPT
 70
     0
  9
$DIMDEC
 70
     4
  9
$DIMTDEC
 70
     4
  9
$DIMALTU
 70
     2
  9
$DIMALTTD
 70
     2
  9
$DIMTXSTY
  7
Standard
  9
$DIMAUNIT
 70
     0
  9
$DIMADEC
 70
     0
  9
$DIMALTRND
 40
0.0
  9
$DIMAZIN
 70
     0
  9
$DIMDSEP
 70
    46
  9
$DIMATFIT
 70
     3
  9
$DIMFRAC
 70
     0
  9
$DIMLDRBLK
  1

  9
$DIMLUNIT
 70
     2
  9
$DIMLWD
 70
    -2
  9
$DIMLWE
 70
    -2
  9
$DIMTMOVE
 70
     0
  9
$LUNITS
 70
     2
  9
$LUPREC
 70
     4
  9
$SKETCHINC
 40
0.1
  9
$FILLETRAD
 40
0.0
  9
$AUNITS
 70
     0
  9
$AUPREC
 70
     0
  9
$MENU
  1
.
  9
$ELEVATION
 40
0.0
  9
$PELEVATION
 40
0.0
  9
$THICKNESS
 40
0.0
  9
$LIMCHECK
 70
     0
  9
$CHAMFERA
 40
0.0
  9
$CHAMFERB
 40
0.0
  9
$CHAMFERC
 40
0.0
  9
$CHAMFERD
 40
0.0
  9
$SKPOLY
 70
     0
  9
$TDCREATE
 40
2451867.616822338
  9
$TDUCREATE
 40
2451867.533489004
  9
$TDUPDATE
 40
2452548.447031447
  9
$TDUUPDATE
 40
2452548.363698113
  9
$TDINDWG
 40
0.1553202778
  9
$TDUSRTIMER
 40
0.1553202778
  9
$USRTIMER
 70
     1
  9
$ANGBASE
 50
0.0
  9
$ANGDIR
 70
     0
  9
$PDMODE
 70
     0
  9
$PDSIZE
 40
0.0
  9
$PLINEWID
 40
0.0
  9
$SPLFRAME
 70
     0
  9
$SPLINETYPE
 70
     6
  9
$SPLINESEGS
 70
     8
  9
$HANDSEED
  5
964
  9
$SURFTAB1
 70
     6
  9
$SURFTAB2
 70
     6
  9
$SURFTYPE
 70
     6
  9
$SURFU
 70
     6
  9
$SURFV
 70
     6
  9
$UCSBASE
  2

  9
$UCSNAME
  2

  9
$UCSORG
 10
0.0
 20
0.0
 30
0.0
  9
$UCSXDIR
 10
1.0
 20
0.0
 30
0.0
  9
$UCSYDIR
 10
0.0
 20
1.0
 30
0.0
  9
$UCSORTHOREF
  2

  9
$UCSORTHOVIEW
 70
     0
  9
$UCSORGTOP
 10
0.0
 20
0.0
 30
0.0
  9
$UCSORGBOTTOM
 10
0.0
 20
0.0
 30
0.0
  9
$UCSORGLEFT
 10
0.0
 20
0.0
 30
0.0
  9
$UCSORGRIGHT
 10
0.0
 20
0.0
 30
0.0
  9
$UCSORGFRONT
 10
0.0
 20
0.0
 30
0.0
  9
$UCSORGBACK
 10
0.0
 20
0.0
 30
0.0
  9
$PUCSBASE
  2

  9
$PUCSNAME
  2

  9
$PUCSORG
 10
0.0
 20
0.0
 30
0.0
  9
$PUCSXDIR
 10
1.0
 20
0.0
 30
0.0
  9
$PUCSYDIR
 10
0.0
 20
1.0
 30
0.0
  9
$PUCSORTHOREF
  2

  9
$PUCSORTHOVIEW
 70
     0
  9
$PUCSORGTOP
 10
0.0
 20
0.0
 30
0.0
  9
$PUCSORGBOTTOM
 10
0.0
 20
0.0
 30
0.0
  9
$PUCSORGLEFT
 10
0.0
 20
0.0
 30
0.0
  9
$PUCSORGRIGHT
 10
0.0
 20
0.0
 30
0.0
  9
$PUCSORGFRONT
 10
0.0
 20
0.0
 30
0.0
  9
$PUCSORGBACK
 10
0.0
 20
0.0
 30
0.0
  9
$USERI1
 70
     0
  9
$USERI2
 70
     0
  9
$USERI3
 70
     0
  9
$USERI4
 70
     0
  9
$USERI5
 70
     0
  9
$USERR1
 40
0.0
  9
$USERR2
 40
0.0
  9
$USERR3
 40
0.0
  9
$USERR4
 40
0.0
  9
$USERR5
 40
0.0
  9
$WORLDVIEW
 70
     1
  9
$SHADEDGE
 70
     3
  9
$SHADEDIF
 70
    70
  9
$TILEMODE
 70
     1
  9
$MAXACTVP
 70
    64
  9
$PINSBASE
 10
0.0
 20
0.0
 30
0.0
  9
$PLIMCHECK
 70
     0
  9
$PEXTMIN
 10
1.660416676303533
 20
1.043749897498784
 30
0.0
  9
$PEXTMAX
 10
14.94375008673179
 20
9.393749077489056
 30
0.0
  9
$PLIMMIN
 10
0.0
 20
0.0
  9
$PLIMMAX
 10
12.0
 20
9.0
  9
$UNITMODE
 70
     0
  9
$VISRETAIN
 70
     1
  9
$PLINEGEN
 70
     0
  9
$PSLTSCALE
 70
     1
  9
$TREEDEPTH
 70
  3020
  9
$CMLSTYLE
  2
Standard
  9
$CMLJUST
 70
     0
  9
$CMLSCALE
 40
1.0
  9
$PROXYGRAPHICS
 70
     1
  9
$MEASUREMENT
 70
     0
  9
$CELWEIGHT
370
    -1
  9
$ENDCAPS
280
     0
  9
$JOINSTYLE
280
     0
  9
$LWDISPLAY
290
     1
  9
$INSUNITS
 70
     0
  9
$HYPERLINKBASE
  1

  9
$STYLESHEET
  1

  9
$XEDIT
290
     1
  9
$CEPSNTYPE
380
     0
  9
$PSTYLEMODE
290
     1
  9
$FINGERPRINTGUID
  2
{61AAA7A2-BD59-11D4-85D5-E6203D5D4530}
  9
$VERSIONGUID
  2
{B506E0A5-D85E-464D-A8C4-D045BDB752C4}
  9
$EXTNAMES
290
     1
  9
$PSVPSCALE
 40
0.0
  9
$OLESTARTUP
290
     0
  0
ENDSEC
  0
SECTION
  2
CLASSES
  0
CLASS
  1
ACDBDICTIONARYWDFLT
  2
AcDbDictionaryWithDefault
  3
AutoCAD 2000
 90
        0
280
     0
281
     0
  0
CLASS
  1
ACDBPLACEHOLDER
  2
AcDbPlaceHolder
  3
AutoCAD 2000
 90
        0
280
     0
281
     0
  0
CLASS
  1
LAYOUT
  2
AcDbLayout
  3
AutoCAD 2000
 90
        0
280
     0
281
     0
  0
CLASS
  1
DICTIONARYVAR
  2
AcDbDictionaryVar
  3
AutoCAD 2000
 90
        0
280
     0
281
     0
  0
CLASS
  1
SORTENTSTABLE
  2
AcDbSortentsTable
  3
AutoCAD 2000
 90
        0
280
     0
281
     0
  0
ENDSEC
  0
SECTION
  2
TABLES
  0
TABLE
  2
VPORT
  5
8
330
0
100
AcDbSymbolTable
 70
     2
  0
VPORT
  5
963
330
8
100
AcDbSymbolTableRecord
100
AcDbViewportTableRecord
  2
*Active
 70
     0
 10
0.0
 20
0.0
 11
1.0
 21
1.0
 12
23.68285296752616
 22
-3.03757563017044
 13
0.0
 23
0.0
 14
1.0
 24
1.0
 15
0.0
 25
0.0
 16
0.0
 26
0.0
 36
1.0
 17
0.0
 27
0.0
 37
0.0
 40
44.16391810333869
 41
1.448317307692307
 42
50.0
 43
0.0
 44
0.0
 50
0.0
 51
0.0
 71
     0
 72
   100
 73
     1
 74
     2
 75
     0
 76
     0
 77
     0
 78
     0
281
     0
 65
     1
110
0.0
120
0.0
130
0.0
111
1.0
121
0.0
131
0.0
112
0.0
122
1.0
132
0.0
 79
     0
146
0.0
  0
ENDTAB
  0
TABLE
  2
LTYPE
  5
5
330
0
100
AcDbSymbolTable
 70
     1
  0
LTYPE
  5
13
330
5
100
AcDbSymbolTableRecord
100
AcDbLinetypeTableRecord
  2
ByBlock
 70
     0
  3

 72
    65
 73
     0
 40
0.0
  0
LTYPE
  5
14
330
5
100
AcDbSymbolTableRecord
100
AcDbLinetypeTableRecord
  2
ByLayer
 70
     0
  3

 72
    65
 73
     0
 40
0.0
  0
LTYPE
  5
15
330
5
100
AcDbSymbolTableRecord
100
AcDbLinetypeTableRecord
  2
Continuous
 70
     0
  3
Solid line
 72
    65
 73
     0
 40
0.0
  0
ENDTAB
  0
TABLE
  2
LAYER
  5
2
330
0
100
AcDbSymbolTable
 70
     5
  0
LAYER
  5
10
330
2
100
AcDbSymbolTableRecord
100
AcDbLayerTableRecord
  2
0
 70
     0
 62
     7
  6
Continuous
370
    -3
390
F
  0
LAYER
  5
22
330
2
100
AcDbSymbolTableRecord
100
AcDbLayerTableRecord
  2
METAL1
 70
     0
 62
     7
  6
Continuous
370
    -3
390
F
  0
LAYER
  5
27
330
2
100
AcDbSymbolTableRecord
100
AcDbLayerTableRecord
  2
CONSTR
 70
     0
 62
    -3
  6
Continuous
370
    -3
390
F
  0
LAYER
  5
E9
330
2
100
AcDbSymbolTableRecord
100
AcDbLayerTableRecord
  2
GND
 70
     0
 62
     9
  6
Continuous
370
    -3
390
F
  0
LAYER
  5
138
330
2
100
AcDbSymbolTableRecord
100
AcDbLayerTableRecord
  2
Defpoints
 70
     0
 62
     7
  6
Continuous
290
     0
370
    -3
390
F
  0
ENDTAB
  0
TABLE
  2
STYLE
  5
3
330
0
100
AcDbSymbolTable
 70
     1
  0
STYLE
  5
11
330
3
100
AcDbSymbolTableRecord
100
AcDbTextStyleTableRecord
  2
Standard
 70
     0
 40
1.0
 41
1.0
 50
0.0
 71
     0
 42
0.2
  3
txt.shx
  4

  0
ENDTAB
  0
TABLE
  2
VIEW
  5
6
330
0
100
AcDbSymbolTable
 70
     0
  0
ENDTAB
  0
TABLE
  2
UCS
  5
7
330
0
100
AcDbSymbolTable
 70
     0
  0
ENDTAB
  0
TABLE
  2
APPID
  5
9
330
0
100
AcDbSymbolTable
 70
     1
  0
APPID
  5
12
330
9
100
AcDbSymbolTableRecord
100
AcDbRegAppTableRecord
  2
ACAD
 70
     0
  0
ENDTAB
  0
TABLE
  2
DIMSTYLE
  5
A
330
0
100
AcDbSymbolTable
 70
     2
100
AcDbDimStyleTable
 71
     1
340
128
  0
DIMSTYLE
105
128
102
{ACAD_REACTORS
330
915
330
92D
102
}
330
A
100
AcDbSymbolTableRecord
100
AcDbDimStyleTableRecord
  2
Standard
 70
     0
 41
1.0
340
11
  0
DIMSTYLE
105
16B
330
A
100
AcDbSymbolTableRecord
100
AcDbDimStyleTableRecord
  2
ISO-25
 70
     0
 41
2.5
 42
0.625
 43
3.75
 44
1.25
 73
     0
 74
     0
 77
     1
 78
     8
140
2.5
141
2.5
143
0.03937007874016
147
0.625
171
     3
172
     1
271
     2
272
     2
274
     3
278
    44
283
     0
284
     8
340
11
  0
ENDTAB
  0
TABLE
  2
BLOCK_RECORD
  5
1
330
0
100
AcDbSymbolTable
 70
     9
  0
BLOCK_RECORD
  5
1E
102
{ACAD_XDICTIONARY
360
168
102
}
330
1
100
AcDbSymbolTableRecord
100
AcDbBlockTableRecord
  2
*Model_Space
340
21
  0
BLOCK_RECORD
  5
1A
330
1
100
AcDbSymbolTableRecord
100
AcDbBlockTableRecord
  2
*Paper_Space
340
1D
  0
BLOCK_RECORD
  5
446
330
1
100
AcDbSymbolTableRecord
100
AcDbBlockTableRecord
  2
Inductor
340
0
310
280000002000000020000000010004000000000000020000000000000000000000000000000000000000000000008000008000000080800080000000800080008080000080808000C0C0C0000000FF0000FF000000FFFF00FF000000FF00FF00FFFF0000FFFFFF00FFFFFFFFFFFFFFFFFFFFFFFFFFFFFFFFFFFFFFFFFFFFFF
310
FFFFFFFFFFFFFFFFFFFFFFFFFFFFFFFFFFFFFFFFFFFFFFFFFFFFFFFFFFFFFFFFFFFFFFFFFFFFFFFFFFFFFFFFFFFFFFFFFFFFFFFFFFFFFFFFFFFFFFFFFFFFFFFFFFFFFFFFFFFFFFFFFFFFFFFFFFFFFFFFFFFFFFFFFFFFFFFFFFFFFFFFFFFFFFFFFFFFFFFFFFFFFFFFFFFFFFFFFFFFFFFFFFFFFFFFFFFFFFFFFFFFFFFFFFFFFF
310
FFFFFFFFFFFFFFFFFFFFFFFFFFFFFFFFFFFFFFFFFFFFFFFFFFFFFFFFFFFFFFFFFFFFFFFFFFFFFFFFFFFF0000FFFFFFFF0FFFFFF0FFFFFFF0000FFFF0FFFFFFF00FFFFFF0FFFFFFF0FFFFFFF0FFFFFFF00FFFFFF00FFFFFFF0FFFFFF0FFFFFFF00FFFFF0F0FFFFFFF0FFFFFF0FFFFFFF0F0FFFF0F0FFFFFFF0FFFFFFF0FFFFF
310
F00FFFFFF00FFFFFF0FFFFFFFF0FFFFFF00FFFFFF0FFFFFF0FFFFFFFFFF0FFFFF0F0FFFF0F0FFFFF0FFFFFFFFFFF00000FFF0000FFF00000FFFFFFFFFFFFFFFFFFFFFFFFFFFFFFFFFFFFFFFFFFFFFFFFFFFFFFFFFFFFFFFFFFFFFFFFFFFFFFFFFFFFFFFFFFFFFFFFFFFFFFFFFFFFFFFFFFFFFFFFFFFFFFFFFFFFFFFFFFFFFF
310
FFFFFFFFFFFFFFFFFFFFFFFFFFFFFFFFFFFFFFFFFFFFFFFFFFFFFFFFFFFFFFFFFFFFFFFFFFFFFFFFFFFFFFFFFFFFFFFFFFFFFFFFFFFFFFFFFFFFFFFFFFFFFFFFFFFFFFFFFFFFFFFFFFFFFFFFFFFFFFFFFFFFFFFFFFFFFFFFFFFFFFFFFFFFFFFFFFFFFFFFFFFFFFFFFFFFFFFF
102
{BLKREFS
331
454
102
}
1001
ACAD
1000
DesignCenter Data
1002
{
1070
     1
1070
     1
1002
}
  0
BLOCK_RECORD
  5
44E
330
1
100
AcDbSymbolTableRecord
100
AcDbBlockTableRecord
  2
conpoint
340
0
310
28000000200000002000000001000800000000000004000000000000000000000000000000000000000000004000000080000000FF000000002000004020000080200000FF200000004000004040000080400000FF400000006000004060000080600000FF600000008000004080000080800000FF80000000A0000040A000
310
0080A00000FFA0000000C0000040C0000080C00000FFC0000000FF000040FF000080FF0000FFFF0000000020004000200080002000FF002000002020004020200080202000FF202000004020004040200080402000FF402000006020004060200080602000FF602000008020004080200080802000FF80200000A0200040A0
310
200080A02000FFA0200000C0200040C0200080C02000FFC0200000FF200040FF200080FF2000FFFF2000000040004000400080004000FF004000002040004020400080204000FF204000004040004040400080404000FF404000006040004060400080604000FF604000008040004080400080804000FF80400000A0400040
310
A0400080A04000FFA0400000C0400040C0400080C04000FFC0400000FF400040FF400080FF4000FFFF4000000060004000600080006000FF006000002060004020600080206000FF206000004060004040600080406000FF406000006060004060600080606000FF606000008060004080600080806000FF80600000A06000
310
40A0600080A06000FFA0600000C0600040C0600080C06000FFC0600000FF600040FF600080FF6000FFFF6000000080004000800080008000FF008000002080004020800080208000FF208000004080004040800080408000FF408000006080004060800080608000FF608000008080004080800080808000FF80800000A080
310
0040A0800080A08000FFA0800000C0800040C0800080C08000FFC0800000FF800040FF800080FF8000FFFF80000000A0004000A0008000A000FF00A0000020A0004020A0008020A000FF20A0000040A0004040A0008040A000FF40A0000060A0004060A0008060A000FF60A0000080A0004080A0008080A000FF80A00000A0
310
A00040A0A00080A0A000FFA0A00000C0A00040C0A00080C0A000FFC0A00000FFA00040FFA00080FFA000FFFFA0000000C0004000C0008000C000FF00C0000020C0004020C0008020C000FF20C0000040C0004040C0008040C000FF40C0000060C0004060C0008060C000FF60C0000080C0004080C0008080C000FF80C00000
310
A0C00040A0C00080A0C000FFA0C00000C0C00040C0C00080C0C000FFC0C00000FFC00040FFC00080FFC000FFFFC0000000FF004000FF008000FF00FF00FF000020FF004020FF008020FF00FF20FF000040FF004040FF008040FF00FF40FF000060FF004060FF008060FF00FF60FF000080FF004080FF008080FF00FF80FF00
310
00A0FF0040A0FF0080A0FF00FFA0FF0000C0FF0040C0FF0080C0FF00FFC0FF0000FFFF0040FFFF0080FFFF00FFFFFF000000000000000000000000000000000000000000000000000000000000000000000000000000000000000000000000FFFFFF000000000000000000000000000000000000000000000000FFFFFFFFFF
310
FF00FFFFFF0000000000000000000000000000000000000000FFFF0000FFFF0000000000FFFFFFFF00000000000000000000000000000000FF0000FFFF000000000000000000FFFFFFFF00000000000000000000000000FF00FFFF00000000000000000000000000FFFFFF0000000000000000000000FFFFFF000000000000
310
0000000000000000000000FFFF000000000000000000FF00FF00000000000000000000000000000000000000FFFF0000000000000000FFFF0000000000000000000000000000000000000000FFFF00000000000000FF00FF000000000000000000000000000000000000000000FFFF000000000000FFFF0000000000000000
310
0000000000000000000000000000FF00FF00000000FF00FF0000000000000000000000000000000000000000000000FFFF00000000FFFF000000000000000000000000000000000000000000000000FFFF00000000FFFF00000000000000000000000000000000000000000000000000FF000000FFFF000000000000000000
310
0000000000000000000000000000000000FF000000FFFF000000000000000000000000000000000000000000000000000000FF0000FF00000000000000000000000000000000000000000000000000000000FF0000FFFF0000000000000000000000000000000000000000000000000000FFFF000000FF0000000000000000
310
000000000000000000000000000000000000FF00000000FFFF000000000000000000000000000000000000000000000000FFFF00000000FFFF000000000000000000000000000000000000000000000000FFFF0000000000FFFF00000000000000000000000000000000000000000000FF00FF0000000000FFFF0000000000
310
0000000000000000000000000000000000FFFF00000000000000FFFF0000000000000000000000000000000000000000FFFF0000000000000000FFFF0000000000000000000000000000000000000000FFFF000000000000000000FFFF000000000000000000000000000000000000FFFF0000000000000000000000FFFFFF
310
0000000000000000000000000000FFFFFF00000000000000000000000000FF00FFFF00000000000000000000FFFFFFFF000000000000000000000000000000FFFF00FFFF000000000000FFFFFFFF00000000000000000000000000000000000000FFFFFFFFFF0000FFFFFFFF00000000000000000000000000000000000000
310
00000000000000FFFFFF00000000000000000000000000000000000000000000000000000000000000000000000000000000000000000000
102
{BLKREFS
331
455
331
456
102
}
1001
ACAD
1000
DesignCenter Data
1002
{
1070
     1
1070
     1
1002
}
  0
BLOCK_RECORD
  5
453
330
1
100
AcDbSymbolTableRecord
100
AcDbBlockTableRecord
  2
ind
340
0
310
28000000200000002000000001000800000000000004000000000000000000000000000000000000000000004000000080000000FF000000002000004020000080200000FF200000004000004040000080400000FF400000006000004060000080600000FF600000008000004080000080800000FF80000000A0000040A000
310
0080A00000FFA0000000C0000040C0000080C00000FFC0000000FF000040FF000080FF0000FFFF0000000020004000200080002000FF002000002020004020200080202000FF202000004020004040200080402000FF402000006020004060200080602000FF602000008020004080200080802000FF80200000A0200040A0
310
200080A02000FFA0200000C0200040C0200080C02000FFC0200000FF200040FF200080FF2000FFFF2000000040004000400080004000FF004000002040004020400080204000FF204000004040004040400080404000FF404000006040004060400080604000FF604000008040004080400080804000FF80400000A0400040
310
A0400080A04000FFA0400000C0400040C0400080C04000FFC0400000FF400040FF400080FF4000FFFF4000000060004000600080006000FF006000002060004020600080206000FF206000004060004040600080406000FF406000006060004060600080606000FF606000008060004080600080806000FF80600000A06000
310
40A0600080A06000FFA0600000C0600040C0600080C06000FFC0600000FF600040FF600080FF6000FFFF6000000080004000800080008000FF008000002080004020800080208000FF208000004080004040800080408000FF408000006080004060800080608000FF608000008080004080800080808000FF80800000A080
310
0040A0800080A08000FFA0800000C0800040C0800080C08000FFC0800000FF800040FF800080FF8000FFFF80000000A0004000A0008000A000FF00A0000020A0004020A0008020A000FF20A0000040A0004040A0008040A000FF40A0000060A0004060A0008060A000FF60A0000080A0004080A0008080A000FF80A00000A0
310
A00040A0A00080A0A000FFA0A00000C0A00040C0A00080C0A000FFC0A00000FFA00040FFA00080FFA000FFFFA0000000C0004000C0008000C000FF00C0000020C0004020C0008020C000FF20C0000040C0004040C0008040C000FF40C0000060C0004060C0008060C000FF60C0000080C0004080C0008080C000FF80C00000
310
A0C00040A0C00080A0C000FFA0C00000C0C00040C0C00080C0C000FFC0C00000FFC00040FFC00080FFC000FFFFC0000000FF004000FF008000FF00FF00FF000020FF004020FF008020FF00FF20FF000040FF004040FF008040FF00FF40FF000060FF004060FF008060FF00FF60FF000080FF004080FF008080FF00FF80FF00
310
00A0FF0040A0FF0080A0FF00FFA0FF0000C0FF0040C0FF0080C0FF00FFC0FF0000FFFF0040FFFF0080FFFF00FFFFFF0000000000000000000000000000000000000000000000000000000000000000000000000000000000000000000000000000FFFF00000000000000000000000000000000000000000000000000000000
310
00FFFFFFFF00000000000000000000000000000000000000000000000000000000FF0000FF00000000000000000000000000000000000000000000000000000000FFFFFFFF000000000000000000000000000000000000000000000000000000000000FF000000000000000000000000000000000000000000000000000000
310
FFFFFFFFFF0000000000000000000000000000000000000000000000000000FF00000000FF00000000000000000000000000000000000000000000000000FF00000000000000000000000000000000000000000000000000000000000000FF00000000000000000000000000000000000000000000000000000000000000FF
310
00000000000000000000000000000000000000000000000000000000000000FF0000000000000000000000000000000000000000000000000000000000000000FFFFFFFFFF000000000000000000000000000000000000000000000000000000FFFFFFFFFFFF00000000000000000000000000000000000000000000000000
310
FF00000000000000000000000000000000000000000000000000000000000000FF00000000000000000000000000000000000000000000000000000000000000FF00000000000000000000000000000000000000000000000000000000000000FF000000000000000000000000000000000000000000000000000000000000
310
0000FFFFFFFFFFFF0000000000000000000000000000000000000000000000000000FFFFFFFFFF0000000000000000000000000000000000000000000000000000FF00000000000000000000000000000000000000000000000000000000000000FF0000000000000000000000000000000000000000000000000000000000
310
0000FF00000000000000000000000000000000000000000000000000000000000000FF0000000000000000000000000000000000000000000000000000000000000000FF00000000FF000000000000000000000000000000000000000000000000000000FFFFFFFFFF00000000000000000000000000000000000000000000
310
000000000000000000FF0000000000000000000000000000000000000000000000000000000000FFFFFFFF00000000000000000000000000000000000000000000000000000000FF0000FF00000000000000000000000000000000000000000000000000000000FFFFFFFF0000000000000000000000000000000000000000
310
000000000000000000FFFF000000000000000000000000000000000000000000000000000000000000000000000000000000000000000000
102
{BLKREFS
331
45A
102
}
1001
ACAD
1000
DesignCenter Data
1002
{
1070
     1
1070
     1
1002
}
  0
BLOCK_RECORD
  5
459
330
1
100
AcDbSymbolTableRecord
100
AcDbBlockTableRecord
  2
rfc
340
0
310
28000000200000002000000001000800000000000004000000000000000000000000000000000000000000004000000080000000FF000000002000004020000080200000FF200000004000004040000080400000FF400000006000004060000080600000FF600000008000004080000080800000FF80000000A0000040A000
310
0080A00000FFA0000000C0000040C0000080C00000FFC0000000FF000040FF000080FF0000FFFF0000000020004000200080002000FF002000002020004020200080202000FF202000004020004040200080402000FF402000006020004060200080602000FF602000008020004080200080802000FF80200000A0200040A0
310
200080A02000FFA0200000C0200040C0200080C02000FFC0200000FF200040FF200080FF2000FFFF2000000040004000400080004000FF004000002040004020400080204000FF204000004040004040400080404000FF404000006040004060400080604000FF604000008040004080400080804000FF80400000A0400040
310
A0400080A04000FFA0400000C0400040C0400080C04000FFC0400000FF400040FF400080FF4000FFFF4000000060004000600080006000FF006000002060004020600080206000FF206000004060004040600080406000FF406000006060004060600080606000FF606000008060004080600080806000FF80600000A06000
310
40A0600080A06000FFA0600000C0600040C0600080C06000FFC0600000FF600040FF600080FF6000FFFF6000000080004000800080008000FF008000002080004020800080208000FF208000004080004040800080408000FF408000006080004060800080608000FF608000008080004080800080808000FF80800000A080
310
0040A0800080A08000FFA0800000C0800040C0800080C08000FFC0800000FF800040FF800080FF8000FFFF80000000A0004000A0008000A000FF00A0000020A0004020A0008020A000FF20A0000040A0004040A0008040A000FF40A0000060A0004060A0008060A000FF60A0000080A0004080A0008080A000FF80A00000A0
310
A00040A0A00080A0A000FFA0A00000C0A00040C0A00080C0A000FFC0A00000FFA00040FFA00080FFA000FFFFA0000000C0004000C0008000C000FF00C0000020C0004020C0008020C000FF20C0000040C0004040C0008040C000FF40C0000060C0004060C0008060C000FF60C0000080C0004080C0008080C000FF80C00000
310
A0C00040A0C00080A0C000FFA0C00000C0C00040C0C00080C0C000FFC0C00000FFC00040FFC00080FFC000FFFFC0000000FF004000FF008000FF00FF00FF000020FF004020FF008020FF00FF20FF000040FF004040FF008040FF00FF40FF000060FF004060FF008060FF00FF60FF000080FF004080FF008080FF00FF80FF00
310
00A0FF0040A0FF0080A0FF00FFA0FF0000C0FF0040C0FF0080C0FF00FFC0FF0000FFFF0040FFFF0080FFFF00FFFFFF00000000000000000000000000000000000000000000000000000000000000000000000000000000000000000000000000000000FFFF0000000000000000000000000000000000000000000000000000
310
000000FFFFFFFF00000000000000000000000000000000000000000000000000000000FF0000FF00000000000000000000000000000000000000000000000000000000FFFFFFFF0000000000000000000000000000000000000000000000000000000000FF0000000000000000000000000000000000000000000000000000
310
00FFFFFFFFFF00000000000000000000000000000000000000000000FFFFFF00FFFF000000FF00000000000000000000000000000000000000000000FF00FF00FF000000000000000000000000000000000000000000000000000000FF00FFFF00000000000000000000000000000000000000000000000000000000FF00FF
310
FF00000000000000000000000000000000000000000000000000000000FFFFFFFFFF000000000000000000000000000000000000000000000000000000FFFFFF00FFFFFFFFFFFF00000000000000000000000000000000000000000000FFFFFF00FFFFFFFFFFFF00000000000000000000000000000000000000000000FFFF
310
FFFFFF000000000000000000000000000000000000000000000000000000FFFFFFFF00000000000000000000000000000000000000000000000000000000FFFFFFFF00000000000000000000000000000000000000000000000000000000FFFFFFFFFF000000000000000000000000000000000000000000000000000000FF
310
FFFF00FFFFFFFFFFFF00000000000000000000000000000000000000000000FFFFFF00FFFFFFFFFFFF00000000000000000000000000000000000000000000FF00FFFFFF000000000000000000000000000000000000000000000000000000FF00FFFF00000000000000000000000000000000000000000000000000000000
310
FF00FFFF00000000000000000000000000000000000000000000000000000000FF00FF00FF000000000000000000000000000000000000000000000000000000FFFFFF00FFFF000000FF000000000000000000000000000000000000000000000000000000FFFFFFFFFF000000000000000000000000000000000000000000
310
00000000000000000000FF000000000000000000000000000000000000000000000000000000000000FFFFFF0000000000000000000000000000000000000000000000000000000000FF00FFFF00000000000000000000000000000000000000000000000000000000FF00FF00000000000000000000000000000000000000
310
0000000000000000000000FF0000000000000000000000000000000000000000000000000000000000000000000000000000000000000000
102
{BLKREFS
331
573
102
}
1001
ACAD
1000
DesignCenter Data
1002
{
1070
     1
1070
     1
1002
}
  0
BLOCK_RECORD
  5
54A
330
1
100
AcDbSymbolTableRecord
100
AcDbBlockTableRecord
  2
elkon
340
0
310
28000000200000002000000001000800000000000004000000000000000000000000000000000000000000004000000080000000FF000000002000004020000080200000FF200000004000004040000080400000FF400000006000004060000080600000FF600000008000004080000080800000FF80000000A0000040A000
310
0080A00000FFA0000000C0000040C0000080C00000FFC0000000FF000040FF000080FF0000FFFF0000000020004000200080002000FF002000002020004020200080202000FF202000004020004040200080402000FF402000006020004060200080602000FF602000008020004080200080802000FF80200000A0200040A0
310
200080A02000FFA0200000C0200040C0200080C02000FFC0200000FF200040FF200080FF2000FFFF2000000040004000400080004000FF004000002040004020400080204000FF204000004040004040400080404000FF404000006040004060400080604000FF604000008040004080400080804000FF80400000A0400040
310
A0400080A04000FFA0400000C0400040C0400080C04000FFC0400000FF400040FF400080FF4000FFFF4000000060004000600080006000FF006000002060004020600080206000FF206000004060004040600080406000FF406000006060004060600080606000FF606000008060004080600080806000FF80600000A06000
310
40A0600080A06000FFA0600000C0600040C0600080C06000FFC0600000FF600040FF600080FF6000FFFF6000000080004000800080008000FF008000002080004020800080208000FF208000004080004040800080408000FF408000006080004060800080608000FF608000008080004080800080808000FF80800000A080
310
0040A0800080A08000FFA0800000C0800040C0800080C08000FFC0800000FF800040FF800080FF8000FFFF80000000A0004000A0008000A000FF00A0000020A0004020A0008020A000FF20A0000040A0004040A0008040A000FF40A0000060A0004060A0008060A000FF60A0000080A0004080A0008080A000FF80A00000A0
310
A00040A0A00080A0A000FFA0A00000C0A00040C0A00080C0A000FFC0A00000FFA00040FFA00080FFA000FFFFA0000000C0004000C0008000C000FF00C0000020C0004020C0008020C000FF20C0000040C0004040C0008040C000FF40C0000060C0004060C0008060C000FF60C0000080C0004080C0008080C000FF80C00000
310
A0C00040A0C00080A0C000FFA0C00000C0C00040C0C00080C0C000FFC0C00000FFC00040FFC00080FFC000FFFFC0000000FF004000FF008000FF00FF00FF000020FF004020FF008020FF00FF20FF000040FF004040FF008040FF00FF40FF000060FF004060FF008060FF00FF60FF000080FF004080FF008080FF00FF80FF00
310
00A0FF0040A0FF0080A0FF00FFA0FF0000C0FF0040C0FF0080C0FF00FFC0FF0000FFFF0040FFFF0080FFFF00FFFFFF000000000000000000000000000000000000000000000000000000000000000000000000000000000000000000000000FF00000000000000000000000000000000000000000000000000000000000000
310
FF00000000000000000000000000000000000000000000000000000000000000FF00000000000000000000000000000000000000000000000000000000000000FF00000000000000000000000000000000000000000000000000000000000000FF000000000000000000000000000000000000000000000000000000000000
310
00FF00000000000000000000000000000000000000000000000000000000000000FF00000000000000000000000000000000000000000000000000000000000000FF00000000000000000000000000000000000000000000000000000000000000FF0000000000000000000000000000000000000000000000000000000000
310
0000FF00000000000000000000000000000000000000000000000000000000000000FF0000000000000000000000000000000000000000FFFFFFFFFFFFFFFFFFFFFFFFFFFFFFFFFFFFFFFFFFFFFFFF0000000000000000FF00000000000000000000000000000000000000000000FF0000000000000000FF00000000000000
310
000000000000000000000000000000FF0000000000000000FFFFFFFFFFFFFFFFFFFFFFFFFFFFFFFFFFFFFFFFFFFFFFFF00000000000000000000000000000000000000000000000000000000000000000000000000000000FFFFFFFFFFFFFFFFFFFFFFFFFFFFFFFFFFFFFFFFFFFFFFFF0000000000000000FF0000FFFFFFFF
310
FFFF000000000000FFFFFFFFFFFF0000FF0000000000000000FF0000000000FFFFFFFFFFFFFFFFFFFFFF000000000000FF0000000000000000FFFFFFFFFFFFFFFFFFFFFFFFFFFFFFFFFFFFFFFFFFFFFFFF00000000000000000000000000000000000000FF0000000000000000000000000000000000000000000000000000
310
0000000000FF00000000000000000000000000000000000000000000000000000000000000FF00000000000000000000000000000000000000000000000000000000000000FF00000000000000000000000000000000000000000000000000000000000000FF00000000000000000000000000000000000000000000000000
310
000000000000FF00000000000000000000000000000000000000000000000000000000000000FF00000000000000000000000000000000000000000000000000000000000000FF00000000000000000000000000000000000000000000000000000000000000FF000000000000000000000000000000000000000000000000
310
00000000000000FF000000000000000000000000000000000000000000000000000000000000000000000000000000000000000000000000
102
{BLKREFS
331
571
331
572
102
}
  0
BLOCK_RECORD
  5
552
330
1
100
AcDbSymbolTableRecord
100
AcDbBlockTableRecord
  2
tri
340
0
310
28000000200000002000000001000800000000000004000000000000000000000000000000000000000000004000000080000000FF000000002000004020000080200000FF200000004000004040000080400000FF400000006000004060000080600000FF600000008000004080000080800000FF80000000A0000040A000
310
0080A00000FFA0000000C0000040C0000080C00000FFC0000000FF000040FF000080FF0000FFFF0000000020004000200080002000FF002000002020004020200080202000FF202000004020004040200080402000FF402000006020004060200080602000FF602000008020004080200080802000FF80200000A0200040A0
310
200080A02000FFA0200000C0200040C0200080C02000FFC0200000FF200040FF200080FF2000FFFF2000000040004000400080004000FF004000002040004020400080204000FF204000004040004040400080404000FF404000006040004060400080604000FF604000008040004080400080804000FF80400000A0400040
310
A0400080A04000FFA0400000C0400040C0400080C04000FFC0400000FF400040FF400080FF4000FFFF4000000060004000600080006000FF006000002060004020600080206000FF206000004060004040600080406000FF406000006060004060600080606000FF606000008060004080600080806000FF80600000A06000
310
40A0600080A06000FFA0600000C0600040C0600080C06000FFC0600000FF600040FF600080FF6000FFFF6000000080004000800080008000FF008000002080004020800080208000FF208000004080004040800080408000FF408000006080004060800080608000FF608000008080004080800080808000FF80800000A080
310
0040A0800080A08000FFA0800000C0800040C0800080C08000FFC0800000FF800040FF800080FF8000FFFF80000000A0004000A0008000A000FF00A0000020A0004020A0008020A000FF20A0000040A0004040A0008040A000FF40A0000060A0004060A0008060A000FF60A0000080A0004080A0008080A000FF80A00000A0
310
A00040A0A00080A0A000FFA0A00000C0A00040C0A00080C0A000FFC0A00000FFA00040FFA00080FFA000FFFFA0000000C0004000C0008000C000FF00C0000020C0004020C0008020C000FF20C0000040C0004040C0008040C000FF40C0000060C0004060C0008060C000FF60C0000080C0004080C0008080C000FF80C00000
310
A0C00040A0C00080A0C000FFA0C00000C0C00040C0C00080C0C000FFC0C00000FFC00040FFC00080FFC000FFFFC0000000FF004000FF008000FF00FF00FF000020FF004020FF008020FF00FF20FF000040FF004040FF008040FF00FF40FF000060FF004060FF008060FF00FF60FF000080FF004080FF008080FF00FF80FF00
310
00A0FF0040A0FF0080A0FF00FFA0FF0000C0FF0040C0FF0080C0FF00FFC0FF0000FFFF0040FFFF0080FFFF00FFFFFF0000000000000000000000000000000000000000000000000000000000000000000000000000000000000000FF00000000000000000000000000000000000000000000000000000000000000FFFF0000
310
0000000000000000000000000000000000000000000000000000FFFF0000FF00000000000000000000000000000000000000000000000000FFFF0000000000FF0000000000000000000000000000000000000000000000FF0000000000000000FF000000000000000000000000000000000000000000FF0000000000000000
310
0000FF00000000000000000000000000000000000000FF000000000000000000000000FF000000000000000000000000000000000000FF00000000000000000000000000FF00000000000000000000000000000000FF000000000000000000000000000000FF000000000000000000000000000000FF000000000000000000
310
00000000000000FF00000000000000000000000000FF000000000000000000000000000000000000FF000000000000000000000000FF00000000000000000000000000000000000000FF00000000000000000000FF000000000000000000000000000000000000000000FF000000000000000000FF00000000000000000000
310
000000000000000000000000FF0000000000000000FF0000000000000000000000000000000000000000000000FF00000000000000FF000000000000000000000000000000000000000000000000FF000000000000FF00000000000000000000000000000000000000000000000000FF000000000000FF0000000000000000
310
0000000000000000000000000000000000FF0000000000FF0000000000000000000000000000000000000000000000000000FF00000000FF0000000000000000000000000000000000000000000000000000FFFF00000000FF00000000000000000000000000000000000000000000000000FF0000000000FF000000000000
310
000000000000000000000000000000000000FF00000000000000FF0000000000000000000000000000000000000000000000FF0000000000000000FF000000000000000000000000000000000000000000FF00000000000000000000FF00000000000000000000000000000000000000FF000000000000000000000000FF00
310
00000000000000000000000000000000FF0000000000000000000000000000FF0000000000000000000000000000FFFF00000000000000000000000000000000FFFF0000000000000000000000FF0000000000000000000000000000000000000000FFFFFFFFFFFFFFFFFFFFFF000000000000000000000000000000000000
310
0000000000000000000000000000000000000000000000000000000000000000000000000000000000000000000000000000000000000000
102
{BLKREFS
331
57C
102
}
  0
BLOCK_RECORD
  5
7B7
330
1
100
AcDbSymbolTableRecord
100
AcDbBlockTableRecord
  2
A$C03711E5E
340
0
  0
BLOCK_RECORD
  5
916
330
1
100
AcDbSymbolTableRecord
100
AcDbBlockTableRecord
  2
*D7
340
0
  0
BLOCK_RECORD
  5
92E
330
1
100
AcDbSymbolTableRecord
100
AcDbBlockTableRecord
  2
*D8
340
0
  0
ENDTAB
  0
ENDSEC
  0
SECTION
  2
BLOCKS
  0
BLOCK
  5
1F
330
1E
100
AcDbEntity
  8
0
100
AcDbBlockBegin
  2
*Model_Space
 70
     0
 10
0.0
 20
0.0
 30
0.0
  3
*Model_Space
  1

  0
ENDBLK
  5
20
330
1E
100
AcDbEntity
  8
0
100
AcDbBlockEnd
  0
BLOCK
  5
1B
330
1A
100
AcDbEntity
 67
     1
  8
0
100
AcDbBlockBegin
  2
*Paper_Space
 70
     0
 10
0.0
 20
0.0
 30
0.0
  3
*Paper_Space
  1

  0
ENDBLK
  5
1C
330
1A
100
AcDbEntity
 67
     1
  8
0
100
AcDbBlockEnd
  0
BLOCK
  5
44C
330
446
100
AcDbEntity
  8
0
100
AcDbBlockBegin
  2
Inductor
 70
     2
 10
0.0
 20
0.0
 30
0.0
  3
Inductor
  1
INDUCTOR
  4
DesignCenter Basic Electronics example
  0
LINE
  5
447
330
446
100
AcDbEntity
  8
0
 62
     7
100
AcDbLine
 10
0.3500000000000001
 20
0.0
 30
0.0
 11
0.3999999999999999
 21
0.0
 31
0.0
  0
ARC
  5
448
330
446
100
AcDbEntity
  8
0
 62
     7
100
AcDbCircle
 10
0.2999999999999998
 20
0.0374999999999997
 30
0.0
 40
0.0625
100
AcDbArc
 50
323.1301
 51
216.8699
  0
LINE
  5
449
330
446
100
AcDbEntity
  8
0
 62
     7
100
AcDbLine
 10
0.0
 20
0.0
 30
0.0
 11
0.0499999999999998
 21
0.0
 31
0.0
  0
ARC
  5
44A
330
446
100
AcDbEntity
  8
0
 62
     7
100
AcDbCircle
 10
0.1000000000000001
 20
0.0374999999999997
 30
0.0
 40
0.0625
100
AcDbArc
 50
323.1301
 51
216.8699
  0
ARC
  5
44B
330
446
100
AcDbEntity
  8
0
 62
     7
100
AcDbCircle
 10
0.2000000000000002
 20
0.0374999999999997
 30
0.0
 40
0.0625
100
AcDbArc
 50
323.1301
 51
216.8699
  0
ENDBLK
  5
44D
330
446
100
AcDbEntity
  8
0
100
AcDbBlockEnd
  0
BLOCK
  5
451
330
44E
100
AcDbEntity
  8
0
100
AcDbBlockBegin
  2
conpoint
 70
     0
 10
0.0
 20
0.0
 30
0.0
  3
conpoint
  1

  0
HATCH
  5
44F
330
44E
100
AcDbEntity
  8
0
100
AcDbHatch
 10
0.0
 20
0.0
 30
0.0
210
0.0
220
0.0
230
1.0
  2
SOLID
 70
     1
 71
     1
 91
        1
 92
        1
 93
        1
 72
     2
 10
3.932944225599126
 20
4.517912367231916
 40
0.0251551376970127
 50
0.0
 51
360.0
 73
     1
 97
        1
330
450
 75
     0
 76
     1
 98
        1
 10
0.0
 20
0.0
  0
CIRCLE
  5
450
102
{ACAD_REACTORS
330
44F
102
}
330
44E
100
AcDbEntity
  8
0
100
AcDbCircle
 10
3.932944225599126
 20
4.517912367231916
 30
0.0
 40
0.0251551376970127
  0
ENDBLK
  5
452
330
44E
100
AcDbEntity
  8
0
100
AcDbBlockEnd
  0
BLOCK
  5
457
330
453
100
AcDbEntity
  8
0
100
AcDbBlockBegin
  2
ind
 70
     0
 10
0.0
 20
0.0
 30
0.0
  3
ind
  1

  0
INSERT
  5
454
330
453
100
AcDbEntity
  8
0
100
AcDbBlockReference
  2
Inductor
 10
5.142686818928233
 20
4.506130839892044
 30
0.0
 50
90.0
  0
INSERT
  5
455
330
453
100
AcDbEntity
  8
0
100
AcDbBlockReference
  2
conpoint
 10
1.213283901823427
 20
-0.0258025784579612
 30
0.0
  0
INSERT
  5
456
330
453
100
AcDbEntity
  8
0
100
AcDbBlockReference
  2
conpoint
 10
1.20936500961606
 20
0.4012205201373665
 30
0.0
  0
ENDBLK
  5
458
330
453
100
AcDbEntity
  8
0
100
AcDbBlockEnd
  0
BLOCK
  5
45D
330
459
100
AcDbEntity
  8
0
100
AcDbBlockBegin
  2
rfc
 70
     0
 10
0.0
 20
0.0
 30
0.0
  3
rfc
  1

  0
INSERT
  5
45A
330
459
100
AcDbEntity
  8
0
100
AcDbBlockReference
  2
ind
 10
0.0
 20
0.0
 30
0.0
  0
HATCH
  5
45B
330
459
100
AcDbEntity
  8
0
100
AcDbHatch
 10
0.0
 20
0.0
 30
0.0
210
0.0
220
0.0
230
1.0
  2
SOLID
 70
     1
 71
     1
 91
        1
 92
        1
 93
        4
 72
     1
 10
5.019171584733157
 20
4.850883942041264
 11
4.991736945333968
 21
4.850883942041264
 72
     1
 10
4.991736945333968
 20
4.850883942041264
 11
4.991736945333968
 21
4.557060643284785
 72
     1
 10
4.991736945333968
 20
4.557060643284785
 11
5.019171584733157
 21
4.557060643284785
 72
     1
 10
5.019171584733157
 20
4.557060643284785
 11
5.019171584733157
 21
4.850883942041264
 97
        1
330
45C
 75
     0
 76
     1
 98
        1
 10
0.0
 20
0.0
  0
LWPOLYLINE
  5
45C
102
{ACAD_REACTORS
330
45B
102
}
330
459
100
AcDbEntity
  8
0
100
AcDbPolyline
 90
        4
 70
     1
 43
0.0
 10
5.019171584733157
 20
4.850883942041264
 10
4.991736945333968
 20
4.850883942041264
 10
4.991736945333968
 20
4.557060643284785
 10
5.019171584733157
 20
4.557060643284785
  0
ENDBLK
  5
45E
330
459
100
AcDbEntity
  8
0
100
AcDbBlockEnd
  0
BLOCK
  5
550
330
54A
100
AcDbEntity
  8
0
100
AcDbBlockBegin
  2
elkon
 70
     0
 10
0.0
 20
0.0
 30
0.0
  3
elkon
  1

  0
LWPOLYLINE
  5
54B
102
{ACAD_REACTORS
330
54F
102
}
330
54A
100
AcDbEntity
  8
0
100
AcDbPolyline
 90
        4
 70
     1
 43
0.0
 10
5.277469087657244
 20
7.736467907658294
 10
6.725437308244949
 20
7.736467907658294
 10
6.725437308244949
 20
7.545307269129267
 10
5.277469087657244
 20
7.545307269129267
  0
LWPOLYLINE
  5
54C
330
54A
100
AcDbEntity
  8
0
100
AcDbPolyline
 90
        4
 70
     1
 43
0.0
 10
5.277469087657244
 20
7.381455311208465
 10
6.725437308244949
 20
7.381455311208465
 10
6.725437308244949
 20
7.190294672679439
 10
5.277469087657244
 20
7.190294672679439
  0
LWPOLYLINE
  5
54D
330
54A
100
AcDbEntity
  8
0
100
AcDbPolyline
 90
        2
 70
     0
 43
0.0
 10
5.987793119210273
 20
7.736467907658294
 10
5.987793119210273
 20
8.337258440989323
  0
LWPOLYLINE
  5
54E
330
54A
100
AcDbEntity
  8
0
100
AcDbPolyline
 90
        2
 70
     0
 43
0.0
 10
5.987793119210273
 20
7.190294672679439
 10
5.987793119210273
 20
6.507578139433253
  0
HATCH
  5
54F
330
54A
100
AcDbEntity
  8
0
100
AcDbHatch
 10
0.0
 20
0.0
 30
0.0
210
0.0
220
0.0
230
1.0
  2
SOLID
 70
     1
 71
     1
 91
        1
 92
        1
 93
        4
 72
     1
 10
5.277469087657244
 20
7.736467907658294
 11
6.725437308244949
 21
7.736467907658294
 72
     1
 10
6.725437308244949
 20
7.736467907658294
 11
6.725437308244949
 21
7.545307269129267
 72
     1
 10
6.725437308244949
 20
7.545307269129267
 11
5.277469087657244
 21
7.545307269129267
 72
     1
 10
5.277469087657244
 20
7.545307269129267
 11
5.277469087657244
 21
7.736467907658294
 97
        1
330
54B
 75
     0
 76
     1
 98
        1
 10
0.0
 20
0.0
  0
ENDBLK
  5
551
330
54A
100
AcDbEntity
  8
0
100
AcDbBlockEnd
  0
BLOCK
  5
555
330
552
100
AcDbEntity
  8
0
100
AcDbBlockBegin
  2
tri
 70
     0
 10
0.0
 20
0.0
 30
0.0
  3
tri
  1

  0
ARC
  5
553
330
552
100
AcDbEntity
  8
CONSTR
370
    50
100
AcDbCircle
 10
8.146085339866083
 20
7.572615928782735
 30
0.0
 40
0.8498249588931228
100
AcDbArc
 50
17.41576346451058
 51
252.8164832811067
  0
LWPOLYLINE
  5
554
330
552
100
AcDbEntity
  8
CONSTR
370
    50
100
AcDbPolyline
 90
        2
 70
     0
 43
0.0
 10
7.888244942516251
 20
6.7539228815622
 10
8.968782859461427
 20
7.838849627961277
  0
ENDBLK
  5
556
330
552
100
AcDbEntity
  8
0
100
AcDbBlockEnd
  0
BLOCK
  5
82A
330
7B7
100
AcDbEntity
  8
0
100
AcDbBlockBegin
  2
A$C03711E5E
 70
     0
 10
0.0
 20
0.0
 30
0.0
  3
A$C03711E5E
  1

  0
SOLID
  5
7B8
330
7B7
100
AcDbEntity
  8
0
100
AcDbTrace
 10
0.8382000505420066
 20
18.31999996227993
 30
0.0
 11
1.63820005054201
 21
18.31999996227993
 31
0.0
 12
0.8382000505420066
 22
18.06999996227993
 32
0.0
 13
1.63820005054201
 23
18.06999996227993
 33
0.0
  0
SOLID
  5
7B9
330
7B7
100
AcDbEntity
  8
0
100
AcDbTrace
 10
0.8382000505420066
 20
18.06999996227993
 30
0.0
 11
0.0382000505420095
 21
18.06999996227993
 31
0.0
 12
0.8382000505420066
 22
18.31999996227993
 32
0.0
 13
0.0382000505420095
 23
18.31999996227993
 33
0.0
  0
SOLID
  5
7BA
330
7B7
100
AcDbEntity
  8
0
100
AcDbTrace
 10
0.0382000505420095
 20
18.19499996227993
 30
0.0
 11
0.0382000505420095
 21
18.31999996227993
 31
0.0
 12
1.63820005054201
 22
18.19499996227993
 32
0.0
 13
1.63820005054201
 23
18.31999996227993
 33
0.0
  0
SOLID
  5
7BB
330
7B7
100
AcDbEntity
  8
0
100
AcDbTrace
 10
1.63820005054201
 20
18.69499996227993
 30
0.0
 11
2.338200050542006
 21
18.69499996227993
 31
0.0
 12
1.63820005054201
 22
17.69499996227993
 32
0.0
 13
2.338200050542006
 23
17.69499996227993
 33
0.0
  0
SOLID
  5
7BC
330
7B7
100
AcDbEntity
  8
0
100
AcDbTrace
 10
2.468200050542009
 20
17.76999996227993
 30
0.0
 11
1.618200050542007
 21
17.76999996227993
 31
0.0
 12
2.468200050542009
 22
18.61999996227993
 32
0.0
 13
1.618200050542007
 23
18.61999996227993
 33
0.0
  0
SOLID
  5
7BD
330
7B7
100
AcDbEntity
  8
0
100
AcDbTrace
 10
2.468200050542009
 20
15.86999996227993
 30
0.0
 11
1.618200050542007
 21
15.86999996227993
 31
0.0
 12
2.468200050542009
 22
16.71999996227993
 32
0.0
 13
1.618200050542007
 23
16.71999996227993
 33
0.0
  0
SOLID
  5
7BE
330
7B7
100
AcDbEntity
  8
0
100
AcDbTrace
 10
3.508200050542008
 20
17.09499996227993
 30
0.0
 11
4.358200050542009
 21
17.09499996227993
 31
0.0
 12
3.508200050542008
 22
15.89499996227993
 32
0.0
 13
4.358200050542009
 23
15.89499996227993
 33
0.0
  0
SOLID
  5
7BF
330
7B7
100
AcDbEntity
  8
0
100
AcDbTrace
 10
3.508200050542008
 20
18.61999996227993
 30
0.0
 11
4.358200050542009
 21
18.61999996227993
 31
0.0
 12
3.508200050542008
 22
17.76999996227993
 32
0.0
 13
4.358200050542009
 23
17.76999996227993
 33
0.0
  0
SOLID
  5
7C0
330
7B7
100
AcDbEntity
  8
0
100
AcDbTrace
 10
3.628200050542005
 20
17.09499996227993
 30
0.0
 11
5.128200050542005
 21
17.09499996227993
 31
0.0
 12
3.628200050542005
 22
15.89499996227993
 32
0.0
 13
5.128200050542005
 23
15.89499996227993
 33
0.0
  0
SOLID
  5
7C1
330
7B7
100
AcDbEntity
  8
0
100
AcDbTrace
 10
5.928200050542002
 20
15.89499996227993
 30
0.0
 11
5.128200050542005
 21
15.89499996227993
 31
0.0
 12
5.928200050542002
 22
17.09499996227993
 32
0.0
 13
5.128200050542005
 23
17.09499996227993
 33
0.0
  0
SOLID
  5
7C2
330
7B7
100
AcDbEntity
  8
0
100
AcDbTrace
 10
5.928200050542002
 20
17.29499996227993
 30
0.0
 11
6.728200050542007
 21
17.29499996227993
 31
0.0
 12
5.928200050542002
 22
15.69499996227993
 32
0.0
 13
6.728200050542007
 23
15.69499996227993
 33
0.0
  0
SOLID
  5
7C3
330
7B7
100
AcDbEntity
  8
0
100
AcDbTrace
 10
5.128200050542005
 20
16.49499996227993
 30
0.0
 11
5.128200050542005
 21
17.29499996227993
 31
0.0
 12
6.728200050542007
 22
16.49499996227993
 32
0.0
 13
6.728200050542007
 23
17.29499996227993
 33
0.0
  0
SOLID
  5
7C4
330
7B7
100
AcDbEntity
  8
0
100
AcDbTrace
 10
6.053200050542002
 20
16.49499996227993
 30
0.0
 11
6.053200050542002
 21
15.69499996227993
 31
0.0
 12
5.803200050542002
 22
16.49499996227993
 32
0.0
 13
5.803200050542002
 23
15.69499996227993
 33
0.0
  0
SOLID
  5
7C5
330
7B7
100
AcDbEntity
  8
0
100
AcDbTrace
 10
5.090000050542009
 20
16.64499996227993
 30
0.0
 11
5.090000050542009
 21
17.76259996227993
 31
0.0
 12
6.766400050542003
 22
16.64499996227993
 32
0.0
 13
6.766400050542003
 23
17.76259996227993
 33
0.0
  0
SOLID
  5
7C6
330
7B7
100
AcDbEntity
  8
0
100
AcDbTrace
 10
5.090000050542009
 20
19.59499996227993
 30
0.0
 11
5.090000050542009
 21
20.71259996227993
 31
0.0
 12
6.766400050542003
 22
19.59499996227993
 32
0.0
 13
6.766400050542003
 23
20.71259996227993
 33
0.0
  0
SOLID
  5
7C7
330
7B7
100
AcDbEntity
  8
0
100
AcDbTrace
 10
5.803200050542002
 20
20.09499996227993
 30
0.0
 11
5.803200050542002
 21
21.09499996227993
 31
0.0
 12
6.053200050542002
 22
20.09499996227993
 32
0.0
 13
6.053200050542002
 23
21.09499996227993
 33
0.0
  0
SOLID
  5
7C8
330
7B7
100
AcDbEntity
  8
0
100
AcDbTrace
 10
5.803200050542002
 20
21.09499996227993
 30
0.0
 11
5.803200050542002
 21
21.34499996227993
 31
0.0
 12
5.803200050542002
 22
21.09499996227993
 32
0.0
 13
6.053200050542002
 23
21.09499996227993
 33
0.0
  0
SOLID
  5
7C9
330
7B7
100
AcDbEntity
  8
0
100
AcDbTrace
 10
1.103200050542007
 20
21.34499996227993
 30
0.0
 11
5.803200050542002
 21
21.34499996227993
 31
0.0
 12
1.103200050542007
 22
21.09499996227993
 32
0.0
 13
5.803200050542002
 23
21.09499996227993
 33
0.0
  0
SOLID
  5
7CA
330
7B7
100
AcDbEntity
  8
0
100
AcDbTrace
 10
1.103200050542007
 20
21.09499996227993
 30
0.0
 11
0.8532000505420072
 21
21.09499996227993
 31
0.0
 12
1.103200050542007
 22
21.09499996227993
 32
0.0
 13
1.103200050542007
 23
21.34499996227993
 33
0.0
  0
SOLID
  5
7CB
330
7B7
100
AcDbEntity
  8
0
100
AcDbTrace
 10
0.0000000505420132
 20
17.66999996227993
 30
0.0
 11
0.0000000505420132
 21
18.78759996227993
 31
0.0
 12
1.676400050542007
 22
17.66999996227993
 32
0.0
 13
1.676400050542007
 23
18.78759996227993
 33
0.0
  0
SOLID
  5
7CC
330
7B7
100
AcDbEntity
  8
0
100
AcDbTrace
 10
0.0000000505420132
 20
20.61999996227994
 30
0.0
 11
0.0000000505420132
 21
21.73759996227993
 31
0.0
 12
1.676400050542007
 22
20.61999996227994
 32
0.0
 13
1.676400050542007
 23
21.73759996227993
 33
0.0
  0
SOLID
  5
7CD
330
7B7
100
AcDbEntity
  8
0
100
AcDbTrace
 10
6.078200050542008
 20
17.33319996227993
 30
0.0
 11
7.195800050542004
 21
17.33319996227993
 31
0.0
 12
6.078200050542008
 22
15.65679996227993
 32
0.0
 13
7.195800050542004
 23
15.65679996227993
 33
0.0
  0
SOLID
  5
7CE
330
7B7
100
AcDbEntity
  8
0
100
AcDbTrace
 10
9.028200050542011
 20
17.33319996227993
 30
0.0
 11
10.145800050542
 21
17.33319996227993
 31
0.0
 12
9.028200050542011
 22
15.65679996227993
 32
0.0
 13
10.145800050542
 23
15.65679996227993
 33
0.0
  0
SOLID
  5
7CF
330
7B7
100
AcDbEntity
  8
0
100
AcDbTrace
 10
9.528200050542011
 20
17.84499996227993
 30
0.0
 11
29.52820005054201
 21
17.84499996227993
 31
0.0
 12
9.528200050542011
 22
15.14499996227993
 32
0.0
 13
29.52820005054201
 23
15.14499996227993
 33
0.0
  0
SOLID
  5
7D0
330
7B7
100
AcDbEntity
  8
0
100
AcDbTrace
 10
5.803200050542002
 20
11.69499996227993
 30
0.0
 11
5.803200050542002
 21
15.69499996227993
 31
0.0
 12
6.053200050542002
 22
11.69499996227993
 32
0.0
 13
6.053200050542002
 23
15.69499996227993
 33
0.0
  0
SOLID
  5
7D1
330
7B7
100
AcDbEntity
  8
0
100
AcDbTrace
 10
6.053200050542002
 20
11.69499996227993
 30
0.0
 11
6.053200050542002
 21
1.574999962279935
 31
0.0
 12
5.803200050542002
 22
11.69499996227993
 32
0.0
 13
5.803200050542002
 23
1.574999962279935
 33
0.0
  0
SOLID
  5
7D2
330
7B7
100
AcDbEntity
  8
0
100
AcDbTrace
 10
5.803200050542002
 20
1.824999962279935
 30
0.0
 11
6.553200050542002
 21
1.824999962279935
 31
0.0
 12
5.803200050542002
 22
1.574999962279935
 32
0.0
 13
6.553200050542002
 23
1.574999962279935
 33
0.0
  0
SOLID
  5
7D3
330
7B7
100
AcDbEntity
  8
0
100
AcDbTrace
 10
6.303200050542002
 20
1.824999962279935
 30
0.0
 11
16.173200050542
 21
1.824999962279935
 31
0.0
 12
6.303200050542002
 22
1.574999962279935
 32
0.0
 13
16.173200050542
 23
1.574999962279935
 33
0.0
  0
SOLID
  5
7D4
330
7B7
100
AcDbEntity
  8
0
100
AcDbTrace
 10
15.923200050542
 20
1.574999962279935
 30
0.0
 11
15.923200050542
 21
2.324999962279939
 31
0.0
 12
16.173200050542
 22
1.574999962279935
 32
0.0
 13
16.173200050542
 23
2.324999962279939
 33
0.0
  0
SOLID
  5
7D5
330
7B7
100
AcDbEntity
  8
0
100
AcDbTrace
 10
15.923200050542
 20
2.074999962279935
 30
0.0
 11
15.923200050542
 21
11.69499996227993
 31
0.0
 12
16.173200050542
 22
2.074999962279935
 32
0.0
 13
16.173200050542
 23
11.69499996227993
 33
0.0
  0
SOLID
  5
7D6
330
7B7
100
AcDbEntity
  8
0
100
AcDbTrace
 10
16.173200050542
 20
11.44499996227993
 30
0.0
 11
15.423200050542
 21
11.44499996227993
 31
0.0
 12
16.173200050542
 22
11.69499996227993
 32
0.0
 13
15.423200050542
 23
11.69499996227993
 33
0.0
  0
SOLID
  5
7D7
330
7B7
100
AcDbEntity
  8
0
100
AcDbTrace
 10
15.673200050542
 20
11.44499996227993
 30
0.0
 11
6.303200050542002
 21
11.44499996227993
 31
0.0
 12
15.673200050542
 22
11.69499996227993
 32
0.0
 13
6.303200050542002
 23
11.69499996227993
 33
0.0
  0
SOLID
  5
7D8
330
7B7
100
AcDbEntity
  8
0
100
AcDbTrace
 10
6.553200050542002
 20
11.69499996227993
 30
0.0
 11
6.553200050542002
 21
2.074999962279935
 31
0.0
 12
6.303200050542002
 22
11.69499996227993
 32
0.0
 13
6.303200050542002
 23
2.074999962279935
 33
0.0
  0
SOLID
  5
7D9
330
7B7
100
AcDbEntity
  8
0
100
AcDbTrace
 10
6.303200050542002
 20
2.324999962279939
 30
0.0
 11
15.673200050542
 21
2.324999962279939
 31
0.0
 12
6.303200050542002
 22
2.074999962279935
 32
0.0
 13
15.673200050542
 23
2.074999962279935
 33
0.0
  0
SOLID
  5
7DA
330
7B7
100
AcDbEntity
  8
0
100
AcDbTrace
 10
15.423200050542
 20
2.074999962279935
 30
0.0
 11
15.423200050542
 21
11.19499996227993
 31
0.0
 12
15.673200050542
 22
2.074999962279935
 32
0.0
 13
15.673200050542
 23
11.19499996227993
 33
0.0
  0
SOLID
  5
7DB
330
7B7
100
AcDbEntity
  8
0
100
AcDbTrace
 10
15.673200050542
 20
10.94499996227993
 30
0.0
 11
6.803200050542002
 21
10.94499996227993
 31
0.0
 12
15.673200050542
 22
11.19499996227993
 32
0.0
 13
6.803200050542002
 23
11.19499996227993
 33
0.0
  0
SOLID
  5
7DC
330
7B7
100
AcDbEntity
  8
0
100
AcDbTrace
 10
7.053200050542002
 20
11.19499996227993
 30
0.0
 11
7.053200050542002
 21
2.574999962279939
 31
0.0
 12
6.803200050542002
 22
11.19499996227993
 32
0.0
 13
6.803200050542002
 23
2.574999962279939
 33
0.0
  0
SOLID
  5
7DD
330
7B7
100
AcDbEntity
  8
0
100
AcDbTrace
 10
6.803200050542002
 20
2.824999962279939
 30
0.0
 11
15.173200050542
 21
2.824999962279939
 31
0.0
 12
6.803200050542002
 22
2.574999962279939
 32
0.0
 13
15.173200050542
 23
2.574999962279939
 33
0.0
  0
SOLID
  5
7DE
330
7B7
100
AcDbEntity
  8
0
100
AcDbTrace
 10
14.923200050542
 20
2.574999962279939
 30
0.0
 11
14.923200050542
 21
10.69499996227993
 31
0.0
 12
15.173200050542
 22
2.574999962279939
 32
0.0
 13
15.173200050542
 23
10.69499996227993
 33
0.0
  0
SOLID
  5
7DF
330
7B7
100
AcDbEntity
  8
0
100
AcDbTrace
 10
15.173200050542
 20
10.44499996227993
 30
0.0
 11
7.303200050542002
 21
10.44499996227993
 31
0.0
 12
15.173200050542
 22
10.69499996227993
 32
0.0
 13
7.303200050542002
 23
10.69499996227993
 33
0.0
  0
SOLID
  5
7E0
330
7B7
100
AcDbEntity
  8
0
100
AcDbTrace
 10
7.553200050542002
 20
10.69499996227993
 30
0.0
 11
7.553200050542002
 21
3.074999962279939
 31
0.0
 12
7.303200050542002
 22
10.69499996227993
 32
0.0
 13
7.303200050542002
 23
3.074999962279939
 33
0.0
  0
SOLID
  5
7E1
330
7B7
100
AcDbEntity
  8
0
100
AcDbTrace
 10
7.303200050542002
 20
3.324999962279939
 30
0.0
 11
14.673200050542
 21
3.324999962279939
 31
0.0
 12
7.303200050542002
 22
3.074999962279939
 32
0.0
 13
14.673200050542
 23
3.074999962279939
 33
0.0
  0
SOLID
  5
7E2
330
7B7
100
AcDbEntity
  8
0
100
AcDbTrace
 10
14.423200050542
 20
3.074999962279939
 30
0.0
 11
14.423200050542
 21
10.19499996227993
 31
0.0
 12
14.673200050542
 22
3.074999962279939
 32
0.0
 13
14.673200050542
 23
10.19499996227993
 33
0.0
  0
SOLID
  5
7E3
330
7B7
100
AcDbEntity
  8
0
100
AcDbTrace
 10
14.673200050542
 20
9.944999962279936
 30
0.0
 11
7.803200050542002
 21
9.944999962279936
 31
0.0
 12
14.673200050542
 22
10.19499996227993
 32
0.0
 13
7.803200050542002
 23
10.19499996227993
 33
0.0
  0
SOLID
  5
7E4
330
7B7
100
AcDbEntity
  8
0
100
AcDbTrace
 10
8.053200050542002
 20
10.19499996227993
 30
0.0
 11
8.053200050542002
 21
3.574999962279939
 31
0.0
 12
7.803200050542002
 22
10.19499996227993
 32
0.0
 13
7.803200050542002
 23
3.574999962279939
 33
0.0
  0
SOLID
  5
7E5
330
7B7
100
AcDbEntity
  8
0
100
AcDbTrace
 10
7.803200050542002
 20
3.824999962279937
 30
0.0
 11
14.173200050542
 21
3.824999962279937
 31
0.0
 12
7.803200050542002
 22
3.574999962279939
 32
0.0
 13
14.173200050542
 23
3.574999962279939
 33
0.0
  0
SOLID
  5
7E6
330
7B7
100
AcDbEntity
  8
0
100
AcDbTrace
 10
13.923200050542
 20
3.574999962279939
 30
0.0
 11
13.923200050542
 21
9.694999962279936
 31
0.0
 12
14.173200050542
 22
3.574999962279939
 32
0.0
 13
14.173200050542
 23
9.694999962279936
 33
0.0
  0
SOLID
  5
7E7
330
7B7
100
AcDbEntity
  8
0
100
AcDbTrace
 10
14.173200050542
 20
9.444999962279936
 30
0.0
 11
8.303200050542002
 21
9.444999962279936
 31
0.0
 12
14.173200050542
 22
9.694999962279936
 32
0.0
 13
8.303200050542002
 23
9.694999962279936
 33
0.0
  0
SOLID
  5
7E8
330
7B7
100
AcDbEntity
  8
0
100
AcDbTrace
 10
8.553200050542002
 20
9.694999962279936
 30
0.0
 11
8.553200050542002
 21
4.074999962279937
 31
0.0
 12
8.303200050542002
 22
9.694999962279936
 32
0.0
 13
8.303200050542002
 23
4.074999962279937
 33
0.0
  0
SOLID
  5
7E9
330
7B7
100
AcDbEntity
  8
0
100
AcDbTrace
 10
8.303200050542002
 20
4.324999962279937
 30
0.0
 11
13.673200050542
 21
4.324999962279937
 31
0.0
 12
8.303200050542002
 22
4.074999962279937
 32
0.0
 13
13.673200050542
 23
4.074999962279937
 33
0.0
  0
SOLID
  5
7EA
330
7B7
100
AcDbEntity
  8
0
100
AcDbTrace
 10
13.423200050542
 20
4.074999962279937
 30
0.0
 11
13.423200050542
 21
9.194999962279936
 31
0.0
 12
13.673200050542
 22
4.074999962279937
 32
0.0
 13
13.673200050542
 23
9.194999962279936
 33
0.0
  0
SOLID
  5
7EB
330
7B7
100
AcDbEntity
  8
0
100
AcDbTrace
 10
13.673200050542
 20
8.944999962279936
 30
0.0
 11
8.803200050542002
 21
8.944999962279936
 31
0.0
 12
13.673200050542
 22
9.194999962279936
 32
0.0
 13
8.803200050542002
 23
9.194999962279936
 33
0.0
  0
SOLID
  5
7EC
330
7B7
100
AcDbEntity
  8
0
100
AcDbTrace
 10
9.053200050542002
 20
9.194999962279936
 30
0.0
 11
9.053200050542002
 21
4.574999962279937
 31
0.0
 12
8.803200050542002
 22
9.194999962279936
 32
0.0
 13
8.803200050542002
 23
4.574999962279937
 33
0.0
  0
SOLID
  5
7ED
330
7B7
100
AcDbEntity
  8
0
100
AcDbTrace
 10
8.803200050542002
 20
4.824999962279937
 30
0.0
 11
13.173200050542
 21
4.824999962279937
 31
0.0
 12
8.803200050542002
 22
4.574999962279937
 32
0.0
 13
13.173200050542
 23
4.574999962279937
 33
0.0
  0
SOLID
  5
7EE
330
7B7
100
AcDbEntity
  8
0
100
AcDbTrace
 10
12.923200050542
 20
4.574999962279937
 30
0.0
 11
12.923200050542
 21
5.074999962279937
 31
0.0
 12
13.173200050542
 22
4.574999962279937
 32
0.0
 13
13.173200050542
 23
5.074999962279937
 33
0.0
  0
SOLID
  5
7EF
330
7B7
100
AcDbEntity
  8
0
100
AcDbTrace
 10
12.548200050542
 20
4.574999962279937
 30
0.0
 11
12.548200050542
 21
5.574999962279937
 31
0.0
 12
13.548200050542
 22
4.574999962279937
 32
0.0
 13
13.548200050542
 23
5.574999962279937
 33
0.0
  0
SOLID
  5
7F0
330
7B7
100
AcDbEntity
  8
0
100
AcDbTrace
 10
13.173200050542
 20
5.074999962279937
 30
0.0
 11
12.923200050542
 21
5.074999962279937
 31
0.0
 12
13.173200050542
 22
5.324999962279937
 32
0.0
 13
12.923200050542
 23
5.324999962279937
 33
0.0
  0
SOLID
  5
7F1
330
7B7
100
AcDbEntity
  8
0
100
AcDbTrace
 10
20.973200050542
 20
4.399999962279936
 30
0.0
 11
20.173200050542
 21
4.399999962279936
 31
0.0
 12
20.973200050542
 22
5.999999962279936
 32
0.0
 13
20.173200050542
 23
5.999999962279936
 33
0.0
  0
SOLID
  5
7F2
330
7B7
100
AcDbEntity
  8
0
100
AcDbTrace
 10
20.973200050542
 20
5.999999962279936
 30
0.0
 11
21.77320005054201
 21
5.999999962279936
 31
0.0
 12
20.973200050542
 22
4.399999962279936
 32
0.0
 13
21.77320005054201
 23
4.399999962279936
 33
0.0
  0
SOLID
  5
7F3
330
7B7
100
AcDbEntity
  8
0
100
AcDbTrace
 10
21.77320005054201
 20
5.199999962279937
 30
0.0
 11
21.77320005054201
 21
4.399999962279936
 31
0.0
 12
20.173200050542
 22
5.199999962279937
 32
0.0
 13
20.173200050542
 23
4.399999962279936
 33
0.0
  0
SOLID
  5
7F4
330
7B7
100
AcDbEntity
  8
0
100
AcDbTrace
 10
25.223200050542
 20
4.361799962279937
 30
0.0
 11
24.105600050542
 21
4.361799962279937
 31
0.0
 12
25.223200050542
 22
6.038199962279936
 32
0.0
 13
24.105600050542
 23
6.038199962279936
 33
0.0
  0
SOLID
  5
7F5
330
7B7
100
AcDbEntity
  8
0
100
AcDbTrace
 10
22.27320005054201
 20
4.361799962279937
 30
0.0
 11
21.155600050542
 21
4.361799962279937
 31
0.0
 12
22.27320005054201
 22
6.038199962279936
 32
0.0
 13
21.155600050542
 23
6.038199962279936
 33
0.0
  0
SOLID
  5
7F6
330
7B7
100
AcDbEntity
  8
0
100
AcDbTrace
 10
25.37320005054201
 20
4.399999962279936
 30
0.0
 11
24.57320005054199
 21
4.399999962279936
 31
0.0
 12
25.37320005054201
 22
5.999999962279936
 32
0.0
 13
24.57320005054199
 23
5.999999962279936
 33
0.0
  0
SOLID
  5
7F7
330
7B7
100
AcDbEntity
  8
0
100
AcDbTrace
 10
25.37320005054201
 20
5.999999962279936
 30
0.0
 11
26.173200050542
 21
5.999999962279936
 31
0.0
 12
25.37320005054201
 22
4.399999962279936
 32
0.0
 13
26.173200050542
 23
4.399999962279936
 33
0.0
  0
SOLID
  5
7F8
330
7B7
100
AcDbEntity
  8
0
100
AcDbTrace
 10
26.173200050542
 20
5.199999962279937
 30
0.0
 11
26.173200050542
 21
4.399999962279936
 31
0.0
 12
24.57320005054199
 22
5.199999962279937
 32
0.0
 13
24.57320005054199
 23
4.399999962279936
 33
0.0
  0
SOLID
  5
7F9
330
7B7
100
AcDbEntity
  8
0
100
AcDbTrace
 10
26.21140005054201
 20
5.049999962279937
 30
0.0
 11
26.21140005054201
 21
3.932399962279935
 31
0.0
 12
24.53500005054201
 22
5.049999962279937
 32
0.0
 13
24.53500005054201
 23
3.932399962279935
 33
0.0
  0
SOLID
  5
7FA
330
7B7
100
AcDbEntity
  8
0
100
AcDbTrace
 10
26.21140005054201
 20
2.099999962279937
 30
0.0
 11
26.21140005054201
 21
0.9823999622799384
 31
0.0
 12
24.53500005054201
 22
2.099999962279937
 32
0.0
 13
24.53500005054201
 23
0.9823999622799384
 33
0.0
  0
SOLID
  5
7FB
330
7B7
100
AcDbEntity
  8
0
100
AcDbTrace
 10
26.173200050542
 20
1.599999962279937
 30
0.0
 11
26.173200050542
 21
-0.0000000377200635
 31
0.0
 12
24.57320005054199
 22
1.599999962279937
 32
0.0
 13
24.57320005054199
 23
-0.0000000377200635
 33
0.0
  0
SOLID
  5
7FC
330
7B7
100
AcDbEntity
  8
0
100
AcDbTrace
 10
21.811400050542
 20
5.049999962279937
 30
0.0
 11
21.811400050542
 21
3.932399962279935
 31
0.0
 12
20.135000050542
 22
5.049999962279937
 32
0.0
 13
20.135000050542
 23
3.932399962279935
 33
0.0
  0
SOLID
  5
7FD
330
7B7
100
AcDbEntity
  8
0
100
AcDbTrace
 10
21.811400050542
 20
2.099999962279937
 30
0.0
 11
21.811400050542
 21
0.9823999622799384
 31
0.0
 12
20.135000050542
 22
2.099999962279937
 32
0.0
 13
20.135000050542
 23
0.9823999622799384
 33
0.0
  0
SOLID
  5
7FE
330
7B7
100
AcDbEntity
  8
0
100
AcDbTrace
 10
21.77320005054201
 20
1.599999962279937
 30
0.0
 11
21.77320005054201
 21
-0.0000000377200635
 31
0.0
 12
20.173200050542
 22
1.599999962279937
 32
0.0
 13
20.173200050542
 23
-0.0000000377200635
 33
0.0
  0
SOLID
  5
7FF
330
7B7
100
AcDbEntity
  8
0
100
AcDbTrace
 10
2.338200050542006
 20
16.88499996227993
 30
0.0
 11
2.338200050542006
 21
15.68499996227993
 31
0.0
 12
1.13820005054201
 22
16.88499996227993
 32
0.0
 13
1.13820005054201
 23
15.68499996227993
 33
0.0
  0
SOLID
  5
800
330
7B7
100
AcDbEntity
  8
0
100
AcDbTrace
 10
0.0632000505420081
 20
18.19499996227993
 30
0.0
 11
0.0632000505420081
 21
15.59499996227993
 31
0.0
 12
0.0132000505420109
 22
18.19499996227993
 32
0.0
 13
0.0132000505420109
 23
15.59499996227993
 33
0.0
  0
SOLID
  5
801
330
7B7
100
AcDbEntity
  8
0
100
AcDbTrace
 10
0.0632000505420081
 20
20.69499996227993
 30
0.0
 11
0.0632000505420081
 21
18.09499996227993
 31
0.0
 12
0.0132000505420109
 22
20.69499996227993
 32
0.0
 13
0.0132000505420109
 23
18.09499996227993
 33
0.0
  0
SOLID
  5
802
330
7B7
100
AcDbEntity
  8
0
100
AcDbTrace
 10
2.313200050542008
 20
15.78499996227993
 30
0.0
 11
2.313200050542008
 21
18.19499996227993
 31
0.0
 12
2.363200050542005
 22
15.78499996227993
 32
0.0
 13
2.363200050542005
 23
18.19499996227993
 33
0.0
  0
SOLID
  5
803
330
7B7
100
AcDbEntity
  8
0
100
AcDbTrace
 10
2.313200050542008
 20
18.19499996227993
 30
0.0
 11
2.313200050542008
 21
18.70499996227994
 31
0.0
 12
2.363200050542005
 22
18.19499996227993
 32
0.0
 13
2.363200050542005
 23
18.70499996227994
 33
0.0
  0
SOLID
  5
804
330
7B7
100
AcDbEntity
  8
0
100
AcDbTrace
 10
2.338200050542006
 20
18.72999996227993
 30
0.0
 11
3.628200050542005
 21
18.72999996227993
 31
0.0
 12
2.338200050542006
 22
18.67999996227993
 32
0.0
 13
3.628200050542005
 23
18.67999996227993
 33
0.0
  0
SOLID
  5
805
330
7B7
100
AcDbEntity
  8
0
100
AcDbTrace
 10
3.653200050542011
 20
18.70499996227994
 30
0.0
 11
3.653200050542011
 21
15.78499996227993
 31
0.0
 12
3.603200050542007
 22
18.70499996227994
 32
0.0
 13
3.603200050542007
 23
15.78499996227993
 33
0.0
  0
SOLID
  5
806
330
7B7
100
AcDbEntity
  8
0
100
AcDbTrace
 10
3.628200050542005
 20
15.75999996227993
 30
0.0
 11
2.338200050542006
 21
15.75999996227993
 31
0.0
 12
3.628200050542005
 22
15.80999996227993
 32
0.0
 13
2.338200050542006
 23
15.80999996227993
 33
0.0
  0
SOLID
  5
807
330
7B7
100
AcDbEntity
  8
0
100
AcDbTrace
 10
2.348200050542004
 20
17.97499996227993
 30
0.0
 11
1.848200050542004
 21
17.97499996227993
 31
0.0
 12
2.348200050542004
 22
18.41499996227993
 32
0.0
 13
1.848200050542004
 23
18.41499996227993
 33
0.0
  0
SOLID
  5
808
330
7B7
100
AcDbEntity
  8
0
100
AcDbTrace
 10
2.338200050542006
 20
16.07499996227993
 30
0.0
 11
1.838200050542006
 21
16.07499996227993
 31
0.0
 12
2.338200050542006
 22
16.51499996227993
 32
0.0
 13
1.838200050542006
 23
16.51499996227993
 33
0.0
  0
SOLID
  5
809
330
7B7
100
AcDbEntity
  8
0
100
AcDbTrace
 10
3.628200050542005
 20
16.92499996227993
 30
0.0
 11
4.128200050542005
 21
16.92499996227993
 31
0.0
 12
3.628200050542005
 22
16.06499996227993
 32
0.0
 13
4.128200050542005
 23
16.06499996227993
 33
0.0
  0
SOLID
  5
80A
330
7B7
100
AcDbEntity
  8
0
100
AcDbTrace
 10
3.628200050542005
 20
18.41499996227993
 30
0.0
 11
4.128200050542005
 21
18.41499996227993
 31
0.0
 12
3.628200050542005
 22
17.97499996227993
 32
0.0
 13
4.128200050542005
 23
17.97499996227993
 33
0.0
  0
SOLID
  5
80B
330
7B7
100
AcDbEntity
  8
0
100
AcDbTrace
 10
5.128200050542005
 20
17.11999996227993
 30
0.0
 11
6.728200050542007
 21
17.11999996227993
 31
0.0
 12
5.128200050542005
 22
17.06999996227993
 32
0.0
 13
6.728200050542007
 23
17.06999996227993
 33
0.0
  0
SOLID
  5
80C
330
7B7
100
AcDbEntity
  8
0
100
AcDbTrace
 10
5.103200050542007
 20
17.09499996227993
 30
0.0
 11
5.103200050542007
 21
20.29499996227993
 31
0.0
 12
5.153200050542011
 22
17.09499996227993
 32
0.0
 13
5.153200050542011
 23
20.29499996227993
 33
0.0
  0
SOLID
  5
80D
330
7B7
100
AcDbEntity
  8
0
100
AcDbTrace
 10
6.703200050542008
 20
17.09499996227993
 30
0.0
 11
6.703200050542008
 21
20.29499996227993
 31
0.0
 12
6.753200050542005
 22
17.09499996227993
 32
0.0
 13
6.753200050542005
 23
20.29499996227993
 33
0.0
  0
SOLID
  5
80E
330
7B7
100
AcDbEntity
  8
0
100
AcDbTrace
 10
5.128200050542005
 20
20.31999996227993
 30
0.0
 11
6.728200050542007
 21
20.31999996227993
 31
0.0
 12
5.128200050542005
 22
20.26999996227993
 32
0.0
 13
6.728200050542007
 23
20.26999996227993
 33
0.0
  0
SOLID
  5
80F
330
7B7
100
AcDbEntity
  8
0
100
AcDbTrace
 10
0.0382000505420095
 20
18.14499996227993
 30
0.0
 11
1.63820005054201
 21
18.14499996227993
 31
0.0
 12
0.0382000505420095
 22
18.09499996227993
 32
0.0
 13
1.63820005054201
 23
18.09499996227993
 33
0.0
  0
SOLID
  5
810
330
7B7
100
AcDbEntity
  8
0
100
AcDbTrace
 10
0.0132000505420109
 20
18.11999996227993
 30
0.0
 11
0.0132000505420109
 21
21.31999996227993
 31
0.0
 12
0.0632000505420081
 22
18.11999996227993
 32
0.0
 13
0.0632000505420081
 23
21.31999996227993
 33
0.0
  0
SOLID
  5
811
330
7B7
100
AcDbEntity
  8
0
100
AcDbTrace
 10
1.613200050542005
 20
18.11999996227993
 30
0.0
 11
1.613200050542005
 21
21.31999996227993
 31
0.0
 12
1.663200050542009
 22
18.11999996227993
 32
0.0
 13
1.663200050542009
 23
21.31999996227993
 33
0.0
  0
SOLID
  5
812
330
7B7
100
AcDbEntity
  8
0
100
AcDbTrace
 10
0.0382000505420095
 20
21.34499996227993
 30
0.0
 11
1.63820005054201
 21
21.34499996227993
 31
0.0
 12
0.0382000505420095
 22
21.29499996227993
 32
0.0
 13
1.63820005054201
 23
21.29499996227993
 33
0.0
  0
SOLID
  5
813
330
7B7
100
AcDbEntity
  8
0
100
AcDbTrace
 10
6.553200050542002
 20
17.29499996227993
 30
0.0
 11
6.553200050542002
 21
15.69499996227993
 31
0.0
 12
6.503200050542005
 22
17.29499996227993
 32
0.0
 13
6.503200050542005
 23
15.69499996227993
 33
0.0
  0
SOLID
  5
814
330
7B7
100
AcDbEntity
  8
0
100
AcDbTrace
 10
6.528200050542011
 20
17.31999996227993
 30
0.0
 11
9.728200050542007
 21
17.31999996227993
 31
0.0
 12
6.528200050542011
 22
17.26999996227993
 32
0.0
 13
9.728200050542007
 23
17.26999996227993
 33
0.0
  0
SOLID
  5
815
330
7B7
100
AcDbEntity
  8
0
100
AcDbTrace
 10
6.528200050542011
 20
15.71999996227993
 30
0.0
 11
9.728200050542007
 21
15.71999996227993
 31
0.0
 12
6.528200050542011
 22
15.66999996227993
 32
0.0
 13
9.728200050542007
 23
15.66999996227993
 33
0.0
  0
SOLID
  5
816
330
7B7
100
AcDbEntity
  8
0
100
AcDbTrace
 10
9.753200050542005
 20
17.29499996227993
 30
0.0
 11
9.753200050542005
 21
15.69499996227993
 31
0.0
 12
9.703200050542008
 22
17.29499996227993
 32
0.0
 13
9.703200050542008
 23
15.69499996227993
 33
0.0
  0
SOLID
  5
817
330
7B7
100
AcDbEntity
  8
0
100
AcDbTrace
 10
13.173200050542
 20
5.499999962279936
 30
0.0
 11
20.173200050542
 21
5.499999962279936
 31
0.0
 12
13.173200050542
 22
4.899999962279936
 32
0.0
 13
20.173200050542
 23
4.899999962279936
 33
0.0
  0
SOLID
  5
818
330
7B7
100
AcDbEntity
  8
0
100
AcDbTrace
 10
24.74820005054201
 20
4.399999962279936
 30
0.0
 11
24.74820005054201
 21
5.999999962279936
 31
0.0
 12
24.798200050542
 22
4.399999962279936
 32
0.0
 13
24.798200050542
 23
5.999999962279936
 33
0.0
  0
SOLID
  5
819
330
7B7
100
AcDbEntity
  8
0
100
AcDbTrace
 10
24.77320005054201
 20
4.374999962279936
 30
0.0
 11
21.573200050542
 21
4.374999962279936
 31
0.0
 12
24.77320005054201
 22
4.424999962279937
 32
0.0
 13
21.573200050542
 23
4.424999962279937
 33
0.0
  0
SOLID
  5
81A
330
7B7
100
AcDbEntity
  8
0
100
AcDbTrace
 10
24.77320005054201
 20
5.974999962279936
 30
0.0
 11
21.573200050542
 21
5.974999962279936
 31
0.0
 12
24.77320005054201
 22
6.024999962279936
 32
0.0
 13
21.573200050542
 23
6.024999962279936
 33
0.0
  0
SOLID
  5
81B
330
7B7
100
AcDbEntity
  8
0
100
AcDbTrace
 10
21.54820005054201
 20
4.399999962279936
 30
0.0
 11
21.54820005054201
 21
5.999999962279936
 31
0.0
 12
21.598200050542
 22
4.399999962279936
 32
0.0
 13
21.598200050542
 23
5.999999962279936
 33
0.0
  0
SOLID
  5
81C
330
7B7
100
AcDbEntity
  8
0
100
AcDbTrace
 10
26.173200050542
 20
4.574999962279937
 30
0.0
 11
24.57320005054199
 21
4.574999962279937
 31
0.0
 12
26.173200050542
 22
4.624999962279936
 32
0.0
 13
24.57320005054199
 23
4.624999962279936
 33
0.0
  0
SOLID
  5
81D
330
7B7
100
AcDbEntity
  8
0
100
AcDbTrace
 10
26.19820005054199
 20
4.599999962279936
 30
0.0
 11
26.19820005054199
 21
1.399999962279935
 31
0.0
 12
26.14820005054201
 22
4.599999962279936
 32
0.0
 13
26.14820005054201
 23
1.399999962279935
 33
0.0
  0
SOLID
  5
81E
330
7B7
100
AcDbEntity
  8
0
100
AcDbTrace
 10
24.598200050542
 20
4.599999962279936
 30
0.0
 11
24.598200050542
 21
1.399999962279935
 31
0.0
 12
24.548200050542
 22
4.599999962279936
 32
0.0
 13
24.548200050542
 23
1.399999962279935
 33
0.0
  0
SOLID
  5
81F
330
7B7
100
AcDbEntity
  8
0
100
AcDbTrace
 10
26.173200050542
 20
1.374999962279936
 30
0.0
 11
24.57320005054199
 21
1.374999962279936
 31
0.0
 12
26.173200050542
 22
1.424999962279937
 32
0.0
 13
24.57320005054199
 23
1.424999962279937
 33
0.0
  0
LWPOLYLINE
  5
820
330
7B7
100
AcDbEntity
  8
0
100
AcDbPolyline
 90
        2
 70
     0
 43
0.2
 10
25.37320005054201
 20
0.399999962279935
 42
1.0
 10
25.37320005054201
 20
1.199999962279935
  0
LWPOLYLINE
  5
821
330
7B7
100
AcDbEntity
  8
0
100
AcDbPolyline
 90
        2
 70
     0
 43
0.2
 10
25.37320005054201
 20
1.199999962279935
 42
1.0
 10
25.37320005054201
 20
0.399999962279935
  0
SOLID
  5
822
330
7B7
100
AcDbEntity
  8
0
100
AcDbTrace
 10
21.77320005054201
 20
4.574999962279937
 30
0.0
 11
20.173200050542
 21
4.574999962279937
 31
0.0
 12
21.77320005054201
 22
4.624999962279936
 32
0.0
 13
20.173200050542
 23
4.624999962279936
 33
0.0
  0
SOLID
  5
823
330
7B7
100
AcDbEntity
  8
0
100
AcDbTrace
 10
21.798200050542
 20
4.599999962279936
 30
0.0
 11
21.798200050542
 21
1.399999962279935
 31
0.0
 12
21.74820005054201
 22
4.599999962279936
 32
0.0
 13
21.74820005054201
 23
1.399999962279935
 33
0.0
  0
SOLID
  5
824
330
7B7
100
AcDbEntity
  8
0
100
AcDbTrace
 10
20.19820005054199
 20
4.599999962279936
 30
0.0
 11
20.19820005054199
 21
1.399999962279935
 31
0.0
 12
20.14820005054201
 22
4.599999962279936
 32
0.0
 13
20.14820005054201
 23
1.399999962279935
 33
0.0
  0
SOLID
  5
825
330
7B7
100
AcDbEntity
  8
0
100
AcDbTrace
 10
21.77320005054201
 20
1.374999962279936
 30
0.0
 11
20.173200050542
 21
1.374999962279936
 31
0.0
 12
21.77320005054201
 22
1.424999962279937
 32
0.0
 13
20.173200050542
 23
1.424999962279937
 33
0.0
  0
LWPOLYLINE
  5
826
330
7B7
100
AcDbEntity
  8
0
100
AcDbPolyline
 90
        2
 70
     0
 43
0.2
 10
20.973200050542
 20
0.399999962279935
 42
1.0
 10
20.973200050542
 20
1.199999962279935
  0
LWPOLYLINE
  5
827
330
7B7
100
AcDbEntity
  8
0
100
AcDbPolyline
 90
        2
 70
     0
 43
0.2
 10
20.973200050542
 20
1.199999962279935
 42
1.0
 10
20.973200050542
 20
0.399999962279935
  0
LWPOLYLINE
  5
828
330
7B7
100
AcDbEntity
  8
0
100
AcDbPolyline
 90
        2
 70
     0
 43
0.2
 10
1.738200050542005
 20
15.88499996227993
 42
1.0
 10
1.738200050542005
 20
16.68499996227993
  0
LWPOLYLINE
  5
829
330
7B7
100
AcDbEntity
  8
0
100
AcDbPolyline
 90
        2
 70
     0
 43
0.2
 10
1.738200050542005
 20
16.68499996227993
 42
1.0
 10
1.738200050542005
 20
15.88499996227993
  0
ENDBLK
  5
82B
330
7B7
100
AcDbEntity
  8
0
100
AcDbBlockEnd
  0
BLOCK
  5
921
330
916
100
AcDbEntity
  8
0
100
AcDbBlockBegin
  2
*D7
 70
     1
 10
0.0
 20
0.0
 30
0.0
  3
*D7
  1

  0
LINE
  5
946
330
916
100
AcDbEntity
  8
0
 62
     0
370
    -2
100
AcDbLine
 10
-7.521491601990362
 20
16.69995504006874
 30
0.0
 11
-7.521491601990362
 21
18.18159041493304
 31
0.0
  0
LINE
  5
947
330
916
100
AcDbEntity
  8
0
 62
     0
370
    -2
100
AcDbLine
 10
52.4136056011921
 20
16.69995504006874
 30
0.0
 11
52.4136056011921
 21
18.18159041493304
 31
0.0
  0
LINE
  5
948
330
916
100
AcDbEntity
  8
0
 62
     0
370
    -2
100
AcDbLine
 10
-6.521491601990362
 20
18.00159041493304
 30
0.0
 11
21.60605699960087
 21
18.00159041493304
 31
0.0
  0
LINE
  5
949
330
916
100
AcDbEntity
  8
0
 62
     0
370
    -2
100
AcDbLine
 10
51.4136056011921
 20
18.00159041493304
 30
0.0
 11
23.28605699960087
 21
18.00159041493304
 31
0.0
  0
SOLID
  5
94A
330
916
100
AcDbEntity
  8
0
 62
     0
100
AcDbTrace
 10
-6.521491601990362
 20
18.16825708159971
 30
0.0
 11
-6.521491601990362
 21
17.83492374826638
 31
0.0
 12
-7.521491601990362
 22
18.00159041493304
 32
0.0
 13
-7.521491601990362
 23
18.00159041493304
 33
0.0
  0
SOLID
  5
94B
330
916
100
AcDbEntity
  8
0
 62
     0
100
AcDbTrace
 10
51.4136056011921
 20
18.16825708159971
 30
0.0
 11
51.4136056011921
 21
17.83492374826638
 31
0.0
 12
52.4136056011921
 22
18.00159041493304
 32
0.0
 13
52.4136056011921
 23
18.00159041493304
 33
0.0
  0
MTEXT
  5
94C
330
916
100
AcDbEntity
  8
0
 62
     0
100
AcDbMText
 10
22.44605699960087
 20
18.00159041493304
 30
0.0
 40
1.0
 41
0.0
 71
     5
 72
     1
  1
\A1;60
 73
     1
 44
1.0
  0
POINT
  5
94D
330
916
100
AcDbEntity
  8
Defpoints
 62
     0
100
AcDbPoint
 10
-7.521491601990362
 20
16.63745504006874
 30
0.0
  0
POINT
  5
94E
330
916
100
AcDbEntity
  8
Defpoints
 62
     0
100
AcDbPoint
 10
52.4136056011921
 20
16.63745504006874
 30
0.0
  0
POINT
  5
94F
330
916
100
AcDbEntity
  8
Defpoints
 62
     0
100
AcDbPoint
 10
52.4136056011921
 20
18.00159041493304
 30
0.0
  0
ENDBLK
  5
922
330
916
100
AcDbEntity
  8
0
100
AcDbBlockEnd
  0
BLOCK
  5
939
330
92E
100
AcDbEntity
  8
0
100
AcDbBlockBegin
  2
*D8
 70
     1
 10
0.0
 20
0.0
 30
0.0
  3
*D8
  1

  0
LINE
  5
950
330
92E
100
AcDbEntity
  8
0
 62
     0
370
    -2
100
AcDbLine
 10
54.00450521135852
 20
15.0550579290296
 30
0.0
 11
54.99537632958319
 21
15.0550579290296
 31
0.0
  0
LINE
  5
951
330
92E
100
AcDbEntity
  8
0
 62
     0
370
    -2
100
AcDbLine
 10
54.00450521135852
 20
-24.88682560994182
 30
0.0
 11
54.99537632958318
 21
-24.88682560994182
 31
0.0
  0
LINE
  5
952
330
92E
100
AcDbEntity
  8
0
 62
     0
370
    -2
100
AcDbLine
 10
54.81537632958319
 20
14.0550579290296
 30
0.0
 11
54.81537632958319
 21
-4.325883840456111
 31
0.0
  0
LINE
  5
953
330
92E
100
AcDbEntity
  8
0
 62
     0
370
    -2
100
AcDbLine
 10
54.81537632958318
 20
-23.88682560994182
 30
0.0
 11
54.81537632958319
 21
-5.505883840456111
 31
0.0
  0
SOLID
  5
954
330
92E
100
AcDbEntity
  8
0
 62
     0
100
AcDbTrace
 10
54.64870966291653
 20
14.0550579290296
 30
0.0
 11
54.98204299624986
 21
14.0550579290296
 31
0.0
 12
54.81537632958319
 22
15.0550579290296
 32
0.0
 13
54.81537632958319
 23
15.0550579290296
 33
0.0
  0
SOLID
  5
955
330
92E
100
AcDbEntity
  8
0
 62
     0
100
AcDbTrace
 10
54.64870966291652
 20
-23.88682560994182
 30
0.0
 11
54.98204299624985
 21
-23.88682560994182
 31
0.0
 12
54.81537632958318
 22
-24.88682560994182
 32
0.0
 13
54.81537632958318
 23
-24.88682560994182
 33
0.0
  0
MTEXT
  5
956
330
92E
100
AcDbEntity
  8
0
 62
     0
100
AcDbMText
 10
54.81537632958319
 20
-4.915883840456102
 30
0.0
 40
1.0
 41
0.0
 71
     5
 72
     1
  1
\A1;40
 73
     1
 44
1.0
  0
POINT
  5
957
330
92E
100
AcDbEntity
  8
Defpoints
 62
     0
100
AcDbPoint
 10
53.94200521135852
 20
15.0550579290296
 30
0.0
  0
POINT
  5
958
330
92E
100
AcDbEntity
  8
Defpoints
 62
     0
100
AcDbPoint
 10
53.94200521135852
 20
-24.88682560994182
 30
0.0
  0
POINT
  5
959
330
92E
100
AcDbEntity
  8
Defpoints
 62
     0
100
AcDbPoint
 10
54.81537632958318
 20
-24.88682560994182
 30
0.0
  0
ENDBLK
  5
93A
330
92E
100
AcDbEntity
  8
0
100
AcDbBlockEnd
  0
ENDSEC
  0
SECTION
  2
ENTITIES
  0
SOLID
  5
23
330
1E
100
AcDbEntity
  8
METAL1
100
AcDbTrace
 10
-6.060660759962544
 20
1.472805585628583
 30
0.0
 11
-1.060660759962544
 21
1.472805585628583
 31
0.0
 12
-6.060660759962544
 22
-1.227194414371416
 32
0.0
 13
-1.060660759962544
 23
-1.227194414371416
 33
0.0
  0
SOLID
  5
24
330
1E
100
AcDbEntity
  8
METAL1
100
AcDbTrace
 10
-0.260660759962545
 20
-1.227194414371416
 30
0.0
 11
-1.060660759962544
 21
-1.227194414371416
 31
0.0
 12
-0.260660759962545
 22
1.472805585628583
 32
0.0
 13
-1.060660759962544
 23
1.472805585628583
 33
0.0
  0
SOLID
  5
25
330
1E
100
AcDbEntity
  8
METAL1
100
AcDbTrace
 10
-0.260660759962545
 20
1.472805585628583
 30
0.0
 11
0.5393392400374549
 21
1.472805585628583
 31
0.0
 12
-0.260660759962545
 22
-1.227194414371416
 32
0.0
 13
0.5393392400374549
 23
-1.227194414371416
 33
0.0
  0
SOLID
  5
26
330
1E
100
AcDbEntity
  8
METAL1
100
AcDbTrace
 10
0.5393392400374549
 20
0.1228055856285835
 30
0.0
 11
0.5393392400374549
 21
-1.227194414371416
 31
0.0
 12
-1.060660759962544
 22
0.1228055856285835
 32
0.0
 13
-1.060660759962544
 23
-1.227194414371416
 33
0.0
  0
SOLID
  5
3D
330
1E
100
AcDbEntity
  8
METAL1
100
AcDbTrace
 10
2.239339240037455
 20
-1.077194414371415
 30
0.0
 11
0.0393392400374548
 21
-1.077194414371415
 31
0.0
 12
2.239339240037455
 22
1.322805585628582
 32
0.0
 13
0.0393392400374548
 23
1.322805585628582
 33
0.0
  0
SOLID
  5
3E
330
1E
100
AcDbEntity
  8
METAL1
100
AcDbTrace
 10
12.88008279770848
 20
-1.15906475186183
 30
0.0
 11
10.68008279770848
 21
-1.15906475186183
 31
0.0
 12
12.88008279770848
 22
1.240935248138168
 32
0.0
 13
10.68008279770848
 23
1.240935248138168
 33
0.0
  0
SOLID
  5
53
330
1E
100
AcDbEntity
  8
METAL1
100
AcDbTrace
 10
19.9
 20
1.199999999999999
 30
0.0
 11
22.1
 21
1.199999999999999
 31
0.0
 12
19.9
 22
-1.199999999999999
 32
0.0
 13
22.1
 23
-1.199999999999999
 33
0.0
  0
SOLID
  5
54
330
1E
100
AcDbEntity
  8
METAL1
100
AcDbTrace
 10
11.88008279770848
 20
1.240935248138168
 30
0.0
 11
14.08008279770848
 21
1.240935248138168
 31
0.0
 12
11.88008279770848
 22
-1.15906475186183
 32
0.0
 13
14.08008279770848
 23
-1.15906475186183
 33
0.0
  0
SOLID
  5
64
330
1E
100
AcDbEntity
  8
METAL1
100
AcDbTrace
 10
22.39999999999999
 20
0.125
 30
0.0
 11
23.19999999999999
 21
0.125
 31
0.0
 12
22.39999999999999
 22
-0.125
 32
0.0
 13
23.19999999999999
 23
-0.125
 33
0.0
  0
SOLID
  5
65
330
1E
100
AcDbEntity
  8
METAL1
100
AcDbTrace
 10
22.39999999999999
 20
-0.125
 30
0.0
 11
21.6
 21
-0.125
 31
0.0
 12
22.39999999999999
 22
0.125
 32
0.0
 13
21.6
 23
0.125
 33
0.0
  0
SOLID
  5
66
330
1E
100
AcDbEntity
  8
METAL1
100
AcDbTrace
 10
21.6
 20
0.0
 30
0.0
 11
21.6
 21
0.125
 31
0.0
 12
23.19999999999999
 22
0.0
 32
0.0
 13
23.19999999999999
 23
0.125
 33
0.0
  0
SOLID
  5
67
330
1E
100
AcDbEntity
  8
METAL1
100
AcDbTrace
 10
23.19999999999999
 20
0.5
 30
0.0
 11
24.0
 21
0.5
 31
0.0
 12
23.19999999999999
 22
-0.5
 32
0.0
 13
24.0
 23
-0.5
 33
0.0
  0
SOLID
  5
77
330
1E
100
AcDbEntity
  8
CONSTR
100
AcDbTrace
 10
23.975
 20
-2.41
 30
0.0
 11
23.975
 21
0.0
 31
0.0
 12
24.02499999999999
 22
-2.41
 32
0.0
 13
24.02499999999999
 23
0.0
 33
0.0
  0
SOLID
  5
78
330
1E
100
AcDbEntity
  8
CONSTR
100
AcDbTrace
 10
23.975
 20
0.0
 30
0.0
 11
23.975
 21
0.51
 31
0.0
 12
24.02499999999999
 22
0.0
 32
0.0
 13
24.02499999999999
 23
0.51
 33
0.0
  0
SOLID
  5
79
330
1E
100
AcDbEntity
  8
CONSTR
100
AcDbTrace
 10
24.0
 20
0.5350000000000001
 30
0.0
 11
25.28999999999999
 21
0.5350000000000001
 31
0.0
 12
24.0
 22
0.485
 32
0.0
 13
25.28999999999999
 23
0.485
 33
0.0
  0
SOLID
  5
7A
330
1E
100
AcDbEntity
  8
CONSTR
100
AcDbTrace
 10
25.315
 20
0.51
 30
0.0
 11
25.315
 21
-2.41
 31
0.0
 12
25.265
 22
0.51
 32
0.0
 13
25.265
 23
-2.41
 33
0.0
  0
SOLID
  5
7B
330
1E
100
AcDbEntity
  8
CONSTR
100
AcDbTrace
 10
25.28999999999999
 20
-2.435
 30
0.0
 11
24.0
 21
-2.435
 31
0.0
 12
25.28999999999999
 22
-2.384999999999999
 32
0.0
 13
24.0
 23
-2.384999999999999
 33
0.0
  0
SOLID
  5
7C
330
1E
100
AcDbEntity
  8
CONSTR
100
AcDbTrace
 10
24.01
 20
-0.22
 30
0.0
 11
23.51
 21
-0.22
 31
0.0
 12
24.01
 22
0.22
 32
0.0
 13
23.51
 23
0.22
 33
0.0
  0
SOLID
  5
7E
330
1E
100
AcDbEntity
  8
CONSTR
100
AcDbTrace
 10
24.0
 20
-2.12
 30
0.0
 11
23.5
 21
-2.12
 31
0.0
 12
24.0
 22
-1.679999999999999
 32
0.0
 13
23.5
 23
-1.679999999999999
 33
0.0
  0
SOLID
  5
80
330
1E
100
AcDbEntity
  8
CONSTR
100
AcDbTrace
 10
25.28999999999999
 20
-1.27
 30
0.0
 11
25.79
 21
-1.27
 31
0.0
 12
25.28999999999999
 22
-2.129999999999999
 32
0.0
 13
25.79
 23
-2.129999999999999
 33
0.0
  0
SOLID
  5
82
330
1E
100
AcDbEntity
  8
CONSTR
100
AcDbTrace
 10
25.28999999999999
 20
0.22
 30
0.0
 11
25.79
 21
0.22
 31
0.0
 12
25.28999999999999
 22
-0.22
 32
0.0
 13
25.79
 23
-0.22
 33
0.0
  0
SOLID
  5
93
330
1E
100
AcDbEntity
  8
METAL1
100
AcDbTrace
 10
25.28999999999999
 20
-1.1
 30
0.0
 11
26.79
 21
-1.1
 31
0.0
 12
25.28999999999999
 22
-2.299999999999999
 32
0.0
 13
26.79
 23
-2.299999999999999
 33
0.0
  0
SOLID
  5
94
330
1E
100
AcDbEntity
  8
METAL1
100
AcDbTrace
 10
26.79
 20
-1.1
 30
0.0
 11
28.39
 21
-1.1
 31
0.0
 12
26.79
 22
-2.299999999999999
 32
0.0
 13
28.39
 23
-2.299999999999999
 33
0.0
  0
SOLID
  5
95
330
1E
100
AcDbEntity
  8
METAL1
100
AcDbTrace
 10
26.7518
 20
-1.75
 30
0.0
 11
26.7518
 21
-0.6324
 31
0.0
 12
28.4282
 22
-1.75
 32
0.0
 13
28.4282
 23
-0.6324
 33
0.0
  0
SOLID
  5
96
330
1E
100
AcDbEntity
  8
METAL1
100
AcDbTrace
 10
26.7518
 20
1.199999999999999
 30
0.0
 11
26.7518
 21
2.3176
 31
0.0
 12
28.4282
 22
1.199999999999999
 32
0.0
 13
28.4282
 23
2.3176
 33
0.0
  0
SOLID
  5
97
330
1E
100
AcDbEntity
  8
CONSTR
100
AcDbTrace
 10
26.79
 20
-1.274999999999999
 30
0.0
 11
28.39
 21
-1.274999999999999
 31
0.0
 12
26.79
 22
-1.324999999999999
 32
0.0
 13
28.39
 23
-1.324999999999999
 33
0.0
  0
SOLID
  5
98
330
1E
100
AcDbEntity
  8
CONSTR
100
AcDbTrace
 10
26.765
 20
-1.3
 30
0.0
 11
26.765
 21
1.9
 31
0.0
 12
26.815
 22
-1.3
 32
0.0
 13
26.815
 23
1.9
 33
0.0
  0
SOLID
  5
99
330
1E
100
AcDbEntity
  8
CONSTR
100
AcDbTrace
 10
28.365
 20
-1.3
 30
0.0
 11
28.365
 21
1.9
 31
0.0
 12
28.41499999999999
 22
-1.3
 32
0.0
 13
28.41499999999999
 23
1.9
 33
0.0
  0
SOLID
  5
9A
330
1E
100
AcDbEntity
  8
CONSTR
100
AcDbTrace
 10
26.79
 20
1.925
 30
0.0
 11
28.39
 21
1.925
 31
0.0
 12
26.79
 22
1.875
 32
0.0
 13
28.39
 23
1.875
 33
0.0
  0
SOLID
  5
9B
330
1E
100
AcDbEntity
  8
METAL1
100
AcDbTrace
 10
27.465
 20
1.7
 30
0.0
 11
27.465
 21
2.7
 31
0.0
 12
27.715
 22
1.7
 32
0.0
 13
27.715
 23
2.7
 33
0.0
  0
SOLID
  5
9C
330
1E
100
AcDbEntity
  8
METAL1
100
AcDbTrace
 10
27.465
 20
2.7
 30
0.0
 11
27.465
 21
2.95
 31
0.0
 12
27.465
 22
2.7
 32
0.0
 13
27.715
 23
2.7
 33
0.0
  0
SOLID
  5
9D
330
1E
100
AcDbEntity
  8
METAL1
100
AcDbTrace
 10
22.465
 20
2.95
 30
0.0
 11
27.465
 21
2.95
 31
0.0
 12
22.465
 22
2.7
 32
0.0
 13
27.465
 23
2.7
 33
0.0
  0
SOLID
  5
9E
330
1E
100
AcDbEntity
  8
METAL1
100
AcDbTrace
 10
22.465
 20
2.7
 30
0.0
 11
22.215
 21
2.7
 31
0.0
 12
22.465
 22
2.7
 32
0.0
 13
22.465
 23
2.95
 33
0.0
  0
SOLID
  5
9F
330
1E
100
AcDbEntity
  8
METAL1
100
AcDbTrace
 10
21.5618
 20
-0.525
 30
0.0
 11
21.5618
 21
0.5926000000000001
 31
0.0
 12
23.23819999999999
 22
-0.525
 32
0.0
 13
23.23819999999999
 23
0.5926000000000001
 33
0.0
  0
SOLID
  5
A0
330
1E
100
AcDbEntity
  8
METAL1
100
AcDbTrace
 10
21.5618
 20
2.424999999999999
 30
0.0
 11
21.5618
 21
3.5426
 31
0.0
 12
23.23819999999999
 22
2.424999999999999
 32
0.0
 13
23.23819999999999
 23
3.5426
 33
0.0
  0
SOLID
  5
A1
330
1E
100
AcDbEntity
  8
CONSTR
100
AcDbTrace
 10
21.6
 20
-0.05
 30
0.0
 11
23.19999999999999
 21
-0.05
 31
0.0
 12
21.6
 22
-0.1
 32
0.0
 13
23.19999999999999
 23
-0.1
 33
0.0
  0
SOLID
  5
A2
330
1E
100
AcDbEntity
  8
CONSTR
100
AcDbTrace
 10
21.575
 20
-0.075
 30
0.0
 11
21.575
 21
3.125
 31
0.0
 12
21.625
 22
-0.075
 32
0.0
 13
21.625
 23
3.125
 33
0.0
  0
SOLID
  5
A3
330
1E
100
AcDbEntity
  8
CONSTR
100
AcDbTrace
 10
23.175
 20
-0.075
 30
0.0
 11
23.175
 21
3.125
 31
0.0
 12
23.225
 22
-0.075
 32
0.0
 13
23.225
 23
3.125
 33
0.0
  0
SOLID
  5
A4
330
1E
100
AcDbEntity
  8
CONSTR
100
AcDbTrace
 10
21.6
 20
3.149999999999999
 30
0.0
 11
23.19999999999999
 21
3.149999999999999
 31
0.0
 12
21.6
 22
3.1
 32
0.0
 13
23.19999999999999
 23
3.1
 33
0.0
  0
SOLID
  5
A5
330
1E
100
AcDbEntity
  8
METAL1
100
AcDbTrace
 10
27.74
 20
-0.8618
 30
0.0
 11
28.8576
 21
-0.8618
 31
0.0
 12
27.74
 22
-2.538199999999999
 32
0.0
 13
28.8576
 23
-2.538199999999999
 33
0.0
  0
SOLID
  5
A7
330
1E
100
AcDbEntity
  8
CONSTR
100
AcDbTrace
 10
28.215
 20
-0.9
 30
0.0
 11
28.215
 21
-2.5
 31
0.0
 12
28.16499999999999
 22
-0.9
 32
0.0
 13
28.16499999999999
 23
-2.5
 33
0.0
  0
SOLID
  5
A8
330
1E
100
AcDbEntity
  8
CONSTR
100
AcDbTrace
 10
28.19
 20
-0.875
 30
0.0
 11
31.39
 21
-0.875
 31
0.0
 12
28.19
 22
-0.925
 32
0.0
 13
31.39
 23
-0.925
 33
0.0
  0
SOLID
  5
A9
330
1E
100
AcDbEntity
  8
CONSTR
100
AcDbTrace
 10
28.19
 20
-2.475
 30
0.0
 11
31.39
 21
-2.475
 31
0.0
 12
28.19
 22
-2.524999999999999
 32
0.0
 13
31.39
 23
-2.524999999999999
 33
0.0
  0
SOLID
  5
D3
330
1E
100
AcDbEntity
  8
METAL1
100
AcDbTrace
 10
34.81703835270279
 20
-13.29247468479393
 30
0.0
 11
33.21703835270279
 21
-13.29247468479393
 31
0.0
 12
34.81703835270279
 22
-11.69247468479393
 32
0.0
 13
33.21703835270279
 23
-11.69247468479393
 33
0.0
  0
SOLID
  5
D4
330
1E
100
AcDbEntity
  8
CONSTR
100
AcDbTrace
 10
41.81703835270279
 20
-12.79247468479393
 30
0.0
 11
34.81703835270279
 21
-12.79247468479393
 31
0.0
 12
41.81703835270279
 22
-12.19247468479393
 32
0.0
 13
34.81703835270279
 23
-12.19247468479393
 33
0.0
  0
SOLID
  5
D5
330
1E
100
AcDbEntity
  8
METAL1
100
AcDbTrace
 10
41.77519030431081
 20
-12.45095781793893
 30
0.0
 11
41.77519030431081
 21
-12.50095781793892
 31
0.0
 12
41.72519030431081
 22
-12.45095781793893
 32
0.0
 13
41.72519030431081
 23
-12.50095781793892
 33
0.0
  0
SOLID
  5
D6
330
1E
100
AcDbEntity
  8
METAL1
100
AcDbTrace
 10
42.57519030431081
 20
-13.27595781793892
 30
0.0
 11
41.77519030431081
 21
-13.27595781793892
 31
0.0
 12
42.57519030431081
 22
-11.67595781793893
 32
0.0
 13
41.77519030431081
 23
-11.67595781793893
 33
0.0
  0
SOLID
  5
D7
330
1E
100
AcDbEntity
  8
METAL1
100
AcDbTrace
 10
42.57519030431081
 20
-11.67595781793893
 30
0.0
 11
43.37519030431082
 21
-11.67595781793893
 31
0.0
 12
42.57519030431081
 22
-13.27595781793892
 32
0.0
 13
43.37519030431082
 23
-13.27595781793892
 33
0.0
  0
SOLID
  5
D8
330
1E
100
AcDbEntity
  8
METAL1
100
AcDbTrace
 10
43.37519030431082
 20
-12.47595781793893
 30
0.0
 11
43.37519030431082
 21
-13.27595781793892
 31
0.0
 12
41.77519030431081
 22
-12.47595781793893
 32
0.0
 13
41.77519030431081
 23
-13.27595781793892
 33
0.0
  0
SOLID
  5
D9
330
1E
100
AcDbEntity
  8
METAL1
100
AcDbTrace
 10
46.82519030431081
 20
-13.31415781793893
 30
0.0
 11
45.70759030431082
 21
-13.31415781793893
 31
0.0
 12
46.82519030431081
 22
-11.63775781793893
 32
0.0
 13
45.70759030431082
 23
-11.63775781793893
 33
0.0
  0
SOLID
  5
DA
330
1E
100
AcDbEntity
  8
METAL1
100
AcDbTrace
 10
43.87519030431081
 20
-13.31415781793893
 30
0.0
 11
42.75759030431081
 21
-13.31415781793893
 31
0.0
 12
43.87519030431081
 22
-11.63775781793893
 32
0.0
 13
42.75759030431081
 23
-11.63775781793893
 33
0.0
  0
SOLID
  5
DB
330
1E
100
AcDbEntity
  8
CONSTR
100
AcDbTrace
 10
46.35019030431081
 20
-13.27595781793892
 30
0.0
 11
46.35019030431081
 21
-11.67595781793893
 31
0.0
 12
46.40019030431082
 22
-13.27595781793892
 32
0.0
 13
46.40019030431082
 23
-11.67595781793893
 33
0.0
  0
SOLID
  5
DC
330
1E
100
AcDbEntity
  8
CONSTR
100
AcDbTrace
 10
46.37519030431081
 20
-13.30095781793893
 30
0.0
 11
43.17519030431081
 21
-13.30095781793893
 31
0.0
 12
46.37519030431081
 22
-13.25095781793892
 32
0.0
 13
43.17519030431081
 23
-13.25095781793892
 33
0.0
  0
SOLID
  5
DD
330
1E
100
AcDbEntity
  8
CONSTR
100
AcDbTrace
 10
46.37519030431081
 20
-11.70095781793893
 30
0.0
 11
43.17519030431081
 21
-11.70095781793893
 31
0.0
 12
46.37519030431081
 22
-11.65095781793892
 32
0.0
 13
43.17519030431081
 23
-11.65095781793892
 33
0.0
  0
SOLID
  5
DE
330
1E
100
AcDbEntity
  8
CONSTR
100
AcDbTrace
 10
43.15019030431082
 20
-13.27595781793892
 30
0.0
 11
43.15019030431082
 21
-11.67595781793893
 31
0.0
 12
43.20019030431081
 22
-13.27595781793892
 32
0.0
 13
43.20019030431081
 23
-11.67595781793893
 33
0.0
  0
SOLID
  5
DF
330
1E
100
AcDbEntity
  8
METAL1
100
AcDbTrace
 10
46.97519030431081
 20
-13.27595781793893
 30
0.0
 11
46.17519030431082
 21
-13.27595781793892
 31
0.0
 12
46.97519030431081
 22
-11.67595781793893
 32
0.0
 13
46.17519030431082
 23
-11.67595781793893
 33
0.0
  0
SOLID
  5
E0
330
1E
100
AcDbEntity
  8
METAL1
100
AcDbTrace
 10
46.97519030431081
 20
-11.67595781793893
 30
0.0
 11
47.77519030431082
 21
-11.67595781793893
 31
0.0
 12
46.97519030431081
 22
-13.27595781793893
 32
0.0
 13
47.77519030431082
 23
-13.27595781793893
 33
0.0
  0
SOLID
  5
E1
330
1E
100
AcDbEntity
  8
METAL1
100
AcDbTrace
 10
47.77519030431082
 20
-12.47595781793893
 30
0.0
 11
47.77519030431082
 21
-13.27595781793893
 31
0.0
 12
46.17519030431082
 22
-12.47595781793893
 32
0.0
 13
46.17519030431082
 23
-13.27595781793892
 33
0.0
  0
SOLID
  5
E2
330
1E
100
AcDbEntity
  8
METAL1
100
AcDbTrace
 10
47.81339030431081
 20
-12.62595781793893
 30
0.0
 11
47.81339030431081
 21
-13.74355781793893
 31
0.0
 12
46.13699030431081
 22
-12.62595781793892
 32
0.0
 13
46.13699030431081
 23
-13.74355781793893
 33
0.0
  0
SOLID
  5
E3
330
1E
100
AcDbEntity
  8
METAL1
100
AcDbTrace
 10
47.81339030431081
 20
-15.57595781793893
 30
0.0
 11
47.8133903043108
 21
-16.69355781793893
 31
0.0
 12
46.13699030431081
 22
-15.57595781793893
 32
0.0
 13
46.13699030431081
 23
-16.69355781793892
 33
0.0
  0
SOLID
  5
E4
330
1E
100
AcDbEntity
  8
CONSTR
100
AcDbTrace
 10
47.77519030431082
 20
-13.10095781793893
 30
0.0
 11
46.17519030431082
 21
-13.10095781793893
 31
0.0
 12
47.77519030431082
 22
-13.05095781793893
 32
0.0
 13
46.17519030431082
 23
-13.05095781793893
 33
0.0
  0
SOLID
  5
E5
330
1E
100
AcDbEntity
  8
CONSTR
100
AcDbTrace
 10
47.80019030431081
 20
-13.07595781793893
 30
0.0
 11
47.80019030431081
 21
-16.27595781793893
 31
0.0
 12
47.75019030431082
 22
-13.07595781793893
 32
0.0
 13
47.75019030431081
 23
-16.27595781793893
 33
0.0
  0
SOLID
  5
E6
330
1E
100
AcDbEntity
  8
CONSTR
100
AcDbTrace
 10
46.20019030431081
 20
-13.07595781793893
 30
0.0
 11
46.2001903043108
 21
-16.27595781793892
 31
0.0
 12
46.15019030431081
 22
-13.07595781793893
 32
0.0
 13
46.1501903043108
 23
-16.27595781793892
 33
0.0
  0
SOLID
  5
E7
330
1E
100
AcDbEntity
  8
CONSTR
100
AcDbTrace
 10
47.77519030431081
 20
-16.30095781793893
 30
0.0
 11
46.17519030431081
 21
-16.30095781793893
 31
0.0
 12
47.77519030431081
 22
-16.25095781793893
 32
0.0
 13
46.17519030431081
 23
-16.25095781793892
 33
0.0
  0
SOLID
  5
E8
330
1E
100
AcDbEntity
  8
METAL1
100
AcDbTrace
 10
47.77519030431081
 20
-16.07595781793893
 30
0.0
 11
47.77519030431081
 21
-17.67595781793893
 31
0.0
 12
46.17519030431081
 22
-16.07595781793893
 32
0.0
 13
46.17519030431081
 23
-17.67595781793893
 33
0.0
  0
LWPOLYLINE
  5
EA
330
1E
100
AcDbEntity
  8
GND
100
AcDbPolyline
 90
        2
 70
     0
 43
0.2
 10
46.57519030431081
 20
-16.87595781793893
 42
1.0
 10
47.37519030431081
 20
-16.87595781793893
  0
LWPOLYLINE
  5
EE
330
1E
100
AcDbEntity
  8
GND
100
AcDbPolyline
 90
        2
 70
     0
 43
0.2
 10
47.37519030431081
 20
-16.87595781793893
 42
1.0
 10
46.57519030431081
 20
-16.87595781793893
  0
SOLID
  5
F2
330
1E
100
AcDbEntity
  8
METAL1
100
AcDbTrace
 10
43.41339030431082
 20
-12.62595781793892
 30
0.0
 11
43.41339030431082
 21
-13.74355781793893
 31
0.0
 12
41.73699030431081
 22
-12.62595781793892
 32
0.0
 13
41.73699030431081
 23
-13.74355781793893
 33
0.0
  0
SOLID
  5
F3
330
1E
100
AcDbEntity
  8
METAL1
100
AcDbTrace
 10
43.41339030431082
 20
-15.57595781793893
 30
0.0
 11
43.41339030431081
 21
-16.69355781793892
 31
0.0
 12
41.73699030431081
 22
-15.57595781793893
 32
0.0
 13
41.7369903043108
 23
-16.69355781793892
 33
0.0
  0
SOLID
  5
F4
330
1E
100
AcDbEntity
  8
CONSTR
100
AcDbTrace
 10
43.37519030431082
 20
-13.10095781793893
 30
0.0
 11
41.77519030431081
 21
-13.10095781793893
 31
0.0
 12
43.37519030431082
 22
-13.05095781793893
 32
0.0
 13
41.77519030431081
 23
-13.05095781793893
 33
0.0
  0
SOLID
  5
F5
330
1E
100
AcDbEntity
  8
CONSTR
100
AcDbTrace
 10
43.40019030431082
 20
-13.07595781793893
 30
0.0
 11
43.40019030431081
 21
-16.27595781793892
 31
0.0
 12
43.35019030431081
 22
-13.07595781793893
 32
0.0
 13
43.3501903043108
 23
-16.27595781793892
 33
0.0
  0
SOLID
  5
F6
330
1E
100
AcDbEntity
  8
CONSTR
100
AcDbTrace
 10
41.80019030431082
 20
-13.07595781793893
 30
0.0
 11
41.80019030431081
 21
-16.27595781793892
 31
0.0
 12
41.75019030431082
 22
-13.07595781793893
 32
0.0
 13
41.75019030431081
 23
-16.27595781793892
 33
0.0
  0
SOLID
  5
F7
330
1E
100
AcDbEntity
  8
CONSTR
100
AcDbTrace
 10
43.37519030431081
 20
-16.30095781793893
 30
0.0
 11
41.7751903043108
 21
-16.30095781793893
 31
0.0
 12
43.37519030431081
 22
-16.25095781793892
 32
0.0
 13
41.7751903043108
 23
-16.25095781793892
 33
0.0
  0
SOLID
  5
F8
330
1E
100
AcDbEntity
  8
METAL1
100
AcDbTrace
 10
43.37519030431081
 20
-16.07595781793893
 30
0.0
 11
43.37519030431081
 21
-17.67595781793893
 31
0.0
 12
41.7751903043108
 22
-16.07595781793893
 32
0.0
 13
41.7751903043108
 23
-17.67595781793893
 33
0.0
  0
LWPOLYLINE
  5
F9
330
1E
100
AcDbEntity
  8
GND
100
AcDbPolyline
 90
        2
 70
     0
 43
0.2
 10
42.17519030431081
 20
-16.87595781793893
 42
1.0
 10
42.97519030431081
 20
-16.87595781793893
  0
LWPOLYLINE
  5
FD
330
1E
100
AcDbEntity
  8
GND
100
AcDbPolyline
 90
        2
 70
     0
 43
0.2
 10
42.97519030431081
 20
-16.87595781793893
 42
1.0
 10
42.17519030431081
 20
-16.87595781793893
  0
SOLID
  5
110
330
1E
100
AcDbEntity
  8
METAL1
100
AcDbTrace
 10
26.49300269161099
 20
0.5957054549655841
 30
0.0
 11
26.49300269161099
 21
-0.6042945450344153
 31
0.0
 12
25.29300269161099
 22
0.5957054549655841
 32
0.0
 13
25.29300269161099
 23
-0.6042945450344153
 33
0.0
  0
LWPOLYLINE
  5
111
330
1E
100
AcDbEntity
  8
GND
100
AcDbPolyline
 90
        2
 70
     0
 43
0.2
 10
25.89300269161099
 20
-0.4042945450344156
 42
1.0
 10
25.89300269161099
 20
0.3957054549655845
  0
LWPOLYLINE
  5
115
330
1E
100
AcDbEntity
  8
GND
100
AcDbPolyline
 90
        2
 70
     0
 43
0.2
 10
25.89300269161099
 20
0.3957054549655845
 42
1.0
 10
25.89300269161099
 20
-0.4042945450344156
  0
SOLID
  5
119
330
1E
100
AcDbEntity
  8
METAL1
100
AcDbTrace
 10
-1.098860759962544
 20
-4.677194414371416
 30
0.0
 11
-1.098860759962544
 21
-3.559594414371415
 31
0.0
 12
0.5775392400374555
 22
-4.677194414371416
 32
0.0
 13
0.5775392400374555
 23
-3.559594414371415
 33
0.0
  0
SOLID
  5
11A
330
1E
100
AcDbEntity
  8
METAL1
100
AcDbTrace
 10
-1.098860759962544
 20
-1.727194414371416
 30
0.0
 11
-1.098860759962544
 21
-0.6095944143714167
 31
0.0
 12
0.5775392400374555
 22
-1.727194414371416
 32
0.0
 13
0.5775392400374555
 23
-0.6095944143714167
 33
0.0
  0
SOLID
  5
11B
330
1E
100
AcDbEntity
  8
CONSTR
100
AcDbTrace
 10
-1.060660759962544
 20
-4.202194414371416
 30
0.0
 11
0.5393392400374549
 21
-4.202194414371416
 31
0.0
 12
-1.060660759962544
 22
-4.252194414371416
 32
0.0
 13
0.5393392400374549
 23
-4.252194414371416
 33
0.0
  0
SOLID
  5
11C
330
1E
100
AcDbEntity
  8
CONSTR
100
AcDbTrace
 10
-1.085660759962545
 20
-4.227194414371416
 30
0.0
 11
-1.085660759962545
 21
-1.027194414371416
 31
0.0
 12
-1.035660759962544
 22
-4.227194414371416
 32
0.0
 13
-1.035660759962544
 23
-1.027194414371416
 33
0.0
  0
SOLID
  5
11D
330
1E
100
AcDbEntity
  8
CONSTR
100
AcDbTrace
 10
0.5143392400374554
 20
-4.227194414371416
 30
0.0
 11
0.5143392400374554
 21
-1.027194414371416
 31
0.0
 12
0.5643392400374552
 22
-4.227194414371416
 32
0.0
 13
0.5643392400374552
 23
-1.027194414371416
 33
0.0
  0
SOLID
  5
11E
330
1E
100
AcDbEntity
  8
CONSTR
100
AcDbTrace
 10
-1.060660759962544
 20
-1.002194414371416
 30
0.0
 11
0.5393392400374549
 21
-1.002194414371416
 31
0.0
 12
-1.060660759962544
 22
-1.052194414371417
 32
0.0
 13
0.5393392400374549
 23
-1.052194414371417
 33
0.0
  0
SOLID
  5
11F
330
1E
100
AcDbEntity
  8
METAL1
100
AcDbTrace
 10
-1.060660759962544
 20
-4.027194414371416
 30
0.0
 11
0.5393392400374549
 21
-4.027194414371416
 31
0.0
 12
-1.060660759962544
 22
-5.627194414371416
 32
0.0
 13
0.5393392400374549
 23
-5.627194414371416
 33
0.0
  0
LWPOLYLINE
  5
120
330
1E
100
AcDbEntity
  8
GND
100
AcDbPolyline
 90
        2
 70
     0
 43
0.2
 10
-0.260660759962545
 20
-5.227194414371416
 42
1.0
 10
-0.260660759962545
 20
-4.427194414371416
  0
LWPOLYLINE
  5
124
330
1E
100
AcDbEntity
  8
GND
100
AcDbPolyline
 90
        2
 70
     0
 43
0.2
 10
-0.260660759962545
 20
-4.427194414371416
 42
1.0
 10
-0.260660759962545
 20
-5.227194414371416
  0
CIRCLE
  5
15B
330
1E
100
AcDbEntity
  8
CONSTR
370
    30
100
AcDbCircle
 10
16.90057837011474
 20
0.0639162701321823
 30
0.0
 40
3.134519033452018
  0
CIRCLE
  5
15C
330
1E
100
AcDbEntity
  8
CONSTR
370
    30
100
AcDbCircle
 10
16.9460013805471
 20
-0.0268960947095707
 30
0.0
 40
1.136483575809477
  0
LWPOLYLINE
  5
15E
330
1E
100
AcDbEntity
  8
CONSTR
370
    30
100
AcDbPolyline
 90
        2
 70
     0
 43
0.0
 10
15.85584823735465
 20
-0.117708371486998
 10
17.9907313857621
 20
-0.117708371486998
  0
LWPOLYLINE
  5
165
330
1E
100
AcDbEntity
  8
CONSTR
370
    30
100
AcDbPolyline
 90
        2
 70
     0
 43
0.0
 10
15.94669438576448
 20
0.0639162701321823
 10
18.08157753417194
 20
0.0639162701321823
  0
LWPOLYLINE
  5
35E
330
1E
100
AcDbEntity
  8
CONSTR
100
AcDbPolyline
 90
        2
 70
     0
 43
0.0
 10
1.441653452682242
 20
2.242126234829594
 10
2.077975421620632
 20
-2.158646769358323
  0
LWPOLYLINE
  5
35F
330
1E
100
AcDbEntity
  8
CONSTR
100
AcDbPolyline
 90
        2
 70
     0
 43
0.0
 10
3.743019493140273
 20
0.0033523257843271
 10
4.103139403473502
 20
2.264268491003534
  0
LWPOLYLINE
  5
360
330
1E
100
AcDbEntity
  8
CONSTR
100
AcDbPolyline
 90
        2
 70
     0
 43
0.0
 10
2.415912614366636
 20
-0.0201601705483583
 10
2.775162977969461
 20
2.253197437531412
  0
LWPOLYLINE
  5
361
330
1E
100
AcDbEntity
  8
CONSTR
100
AcDbPolyline
 90
        2
 70
     0
 43
0.0
 10
2.730897087187363
 20
-2.158646769358327
 10
2.08350862072351
 20
2.236590708093544
  0
LWPOLYLINE
  5
362
330
1E
100
AcDbEntity
  8
CONSTR
100
AcDbPolyline
 90
        2
 70
     0
 43
0.0
 10
2.775162977969461
 20
2.25873296426748
 10
3.411485046227547
 20
-2.164182445324076
  0
LWPOLYLINE
  5
363
330
1E
100
AcDbEntity
  8
CONSTR
100
AcDbPolyline
 90
        2
 70
     0
 43
0.0
 10
3.422551444433318
 20
2.253197437531412
 10
4.053340214268832
 20
-2.175253498796198
  0
LWPOLYLINE
  5
364
330
1E
100
AcDbEntity
  8
CONSTR
100
AcDbPolyline
 90
        2
 70
     0
 43
0.0
 10
1.458253149310564
 20
2.34176631299746
 10
1.008276880508629
 20
-0.4032286520761872
  0
ARC
  5
365
330
1E
100
AcDbEntity
  8
CONSTR
100
AcDbCircle
 10
1.763367426910344
 20
2.235923599848039
 30
0.0
 40
0.3256099016146134
100
AcDbArc
 50
359.9495733215438
 51
180.0504266784561
  0
ARC
  5
366
330
1E
100
AcDbEntity
  8
CONSTR
100
AcDbCircle
 10
3.098352113250948
 20
2.255486018466118
 30
0.0
 40
0.3256099016146134
100
AcDbArc
 50
356.5051155470028
 51
183.4948844529971
  0
ARC
  5
367
330
1E
100
AcDbEntity
  8
CONSTR
100
AcDbCircle
 10
4.429853339262246
 20
2.247779620191266
 30
0.0
 40
0.3256099016146134
100
AcDbArc
 50
357.8628392357289
 51
2.662741806488529
  0
LWPOLYLINE
  5
368
330
1E
100
AcDbEntity
  8
CONSTR
100
AcDbPolyline
 90
        4
 70
     1
 43
0.0
 10
6.134985979575947
 20
2.551401607233906
 10
6.134985979575947
 20
2.551401607233906
 10
6.134985979575947
 20
2.551401607233906
 10
6.134985979575947
 20
2.551401607233906
  0
LWPOLYLINE
  5
369
330
1E
100
AcDbEntity
  8
CONSTR
100
AcDbPolyline
 90
        2
 70
     0
 43
0.0
 10
2.730897087187363
 20
-2.158646769358327
 10
3.085167630739963
 20
0.103968224554535
  0
LINE
  5
36A
330
1E
100
AcDbEntity
  8
CONSTR
100
AcDbLine
 10
1.655711548375624
 20
-0.4023014409458732
 30
0.0
 11
1.745123543924149
 21
0.1433412638440785
 31
0.0
  0
ARC
  5
36C
330
1E
100
AcDbEntity
  8
CONSTR
100
AcDbCircle
 10
2.403324077710868
 20
-2.154959528487808
 30
0.0
 40
0.3256099016146134
100
AcDbArc
 50
180.6813662363378
 51
359.3186337636621
  0
LWPOLYLINE
  5
36D
330
1E
100
AcDbEntity
  8
CONSTR
100
AcDbPolyline
 90
        2
 70
     0
 43
0.0
 10
4.053340214268832
 20
-2.153111242622259
 10
4.408223743619593
 20
0.0926124593922282
  0
ARC
  5
36E
330
1E
100
AcDbEntity
  8
CONSTR
100
AcDbCircle
 10
3.73064145038672
 20
-2.154959528487808
 30
0.0
 40
0.3256099016146134
100
AcDbArc
 50
180.6813662363378
 51
359.3186337636621
  0
LWPOLYLINE
  5
371
330
1E
100
AcDbEntity
  8
CONSTR
100
AcDbPolyline
 90
        2
 70
     0
 43
0.0
 10
4.120621950426736
 20
2.285136707588328
 10
4.756943919365125
 20
-2.115636296599589
  0
LWPOLYLINE
  5
372
330
1E
100
AcDbEntity
  8
CONSTR
100
AcDbPolyline
 90
        2
 70
     0
 43
0.0
 10
6.421987990884767
 20
0.0463627985430684
 10
6.782107901217994
 20
2.307278963762271
  0
LWPOLYLINE
  5
373
330
1E
100
AcDbEntity
  8
CONSTR
100
AcDbPolyline
 90
        2
 70
     0
 43
0.0
 10
5.09488111211113
 20
0.0228503022103794
 10
5.454131475713954
 20
2.296207910290149
  0
LWPOLYLINE
  5
374
330
1E
100
AcDbEntity
  8
CONSTR
100
AcDbPolyline
 90
        2
 70
     0
 43
0.0
 10
5.409865584931857
 20
-2.115636296599589
 10
4.762477118468004
 20
2.279601180852278
  0
LWPOLYLINE
  5
375
330
1E
100
AcDbEntity
  8
CONSTR
100
AcDbPolyline
 90
        2
 70
     0
 43
0.0
 10
5.454131475713954
 20
2.301743437026217
 10
6.090453543972044
 20
-2.121171972565338
  0
LWPOLYLINE
  5
376
330
1E
100
AcDbEntity
  8
CONSTR
100
AcDbPolyline
 90
        2
 70
     0
 43
0.0
 10
6.101519942177811
 20
2.296207910290149
 10
6.732308712013329
 20
-2.132243026037457
  0
ARC
  5
377
330
1E
100
AcDbEntity
  8
CONSTR
100
AcDbCircle
 10
4.442335924654837
 20
2.278934072606777
 30
0.0
 40
0.3256099016146134
100
AcDbArc
 50
359.9495733215438
 51
180.0504266784561
  0
ARC
  5
378
330
1E
100
AcDbEntity
  8
CONSTR
100
AcDbCircle
 10
5.777320610995442
 20
2.298496491224856
 30
0.0
 40
0.3256099016146134
100
AcDbArc
 50
356.5051155470028
 51
183.4948844529971
  0
LWPOLYLINE
  5
379
330
1E
100
AcDbEntity
  8
CONSTR
100
AcDbPolyline
 90
        2
 70
     0
 43
0.0
 10
5.409865584931857
 20
-2.115636296599589
 10
5.764136128484457
 20
0.1469786973132727
  0
ARC
  5
37A
330
1E
100
AcDbEntity
  8
CONSTR
100
AcDbCircle
 10
5.082292575455362
 20
-2.11194905572907
 30
0.0
 40
0.3256099016146134
100
AcDbArc
 50
180.6813662363378
 51
359.3186337636621
  0
LWPOLYLINE
  5
37B
330
1E
100
AcDbEntity
  8
CONSTR
100
AcDbPolyline
 90
        2
 70
     0
 43
0.0
 10
6.732308712013329
 20
-2.110100769863521
 10
7.087192241364087
 20
0.1356229321509659
  0
ARC
  5
37C
330
1E
100
AcDbEntity
  8
CONSTR
100
AcDbCircle
 10
6.409609948131212
 20
-2.11194905572907
 30
0.0
 40
0.3256099016146134
100
AcDbArc
 50
180.6813662363378
 51
359.3186337636621
  0
LWPOLYLINE
  5
37D
330
1E
100
AcDbEntity
  8
CONSTR
100
AcDbPolyline
 90
        2
 70
     0
 43
0.0
 10
7.761056464949353
 20
0.0550385720454081
 10
8.12117637528258
 20
2.315954737264611
  0
LWPOLYLINE
  5
37E
330
1E
100
AcDbEntity
  8
CONSTR
100
AcDbPolyline
 90
        2
 70
     0
 43
0.0
 10
6.793199949778539
 20
2.310419210528557
 10
7.42952201803663
 20
-2.112496199062995
  0
LWPOLYLINE
  5
37F
330
1E
100
AcDbEntity
  8
CONSTR
100
AcDbPolyline
 90
        2
 70
     0
 43
0.0
 10
7.440588416242396
 20
2.304883683792489
 10
8.071377186077915
 20
-2.123567252535117
  0
ARC
  5
380
330
1E
100
AcDbEntity
  8
CONSTR
100
AcDbCircle
 10
7.116389085060028
 20
2.307172264727199
 30
0.0
 40
0.3256099016146134
100
AcDbArc
 50
356.5051155470028
 51
183.4948844529971
  0
ARC
  5
381
330
1E
100
AcDbEntity
  8
CONSTR
100
AcDbCircle
 10
8.447890311071326
 20
2.299465866452344
 30
0.0
 40
0.3256099016146134
100
AcDbArc
 50
357.8628392357289
 51
2.662741806488529
  0
LWPOLYLINE
  5
382
330
1E
100
AcDbEntity
  8
CONSTR
100
AcDbPolyline
 90
        4
 70
     1
 43
0.0
 10
10.15302295138502
 20
2.603087853494983
 10
10.15302295138502
 20
2.603087853494983
 10
10.15302295138502
 20
2.603087853494983
 10
10.15302295138502
 20
2.603087853494983
  0
LWPOLYLINE
  5
383
330
1E
100
AcDbEntity
  8
CONSTR
100
AcDbPolyline
 90
        2
 70
     0
 43
0.0
 10
8.071377186077915
 20
-2.101424996361178
 10
8.426260715428673
 20
0.1442987056533056
  0
ARC
  5
384
330
1E
100
AcDbEntity
  8
CONSTR
100
AcDbCircle
 10
7.748678422195798
 20
-2.10327328222673
 30
0.0
 40
0.3256099016146134
100
AcDbArc
 50
180.6813662363378
 51
359.3186337636621
  0
LWPOLYLINE
  5
385
330
1E
100
AcDbEntity
  8
CONSTR
100
AcDbPolyline
 90
        2
 70
     0
 43
0.0
 10
8.138658922235816
 20
2.336822953849413
 10
8.774980891174209
 20
-2.063950050338508
  0
LWPOLYLINE
  5
386
330
1E
100
AcDbEntity
  8
CONSTR
100
AcDbPolyline
 90
        2
 70
     0
 43
0.0
 10
10.44002496269384
 20
0.0980490448041494
 10
10.80014487302707
 20
2.358965210023349
  0
LWPOLYLINE
  5
387
330
1E
100
AcDbEntity
  8
CONSTR
100
AcDbPolyline
 90
        2
 70
     0
 43
0.0
 10
9.112918083920209
 20
0.0745365484714569
 10
9.472168447523033
 20
2.34789415655123
  0
LWPOLYLINE
  5
388
330
1E
100
AcDbEntity
  8
CONSTR
100
AcDbPolyline
 90
        2
 70
     0
 43
0.0
 10
9.42790255674094
 20
-2.063950050338508
 10
8.780514090277083
 20
2.331287427113359
  0
LWPOLYLINE
  5
389
330
1E
100
AcDbEntity
  8
CONSTR
100
AcDbPolyline
 90
        2
 70
     0
 43
0.0
 10
9.472168447523033
 20
2.353429683287298
 10
10.10849051578112
 20
-2.069485726304257
  0
LWPOLYLINE
  5
38A
330
1E
100
AcDbEntity
  8
CONSTR
100
AcDbPolyline
 90
        2
 70
     0
 43
0.0
 10
10.11955691398689
 20
2.34789415655123
 10
10.75034568382241
 20
-2.080556779776379
  0
ARC
  5
38B
330
1E
100
AcDbEntity
  8
CONSTR
100
AcDbCircle
 10
8.460372896463917
 20
2.330620318867858
 30
0.0
 40
0.3256099016146134
100
AcDbArc
 50
359.9495733215438
 51
180.0504266784561
  0
ARC
  5
38C
330
1E
100
AcDbEntity
  8
CONSTR
100
AcDbCircle
 10
9.79535758280452
 20
2.350182737485937
 30
0.0
 40
0.3256099016146134
100
AcDbArc
 50
356.5051155470028
 51
183.4948844529971
  0
LWPOLYLINE
  5
38D
330
1E
100
AcDbEntity
  8
CONSTR
100
AcDbPolyline
 90
        2
 70
     0
 43
0.0
 10
9.42790255674094
 20
-2.063950050338508
 10
9.782173100293537
 20
0.1986649435743537
  0
ARC
  5
38E
330
1E
100
AcDbEntity
  8
CONSTR
100
AcDbCircle
 10
9.10032954726444
 20
-2.060262809467992
 30
0.0
 40
0.3256099016146134
100
AcDbArc
 50
180.6813662363378
 51
359.3186337636621
  0
LWPOLYLINE
  5
38F
330
1E
100
AcDbEntity
  8
CONSTR
100
AcDbPolyline
 90
        2
 70
     0
 43
0.0
 10
10.75034568382241
 20
-2.05841452360244
 10
11.10522921317316
 20
0.1873091784120468
  0
ARC
  5
390
330
1E
100
AcDbEntity
  8
CONSTR
100
AcDbCircle
 10
10.42764691994029
 20
-2.060262809467992
 30
0.0
 40
0.3256099016146134
100
AcDbArc
 50
180.6813662363378
 51
359.3186337636621
  0
LWPOLYLINE
  5
391
330
1E
100
AcDbEntity
  8
CONSTR
100
AcDbPolyline
 90
        2
 70
     0
 43
0.0
 10
10.79092059037945
 20
2.383890475735178
 10
11.18980387329784
 20
-0.388647373655612
  0
LWPOLYLINE
  5
392
330
1E
100
AcDbEntity
  8
CONSTR
100
AcDbPolyline
 90
        2
 70
     0
 43
0.0
 10
11.43830905684331
 20
2.37835494899911
 10
11.83230993758484
 20
-0.387727220930298
  0
ARC
  5
393
330
1E
100
AcDbEntity
  8
CONSTR
100
AcDbCircle
 10
11.11410972566094
 20
2.380643529933816
 30
0.0
 40
0.3256099016146134
100
AcDbArc
 50
356.5051155470028
 51
183.4948844529971
  0
ARC
  5
39E
330
1E
100
AcDbEntity
  8
CONSTR
100
AcDbCircle
 10
1.305664141544999
 20
-0.3897672557071701
 30
0.0
 40
0.3256099016146134
100
AcDbArc
 50
180.6813662363378
 51
359.3186337636621
  0
ARC
  5
3A4
330
1E
100
AcDbEntity
  8
CONSTR
100
AcDbCircle
 10
11.5333990447421
 20
-0.3120187040258315
 30
0.0
 40
0.3256099016146134
100
AcDbArc
 50
180.6813662363378
 51
359.3186337636621
  0
MTEXT
  5
438
330
1E
100
AcDbEntity
  8
CONSTR
100
AcDbMText
 10
-0.634049189132881
 20
-3.465169423832037
 30
0.0
 40
0.6
 41
5.133099999999999
 71
     1
 72
     5
  1
82pF
 11
0.0000000000000001
 21
1.0
 31
0.0
 73
     1
 44
1.0
  0
MTEXT
  5
439
330
1E
100
AcDbEntity
  8
CONSTR
100
AcDbMText
 10
22.16971139528452
 20
0.9394976410666089
 30
0.0
 40
0.6
 41
4.1337
 71
     1
 72
     5
  1
1k
 11
0.0000000000000001
 21
1.0
 31
0.0
 73
     1
 44
1.0
  0
MTEXT
  5
43A
330
1E
100
AcDbEntity
  8
CONSTR
100
AcDbMText
 10
28.89273235667014
 20
-1.285540434332133
 30
0.0
 40
0.6
 41
5.314799999999999
 71
     1
 72
     5
  1
12pF
 73
     1
 44
1.0
  0
MTEXT
  5
43B
330
1E
100
AcDbEntity
  8
CONSTR
100
AcDbMText
 10
27.07569964027213
 20
-0.4227706204840587
 30
0.0
 40
0.4
 41
2.770999999999999
 71
     1
 72
     5
  1
22k+\P10nF
 11
0.0000000000000001
 21
1.0
 31
0.0
 73
     1
 44
1.0
  0
MTEXT
  5
43C
330
1E
100
AcDbEntity
  8
CONSTR
100
AcDbMText
 10
24.35015062945154
 20
-2.284537065528297
 30
0.0
 40
0.5
 41
2.816399999999999
 71
     1
 72
     5
  1
BFP196
 11
0.0000000000000001
 21
1.0
 31
0.0
 73
     1
 44
1.0
  0
MTEXT
  5
43D
330
1E
100
AcDbEntity
  8
CONSTR
100
AcDbMText
 10
42.95060665219208
 20
-14.06487019761826
 30
0.0
 40
0.6
 41
3.134399999999999
 71
     1
 72
     5
  1
1nF
 11
-0.0000000000000002
 21
-1.0
 31
0.0
 73
     1
 44
1.0
  0
MTEXT
  5
43E
330
1E
100
AcDbEntity
  8
CONSTR
100
AcDbMText
 10
47.30986463119191
 20
-13.74952836991495
 30
0.0
 40
0.6
 41
3.951999999999999
 71
     1
 72
     5
  1
20nF
 11
-0.0000000000000002
 21
-1.0
 31
0.0
 73
     1
 44
1.0
  0
MTEXT
  5
43F
330
1E
100
AcDbEntity
  8
CONSTR
100
AcDbMText
 10
44.17664792025528
 20
-12.25047664355879
 30
0.0
 40
0.6
 41
2.2713
 71
     1
 72
     5
  1
68
 73
     1
 44
1.0
  0
MTEXT
  5
440
330
1E
100
AcDbEntity
  8
CONSTR
100
AcDbMText
 10
3.045442026496047
 20
-3.646805062869916
 30
0.0
 40
0.8
 41
13.3098
 71
     1
 72
     5
  1
n=10zav.\PD=8mm\Pl=10mm\Pd=0.7mm Cul
 73
     1
 44
1.0
  0
MTEXT
  5
441
330
1E
100
AcDbEntity
  8
CONSTR
100
AcDbMText
 10
15.31041295784724
 20
-4.100894512743394
 30
0.0
 40
0.6
 41
5.9054
 71
     1
 72
     5
  1
3-20 pF\P(12pf)
 73
     1
 44
1.0
  0
MTEXT
  5
442
330
1E
100
AcDbEntity
  8
CONSTR
100
AcDbMText
 10
5.543861995599201
 20
5.298755531996775
 30
0.0
 40
1.199999999999999
 41
3.8612
 71
     1
 72
     5
  1
L
 73
     1
 44
1.0
  0
MTEXT
  5
443
330
1E
100
AcDbEntity
  8
CONSTR
100
AcDbMText
 10
15.49211608917893
 20
5.52580034500319
 30
0.0
 40
1.199999999999999
 41
7.449799999999999
 71
     1
 72
     5
  1
C{\H0.5x;trimer}
 73
     1
 44
1.0
  0
MTEXT
  5
444
330
1E
100
AcDbEntity
  8
CONSTR
100
AcDbMText
 10
-7.018193450885917
 20
4.799257172363823
 30
0.0
 40
1.6
 41
10.6296
 71
     1
 72
     5
  1
Ant
 73
     1
 44
1.0
  0
MTEXT
  5
445
330
1E
100
AcDbEntity
  8
CONSTR
100
AcDbMText
 10
44.83111724761655
 20
3.181254162393571
 30
0.0
 40
1.6
 41
8.2675
 71
     1
 72
     5
  1
Rx
 73
     1
 44
1.0
  0
LWPOLYLINE
  5
46F
330
1E
100
AcDbEntity
  8
METAL1
100
AcDbPolyline
 90
        4
 70
     1
 43
0.0
 10
-7.572070875951538
 20
15.08181337358903
 10
52.42792912404846
 20
15.08181337358903
 10
52.42792912404846
 20
-24.91818662641097
 10
-7.572070875951538
 20
-24.91818662641097
  0
SOLID
  5
48D
330
1E
100
AcDbEntity
  8
METAL1
100
AcDbTrace
 10
24.02792612912409
 20
-1.266458311852955
 30
0.0
 11
24.02792612912409
 21
-2.466458311852955
 31
0.0
 12
22.82792612912409
 22
-1.266458311852955
 32
0.0
 13
22.82792612912409
 23
-2.466458311852955
 33
0.0
  0
LWPOLYLINE
  5
48E
330
1E
100
AcDbEntity
  8
GND
100
AcDbPolyline
 90
        2
 70
     0
 43
0.2
 10
23.42792612912409
 20
-2.266458311852955
 42
1.0
 10
23.42792612912409
 20
-1.466458311852955
  0
LWPOLYLINE
  5
48F
330
1E
100
AcDbEntity
  8
GND
100
AcDbPolyline
 90
        2
 70
     0
 43
0.2
 10
23.42792612912409
 20
-1.466458311852955
 42
1.0
 10
23.42792612912409
 20
-2.266458311852955
  0
MTEXT
  5
51A
330
1E
100
AcDbEntity
  8
METAL1
370
    30
100
AcDbMText
 10
20.40403274927155
 20
11.76663739149828
 30
0.0
 40
1.8
 41
57.7028
 71
     5
 72
     5
  1
BFP196 HI-DYNAMIC 70 MHz LNA YU1AW
 73
     1
 44
1.0
  0
SOLID
  5
56D
330
1E
100
AcDbEntity
  8
METAL1
100
AcDbTrace
 10
47.79018852060747
 20
-6.040426135100677
 30
0.0
 11
47.79018852060747
 21
-7.640426135100675
 31
0.0
 12
46.19018852060747
 22
-6.040426135100677
 32
0.0
 13
46.19018852060747
 23
-7.640426135100675
 33
0.0
  0
SOLID
  5
56E
330
1E
100
AcDbEntity
  8
METAL1
100
AcDbTrace
 10
47.73940078872519
 20
-8.781948359752863
 30
0.0
 11
47.73940078872519
 21
-10.38194835975286
 31
0.0
 12
46.13940078872519
 22
-8.781948359752863
 32
0.0
 13
46.13940078872519
 23
-10.38194835975286
 33
0.0
  0
LWPOLYLINE
  5
56F
330
1E
100
AcDbEntity
  8
GND
100
AcDbPolyline
 90
        2
 70
     0
 43
0.2
 10
46.93940078872519
 20
-9.981948359752863
 42
1.0
 10
46.93940078872519
 20
-9.181948359752862
  0
LWPOLYLINE
  5
570
330
1E
100
AcDbEntity
  8
GND
100
AcDbPolyline
 90
        2
 70
     0
 43
0.2
 10
46.93940078872519
 20
-9.181948359752862
 42
1.0
 10
46.93940078872519
 20
-9.981948359752863
  0
INSERT
  5
571
330
1E
100
AcDbEntity
  8
CONSTR
100
AcDbBlockReference
  2
elkon
 10
40.27432611086972
 20
-18.27936864339127
 30
0.0
  0
INSERT
  5
572
330
1E
100
AcDbEntity
  8
CONSTR
100
AcDbBlockReference
  2
elkon
 10
52.26512941262398
 20
-0.783285535949748
 30
0.0
 50
180.0
  0
INSERT
  5
573
330
1E
100
AcDbEntity
  8
CONSTR
100
AcDbBlockReference
  2
rfc
 10
76.52499368948238
 20
22.17245368699242
 30
0.0
 41
5.747672421525734
 42
5.747672421525731
 43
5.747672421525731
 50
180.0
  0
LWPOLYLINE
  5
576
330
1E
100
AcDbEntity
  8
CONSTR
100
AcDbPolyline
 90
        2
 70
     0
 43
0.0
 10
47.79601109322417
 20
-7.550431753849254
 10
47.91177169410683
 20
-8.168490670643047
  0
LWPOLYLINE
  5
577
330
1E
100
AcDbEntity
  8
CONSTR
100
AcDbPolyline
 90
        2
 70
     0
 43
0.0
 10
47.98653093603966
 20
-9.633590840097827
 10
47.52297657639187
 20
-9.595058159775703
  0
MTEXT
  5
578
330
1E
100
AcDbEntity
  8
CONSTR
100
AcDbMText
 10
44.08248306804404
 20
-7.075898571441022
 30
0.0
 40
0.6
 41
1.6775
 71
     1
 72
     5
  1
1uF
 73
     1
 44
1.0
  0
MTEXT
  5
579
330
1E
100
AcDbEntity
  8
CONSTR
100
AcDbMText
 10
45.58414177223601
 20
-5.758829421076285
 30
0.0
 40
0.6
 41
2.423099999999999
 71
     1
 72
     5
  1
10uH
 11
0.0000000000000001
 21
1.0
 31
0.0
 73
     1
 44
1.0
  0
MTEXT
  5
57A
330
1E
100
AcDbEntity
  8
CONSTR
100
AcDbMText
 10
44.41278877468365
 20
-9.587113104959833
 30
0.0
 40
0.6
 41
1.6775
 71
     1
 72
     5
  1
1uF
 73
     1
 44
1.0
  0
MTEXT
  5
57B
330
1E
100
AcDbEntity
  8
CONSTR
100
AcDbMText
 10
49.43350649800555
 20
-11.17953800354089
 30
0.0
 40
0.5999999999999999
 41
3.075399999999999
 71
     1
 72
     5
  1
78L10
 11
-0.0031168054897748
 21
0.999995142749973
 31
0.0
 73
     1
 44
1.0
  0
INSERT
  5
57C
330
1E
100
AcDbEntity
  8
CONSTR
100
AcDbBlockReference
  2
tri
 10
48.11619144699523
 20
-20.78867691402863
 30
0.0
 50
45.00000000000008
  0
LWPOLYLINE
  5
57D
330
1E
100
AcDbEntity
  8
CONSTR
100
AcDbPolyline
 90
        2
 70
     0
 43
0.0
 10
47.90208538869581
 20
-10.93731693431316
 10
48.09537459031495
 20
-10.28056277728094
  0
LWPOLYLINE
  5
57E
330
1E
100
AcDbEntity
  8
CONSTR
100
AcDbPolyline
 90
        2
 70
     0
 43
0.0
 10
47.92881962983154
 20
-8.198770935066962
 10
48.04458023071419
 20
-8.816829851860754
  0
LWPOLYLINE
  5
585
330
1E
100
AcDbEntity
  8
CONSTR
100
AcDbPolyline
 90
        2
 70
     0
 43
0.0
 10
47.67897838640872
 20
-11.61081319284382
 10
47.87226758802785
 20
-10.9540590358116
  0
LWPOLYLINE
  5
59B
330
1E
100
AcDbEntity
  8
CONSTR
100
AcDbPolyline
 90
        2
 70
     0
 43
0.0
 10
46.90230243937061
 20
-2.483636531245821
 10
46.90230243937061
 20
-3.54917223029372
  0
MTEXT
  5
5A3
330
1E
100
AcDbEntity
  8
CONSTR
100
AcDbMText
 10
38.95231016784256
 20
-10.25838372654392
 30
0.0
 40
0.6
 41
6.372399999999999
 71
     1
 72
     5
  1
0.3-0.4mm\PCul
 73
     1
 44
1.0
  0
SOLID
  5
8B7
330
1E
100
AcDbEntity
  8
METAL1
100
AcDbTrace
 10
31.17454905316177
 20
-0.3172813702134292
 30
0.0
 11
51.17454905316177
 21
-0.3172813702134292
 31
0.0
 12
31.17454905316177
 22
-3.017281370213428
 32
0.0
 13
51.17454905316177
 23
-3.017281370213428
 33
0.0
  0
SOLID
  5
8B8
330
1E
100
AcDbEntity
  8
METAL1
100
AcDbTrace
 10
27.44954905316176
 20
-6.173834358335454
 30
0.0
 11
27.44954905316176
 21
-2.173834358335454
 31
0.0
 12
27.69954905316176
 22
-6.173834358335454
 32
0.0
 13
27.69954905316176
 23
-2.173834358335454
 33
0.0
  0
SOLID
  5
8B9
330
1E
100
AcDbEntity
  8
METAL1
100
AcDbTrace
 10
27.69954905316176
 20
-6.173834358335454
 30
0.0
 11
27.69954905316176
 21
-16.29383435833545
 31
0.0
 12
27.44954905316176
 22
-6.173834358335454
 32
0.0
 13
27.44954905316176
 23
-16.29383435833545
 33
0.0
  0
SOLID
  5
8BA
330
1E
100
AcDbEntity
  8
METAL1
100
AcDbTrace
 10
27.44954905316176
 20
-16.04383435833545
 30
0.0
 11
28.19954905316176
 21
-16.04383435833545
 31
0.0
 12
27.44954905316176
 22
-16.29383435833545
 32
0.0
 13
28.19954905316176
 23
-16.29383435833545
 33
0.0
  0
SOLID
  5
8BB
330
1E
100
AcDbEntity
  8
METAL1
100
AcDbTrace
 10
27.94954905316176
 20
-16.04383435833545
 30
0.0
 11
37.81954905316176
 21
-16.04383435833545
 31
0.0
 12
27.94954905316176
 22
-16.29383435833545
 32
0.0
 13
37.81954905316176
 23
-16.29383435833545
 33
0.0
  0
SOLID
  5
8BC
330
1E
100
AcDbEntity
  8
METAL1
100
AcDbTrace
 10
37.56954905316176
 20
-16.29383435833545
 30
0.0
 11
37.56954905316176
 21
-15.54383435833545
 31
0.0
 12
37.81954905316176
 22
-16.29383435833545
 32
0.0
 13
37.81954905316176
 23
-15.54383435833545
 33
0.0
  0
SOLID
  5
8BD
330
1E
100
AcDbEntity
  8
METAL1
100
AcDbTrace
 10
37.56954905316176
 20
-15.79383435833545
 30
0.0
 11
37.56954905316176
 21
-6.173834358335454
 31
0.0
 12
37.81954905316176
 22
-15.79383435833545
 32
0.0
 13
37.81954905316176
 23
-6.173834358335454
 33
0.0
  0
SOLID
  5
8BE
330
1E
100
AcDbEntity
  8
METAL1
100
AcDbTrace
 10
37.81954905316176
 20
-6.423834358335454
 30
0.0
 11
37.06954905316176
 21
-6.423834358335454
 31
0.0
 12
37.81954905316176
 22
-6.173834358335454
 32
0.0
 13
37.06954905316176
 23
-6.173834358335454
 33
0.0
  0
SOLID
  5
8BF
330
1E
100
AcDbEntity
  8
METAL1
100
AcDbTrace
 10
37.31954905316176
 20
-6.423834358335454
 30
0.0
 11
27.94954905316176
 21
-6.423834358335454
 31
0.0
 12
37.31954905316176
 22
-6.173834358335454
 32
0.0
 13
27.94954905316176
 23
-6.173834358335454
 33
0.0
  0
SOLID
  5
8C0
330
1E
100
AcDbEntity
  8
METAL1
100
AcDbTrace
 10
28.19954905316176
 20
-6.173834358335454
 30
0.0
 11
28.19954905316176
 21
-15.79383435833545
 31
0.0
 12
27.94954905316176
 22
-6.173834358335454
 32
0.0
 13
27.94954905316176
 23
-15.79383435833545
 33
0.0
  0
SOLID
  5
8C1
330
1E
100
AcDbEntity
  8
METAL1
100
AcDbTrace
 10
27.94954905316176
 20
-15.54383435833545
 30
0.0
 11
37.31954905316176
 21
-15.54383435833545
 31
0.0
 12
27.94954905316176
 22
-15.79383435833545
 32
0.0
 13
37.31954905316176
 23
-15.79383435833545
 33
0.0
  0
SOLID
  5
8C2
330
1E
100
AcDbEntity
  8
METAL1
100
AcDbTrace
 10
37.06954905316176
 20
-15.79383435833545
 30
0.0
 11
37.06954905316176
 21
-6.673834358335454
 31
0.0
 12
37.31954905316176
 22
-15.79383435833545
 32
0.0
 13
37.31954905316176
 23
-6.673834358335454
 33
0.0
  0
SOLID
  5
8C3
330
1E
100
AcDbEntity
  8
METAL1
100
AcDbTrace
 10
37.31954905316176
 20
-6.923834358335454
 30
0.0
 11
28.44954905316176
 21
-6.923834358335454
 31
0.0
 12
37.31954905316176
 22
-6.673834358335454
 32
0.0
 13
28.44954905316176
 23
-6.673834358335454
 33
0.0
  0
SOLID
  5
8C4
330
1E
100
AcDbEntity
  8
METAL1
100
AcDbTrace
 10
28.69954905316176
 20
-6.673834358335454
 30
0.0
 11
28.69954905316176
 21
-15.29383435833545
 31
0.0
 12
28.44954905316176
 22
-6.673834358335454
 32
0.0
 13
28.44954905316176
 23
-15.29383435833545
 33
0.0
  0
SOLID
  5
8C5
330
1E
100
AcDbEntity
  8
METAL1
100
AcDbTrace
 10
28.44954905316176
 20
-15.04383435833545
 30
0.0
 11
36.81954905316176
 21
-15.04383435833545
 31
0.0
 12
28.44954905316176
 22
-15.29383435833545
 32
0.0
 13
36.81954905316176
 23
-15.29383435833545
 33
0.0
  0
SOLID
  5
8C6
330
1E
100
AcDbEntity
  8
METAL1
100
AcDbTrace
 10
36.56954905316176
 20
-15.29383435833545
 30
0.0
 11
36.56954905316176
 21
-7.173834358335454
 31
0.0
 12
36.81954905316176
 22
-15.29383435833545
 32
0.0
 13
36.81954905316176
 23
-7.173834358335454
 33
0.0
  0
SOLID
  5
8C7
330
1E
100
AcDbEntity
  8
METAL1
100
AcDbTrace
 10
36.81954905316176
 20
-7.423834358335454
 30
0.0
 11
28.94954905316176
 21
-7.423834358335454
 31
0.0
 12
36.81954905316176
 22
-7.173834358335454
 32
0.0
 13
28.94954905316176
 23
-7.173834358335454
 33
0.0
  0
SOLID
  5
8C8
330
1E
100
AcDbEntity
  8
METAL1
100
AcDbTrace
 10
29.19954905316176
 20
-7.173834358335454
 30
0.0
 11
29.19954905316176
 21
-14.79383435833545
 31
0.0
 12
28.94954905316176
 22
-7.173834358335454
 32
0.0
 13
28.94954905316176
 23
-14.79383435833545
 33
0.0
  0
SOLID
  5
8C9
330
1E
100
AcDbEntity
  8
METAL1
100
AcDbTrace
 10
28.94954905316176
 20
-14.54383435833545
 30
0.0
 11
36.31954905316176
 21
-14.54383435833545
 31
0.0
 12
28.94954905316176
 22
-14.79383435833545
 32
0.0
 13
36.31954905316176
 23
-14.79383435833545
 33
0.0
  0
SOLID
  5
8CA
330
1E
100
AcDbEntity
  8
METAL1
100
AcDbTrace
 10
36.06954905316176
 20
-14.79383435833545
 30
0.0
 11
36.06954905316176
 21
-7.673834358335454
 31
0.0
 12
36.31954905316176
 22
-14.79383435833545
 32
0.0
 13
36.31954905316176
 23
-7.673834358335454
 33
0.0
  0
SOLID
  5
8CB
330
1E
100
AcDbEntity
  8
METAL1
100
AcDbTrace
 10
36.31954905316176
 20
-7.923834358335454
 30
0.0
 11
29.44954905316176
 21
-7.923834358335454
 31
0.0
 12
36.31954905316176
 22
-7.673834358335454
 32
0.0
 13
29.44954905316176
 23
-7.673834358335454
 33
0.0
  0
SOLID
  5
8CC
330
1E
100
AcDbEntity
  8
METAL1
100
AcDbTrace
 10
29.69954905316176
 20
-7.673834358335454
 30
0.0
 11
29.69954905316176
 21
-14.29383435833545
 31
0.0
 12
29.44954905316176
 22
-7.673834358335454
 32
0.0
 13
29.44954905316176
 23
-14.29383435833545
 33
0.0
  0
SOLID
  5
8CD
330
1E
100
AcDbEntity
  8
METAL1
100
AcDbTrace
 10
29.44954905316176
 20
-14.04383435833545
 30
0.0
 11
35.81954905316176
 21
-14.04383435833545
 31
0.0
 12
29.44954905316176
 22
-14.29383435833545
 32
0.0
 13
35.81954905316176
 23
-14.29383435833545
 33
0.0
  0
SOLID
  5
8CE
330
1E
100
AcDbEntity
  8
METAL1
100
AcDbTrace
 10
35.56954905316176
 20
-14.29383435833545
 30
0.0
 11
35.56954905316176
 21
-8.173834358335454
 31
0.0
 12
35.81954905316176
 22
-14.29383435833545
 32
0.0
 13
35.81954905316176
 23
-8.173834358335454
 33
0.0
  0
SOLID
  5
8CF
330
1E
100
AcDbEntity
  8
METAL1
100
AcDbTrace
 10
35.81954905316176
 20
-8.423834358335454
 30
0.0
 11
29.94954905316176
 21
-8.423834358335454
 31
0.0
 12
35.81954905316176
 22
-8.173834358335454
 32
0.0
 13
29.94954905316176
 23
-8.173834358335454
 33
0.0
  0
SOLID
  5
8D0
330
1E
100
AcDbEntity
  8
METAL1
100
AcDbTrace
 10
30.19954905316176
 20
-8.173834358335454
 30
0.0
 11
30.19954905316176
 21
-13.79383435833545
 31
0.0
 12
29.94954905316176
 22
-8.173834358335454
 32
0.0
 13
29.94954905316176
 23
-13.79383435833545
 33
0.0
  0
SOLID
  5
8D1
330
1E
100
AcDbEntity
  8
METAL1
100
AcDbTrace
 10
29.94954905316176
 20
-13.54383435833545
 30
0.0
 11
35.31954905316176
 21
-13.54383435833545
 31
0.0
 12
29.94954905316176
 22
-13.79383435833545
 32
0.0
 13
35.31954905316176
 23
-13.79383435833545
 33
0.0
  0
SOLID
  5
8D2
330
1E
100
AcDbEntity
  8
METAL1
100
AcDbTrace
 10
35.06954905316176
 20
-13.79383435833545
 30
0.0
 11
35.06954905316176
 21
-8.673834358335454
 31
0.0
 12
35.31954905316176
 22
-13.79383435833545
 32
0.0
 13
35.31954905316176
 23
-8.673834358335454
 33
0.0
  0
SOLID
  5
8D3
330
1E
100
AcDbEntity
  8
METAL1
100
AcDbTrace
 10
35.31954905316176
 20
-8.923834358335454
 30
0.0
 11
30.44954905316176
 21
-8.923834358335454
 31
0.0
 12
35.31954905316176
 22
-8.673834358335454
 32
0.0
 13
30.44954905316176
 23
-8.673834358335454
 33
0.0
  0
SOLID
  5
8D4
330
1E
100
AcDbEntity
  8
METAL1
100
AcDbTrace
 10
30.69954905316176
 20
-8.673834358335454
 30
0.0
 11
30.69954905316176
 21
-13.29383435833545
 31
0.0
 12
30.44954905316176
 22
-8.673834358335454
 32
0.0
 13
30.44954905316176
 23
-13.29383435833545
 33
0.0
  0
SOLID
  5
8D5
330
1E
100
AcDbEntity
  8
METAL1
100
AcDbTrace
 10
30.44954905316176
 20
-13.04383435833545
 30
0.0
 11
34.81954905316176
 21
-13.04383435833545
 31
0.0
 12
30.44954905316176
 22
-13.29383435833545
 32
0.0
 13
34.81954905316176
 23
-13.29383435833545
 33
0.0
  0
SOLID
  5
8D6
330
1E
100
AcDbEntity
  8
METAL1
100
AcDbTrace
 10
34.56954905316176
 20
-13.29383435833545
 30
0.0
 11
34.56954905316176
 21
-12.79383435833545
 31
0.0
 12
34.81954905316176
 22
-13.29383435833545
 32
0.0
 13
34.81954905316176
 23
-12.79383435833545
 33
0.0
  0
SOLID
  5
8D8
330
1E
100
AcDbEntity
  8
METAL1
100
AcDbTrace
 10
34.81954905316176
 20
-12.79383435833545
 30
0.0
 11
34.56954905316176
 21
-12.79383435833545
 31
0.0
 12
34.81954905316176
 22
-12.54383435833545
 32
0.0
 13
34.56954905316176
 23
-12.54383435833545
 33
0.0
  0
SOLID
  5
8FC
330
1E
100
AcDbEntity
  8
CONSTR
100
AcDbTrace
 10
28.17454905316177
 20
-0.8422813702134277
 30
0.0
 11
31.37454905316176
 21
-0.8422813702134277
 31
0.0
 12
28.17454905316177
 22
-0.8922813702134284
 32
0.0
 13
31.37454905316176
 23
-0.8922813702134284
 33
0.0
  0
SOLID
  5
8FD
330
1E
100
AcDbEntity
  8
CONSTR
100
AcDbTrace
 10
28.17454905316177
 20
-2.442281370213429
 30
0.0
 11
31.37454905316176
 21
-2.442281370213429
 31
0.0
 12
28.17454905316177
 22
-2.492281370213426
 32
0.0
 13
31.37454905316176
 23
-2.492281370213426
 33
0.0
  0
SOLID
  5
8FE
330
1E
100
AcDbEntity
  8
CONSTR
100
AcDbTrace
 10
31.39954905316176
 20
-0.8672813702134263
 30
0.0
 11
31.39954905316176
 21
-2.467281370213427
 31
0.0
 12
31.34954905316176
 22
-0.8672813702134263
 32
0.0
 13
31.34954905316176
 23
-2.467281370213427
 33
0.0
  0
DIMENSION
  5
915
330
1E
100
AcDbEntity
  8
0
100
AcDbDimension
  2
*D7
 10
52.4136056011921
 20
18.00159041493304
 30
0.0
 11
22.44605699960087
 21
18.00159041493304
 31
0.0
 70
    32
 71
     5
 42
59.93509720318247
  3
Standard
100
AcDbAlignedDimension
 13
-7.521491601990362
 23
16.63745504006874
 33
0.0
 14
52.4136056011921
 24
16.63745504006874
 34
0.0
100
AcDbRotatedDimension
1001
ACAD
1000
DSTYLE
1002
{
1070
   271
1070
     0
1002
}
  0
DIMENSION
  5
92D
330
1E
100
AcDbEntity
  8
0
100
AcDbDimension
  2
*D8
 10
54.81537632958318
 20
-24.88682560994182
 30
0.0
 11
54.81537632958319
 21
-4.915883840456102
 31
0.0
 70
    32
 71
     5
 42
39.94188353897142
  3
Standard
100
AcDbAlignedDimension
 13
53.94200521135852
 23
15.0550579290296
 33
0.0
 14
53.94200521135852
 24
-24.88682560994182
 34
0.0
 50
90.0
100
AcDbRotatedDimension
1001
ACAD
1000
DSTYLE
1002
{
1070
   271
1070
     0
1002
}
  0
ENDSEC
  0
SECTION
  2
OBJECTS
  0
DICTIONARY
  5
C
330
0
100
AcDbDictionary
281
     1
  3
ACAD_GROUP
350
D
  3
ACAD_LAYOUT
350
19
  3
ACAD_MLINESTYLE
350
16
  3
ACAD_PLOTSETTINGS
350
18
  3
ACAD_PLOTSTYLENAME
350
E
  3
AcDbVariableDictionary
350
166
  0
DICTIONARY
  5
168
330
1E
100
AcDbDictionary
280
     1
281
     1
  3
ACAD_SORTENTS
360
169
  0
DICTIONARY
  5
D
102
{ACAD_REACTORS
330
C
102
}
330
C
100
AcDbDictionary
281
     1
  0
DICTIONARY
  5
19
102
{ACAD_REACTORS
330
C
102
}
330
C
100
AcDbDictionary
281
     1
  3
Layout1
350
1D
  3
Model
350
21
  0
DICTIONARY
  5
16
102
{ACAD_REACTORS
330
C
102
}
330
C
100
AcDbDictionary
281
     1
  3
Standard
350
17
  0
DICTIONARY
  5
18
102
{ACAD_REACTORS
330
C
102
}
330
C
100
AcDbDictionary
281
     1
  0
ACDBDICTIONARYWDFLT
  5
E
102
{ACAD_REACTORS
330
C
102
}
330
C
100
AcDbDictionary
281
     1
  3
Normal
350
F
100
AcDbDictionaryWithDefault
340
F
  0
DICTIONARY
  5
166
102
{ACAD_REACTORS
330
C
102
}
330
C
100
AcDbDictionary
281
     1
  3
DIMASSOC
350
962
  3
SORTENTS
350
167
  0
SORTENTSTABLE
  5
169
102
{ACAD_REACTORS
330
168
102
}
330
168
100
AcDbSortentsTable
330
1E
331
9E
  5
A2
331
F5
  5
443
331
383
  5
36D
331
8BE
  5
8BD
331
FD
  5
593
331
38B
  5
377
331
571
  5
51A
331
8C6
  5
8C5
331
579
  5
574
331
67
  5
7E
331
115
  5
3D
331
393
  5
37F
331
8CE
  5
8CD
331
11D
  5
466
331
77
  5
7F
331
D6
  5
D6
331
364
  5
115
331
51A
  5
468
331
43B
  5
385
331
8D6
  5
8D5
331
DE
  5
43F
331
36C
  5
11F
331
443
  5
38D
331
97
  5
3A4
331
E6
  5
441
331
374
  5
165
331
8FE
  5
8FD
331
37C
  5
365
331
EE
  5
585
331
8B7
  5
6CC
331
9F
  5
A3
331
384
  5
36E
331
165
  5
F6
331
A7
  5
AB
331
F6
  5
444
331
8BF
  5
8BE
331
38C
  5
378
331
572
  5
56D
331
8C7
  5
8C6
331
57A
  5
575
331
8CF
  5
8CE
331
11E
  5
E8
331
78
  5
80
331
3A4
  5
381
331
D7
  5
D7
331
365
  5
119
331
80
  5
97
331
43C
  5
386
331
DF
  5
DB
331
36D
  5
120
331
444
  5
38E
331
E7
  5
442
331
375
  5
35E
331
37D
  5
366
331
15E
  5
F5
331
98
  5
9E
331
A0
  5
A4
331
385
  5
371
331
8B8
  5
8B7
331
A8
  5
439
331
F7
  5
445
331
8C0
  5
8BF
331
38D
  5
379
331
573
  5
56E
331
8C8
  5
8C7
331
57B
  5
576
331
35E
  5
F7
331
11F
  5
EA
331
79
  5
81
331
8D0
  5
8CF
331
59B
  5
57D
331
366
  5
11A
331
D8
  5
D8
331
8D8
  5
8D6
331
43D
  5
387
331
5A3
  5
59B
331
E0
  5
DC
331
36E
  5
124
331
445
  5
38F
331
E8
  5
E1
331
376
  5
35F
331
37E
  5
367
331
99
  5
438
331
A1
  5
A5
331
386
  5
372
331
8B9
  5
8B8
331
A9
  5
43A
331
F8
  5
E5
331
38E
  5
37A
331
8C1
  5
8C0
331
110
  5
25
331
8C9
  5
8C8
331
57C
  5
577
331
35F
  5
F8
331
39E
  5
380
331
7A
  5
82
331
120
  5
EE
331
8D1
  5
8D0
331
367
  5
11B
331
48D
  5
3E
331
82
  5
99
331
D9
  5
D9
331
43E
  5
388
331
E1
  5
DD
331
377
  5
360
331
37F
  5
368
331
23
  5
64
331
9A
  5
9F
331
A2
  5
A6
331
8BA
  5
8B9
331
56D
  5
48E
331
53
  5
79
331
F9
  5
58C
331
387
  5
373
331
38F
  5
37B
331
8C2
  5
8C1
331
111
  5
26
331
8CA
  5
8C9
331
119
  5
E6
331
57D
  5
578
331
585
  5
57A
331
7B
  5
83
331
360
  5
F9
331
8D2
  5
8D1
331
368
  5
11C
331
48E
  5
53
331
DA
  5
DA
331
43F
  5
389
331
93
  5
24
331
E2
  5
DE
331
EA
  5
57E
331
378
  5
361
331
24
  5
65
331
9B
  5
23
331
F2
  5
E2
331
380
  5
369
331
A3
  5
A7
331
8BB
  5
8BA
331
56E
  5
48F
331
54
  5
7A
331
388
  5
374
331
8C3
  5
8C2
331
390
  5
37C
331
576
  5
571
331
64
  5
7B
331
8CB
  5
8CA
331
57E
  5
579
331
46F
  5
390
331
11A
  5
E7
331
7C
  5
93
331
D3
  5
D4
331
361
  5
FD
331
48F
  5
54
331
369
  5
11D
331
438
  5
382
331
DB
  5
43C
331
8D3
  5
8D2
331
371
  5
15B
331
440
  5
38A
331
94
  5
9B
331
E3
  5
DF
331
379
  5
362
331
9C
  5
A0
331
25
  5
66
331
F3
  5
E3
331
381
  5
36A
331
3D
  5
77
331
A4
  5
A8
331
8BC
  5
8BB
331
56F
  5
494
331
389
  5
375
331
8C4
  5
8C3
331
391
  5
37D
331
577
  5
572
331
65
  5
7C
331
8CC
  5
8CB
331
11B
  5
464
331
D4
  5
8FE
331
362
  5
110
331
439
  5
383
331
8D4
  5
8D3
331
DC
  5
43D
331
36A
  5
11E
331
372
  5
15C
331
441
  5
38B
331
95
  5
9C
331
E4
  5
E0
331
8FC
  5
8D8
331
37A
  5
363
331
15B
  5
F3
331
9D
  5
A1
331
26
  5
67
331
F4
  5
E4
331
382
  5
36C
331
3E
  5
78
331
A5
  5
A9
331
8BD
  5
8BC
331
570
  5
4A2
331
38A
  5
376
331
8C5
  5
8C4
331
578
  5
573
331
66
  5
7D
331
392
  5
37E
331
8CD
  5
8CC
331
11C
  5
465
331
363
  5
111
331
D5
  5
D5
331
7E
  5
95
331
124
  5
F2
331
43A
  5
384
331
DD
  5
43E
331
8D5
  5
8D4
331
373
  5
15E
331
442
  5
38C
331
96
  5
9D
331
E5
  5
440
331
8FD
  5
8FC
331
37B
  5
364
331
15C
  5
F4
  0
LAYOUT
  5
1D
102
{ACAD_REACTORS
330
19
102
}
330
19
100
AcDbPlotSettings
  1

  2
C:\PROGRAM FILES\ACAD2000\plotters\LaserJet 5L.pc3
  4

  6

 40
0.0
 41
0.0
 42
0.0
 43
0.0
 44
0.0
 45
0.0
 46
0.0
 47
0.0
 48
0.0
 49
0.0
140
0.0
141
0.0
142
1.0
143
1.0
 70
   688
 72
     0
 73
     0
 74
     5
  7

 75
    16
147
1.0
148
0.0
149
0.0
100
AcDbLayout
  1
Layout1
 70
     1
 71
     1
 10
0.0
 20
0.0
 11
12.0
 21
9.0
 12
0.0
 22
0.0
 32
0.0
 14
1.660416676303533
 24
1.043749897498784
 34
0.0
 15
14.94375008673179
 25
9.393749077489056
 35
0.0
146
0.0
 13
0.0
 23
0.0
 33
0.0
 16
1.0
 26
0.0
 36
0.0
 17
0.0
 27
1.0
 37
0.0
 76
     0
330
1A
  0
LAYOUT
  5
21
102
{ACAD_REACTORS
330
19
102
}
330
19
100
AcDbPlotSettings
  1

  2
C:\PROGRAM FILES\ACAD2000\plotters\LaserJet 5L.pc3
  4

  6

 40
0.0
 41
0.0
 42
0.0
 43
0.0
 44
0.0
 45
0.0
 46
0.0
 47
0.0
 48
0.0
 49
0.0
140
0.0
141
0.0
142
1.0
143
1.0
 70
  1712
 72
     0
 73
     0
 74
     0
  7

 75
     0
147
1.0
148
0.0
149
0.0
100
AcDbLayout
  1
Model
 70
     1
 71
     0
 10
0.0
 20
0.0
 11
12.0
 21
9.0
 12
0.0
 22
0.0
 32
0.0
 14
0.0
 24
0.0
 34
0.0
 15
0.0
 25
0.0
 35
0.0
146
0.0
 13
0.0
 23
0.0
 33
0.0
 16
1.0
 26
0.0
 36
0.0
 17
0.0
 27
1.0
 37
0.0
 76
     0
330
1E
  0
MLINESTYLE
  5
17
102
{ACAD_REACTORS
330
16
102
}
330
16
100
AcDbMlineStyle
  2
STANDARD
 70
     0
  3

 62
   256
 51
90.0
 52
90.0
 71
     2
 49
0.5
 62
   256
  6
BYLAYER
 49
-0.5
 62
   256
  6
BYLAYER
  0
ACDBPLACEHOLDER
  5
F
102
{ACAD_REACTORS
330
E
102
}
330
E
  0
DICTIONARYVAR
  5
962
102
{ACAD_REACTORS
330
166
102
}
330
166
100
DictionaryVariables
280
     0
  1
1
  0
DICTIONARYVAR
  5
167
102
{ACAD_REACTORS
330
166
102
}
330
166
100
DictionaryVariables
280
     0
  1
127
  0
ENDSEC
  0
EOF
