  0
SECTION
  2
HEADER
  9
$ACADVER
  1
AC1015
  9
$ACADMAINTVER
 70
    13
  9
$DWGCODEPAGE
  3
ANSI_1252
  9
$INSBASE
 10
0.0
 20
0.0
 30
0.0
  9
$EXTMIN
 10
-14.57242062781492
 20
-24.79652182780045
 30
0.0
  9
$EXTMAX
 10
54.5177581837909
 20
18.20727241967769
 30
0.0
  9
$LIMMIN
 10
0.0
 20
0.0
  9
$LIMMAX
 10
12.0
 20
9.0
  9
$ORTHOMODE
 70
     0
  9
$REGENMODE
 70
     1
  9
$FILLMODE
 70
     1
  9
$QTEXTMODE
 70
     0
  9
$MIRRTEXT
 70
     1
  9
$LTSCALE
 40
1.0
  9
$ATTMODE
 70
     1
  9
$TEXTSIZE
 40
0.2
  9
$TRACEWID
 40
0.05
  9
$TEXTSTYLE
  7
Standard
  9
$CLAYER
  8
METAL1
  9
$CELTYPE
  6
ByLayer
  9
$CECOLOR
 62
   256
  9
$CELTSCALE
 40
1.0
  9
$DISPSILH
 70
     0
  9
$DIMSCALE
 40
1.0
  9
$DIMASZ
 40
1.8
  9
$DIMEXO
 40
0.0625
  9
$DIMDLI
 40
0.38
  9
$DIMRND
 40
0.0
  9
$DIMDLE
 40
0.0
  9
$DIMEXE
 40
0.18
  9
$DIMTP
 40
0.0
  9
$DIMTM
 40
0.0
  9
$DIMTXT
 40
1.8
  9
$DIMCEN
 40
0.09
  9
$DIMTSZ
 40
0.0
  9
$DIMTOL
 70
     0
  9
$DIMLIM
 70
     0
  9
$DIMTIH
 70
     1
  9
$DIMTOH
 70
     1
  9
$DIMSE1
 70
     0
  9
$DIMSE2
 70
     0
  9
$DIMTAD
 70
     0
  9
$DIMZIN
 70
     0
  9
$DIMBLK
  1

  9
$DIMASO
 70
     1
  9
$DIMSHO
 70
     1
  9
$DIMPOST
  1

  9
$DIMAPOST
  1

  9
$DIMALT
 70
     0
  9
$DIMALTD
 70
     2
  9
$DIMALTF
 40
25.4
  9
$DIMLFAC
 40
1.0
  9
$DIMTOFL
 70
     0
  9
$DIMTVP
 40
0.0
  9
$DIMTIX
 70
     0
  9
$DIMSOXD
 70
     0
  9
$DIMSAH
 70
     0
  9
$DIMBLK1
  1

  9
$DIMBLK2
  1

  9
$DIMSTYLE
  2
Standard
  9
$DIMCLRD
 70
     0
  9
$DIMCLRE
 70
     0
  9
$DIMCLRT
 70
     0
  9
$DIMTFAC
 40
1.0
  9
$DIMGAP
 40
0.09
  9
$DIMJUST
 70
     0
  9
$DIMSD1
 70
     0
  9
$DIMSD2
 70
     0
  9
$DIMTOLJ
 70
     1
  9
$DIMTZIN
 70
     0
  9
$DIMALTZ
 70
     0
  9
$DIMALTTZ
 70
     0
  9
$DIMUPT
 70
     0
  9
$DIMDEC
 70
     4
  9
$DIMTDEC
 70
     4
  9
$DIMALTU
 70
     2
  9
$DIMALTTD
 70
     2
  9
$DIMTXSTY
  7
Standard
  9
$DIMAUNIT
 70
     0
  9
$DIMADEC
 70
     0
  9
$DIMALTRND
 40
0.0
  9
$DIMAZIN
 70
     0
  9
$DIMDSEP
 70
    46
  9
$DIMATFIT
 70
     3
  9
$DIMFRAC
 70
     0
  9
$DIMLDRBLK
  1

  9
$DIMLUNIT
 70
     2
  9
$DIMLWD
 70
    -2
  9
$DIMLWE
 70
    -2
  9
$DIMTMOVE
 70
     0
  9
$LUNITS
 70
     2
  9
$LUPREC
 70
     4
  9
$SKETCHINC
 40
0.1
  9
$FILLETRAD
 40
0.0
  9
$AUNITS
 70
     0
  9
$AUPREC
 70
     0
  9
$MENU
  1
.
  9
$ELEVATION
 40
0.0
  9
$PELEVATION
 40
0.0
  9
$THICKNESS
 40
0.0
  9
$LIMCHECK
 70
     0
  9
$CHAMFERA
 40
0.0
  9
$CHAMFERB
 40
0.0
  9
$CHAMFERC
 40
0.0
  9
$CHAMFERD
 40
0.0
  9
$SKPOLY
 70
     0
  9
$TDCREATE
 40
2451867.616822338
  9
$TDUCREATE
 40
2451867.533489004
  9
$TDUPDATE
 40
2452935.471384004
  9
$TDUUPDATE
 40
2452935.388050671
  9
$TDINDWG
 40
0.1403799537
  9
$TDUSRTIMER
 40
0.1403799537
  9
$USRTIMER
 70
     1
  9
$ANGBASE
 50
0.0
  9
$ANGDIR
 70
     0
  9
$PDMODE
 70
     0
  9
$PDSIZE
 40
0.0
  9
$PLINEWID
 40
0.0
  9
$SPLFRAME
 70
     0
  9
$SPLINETYPE
 70
     6
  9
$SPLINESEGS
 70
     8
  9
$HANDSEED
  5
6C5
  9
$SURFTAB1
 70
     6
  9
$SURFTAB2
 70
     6
  9
$SURFTYPE
 70
     6
  9
$SURFU
 70
     6
  9
$SURFV
 70
     6
  9
$UCSBASE
  2

  9
$UCSNAME
  2

  9
$UCSORG
 10
0.0
 20
0.0
 30
0.0
  9
$UCSXDIR
 10
1.0
 20
0.0
 30
0.0
  9
$UCSYDIR
 10
0.0
 20
1.0
 30
0.0
  9
$UCSORTHOREF
  2

  9
$UCSORTHOVIEW
 70
     0
  9
$UCSORGTOP
 10
0.0
 20
0.0
 30
0.0
  9
$UCSORGBOTTOM
 10
0.0
 20
0.0
 30
0.0
  9
$UCSORGLEFT
 10
0.0
 20
0.0
 30
0.0
  9
$UCSORGRIGHT
 10
0.0
 20
0.0
 30
0.0
  9
$UCSORGFRONT
 10
0.0
 20
0.0
 30
0.0
  9
$UCSORGBACK
 10
0.0
 20
0.0
 30
0.0
  9
$PUCSBASE
  2

  9
$PUCSNAME
  2

  9
$PUCSORG
 10
0.0
 20
0.0
 30
0.0
  9
$PUCSXDIR
 10
1.0
 20
0.0
 30
0.0
  9
$PUCSYDIR
 10
0.0
 20
1.0
 30
0.0
  9
$PUCSORTHOREF
  2

  9
$PUCSORTHOVIEW
 70
     0
  9
$PUCSORGTOP
 10
0.0
 20
0.0
 30
0.0
  9
$PUCSORGBOTTOM
 10
0.0
 20
0.0
 30
0.0
  9
$PUCSORGLEFT
 10
0.0
 20
0.0
 30
0.0
  9
$PUCSORGRIGHT
 10
0.0
 20
0.0
 30
0.0
  9
$PUCSORGFRONT
 10
0.0
 20
0.0
 30
0.0
  9
$PUCSORGBACK
 10
0.0
 20
0.0
 30
0.0
  9
$USERI1
 70
     0
  9
$USERI2
 70
     0
  9
$USERI3
 70
     0
  9
$USERI4
 70
     0
  9
$USERI5
 70
     0
  9
$USERR1
 40
0.0
  9
$USERR2
 40
0.0
  9
$USERR3
 40
0.0
  9
$USERR4
 40
0.0
  9
$USERR5
 40
0.0
  9
$WORLDVIEW
 70
     1
  9
$SHADEDGE
 70
     3
  9
$SHADEDIF
 70
    70
  9
$TILEMODE
 70
     1
  9
$MAXACTVP
 70
    64
  9
$PINSBASE
 10
0.0
 20
0.0
 30
0.0
  9
$PLIMCHECK
 70
     0
  9
$PEXTMIN
 10
1.660416676303533
 20
1.043749897498784
 30
0.0
  9
$PEXTMAX
 10
14.94375008673179
 20
9.393749077489056
 30
0.0
  9
$PLIMMIN
 10
0.0
 20
0.0
  9
$PLIMMAX
 10
12.0
 20
9.0
  9
$UNITMODE
 70
     0
  9
$VISRETAIN
 70
     1
  9
$PLINEGEN
 70
     0
  9
$PSLTSCALE
 70
     1
  9
$TREEDEPTH
 70
  3020
  9
$CMLSTYLE
  2
Standard
  9
$CMLJUST
 70
     0
  9
$CMLSCALE
 40
1.0
  9
$PROXYGRAPHICS
 70
     1
  9
$MEASUREMENT
 70
     0
  9
$CELWEIGHT
370
    -1
  9
$ENDCAPS
280
     0
  9
$JOINSTYLE
280
     0
  9
$LWDISPLAY
290
     1
  9
$INSUNITS
 70
     0
  9
$HYPERLINKBASE
  1

  9
$STYLESHEET
  1

  9
$XEDIT
290
     1
  9
$CEPSNTYPE
380
     0
  9
$PSTYLEMODE
290
     1
  9
$FINGERPRINTGUID
  2
{61AAA7A2-BD59-11D4-85D5-E6203D5D4530}
  9
$VERSIONGUID
  2
{4FECAEDF-6420-4F4E-A5B2-BE11ABEECF8D}
  9
$EXTNAMES
290
     1
  9
$PSVPSCALE
 40
0.0
  9
$OLESTARTUP
290
     0
  0
ENDSEC
  0
SECTION
  2
CLASSES
  0
CLASS
  1
ACDBDICTIONARYWDFLT
  2
AcDbDictionaryWithDefault
  3
AutoCAD 2000
 90
        0
280
     0
281
     0
  0
CLASS
  1
ACDBPLACEHOLDER
  2
AcDbPlaceHolder
  3
AutoCAD 2000
 90
        0
280
     0
281
     0
  0
CLASS
  1
LAYOUT
  2
AcDbLayout
  3
AutoCAD 2000
 90
        0
280
     0
281
     0
  0
CLASS
  1
DICTIONARYVAR
  2
AcDbDictionaryVar
  3
AutoCAD 2000
 90
        0
280
     0
281
     0
  0
CLASS
  1
SORTENTSTABLE
  2
AcDbSortentsTable
  3
AutoCAD 2000
 90
        0
280
     0
281
     0
  0
ENDSEC
  0
SECTION
  2
TABLES
  0
TABLE
  2
VPORT
  5
8
330
0
100
AcDbSymbolTable
 70
     3
  0
VPORT
  5
6C4
330
8
100
AcDbSymbolTableRecord
100
AcDbViewportTableRecord
  2
*Active
 70
     0
 10
0.0
 20
0.0
 11
1.0
 21
1.0
 12
19.97337752748445
 22
-3.29327594504933
 13
0.0
 23
0.0
 14
1.0
 24
1.0
 15
0.0
 25
0.0
 16
0.0
 26
0.0
 36
1.0
 17
0.0
 27
0.0
 37
0.0
 40
45.43889418932789
 41
1.528205128205128
 42
50.0
 43
0.0
 44
0.0
 50
0.0
 51
0.0
 71
     0
 72
   100
 73
     1
 74
     2
 75
     0
 76
     0
 77
     0
 78
     0
281
     0
 65
     1
110
0.0
120
0.0
130
0.0
111
1.0
121
0.0
131
0.0
112
0.0
122
1.0
132
0.0
 79
     0
146
0.0
  0
ENDTAB
  0
TABLE
  2
LTYPE
  5
5
330
0
100
AcDbSymbolTable
 70
     1
  0
LTYPE
  5
13
330
5
100
AcDbSymbolTableRecord
100
AcDbLinetypeTableRecord
  2
ByBlock
 70
     0
  3

 72
    65
 73
     0
 40
0.0
  0
LTYPE
  5
14
330
5
100
AcDbSymbolTableRecord
100
AcDbLinetypeTableRecord
  2
ByLayer
 70
     0
  3

 72
    65
 73
     0
 40
0.0
  0
LTYPE
  5
15
330
5
100
AcDbSymbolTableRecord
100
AcDbLinetypeTableRecord
  2
Continuous
 70
     0
  3
Solid line
 72
    65
 73
     0
 40
0.0
  0
ENDTAB
  0
TABLE
  2
LAYER
  5
2
330
0
100
AcDbSymbolTable
 70
     5
  0
LAYER
  5
10
330
2
100
AcDbSymbolTableRecord
100
AcDbLayerTableRecord
  2
0
 70
     0
 62
     7
  6
Continuous
370
    -3
390
F
  0
LAYER
  5
22
330
2
100
AcDbSymbolTableRecord
100
AcDbLayerTableRecord
  2
METAL1
 70
     0
 62
     7
  6
Continuous
370
    -3
390
F
  0
LAYER
  5
27
330
2
100
AcDbSymbolTableRecord
100
AcDbLayerTableRecord
  2
CONSTR
 70
     0
 62
    -7
  6
Continuous
370
    -3
390
F
  0
LAYER
  5
E9
330
2
100
AcDbSymbolTableRecord
100
AcDbLayerTableRecord
  2
GND
 70
     0
 62
     9
  6
Continuous
370
    -3
390
F
  0
LAYER
  5
138
330
2
100
AcDbSymbolTableRecord
100
AcDbLayerTableRecord
  2
Defpoints
 70
     0
 62
     7
  6
Continuous
290
     0
370
    -3
390
F
  0
ENDTAB
  0
TABLE
  2
STYLE
  5
3
330
0
100
AcDbSymbolTable
 70
     1
  0
STYLE
  5
11
330
3
100
AcDbSymbolTableRecord
100
AcDbTextStyleTableRecord
  2
Standard
 70
     0
 40
0.0
 41
1.0
 50
0.0
 71
     0
 42
0.2
  3
txt
  4

  0
ENDTAB
  0
TABLE
  2
VIEW
  5
6
330
0
100
AcDbSymbolTable
 70
     0
  0
ENDTAB
  0
TABLE
  2
UCS
  5
7
330
0
100
AcDbSymbolTable
 70
     0
  0
ENDTAB
  0
TABLE
  2
APPID
  5
9
330
0
100
AcDbSymbolTable
 70
     1
  0
APPID
  5
12
330
9
100
AcDbSymbolTableRecord
100
AcDbRegAppTableRecord
  2
ACAD
 70
     0
  0
ENDTAB
  0
TABLE
  2
DIMSTYLE
  5
A
330
0
100
AcDbSymbolTable
 70
     2
100
AcDbDimStyleTable
 71
     1
340
128
  0
DIMSTYLE
105
128
102
{ACAD_REACTORS
330
65C
330
66A
102
}
330
A
100
AcDbSymbolTableRecord
100
AcDbDimStyleTableRecord
  2
Standard
 70
     0
 41
1.8
140
1.8
340
11
  0
DIMSTYLE
105
16B
330
A
100
AcDbSymbolTableRecord
100
AcDbDimStyleTableRecord
  2
ISO-25
 70
     0
 41
2.5
 42
0.625
 43
3.75
 44
1.25
 73
     0
 74
     0
 77
     1
 78
     8
140
2.5
141
2.5
143
0.03937007874016
147
0.625
171
     3
172
     1
271
     2
272
     2
274
     3
278
    44
283
     0
284
     8
340
11
  0
ENDTAB
  0
TABLE
  2
BLOCK_RECORD
  5
1
330
0
100
AcDbSymbolTable
 70
     8
  0
BLOCK_RECORD
  5
1E
102
{ACAD_XDICTIONARY
360
168
102
}
330
1
100
AcDbSymbolTableRecord
100
AcDbBlockTableRecord
  2
*Model_Space
340
21
  0
BLOCK_RECORD
  5
1A
330
1
100
AcDbSymbolTableRecord
100
AcDbBlockTableRecord
  2
*Paper_Space
340
1D
  0
BLOCK_RECORD
  5
446
330
1
100
AcDbSymbolTableRecord
100
AcDbBlockTableRecord
  2
Inductor
340
0
310
280000002000000020000000010004000000000000020000000000000000000000000000000000000000000000008000008000000080800080000000800080008080000080808000C0C0C0000000FF0000FF000000FFFF00FF000000FF00FF00FFFF0000FFFFFF00FFFFFFFFFFFFFFFFFFFFFFFFFFFFFFFFFFFFFFFFFFFFFF
310
FFFFFFFFFFFFFFFFFFFFFFFFFFFFFFFFFFFFFFFFFFFFFFFFFFFFFFFFFFFFFFFFFFFFFFFFFFFFFFFFFFFFFFFFFFFFFFFFFFFFFFFFFFFFFFFFFFFFFFFFFFFFFFFFFFFFFFFFFFFFFFFFFFFFFFFFFFFFFFFFFFFFFFFFFFFFFFFFFFFFFFFFFFFFFFFFFFFFFFFFFFFFFFFFFFFFFFFFFFFFFFFFFFFFFFFFFFFFFFFFFFFFFFFFFFFFFF
310
FFFFFFFFFFFFFFFFFFFFFFFFFFFFFFFFFFFFFFFFFFFFFFFFFFFFFFFFFFFFFFFFFFFFFFFFFFFFFFFFFFFF0000FFFFFFFF0FFFFFF0FFFFFFF0000FFFF0FFFFFFF00FFFFFF0FFFFFFF0FFFFFFF0FFFFFFF00FFFFFF00FFFFFFF0FFFFFF0FFFFFFF00FFFFF0F0FFFFFFF0FFFFFF0FFFFFFF0F0FFFF0F0FFFFFFF0FFFFFFF0FFFFF
310
F00FFFFFF00FFFFFF0FFFFFFFF0FFFFFF00FFFFFF0FFFFFF0FFFFFFFFFF0FFFFF0F0FFFF0F0FFFFF0FFFFFFFFFFF00000FFF0000FFF00000FFFFFFFFFFFFFFFFFFFFFFFFFFFFFFFFFFFFFFFFFFFFFFFFFFFFFFFFFFFFFFFFFFFFFFFFFFFFFFFFFFFFFFFFFFFFFFFFFFFFFFFFFFFFFFFFFFFFFFFFFFFFFFFFFFFFFFFFFFFFFF
310
FFFFFFFFFFFFFFFFFFFFFFFFFFFFFFFFFFFFFFFFFFFFFFFFFFFFFFFFFFFFFFFFFFFFFFFFFFFFFFFFFFFFFFFFFFFFFFFFFFFFFFFFFFFFFFFFFFFFFFFFFFFFFFFFFFFFFFFFFFFFFFFFFFFFFFFFFFFFFFFFFFFFFFFFFFFFFFFFFFFFFFFFFFFFFFFFFFFFFFFFFFFFFFFFFFFFFFFF
102
{BLKREFS
331
454
102
}
1001
ACAD
1000
DesignCenter Data
1002
{
1070
     1
1070
     1
1002
}
  0
BLOCK_RECORD
  5
44E
330
1
100
AcDbSymbolTableRecord
100
AcDbBlockTableRecord
  2
conpoint
340
0
310
28000000200000002000000001000800000000000004000000000000000000000000000000000000000000004000000080000000FF000000002000004020000080200000FF200000004000004040000080400000FF400000006000004060000080600000FF600000008000004080000080800000FF80000000A0000040A000
310
0080A00000FFA0000000C0000040C0000080C00000FFC0000000FF000040FF000080FF0000FFFF0000000020004000200080002000FF002000002020004020200080202000FF202000004020004040200080402000FF402000006020004060200080602000FF602000008020004080200080802000FF80200000A0200040A0
310
200080A02000FFA0200000C0200040C0200080C02000FFC0200000FF200040FF200080FF2000FFFF2000000040004000400080004000FF004000002040004020400080204000FF204000004040004040400080404000FF404000006040004060400080604000FF604000008040004080400080804000FF80400000A0400040
310
A0400080A04000FFA0400000C0400040C0400080C04000FFC0400000FF400040FF400080FF4000FFFF4000000060004000600080006000FF006000002060004020600080206000FF206000004060004040600080406000FF406000006060004060600080606000FF606000008060004080600080806000FF80600000A06000
310
40A0600080A06000FFA0600000C0600040C0600080C06000FFC0600000FF600040FF600080FF6000FFFF6000000080004000800080008000FF008000002080004020800080208000FF208000004080004040800080408000FF408000006080004060800080608000FF608000008080004080800080808000FF80800000A080
310
0040A0800080A08000FFA0800000C0800040C0800080C08000FFC0800000FF800040FF800080FF8000FFFF80000000A0004000A0008000A000FF00A0000020A0004020A0008020A000FF20A0000040A0004040A0008040A000FF40A0000060A0004060A0008060A000FF60A0000080A0004080A0008080A000FF80A00000A0
310
A00040A0A00080A0A000FFA0A00000C0A00040C0A00080C0A000FFC0A00000FFA00040FFA00080FFA000FFFFA0000000C0004000C0008000C000FF00C0000020C0004020C0008020C000FF20C0000040C0004040C0008040C000FF40C0000060C0004060C0008060C000FF60C0000080C0004080C0008080C000FF80C00000
310
A0C00040A0C00080A0C000FFA0C00000C0C00040C0C00080C0C000FFC0C00000FFC00040FFC00080FFC000FFFFC0000000FF004000FF008000FF00FF00FF000020FF004020FF008020FF00FF20FF000040FF004040FF008040FF00FF40FF000060FF004060FF008060FF00FF60FF000080FF004080FF008080FF00FF80FF00
310
00A0FF0040A0FF0080A0FF00FFA0FF0000C0FF0040C0FF0080C0FF00FFC0FF0000FFFF0040FFFF0080FFFF00FFFFFF000000000000000000000000000000000000000000000000000000000000000000000000000000000000000000000000FFFFFF000000000000000000000000000000000000000000000000FFFFFFFFFF
310
FF00FFFFFF0000000000000000000000000000000000000000FFFF0000FFFF0000000000FFFFFFFF00000000000000000000000000000000FF0000FFFF000000000000000000FFFFFFFF00000000000000000000000000FF00FFFF00000000000000000000000000FFFFFF0000000000000000000000FFFFFF000000000000
310
0000000000000000000000FFFF000000000000000000FF00FF00000000000000000000000000000000000000FFFF0000000000000000FFFF0000000000000000000000000000000000000000FFFF00000000000000FF00FF000000000000000000000000000000000000000000FFFF000000000000FFFF0000000000000000
310
0000000000000000000000000000FF00FF00000000FF00FF0000000000000000000000000000000000000000000000FFFF00000000FFFF000000000000000000000000000000000000000000000000FFFF00000000FFFF00000000000000000000000000000000000000000000000000FF000000FFFF000000000000000000
310
0000000000000000000000000000000000FF000000FFFF000000000000000000000000000000000000000000000000000000FF0000FF00000000000000000000000000000000000000000000000000000000FF0000FFFF0000000000000000000000000000000000000000000000000000FFFF000000FF0000000000000000
310
000000000000000000000000000000000000FF00000000FFFF000000000000000000000000000000000000000000000000FFFF00000000FFFF000000000000000000000000000000000000000000000000FFFF0000000000FFFF00000000000000000000000000000000000000000000FF00FF0000000000FFFF0000000000
310
0000000000000000000000000000000000FFFF00000000000000FFFF0000000000000000000000000000000000000000FFFF0000000000000000FFFF0000000000000000000000000000000000000000FFFF000000000000000000FFFF000000000000000000000000000000000000FFFF0000000000000000000000FFFFFF
310
0000000000000000000000000000FFFFFF00000000000000000000000000FF00FFFF00000000000000000000FFFFFFFF000000000000000000000000000000FFFF00FFFF000000000000FFFFFFFF00000000000000000000000000000000000000FFFFFFFFFF0000FFFFFFFF00000000000000000000000000000000000000
310
00000000000000FFFFFF00000000000000000000000000000000000000000000000000000000000000000000000000000000000000000000
102
{BLKREFS
331
455
331
456
102
}
1001
ACAD
1000
DesignCenter Data
1002
{
1070
     1
1070
     1
1002
}
  0
BLOCK_RECORD
  5
453
330
1
100
AcDbSymbolTableRecord
100
AcDbBlockTableRecord
  2
ind
340
0
310
28000000200000002000000001000800000000000004000000000000000000000000000000000000000000004000000080000000FF000000002000004020000080200000FF200000004000004040000080400000FF400000006000004060000080600000FF600000008000004080000080800000FF80000000A0000040A000
310
0080A00000FFA0000000C0000040C0000080C00000FFC0000000FF000040FF000080FF0000FFFF0000000020004000200080002000FF002000002020004020200080202000FF202000004020004040200080402000FF402000006020004060200080602000FF602000008020004080200080802000FF80200000A0200040A0
310
200080A02000FFA0200000C0200040C0200080C02000FFC0200000FF200040FF200080FF2000FFFF2000000040004000400080004000FF004000002040004020400080204000FF204000004040004040400080404000FF404000006040004060400080604000FF604000008040004080400080804000FF80400000A0400040
310
A0400080A04000FFA0400000C0400040C0400080C04000FFC0400000FF400040FF400080FF4000FFFF4000000060004000600080006000FF006000002060004020600080206000FF206000004060004040600080406000FF406000006060004060600080606000FF606000008060004080600080806000FF80600000A06000
310
40A0600080A06000FFA0600000C0600040C0600080C06000FFC0600000FF600040FF600080FF6000FFFF6000000080004000800080008000FF008000002080004020800080208000FF208000004080004040800080408000FF408000006080004060800080608000FF608000008080004080800080808000FF80800000A080
310
0040A0800080A08000FFA0800000C0800040C0800080C08000FFC0800000FF800040FF800080FF8000FFFF80000000A0004000A0008000A000FF00A0000020A0004020A0008020A000FF20A0000040A0004040A0008040A000FF40A0000060A0004060A0008060A000FF60A0000080A0004080A0008080A000FF80A00000A0
310
A00040A0A00080A0A000FFA0A00000C0A00040C0A00080C0A000FFC0A00000FFA00040FFA00080FFA000FFFFA0000000C0004000C0008000C000FF00C0000020C0004020C0008020C000FF20C0000040C0004040C0008040C000FF40C0000060C0004060C0008060C000FF60C0000080C0004080C0008080C000FF80C00000
310
A0C00040A0C00080A0C000FFA0C00000C0C00040C0C00080C0C000FFC0C00000FFC00040FFC00080FFC000FFFFC0000000FF004000FF008000FF00FF00FF000020FF004020FF008020FF00FF20FF000040FF004040FF008040FF00FF40FF000060FF004060FF008060FF00FF60FF000080FF004080FF008080FF00FF80FF00
310
00A0FF0040A0FF0080A0FF00FFA0FF0000C0FF0040C0FF0080C0FF00FFC0FF0000FFFF0040FFFF0080FFFF00FFFFFF0000000000000000000000000000000000000000000000000000000000000000000000000000000000000000000000000000FFFF00000000000000000000000000000000000000000000000000000000
310
00FFFFFFFF00000000000000000000000000000000000000000000000000000000FF0000FF00000000000000000000000000000000000000000000000000000000FFFFFFFF000000000000000000000000000000000000000000000000000000000000FF000000000000000000000000000000000000000000000000000000
310
FFFFFFFFFF0000000000000000000000000000000000000000000000000000FF00000000FF00000000000000000000000000000000000000000000000000FF00000000000000000000000000000000000000000000000000000000000000FF00000000000000000000000000000000000000000000000000000000000000FF
310
00000000000000000000000000000000000000000000000000000000000000FF0000000000000000000000000000000000000000000000000000000000000000FFFFFFFFFF000000000000000000000000000000000000000000000000000000FFFFFFFFFFFF00000000000000000000000000000000000000000000000000
310
FF00000000000000000000000000000000000000000000000000000000000000FF00000000000000000000000000000000000000000000000000000000000000FF00000000000000000000000000000000000000000000000000000000000000FF000000000000000000000000000000000000000000000000000000000000
310
0000FFFFFFFFFFFF0000000000000000000000000000000000000000000000000000FFFFFFFFFF0000000000000000000000000000000000000000000000000000FF00000000000000000000000000000000000000000000000000000000000000FF0000000000000000000000000000000000000000000000000000000000
310
0000FF00000000000000000000000000000000000000000000000000000000000000FF0000000000000000000000000000000000000000000000000000000000000000FF00000000FF000000000000000000000000000000000000000000000000000000FFFFFFFFFF00000000000000000000000000000000000000000000
310
000000000000000000FF0000000000000000000000000000000000000000000000000000000000FFFFFFFF00000000000000000000000000000000000000000000000000000000FF0000FF00000000000000000000000000000000000000000000000000000000FFFFFFFF0000000000000000000000000000000000000000
310
000000000000000000FFFF000000000000000000000000000000000000000000000000000000000000000000000000000000000000000000
102
{BLKREFS
331
45A
102
}
1001
ACAD
1000
DesignCenter Data
1002
{
1070
     1
1070
     1
1002
}
  0
BLOCK_RECORD
  5
459
330
1
100
AcDbSymbolTableRecord
100
AcDbBlockTableRecord
  2
rfc
340
0
310
28000000200000002000000001000800000000000004000000000000000000000000000000000000000000004000000080000000FF000000002000004020000080200000FF200000004000004040000080400000FF400000006000004060000080600000FF600000008000004080000080800000FF80000000A0000040A000
310
0080A00000FFA0000000C0000040C0000080C00000FFC0000000FF000040FF000080FF0000FFFF0000000020004000200080002000FF002000002020004020200080202000FF202000004020004040200080402000FF402000006020004060200080602000FF602000008020004080200080802000FF80200000A0200040A0
310
200080A02000FFA0200000C0200040C0200080C02000FFC0200000FF200040FF200080FF2000FFFF2000000040004000400080004000FF004000002040004020400080204000FF204000004040004040400080404000FF404000006040004060400080604000FF604000008040004080400080804000FF80400000A0400040
310
A0400080A04000FFA0400000C0400040C0400080C04000FFC0400000FF400040FF400080FF4000FFFF4000000060004000600080006000FF006000002060004020600080206000FF206000004060004040600080406000FF406000006060004060600080606000FF606000008060004080600080806000FF80600000A06000
310
40A0600080A06000FFA0600000C0600040C0600080C06000FFC0600000FF600040FF600080FF6000FFFF6000000080004000800080008000FF008000002080004020800080208000FF208000004080004040800080408000FF408000006080004060800080608000FF608000008080004080800080808000FF80800000A080
310
0040A0800080A08000FFA0800000C0800040C0800080C08000FFC0800000FF800040FF800080FF8000FFFF80000000A0004000A0008000A000FF00A0000020A0004020A0008020A000FF20A0000040A0004040A0008040A000FF40A0000060A0004060A0008060A000FF60A0000080A0004080A0008080A000FF80A00000A0
310
A00040A0A00080A0A000FFA0A00000C0A00040C0A00080C0A000FFC0A00000FFA00040FFA00080FFA000FFFFA0000000C0004000C0008000C000FF00C0000020C0004020C0008020C000FF20C0000040C0004040C0008040C000FF40C0000060C0004060C0008060C000FF60C0000080C0004080C0008080C000FF80C00000
310
A0C00040A0C00080A0C000FFA0C00000C0C00040C0C00080C0C000FFC0C00000FFC00040FFC00080FFC000FFFFC0000000FF004000FF008000FF00FF00FF000020FF004020FF008020FF00FF20FF000040FF004040FF008040FF00FF40FF000060FF004060FF008060FF00FF60FF000080FF004080FF008080FF00FF80FF00
310
00A0FF0040A0FF0080A0FF00FFA0FF0000C0FF0040C0FF0080C0FF00FFC0FF0000FFFF0040FFFF0080FFFF00FFFFFF00000000000000000000000000000000000000000000000000000000000000000000000000000000000000000000000000000000FFFF0000000000000000000000000000000000000000000000000000
310
000000FFFFFFFF00000000000000000000000000000000000000000000000000000000FF0000FF00000000000000000000000000000000000000000000000000000000FFFFFFFF0000000000000000000000000000000000000000000000000000000000FF0000000000000000000000000000000000000000000000000000
310
00FFFFFFFFFF00000000000000000000000000000000000000000000FFFFFF00FFFF000000FF00000000000000000000000000000000000000000000FF00FF00FF000000000000000000000000000000000000000000000000000000FF00FFFF00000000000000000000000000000000000000000000000000000000FF00FF
310
FF00000000000000000000000000000000000000000000000000000000FFFFFFFFFF000000000000000000000000000000000000000000000000000000FFFFFF00FFFFFFFFFFFF00000000000000000000000000000000000000000000FFFFFF00FFFFFFFFFFFF00000000000000000000000000000000000000000000FFFF
310
FFFFFF000000000000000000000000000000000000000000000000000000FFFFFFFF00000000000000000000000000000000000000000000000000000000FFFFFFFF00000000000000000000000000000000000000000000000000000000FFFFFFFFFF000000000000000000000000000000000000000000000000000000FF
310
FFFF00FFFFFFFFFFFF00000000000000000000000000000000000000000000FFFFFF00FFFFFFFFFFFF00000000000000000000000000000000000000000000FF00FFFFFF000000000000000000000000000000000000000000000000000000FF00FFFF00000000000000000000000000000000000000000000000000000000
310
FF00FFFF00000000000000000000000000000000000000000000000000000000FF00FF00FF000000000000000000000000000000000000000000000000000000FFFFFF00FFFF000000FF000000000000000000000000000000000000000000000000000000FFFFFFFFFF000000000000000000000000000000000000000000
310
00000000000000000000FF000000000000000000000000000000000000000000000000000000000000FFFFFF0000000000000000000000000000000000000000000000000000000000FF00FFFF00000000000000000000000000000000000000000000000000000000FF00FF00000000000000000000000000000000000000
310
0000000000000000000000FF0000000000000000000000000000000000000000000000000000000000000000000000000000000000000000
102
{BLKREFS
331
573
102
}
1001
ACAD
1000
DesignCenter Data
1002
{
1070
     1
1070
     1
1002
}
  0
BLOCK_RECORD
  5
54A
330
1
100
AcDbSymbolTableRecord
100
AcDbBlockTableRecord
  2
elkon
340
0
310
28000000200000002000000001000800000000000004000000000000000000000000000000000000000000004000000080000000FF000000002000004020000080200000FF200000004000004040000080400000FF400000006000004060000080600000FF600000008000004080000080800000FF80000000A0000040A000
310
0080A00000FFA0000000C0000040C0000080C00000FFC0000000FF000040FF000080FF0000FFFF0000000020004000200080002000FF002000002020004020200080202000FF202000004020004040200080402000FF402000006020004060200080602000FF602000008020004080200080802000FF80200000A0200040A0
310
200080A02000FFA0200000C0200040C0200080C02000FFC0200000FF200040FF200080FF2000FFFF2000000040004000400080004000FF004000002040004020400080204000FF204000004040004040400080404000FF404000006040004060400080604000FF604000008040004080400080804000FF80400000A0400040
310
A0400080A04000FFA0400000C0400040C0400080C04000FFC0400000FF400040FF400080FF4000FFFF4000000060004000600080006000FF006000002060004020600080206000FF206000004060004040600080406000FF406000006060004060600080606000FF606000008060004080600080806000FF80600000A06000
310
40A0600080A06000FFA0600000C0600040C0600080C06000FFC0600000FF600040FF600080FF6000FFFF6000000080004000800080008000FF008000002080004020800080208000FF208000004080004040800080408000FF408000006080004060800080608000FF608000008080004080800080808000FF80800000A080
310
0040A0800080A08000FFA0800000C0800040C0800080C08000FFC0800000FF800040FF800080FF8000FFFF80000000A0004000A0008000A000FF00A0000020A0004020A0008020A000FF20A0000040A0004040A0008040A000FF40A0000060A0004060A0008060A000FF60A0000080A0004080A0008080A000FF80A00000A0
310
A00040A0A00080A0A000FFA0A00000C0A00040C0A00080C0A000FFC0A00000FFA00040FFA00080FFA000FFFFA0000000C0004000C0008000C000FF00C0000020C0004020C0008020C000FF20C0000040C0004040C0008040C000FF40C0000060C0004060C0008060C000FF60C0000080C0004080C0008080C000FF80C00000
310
A0C00040A0C00080A0C000FFA0C00000C0C00040C0C00080C0C000FFC0C00000FFC00040FFC00080FFC000FFFFC0000000FF004000FF008000FF00FF00FF000020FF004020FF008020FF00FF20FF000040FF004040FF008040FF00FF40FF000060FF004060FF008060FF00FF60FF000080FF004080FF008080FF00FF80FF00
310
00A0FF0040A0FF0080A0FF00FFA0FF0000C0FF0040C0FF0080C0FF00FFC0FF0000FFFF0040FFFF0080FFFF00FFFFFF000000000000000000000000000000000000000000000000000000000000000000000000000000000000000000000000FF00000000000000000000000000000000000000000000000000000000000000
310
FF00000000000000000000000000000000000000000000000000000000000000FF00000000000000000000000000000000000000000000000000000000000000FF00000000000000000000000000000000000000000000000000000000000000FF000000000000000000000000000000000000000000000000000000000000
310
00FF00000000000000000000000000000000000000000000000000000000000000FF00000000000000000000000000000000000000000000000000000000000000FF00000000000000000000000000000000000000000000000000000000000000FF0000000000000000000000000000000000000000000000000000000000
310
0000FF00000000000000000000000000000000000000000000000000000000000000FF0000000000000000000000000000000000000000FFFFFFFFFFFFFFFFFFFFFFFFFFFFFFFFFFFFFFFFFFFFFFFF0000000000000000FF00000000000000000000000000000000000000000000FF0000000000000000FF00000000000000
310
000000000000000000000000000000FF0000000000000000FFFFFFFFFFFFFFFFFFFFFFFFFFFFFFFFFFFFFFFFFFFFFFFF00000000000000000000000000000000000000000000000000000000000000000000000000000000FFFFFFFFFFFFFFFFFFFFFFFFFFFFFFFFFFFFFFFFFFFFFFFF0000000000000000FF0000FFFFFFFF
310
FFFF000000000000FFFFFFFFFFFF0000FF0000000000000000FF0000000000FFFFFFFFFFFFFFFFFFFFFF000000000000FF0000000000000000FFFFFFFFFFFFFFFFFFFFFFFFFFFFFFFFFFFFFFFFFFFFFFFF00000000000000000000000000000000000000FF0000000000000000000000000000000000000000000000000000
310
0000000000FF00000000000000000000000000000000000000000000000000000000000000FF00000000000000000000000000000000000000000000000000000000000000FF00000000000000000000000000000000000000000000000000000000000000FF00000000000000000000000000000000000000000000000000
310
000000000000FF00000000000000000000000000000000000000000000000000000000000000FF00000000000000000000000000000000000000000000000000000000000000FF00000000000000000000000000000000000000000000000000000000000000FF000000000000000000000000000000000000000000000000
310
00000000000000FF000000000000000000000000000000000000000000000000000000000000000000000000000000000000000000000000
102
{BLKREFS
331
571
331
572
102
}
  0
BLOCK_RECORD
  5
552
330
1
100
AcDbSymbolTableRecord
100
AcDbBlockTableRecord
  2
tri
340
0
310
28000000200000002000000001000800000000000004000000000000000000000000000000000000000000004000000080000000FF000000002000004020000080200000FF200000004000004040000080400000FF400000006000004060000080600000FF600000008000004080000080800000FF80000000A0000040A000
310
0080A00000FFA0000000C0000040C0000080C00000FFC0000000FF000040FF000080FF0000FFFF0000000020004000200080002000FF002000002020004020200080202000FF202000004020004040200080402000FF402000006020004060200080602000FF602000008020004080200080802000FF80200000A0200040A0
310
200080A02000FFA0200000C0200040C0200080C02000FFC0200000FF200040FF200080FF2000FFFF2000000040004000400080004000FF004000002040004020400080204000FF204000004040004040400080404000FF404000006040004060400080604000FF604000008040004080400080804000FF80400000A0400040
310
A0400080A04000FFA0400000C0400040C0400080C04000FFC0400000FF400040FF400080FF4000FFFF4000000060004000600080006000FF006000002060004020600080206000FF206000004060004040600080406000FF406000006060004060600080606000FF606000008060004080600080806000FF80600000A06000
310
40A0600080A06000FFA0600000C0600040C0600080C06000FFC0600000FF600040FF600080FF6000FFFF6000000080004000800080008000FF008000002080004020800080208000FF208000004080004040800080408000FF408000006080004060800080608000FF608000008080004080800080808000FF80800000A080
310
0040A0800080A08000FFA0800000C0800040C0800080C08000FFC0800000FF800040FF800080FF8000FFFF80000000A0004000A0008000A000FF00A0000020A0004020A0008020A000FF20A0000040A0004040A0008040A000FF40A0000060A0004060A0008060A000FF60A0000080A0004080A0008080A000FF80A00000A0
310
A00040A0A00080A0A000FFA0A00000C0A00040C0A00080C0A000FFC0A00000FFA00040FFA00080FFA000FFFFA0000000C0004000C0008000C000FF00C0000020C0004020C0008020C000FF20C0000040C0004040C0008040C000FF40C0000060C0004060C0008060C000FF60C0000080C0004080C0008080C000FF80C00000
310
A0C00040A0C00080A0C000FFA0C00000C0C00040C0C00080C0C000FFC0C00000FFC00040FFC00080FFC000FFFFC0000000FF004000FF008000FF00FF00FF000020FF004020FF008020FF00FF20FF000040FF004040FF008040FF00FF40FF000060FF004060FF008060FF00FF60FF000080FF004080FF008080FF00FF80FF00
310
00A0FF0040A0FF0080A0FF00FFA0FF0000C0FF0040C0FF0080C0FF00FFC0FF0000FFFF0040FFFF0080FFFF00FFFFFF0000000000000000000000000000000000000000000000000000000000000000000000000000000000000000FF00000000000000000000000000000000000000000000000000000000000000FFFF0000
310
0000000000000000000000000000000000000000000000000000FFFF0000FF00000000000000000000000000000000000000000000000000FFFF0000000000FF0000000000000000000000000000000000000000000000FF0000000000000000FF000000000000000000000000000000000000000000FF0000000000000000
310
0000FF00000000000000000000000000000000000000FF000000000000000000000000FF000000000000000000000000000000000000FF00000000000000000000000000FF00000000000000000000000000000000FF000000000000000000000000000000FF000000000000000000000000000000FF000000000000000000
310
00000000000000FF00000000000000000000000000FF000000000000000000000000000000000000FF000000000000000000000000FF00000000000000000000000000000000000000FF00000000000000000000FF000000000000000000000000000000000000000000FF000000000000000000FF00000000000000000000
310
000000000000000000000000FF0000000000000000FF0000000000000000000000000000000000000000000000FF00000000000000FF000000000000000000000000000000000000000000000000FF000000000000FF00000000000000000000000000000000000000000000000000FF000000000000FF0000000000000000
310
0000000000000000000000000000000000FF0000000000FF0000000000000000000000000000000000000000000000000000FF00000000FF0000000000000000000000000000000000000000000000000000FFFF00000000FF00000000000000000000000000000000000000000000000000FF0000000000FF000000000000
310
000000000000000000000000000000000000FF00000000000000FF0000000000000000000000000000000000000000000000FF0000000000000000FF000000000000000000000000000000000000000000FF00000000000000000000FF00000000000000000000000000000000000000FF000000000000000000000000FF00
310
00000000000000000000000000000000FF0000000000000000000000000000FF0000000000000000000000000000FFFF00000000000000000000000000000000FFFF0000000000000000000000FF0000000000000000000000000000000000000000FFFFFFFFFFFFFFFFFFFFFF000000000000000000000000000000000000
310
0000000000000000000000000000000000000000000000000000000000000000000000000000000000000000000000000000000000000000
102
{BLKREFS
331
57C
102
}
  0
BLOCK_RECORD
  5
65D
330
1
100
AcDbSymbolTableRecord
100
AcDbBlockTableRecord
  2
*D6
340
0
  0
BLOCK_RECORD
  5
66B
330
1
100
AcDbSymbolTableRecord
100
AcDbBlockTableRecord
  2
*D7
340
0
  0
ENDTAB
  0
ENDSEC
  0
SECTION
  2
BLOCKS
  0
BLOCK
  5
1F
330
1E
100
AcDbEntity
  8
0
100
AcDbBlockBegin
  2
*Model_Space
 70
     0
 10
0.0
 20
0.0
 30
0.0
  3
*Model_Space
  1

  0
ENDBLK
  5
20
330
1E
100
AcDbEntity
  8
0
100
AcDbBlockEnd
  0
BLOCK
  5
1B
330
1A
100
AcDbEntity
 67
     1
  8
0
100
AcDbBlockBegin
  2
*Paper_Space
 70
     0
 10
0.0
 20
0.0
 30
0.0
  3
*Paper_Space
  1

  0
ENDBLK
  5
1C
330
1A
100
AcDbEntity
 67
     1
  8
0
100
AcDbBlockEnd
  0
BLOCK
  5
44C
330
446
100
AcDbEntity
  8
0
100
AcDbBlockBegin
  2
Inductor
 70
     2
 10
0.0
 20
0.0
 30
0.0
  3
Inductor
  1
INDUCTOR
  4
DesignCenter Basic Electronics example
  0
LINE
  5
447
330
446
100
AcDbEntity
  8
0
 62
     7
100
AcDbLine
 10
0.3500000000000001
 20
0.0
 30
0.0
 11
0.3999999999999999
 21
0.0
 31
0.0
  0
ARC
  5
448
330
446
100
AcDbEntity
  8
0
 62
     7
100
AcDbCircle
 10
0.2999999999999998
 20
0.0374999999999997
 30
0.0
 40
0.0625
100
AcDbArc
 50
323.1301
 51
216.8699
  0
LINE
  5
449
330
446
100
AcDbEntity
  8
0
 62
     7
100
AcDbLine
 10
0.0
 20
0.0
 30
0.0
 11
0.0499999999999998
 21
0.0
 31
0.0
  0
ARC
  5
44A
330
446
100
AcDbEntity
  8
0
 62
     7
100
AcDbCircle
 10
0.1000000000000001
 20
0.0374999999999997
 30
0.0
 40
0.0625
100
AcDbArc
 50
323.1301
 51
216.8699
  0
ARC
  5
44B
330
446
100
AcDbEntity
  8
0
 62
     7
100
AcDbCircle
 10
0.2000000000000002
 20
0.0374999999999997
 30
0.0
 40
0.0625
100
AcDbArc
 50
323.1301
 51
216.8699
  0
ENDBLK
  5
44D
330
446
100
AcDbEntity
  8
0
100
AcDbBlockEnd
  0
BLOCK
  5
451
330
44E
100
AcDbEntity
  8
0
100
AcDbBlockBegin
  2
conpoint
 70
     0
 10
0.0
 20
0.0
 30
0.0
  3
conpoint
  1

  0
HATCH
  5
44F
330
44E
100
AcDbEntity
  8
0
100
AcDbHatch
 10
0.0
 20
0.0
 30
0.0
210
0.0
220
0.0
230
1.0
  2
SOLID
 70
     1
 71
     1
 91
        1
 92
        1
 93
        1
 72
     2
 10
3.932944225599126
 20
4.517912367231916
 40
0.0251551376970127
 50
0.0
 51
360.0
 73
     1
 97
        1
330
450
 75
     0
 76
     1
 98
        1
 10
0.0
 20
0.0
  0
CIRCLE
  5
450
102
{ACAD_REACTORS
330
44F
102
}
330
44E
100
AcDbEntity
  8
0
100
AcDbCircle
 10
3.932944225599126
 20
4.517912367231916
 30
0.0
 40
0.0251551376970127
  0
ENDBLK
  5
452
330
44E
100
AcDbEntity
  8
0
100
AcDbBlockEnd
  0
BLOCK
  5
457
330
453
100
AcDbEntity
  8
0
100
AcDbBlockBegin
  2
ind
 70
     0
 10
0.0
 20
0.0
 30
0.0
  3
ind
  1

  0
INSERT
  5
454
330
453
100
AcDbEntity
  8
0
100
AcDbBlockReference
  2
Inductor
 10
5.142686818928233
 20
4.506130839892044
 30
0.0
 50
90.0
  0
INSERT
  5
455
330
453
100
AcDbEntity
  8
0
100
AcDbBlockReference
  2
conpoint
 10
1.213283901823427
 20
-0.0258025784579612
 30
0.0
  0
INSERT
  5
456
330
453
100
AcDbEntity
  8
0
100
AcDbBlockReference
  2
conpoint
 10
1.20936500961606
 20
0.4012205201373665
 30
0.0
  0
ENDBLK
  5
458
330
453
100
AcDbEntity
  8
0
100
AcDbBlockEnd
  0
BLOCK
  5
45D
330
459
100
AcDbEntity
  8
0
100
AcDbBlockBegin
  2
rfc
 70
     0
 10
0.0
 20
0.0
 30
0.0
  3
rfc
  1

  0
INSERT
  5
45A
330
459
100
AcDbEntity
  8
0
100
AcDbBlockReference
  2
ind
 10
0.0
 20
0.0
 30
0.0
  0
HATCH
  5
45B
330
459
100
AcDbEntity
  8
0
100
AcDbHatch
 10
0.0
 20
0.0
 30
0.0
210
0.0
220
0.0
230
1.0
  2
SOLID
 70
     1
 71
     1
 91
        1
 92
        1
 93
        4
 72
     1
 10
5.019171584733157
 20
4.850883942041264
 11
4.991736945333968
 21
4.850883942041264
 72
     1
 10
4.991736945333968
 20
4.850883942041264
 11
4.991736945333968
 21
4.557060643284785
 72
     1
 10
4.991736945333968
 20
4.557060643284785
 11
5.019171584733157
 21
4.557060643284785
 72
     1
 10
5.019171584733157
 20
4.557060643284785
 11
5.019171584733157
 21
4.850883942041264
 97
        1
330
45C
 75
     0
 76
     1
 98
        1
 10
0.0
 20
0.0
  0
LWPOLYLINE
  5
45C
102
{ACAD_REACTORS
330
45B
102
}
330
459
100
AcDbEntity
  8
0
100
AcDbPolyline
 90
        4
 70
     1
 43
0.0
 10
5.019171584733157
 20
4.850883942041264
 10
4.991736945333968
 20
4.850883942041264
 10
4.991736945333968
 20
4.557060643284785
 10
5.019171584733157
 20
4.557060643284785
  0
ENDBLK
  5
45E
330
459
100
AcDbEntity
  8
0
100
AcDbBlockEnd
  0
BLOCK
  5
550
330
54A
100
AcDbEntity
  8
0
100
AcDbBlockBegin
  2
elkon
 70
     0
 10
0.0
 20
0.0
 30
0.0
  3
elkon
  1

  0
LWPOLYLINE
  5
54B
102
{ACAD_REACTORS
330
54F
102
}
330
54A
100
AcDbEntity
  8
0
100
AcDbPolyline
 90
        4
 70
     1
 43
0.0
 10
5.277469087657244
 20
7.736467907658294
 10
6.725437308244949
 20
7.736467907658294
 10
6.725437308244949
 20
7.545307269129267
 10
5.277469087657244
 20
7.545307269129267
  0
LWPOLYLINE
  5
54C
330
54A
100
AcDbEntity
  8
0
100
AcDbPolyline
 90
        4
 70
     1
 43
0.0
 10
5.277469087657244
 20
7.381455311208465
 10
6.725437308244949
 20
7.381455311208465
 10
6.725437308244949
 20
7.190294672679439
 10
5.277469087657244
 20
7.190294672679439
  0
LWPOLYLINE
  5
54D
330
54A
100
AcDbEntity
  8
0
100
AcDbPolyline
 90
        2
 70
     0
 43
0.0
 10
5.987793119210273
 20
7.736467907658294
 10
5.987793119210273
 20
8.337258440989323
  0
LWPOLYLINE
  5
54E
330
54A
100
AcDbEntity
  8
0
100
AcDbPolyline
 90
        2
 70
     0
 43
0.0
 10
5.987793119210273
 20
7.190294672679439
 10
5.987793119210273
 20
6.507578139433253
  0
HATCH
  5
54F
330
54A
100
AcDbEntity
  8
0
100
AcDbHatch
 10
0.0
 20
0.0
 30
0.0
210
0.0
220
0.0
230
1.0
  2
SOLID
 70
     1
 71
     1
 91
        1
 92
        1
 93
        4
 72
     1
 10
5.277469087657244
 20
7.736467907658294
 11
6.725437308244949
 21
7.736467907658294
 72
     1
 10
6.725437308244949
 20
7.736467907658294
 11
6.725437308244949
 21
7.545307269129267
 72
     1
 10
6.725437308244949
 20
7.545307269129267
 11
5.277469087657244
 21
7.545307269129267
 72
     1
 10
5.277469087657244
 20
7.545307269129267
 11
5.277469087657244
 21
7.736467907658294
 97
        1
330
54B
 75
     0
 76
     1
 98
        1
 10
0.0
 20
0.0
  0
ENDBLK
  5
551
330
54A
100
AcDbEntity
  8
0
100
AcDbBlockEnd
  0
BLOCK
  5
555
330
552
100
AcDbEntity
  8
0
100
AcDbBlockBegin
  2
tri
 70
     0
 10
0.0
 20
0.0
 30
0.0
  3
tri
  1

  0
ARC
  5
553
330
552
100
AcDbEntity
  8
CONSTR
370
    50
100
AcDbCircle
 10
8.146085339866083
 20
7.572615928782735
 30
0.0
 40
0.8498249588931228
100
AcDbArc
 50
17.41576346451058
 51
252.8164832811067
  0
LWPOLYLINE
  5
554
330
552
100
AcDbEntity
  8
CONSTR
370
    50
100
AcDbPolyline
 90
        2
 70
     0
 43
0.0
 10
7.888244942516251
 20
6.7539228815622
 10
8.968782859461427
 20
7.838849627961277
  0
ENDBLK
  5
556
330
552
100
AcDbEntity
  8
0
100
AcDbBlockEnd
  0
BLOCK
  5
668
330
65D
100
AcDbEntity
  8
0
100
AcDbBlockBegin
  2
*D6
 70
     1
 10
0.0
 20
0.0
 30
0.0
  3
*D6
  1

  0
LINE
  5
6AF
330
65D
100
AcDbEntity
  8
Defpoints
 62
     0
370
    -2
100
AcDbLine
 10
-14.5707247679628
 20
16.4358620097543
 30
0.0
 11
-14.5707247679628
 21
17.48727241967768
 31
0.0
  0
LINE
  5
6B0
330
65D
100
AcDbEntity
  8
Defpoints
 62
     0
370
    -2
100
AcDbLine
 10
50.36478641545778
 20
16.4358620097543
 30
0.0
 11
50.36478641545778
 21
17.48727241967768
 31
0.0
  0
LINE
  5
6B1
330
65D
100
AcDbEntity
  8
Defpoints
 62
     0
370
    -2
100
AcDbLine
 10
-12.7707247679628
 20
17.30727241967768
 30
0.0
 11
16.30703082374749
 21
17.30727241967768
 31
0.0
  0
LINE
  5
6B2
330
65D
100
AcDbEntity
  8
Defpoints
 62
     0
370
    -2
100
AcDbLine
 10
48.56478641545779
 20
17.30727241967768
 30
0.0
 11
19.48703082374749
 21
17.30727241967768
 31
0.0
  0
SOLID
  5
6B3
330
65D
100
AcDbEntity
  8
Defpoints
 62
     0
100
AcDbTrace
 10
-12.7707247679628
 20
17.60727241967768
 30
0.0
 11
-12.7707247679628
 21
17.00727241967768
 31
0.0
 12
-14.5707247679628
 22
17.30727241967768
 32
0.0
 13
-14.5707247679628
 23
17.30727241967768
 33
0.0
  0
SOLID
  5
6B4
330
65D
100
AcDbEntity
  8
Defpoints
 62
     0
100
AcDbTrace
 10
48.56478641545779
 20
17.60727241967768
 30
0.0
 11
48.56478641545779
 21
17.00727241967768
 31
0.0
 12
50.36478641545778
 22
17.30727241967768
 32
0.0
 13
50.36478641545778
 23
17.30727241967768
 33
0.0
  0
MTEXT
  5
6B5
330
65D
100
AcDbEntity
  8
Defpoints
 62
     0
100
AcDbMText
 10
17.89703082374749
 20
17.30727241967768
 30
0.0
 40
1.8
 41
0.0
 71
     5
 72
     1
  1
\A1;65
 73
     1
 44
1.0
  0
POINT
  5
6B6
330
65D
100
AcDbEntity
  8
Defpoints
 62
     0
100
AcDbPoint
 10
-14.5707247679628
 20
16.3733620097543
 30
0.0
  0
POINT
  5
6B7
330
65D
100
AcDbEntity
  8
Defpoints
 62
     0
100
AcDbPoint
 10
50.36478641545778
 20
16.3733620097543
 30
0.0
  0
POINT
  5
6B8
330
65D
100
AcDbEntity
  8
Defpoints
 62
     0
100
AcDbPoint
 10
50.36478641545778
 20
17.30727241967768
 30
0.0
  0
ENDBLK
  5
669
330
65D
100
AcDbEntity
  8
0
100
AcDbBlockEnd
  0
BLOCK
  5
676
330
66B
100
AcDbEntity
  8
0
100
AcDbBlockBegin
  2
*D7
 70
     1
 10
0.0
 20
0.0
 30
0.0
  3
*D7
  1

  0
LINE
  5
6B9
330
66B
100
AcDbEntity
  8
Defpoints
 62
     0
370
    -2
100
AcDbLine
 10
52.45165494024161
 20
15.12814819642375
 30
0.0
 11
53.34775818379092
 21
15.12814819642375
 31
0.0
  0
LINE
  5
6BA
330
66B
100
AcDbEntity
  8
Defpoints
 62
     0
370
    -2
100
AcDbLine
 10
52.52951520355947
 20
-24.79652182780045
 30
0.0
 11
53.34775818379091
 21
-24.79652182780045
 31
0.0
  0
LINE
  5
6BB
330
66B
100
AcDbEntity
  8
Defpoints
 62
     0
370
    -2
100
AcDbLine
 10
53.16775818379092
 20
13.32814819642375
 30
0.0
 11
53.16775818379092
 21
-3.844186815688347
 31
0.0
  0
LINE
  5
6BC
330
66B
100
AcDbEntity
  8
Defpoints
 62
     0
370
    -2
100
AcDbLine
 10
53.16775818379091
 20
-22.99652182780044
 30
0.0
 11
53.16775818379092
 21
-5.824186815688348
 31
0.0
  0
SOLID
  5
6BD
330
66B
100
AcDbEntity
  8
Defpoints
 62
     0
100
AcDbTrace
 10
52.86775818379092
 20
13.32814819642375
 30
0.0
 11
53.46775818379091
 21
13.32814819642375
 31
0.0
 12
53.16775818379092
 22
15.12814819642375
 32
0.0
 13
53.16775818379092
 23
15.12814819642375
 33
0.0
  0
SOLID
  5
6BE
330
66B
100
AcDbEntity
  8
Defpoints
 62
     0
100
AcDbTrace
 10
52.86775818379091
 20
-22.99652182780044
 30
0.0
 11
53.4677581837909
 21
-22.99652182780044
 31
0.0
 12
53.16775818379091
 22
-24.79652182780045
 32
0.0
 13
53.16775818379091
 23
-24.79652182780045
 33
0.0
  0
MTEXT
  5
6BF
330
66B
100
AcDbEntity
  8
Defpoints
 62
     0
100
AcDbMText
 10
53.16775818379092
 20
-4.834186815688339
 30
0.0
 40
1.8
 41
0.0
 71
     5
 72
     1
  1
\A1;40
 73
     1
 44
1.0
  0
POINT
  5
6C0
330
66B
100
AcDbEntity
  8
Defpoints
 62
     0
100
AcDbPoint
 10
52.38915494024161
 20
15.12814819642375
 30
0.0
  0
POINT
  5
6C1
330
66B
100
AcDbEntity
  8
Defpoints
 62
     0
100
AcDbPoint
 10
52.46701520355947
 20
-24.79652182780045
 30
0.0
  0
POINT
  5
6C2
330
66B
100
AcDbEntity
  8
Defpoints
 62
     0
100
AcDbPoint
 10
53.16775818379091
 20
-24.79652182780045
 30
0.0
  0
ENDBLK
  5
677
330
66B
100
AcDbEntity
  8
0
100
AcDbBlockEnd
  0
ENDSEC
  0
SECTION
  2
ENTITIES
  0
SOLID
  5
23
330
1E
100
AcDbEntity
  8
METAL1
100
AcDbTrace
 10
-13.66532901085814
 20
1.399190597679668
 30
0.0
 11
-8.665329010858144
 21
1.399190597679668
 31
0.0
 12
-13.66532901085814
 22
-1.30080940232033
 32
0.0
 13
-8.665329010858144
 23
-1.30080940232033
 33
0.0
  0
SOLID
  5
24
330
1E
100
AcDbEntity
  8
METAL1
100
AcDbTrace
 10
5.452631880973174
 20
5.911260599652472
 30
0.0
 11
4.652631880973174
 21
5.911260599652472
 31
0.0
 12
5.452631880973174
 22
8.611260599652474
 32
0.0
 13
4.652631880973174
 23
8.611260599652474
 33
0.0
  0
SOLID
  5
25
330
1E
100
AcDbEntity
  8
METAL1
100
AcDbTrace
 10
5.452631880973174
 20
8.611260599652474
 30
0.0
 11
6.252631880973174
 21
8.611260599652474
 31
0.0
 12
5.452631880973174
 22
5.911260599652472
 32
0.0
 13
6.252631880973174
 23
5.911260599652472
 33
0.0
  0
SOLID
  5
26
330
1E
100
AcDbEntity
  8
METAL1
100
AcDbTrace
 10
6.252631880973174
 20
7.261260599652473
 30
0.0
 11
6.252631880973174
 21
5.911260599652472
 31
0.0
 12
4.652631880973174
 22
7.261260599652473
 32
0.0
 13
4.652631880973174
 23
5.911260599652472
 33
0.0
  0
SOLID
  5
53
330
1E
100
AcDbEntity
  8
METAL1
100
AcDbTrace
 10
19.9
 20
1.199999999999999
 30
0.0
 11
22.1
 21
1.199999999999999
 31
0.0
 12
19.9
 22
-1.199999999999999
 32
0.0
 13
22.1
 23
-1.199999999999999
 33
0.0
  0
SOLID
  5
54
330
1E
100
AcDbEntity
  8
METAL1
100
AcDbTrace
 10
11.88008279770848
 20
1.240935248138168
 30
0.0
 11
14.08008279770848
 21
1.240935248138168
 31
0.0
 12
11.88008279770848
 22
-1.15906475186183
 32
0.0
 13
14.08008279770848
 23
-1.15906475186183
 33
0.0
  0
SOLID
  5
64
330
1E
100
AcDbEntity
  8
METAL1
100
AcDbTrace
 10
22.39999999999999
 20
0.125
 30
0.0
 11
23.19999999999999
 21
0.125
 31
0.0
 12
22.39999999999999
 22
-0.125
 32
0.0
 13
23.19999999999999
 23
-0.125
 33
0.0
  0
SOLID
  5
65
330
1E
100
AcDbEntity
  8
METAL1
100
AcDbTrace
 10
22.39999999999999
 20
-0.125
 30
0.0
 11
21.6
 21
-0.125
 31
0.0
 12
22.39999999999999
 22
0.125
 32
0.0
 13
21.6
 23
0.125
 33
0.0
  0
SOLID
  5
66
330
1E
100
AcDbEntity
  8
METAL1
100
AcDbTrace
 10
21.6
 20
0.0
 30
0.0
 11
21.6
 21
0.125
 31
0.0
 12
23.19999999999999
 22
0.0
 32
0.0
 13
23.19999999999999
 23
0.125
 33
0.0
  0
SOLID
  5
67
330
1E
100
AcDbEntity
  8
METAL1
100
AcDbTrace
 10
23.19999999999999
 20
0.5
 30
0.0
 11
24.0
 21
0.5
 31
0.0
 12
23.19999999999999
 22
-0.5
 32
0.0
 13
24.0
 23
-0.5
 33
0.0
  0
SOLID
  5
77
330
1E
100
AcDbEntity
  8
CONSTR
100
AcDbTrace
 10
23.975
 20
-2.41
 30
0.0
 11
23.975
 21
0.0
 31
0.0
 12
24.02499999999999
 22
-2.41
 32
0.0
 13
24.02499999999999
 23
0.0
 33
0.0
  0
SOLID
  5
78
330
1E
100
AcDbEntity
  8
CONSTR
100
AcDbTrace
 10
23.975
 20
0.0
 30
0.0
 11
23.975
 21
0.51
 31
0.0
 12
24.02499999999999
 22
0.0
 32
0.0
 13
24.02499999999999
 23
0.51
 33
0.0
  0
SOLID
  5
79
330
1E
100
AcDbEntity
  8
CONSTR
100
AcDbTrace
 10
24.0
 20
0.5350000000000001
 30
0.0
 11
25.28999999999999
 21
0.5350000000000001
 31
0.0
 12
24.0
 22
0.485
 32
0.0
 13
25.28999999999999
 23
0.485
 33
0.0
  0
SOLID
  5
7A
330
1E
100
AcDbEntity
  8
CONSTR
100
AcDbTrace
 10
25.315
 20
0.51
 30
0.0
 11
25.315
 21
-2.41
 31
0.0
 12
25.265
 22
0.51
 32
0.0
 13
25.265
 23
-2.41
 33
0.0
  0
SOLID
  5
7B
330
1E
100
AcDbEntity
  8
CONSTR
100
AcDbTrace
 10
25.28999999999999
 20
-2.435
 30
0.0
 11
24.0
 21
-2.435
 31
0.0
 12
25.28999999999999
 22
-2.384999999999999
 32
0.0
 13
24.0
 23
-2.384999999999999
 33
0.0
  0
SOLID
  5
7C
330
1E
100
AcDbEntity
  8
CONSTR
100
AcDbTrace
 10
24.01
 20
-0.22
 30
0.0
 11
23.51
 21
-0.22
 31
0.0
 12
24.01
 22
0.22
 32
0.0
 13
23.51
 23
0.22
 33
0.0
  0
SOLID
  5
7E
330
1E
100
AcDbEntity
  8
CONSTR
100
AcDbTrace
 10
24.0
 20
-2.12
 30
0.0
 11
23.5
 21
-2.12
 31
0.0
 12
24.0
 22
-1.679999999999999
 32
0.0
 13
23.5
 23
-1.679999999999999
 33
0.0
  0
SOLID
  5
80
330
1E
100
AcDbEntity
  8
CONSTR
100
AcDbTrace
 10
25.28999999999999
 20
-1.27
 30
0.0
 11
25.79
 21
-1.27
 31
0.0
 12
25.28999999999999
 22
-2.129999999999999
 32
0.0
 13
25.79
 23
-2.129999999999999
 33
0.0
  0
SOLID
  5
82
330
1E
100
AcDbEntity
  8
CONSTR
100
AcDbTrace
 10
25.28999999999999
 20
0.22
 30
0.0
 11
25.79
 21
0.22
 31
0.0
 12
25.28999999999999
 22
-0.22
 32
0.0
 13
25.79
 23
-0.22
 33
0.0
  0
SOLID
  5
93
330
1E
100
AcDbEntity
  8
METAL1
100
AcDbTrace
 10
25.28999999999999
 20
-1.1
 30
0.0
 11
26.79
 21
-1.1
 31
0.0
 12
25.28999999999999
 22
-2.299999999999999
 32
0.0
 13
26.79
 23
-2.299999999999999
 33
0.0
  0
SOLID
  5
94
330
1E
100
AcDbEntity
  8
METAL1
100
AcDbTrace
 10
26.79
 20
-1.1
 30
0.0
 11
28.39
 21
-1.1
 31
0.0
 12
26.79
 22
-2.299999999999999
 32
0.0
 13
28.39
 23
-2.299999999999999
 33
0.0
  0
SOLID
  5
95
330
1E
100
AcDbEntity
  8
METAL1
100
AcDbTrace
 10
26.7518
 20
-1.75
 30
0.0
 11
26.7518
 21
-0.6324
 31
0.0
 12
28.4282
 22
-1.75
 32
0.0
 13
28.4282
 23
-0.6324
 33
0.0
  0
SOLID
  5
96
330
1E
100
AcDbEntity
  8
METAL1
100
AcDbTrace
 10
26.7518
 20
1.199999999999999
 30
0.0
 11
26.7518
 21
2.3176
 31
0.0
 12
28.4282
 22
1.199999999999999
 32
0.0
 13
28.4282
 23
2.3176
 33
0.0
  0
SOLID
  5
97
330
1E
100
AcDbEntity
  8
CONSTR
100
AcDbTrace
 10
26.79
 20
-1.274999999999999
 30
0.0
 11
28.39
 21
-1.274999999999999
 31
0.0
 12
26.79
 22
-1.324999999999999
 32
0.0
 13
28.39
 23
-1.324999999999999
 33
0.0
  0
SOLID
  5
98
330
1E
100
AcDbEntity
  8
CONSTR
100
AcDbTrace
 10
26.765
 20
-1.3
 30
0.0
 11
26.765
 21
1.9
 31
0.0
 12
26.815
 22
-1.3
 32
0.0
 13
26.815
 23
1.9
 33
0.0
  0
SOLID
  5
99
330
1E
100
AcDbEntity
  8
CONSTR
100
AcDbTrace
 10
28.365
 20
-1.3
 30
0.0
 11
28.365
 21
1.9
 31
0.0
 12
28.41499999999999
 22
-1.3
 32
0.0
 13
28.41499999999999
 23
1.9
 33
0.0
  0
SOLID
  5
9A
330
1E
100
AcDbEntity
  8
CONSTR
100
AcDbTrace
 10
26.79
 20
1.925
 30
0.0
 11
28.39
 21
1.925
 31
0.0
 12
26.79
 22
1.875
 32
0.0
 13
28.39
 23
1.875
 33
0.0
  0
SOLID
  5
9B
330
1E
100
AcDbEntity
  8
METAL1
100
AcDbTrace
 10
27.465
 20
1.7
 30
0.0
 11
27.465
 21
2.7
 31
0.0
 12
27.715
 22
1.7
 32
0.0
 13
27.715
 23
2.7
 33
0.0
  0
SOLID
  5
9C
330
1E
100
AcDbEntity
  8
METAL1
100
AcDbTrace
 10
27.465
 20
2.7
 30
0.0
 11
27.465
 21
2.95
 31
0.0
 12
27.465
 22
2.7
 32
0.0
 13
27.715
 23
2.7
 33
0.0
  0
SOLID
  5
9D
330
1E
100
AcDbEntity
  8
METAL1
100
AcDbTrace
 10
22.465
 20
2.95
 30
0.0
 11
27.465
 21
2.95
 31
0.0
 12
22.465
 22
2.7
 32
0.0
 13
27.465
 23
2.7
 33
0.0
  0
SOLID
  5
9E
330
1E
100
AcDbEntity
  8
METAL1
100
AcDbTrace
 10
22.465
 20
2.7
 30
0.0
 11
22.215
 21
2.7
 31
0.0
 12
22.465
 22
2.7
 32
0.0
 13
22.465
 23
2.95
 33
0.0
  0
SOLID
  5
9F
330
1E
100
AcDbEntity
  8
METAL1
100
AcDbTrace
 10
21.5618
 20
-0.525
 30
0.0
 11
21.5618
 21
0.5926000000000001
 31
0.0
 12
23.23819999999999
 22
-0.525
 32
0.0
 13
23.23819999999999
 23
0.5926000000000001
 33
0.0
  0
SOLID
  5
A0
330
1E
100
AcDbEntity
  8
METAL1
100
AcDbTrace
 10
21.5618
 20
2.424999999999999
 30
0.0
 11
21.5618
 21
3.5426
 31
0.0
 12
23.23819999999999
 22
2.424999999999999
 32
0.0
 13
23.23819999999999
 23
3.5426
 33
0.0
  0
SOLID
  5
A1
330
1E
100
AcDbEntity
  8
CONSTR
100
AcDbTrace
 10
21.6
 20
-0.05
 30
0.0
 11
23.19999999999999
 21
-0.05
 31
0.0
 12
21.6
 22
-0.1
 32
0.0
 13
23.19999999999999
 23
-0.1
 33
0.0
  0
SOLID
  5
A2
330
1E
100
AcDbEntity
  8
CONSTR
100
AcDbTrace
 10
21.575
 20
-0.075
 30
0.0
 11
21.575
 21
3.125
 31
0.0
 12
21.625
 22
-0.075
 32
0.0
 13
21.625
 23
3.125
 33
0.0
  0
SOLID
  5
A3
330
1E
100
AcDbEntity
  8
CONSTR
100
AcDbTrace
 10
23.175
 20
-0.075
 30
0.0
 11
23.175
 21
3.125
 31
0.0
 12
23.225
 22
-0.075
 32
0.0
 13
23.225
 23
3.125
 33
0.0
  0
SOLID
  5
A4
330
1E
100
AcDbEntity
  8
CONSTR
100
AcDbTrace
 10
21.6
 20
3.149999999999999
 30
0.0
 11
23.19999999999999
 21
3.149999999999999
 31
0.0
 12
21.6
 22
3.1
 32
0.0
 13
23.19999999999999
 23
3.1
 33
0.0
  0
SOLID
  5
A5
330
1E
100
AcDbEntity
  8
METAL1
100
AcDbTrace
 10
27.74
 20
-0.8618
 30
0.0
 11
28.8576
 21
-0.8618
 31
0.0
 12
27.74
 22
-2.538199999999999
 32
0.0
 13
28.8576
 23
-2.538199999999999
 33
0.0
  0
SOLID
  5
A6
330
1E
100
AcDbEntity
  8
METAL1
100
AcDbTrace
 10
30.69
 20
-0.8618
 30
0.0
 11
31.8076
 21
-0.8618
 31
0.0
 12
30.69
 22
-2.538199999999999
 32
0.0
 13
31.8076
 23
-2.538199999999999
 33
0.0
  0
SOLID
  5
A7
330
1E
100
AcDbEntity
  8
CONSTR
100
AcDbTrace
 10
28.215
 20
-0.9
 30
0.0
 11
28.215
 21
-2.5
 31
0.0
 12
28.16499999999999
 22
-0.9
 32
0.0
 13
28.16499999999999
 23
-2.5
 33
0.0
  0
SOLID
  5
A8
330
1E
100
AcDbEntity
  8
CONSTR
100
AcDbTrace
 10
28.19
 20
-0.875
 30
0.0
 11
31.39
 21
-0.875
 31
0.0
 12
28.19
 22
-0.925
 32
0.0
 13
31.39
 23
-0.925
 33
0.0
  0
SOLID
  5
A9
330
1E
100
AcDbEntity
  8
CONSTR
100
AcDbTrace
 10
28.19
 20
-2.475
 30
0.0
 11
31.39
 21
-2.475
 31
0.0
 12
28.19
 22
-2.524999999999999
 32
0.0
 13
31.39
 23
-2.524999999999999
 33
0.0
  0
SOLID
  5
AA
330
1E
100
AcDbEntity
  8
CONSTR
100
AcDbTrace
 10
31.415
 20
-0.9
 30
0.0
 11
31.415
 21
-2.5
 31
0.0
 12
31.36499999999999
 22
-0.9
 32
0.0
 13
31.36499999999999
 23
-2.5
 33
0.0
  0
SOLID
  5
AB
330
1E
100
AcDbEntity
  8
METAL1
100
AcDbTrace
 10
31.19
 20
-0.35
 30
0.0
 11
46.18999999999999
 21
-0.35
 31
0.0
 12
31.19
 22
-3.049999999999999
 32
0.0
 13
46.18999999999999
 23
-3.049999999999999
 33
0.0
  0
SOLID
  5
AC
330
1E
100
AcDbEntity
  8
METAL1
100
AcDbTrace
 10
27.715
 20
-2.299999999999999
 30
0.0
 11
27.715
 21
-8.3
 31
0.0
 12
27.465
 22
-2.299999999999999
 32
0.0
 13
27.465
 23
-8.3
 33
0.0
  0
SOLID
  5
AD
330
1E
100
AcDbEntity
  8
METAL1
100
AcDbTrace
 10
27.715
 20
-8.3
 30
0.0
 11
27.715
 21
-20.82679999999999
 31
0.0
 12
27.465
 22
-8.3
 32
0.0
 13
27.465
 23
-20.82679999999999
 33
0.0
  0
SOLID
  5
AE
330
1E
100
AcDbEntity
  8
METAL1
100
AcDbTrace
 10
27.465
 20
-20.57679999999999
 30
0.0
 11
28.215
 21
-20.57679999999999
 31
0.0
 12
27.465
 22
-20.82679999999999
 32
0.0
 13
28.215
 23
-20.82679999999999
 33
0.0
  0
SOLID
  5
AF
330
1E
100
AcDbEntity
  8
METAL1
100
AcDbTrace
 10
27.96499999999999
 20
-20.57679999999999
 30
0.0
 11
40.2418
 21
-20.57679999999999
 31
0.0
 12
27.96499999999999
 22
-20.82679999999999
 32
0.0
 13
40.2418
 23
-20.82679999999999
 33
0.0
  0
SOLID
  5
B0
330
1E
100
AcDbEntity
  8
METAL1
100
AcDbTrace
 10
39.99179999999999
 20
-20.82679999999999
 30
0.0
 11
39.99179999999999
 21
-20.0768
 31
0.0
 12
40.2418
 22
-20.82679999999999
 32
0.0
 13
40.2418
 23
-20.0768
 33
0.0
  0
SOLID
  5
B1
330
1E
100
AcDbEntity
  8
METAL1
100
AcDbTrace
 10
39.99179999999999
 20
-20.3268
 30
0.0
 11
39.99179999999999
 21
-8.3
 31
0.0
 12
40.2418
 22
-20.3268
 32
0.0
 13
40.2418
 23
-8.3
 33
0.0
  0
SOLID
  5
B2
330
1E
100
AcDbEntity
  8
METAL1
100
AcDbTrace
 10
40.2418
 20
-8.55
 30
0.0
 11
39.4918
 21
-8.55
 31
0.0
 12
40.2418
 22
-8.3
 32
0.0
 13
39.4918
 23
-8.3
 33
0.0
  0
SOLID
  5
B3
330
1E
100
AcDbEntity
  8
METAL1
100
AcDbTrace
 10
39.7418
 20
-8.55
 30
0.0
 11
27.96499999999999
 21
-8.55
 31
0.0
 12
39.7418
 22
-8.3
 32
0.0
 13
27.96499999999999
 23
-8.3
 33
0.0
  0
SOLID
  5
B4
330
1E
100
AcDbEntity
  8
METAL1
100
AcDbTrace
 10
28.215
 20
-8.3
 30
0.0
 11
28.215
 21
-20.3268
 31
0.0
 12
27.96499999999999
 22
-8.3
 32
0.0
 13
27.96499999999999
 23
-20.3268
 33
0.0
  0
SOLID
  5
B5
330
1E
100
AcDbEntity
  8
METAL1
100
AcDbTrace
 10
27.96499999999999
 20
-20.0768
 30
0.0
 11
39.7418
 21
-20.0768
 31
0.0
 12
27.96499999999999
 22
-20.3268
 32
0.0
 13
39.7418
 23
-20.3268
 33
0.0
  0
SOLID
  5
B6
330
1E
100
AcDbEntity
  8
METAL1
100
AcDbTrace
 10
39.4918
 20
-20.3268
 30
0.0
 11
39.4918
 21
-8.8
 31
0.0
 12
39.7418
 22
-20.3268
 32
0.0
 13
39.7418
 23
-8.8
 33
0.0
  0
SOLID
  5
B7
330
1E
100
AcDbEntity
  8
METAL1
100
AcDbTrace
 10
39.7418
 20
-9.05
 30
0.0
 11
28.465
 21
-9.05
 31
0.0
 12
39.7418
 22
-8.8
 32
0.0
 13
28.465
 23
-8.8
 33
0.0
  0
SOLID
  5
B8
330
1E
100
AcDbEntity
  8
METAL1
100
AcDbTrace
 10
28.715
 20
-8.8
 30
0.0
 11
28.715
 21
-19.8268
 31
0.0
 12
28.465
 22
-8.8
 32
0.0
 13
28.465
 23
-19.8268
 33
0.0
  0
SOLID
  5
B9
330
1E
100
AcDbEntity
  8
METAL1
100
AcDbTrace
 10
28.465
 20
-19.57679999999999
 30
0.0
 11
39.24179999999999
 21
-19.57679999999999
 31
0.0
 12
28.465
 22
-19.8268
 32
0.0
 13
39.24179999999999
 23
-19.8268
 33
0.0
  0
SOLID
  5
BA
330
1E
100
AcDbEntity
  8
METAL1
100
AcDbTrace
 10
38.99179999999999
 20
-19.8268
 30
0.0
 11
38.99179999999999
 21
-9.3
 31
0.0
 12
39.24179999999999
 22
-19.8268
 32
0.0
 13
39.24179999999999
 23
-9.3
 33
0.0
  0
SOLID
  5
BB
330
1E
100
AcDbEntity
  8
METAL1
100
AcDbTrace
 10
39.24179999999999
 20
-9.55
 30
0.0
 11
28.96499999999999
 21
-9.55
 31
0.0
 12
39.24179999999999
 22
-9.3
 32
0.0
 13
28.96499999999999
 23
-9.3
 33
0.0
  0
SOLID
  5
BC
330
1E
100
AcDbEntity
  8
METAL1
100
AcDbTrace
 10
29.21499999999999
 20
-9.3
 30
0.0
 11
29.21499999999999
 21
-19.32679999999999
 31
0.0
 12
28.96499999999999
 22
-9.3
 32
0.0
 13
28.96499999999999
 23
-19.32679999999999
 33
0.0
  0
SOLID
  5
BD
330
1E
100
AcDbEntity
  8
METAL1
100
AcDbTrace
 10
28.96499999999999
 20
-19.0768
 30
0.0
 11
38.74179999999999
 21
-19.0768
 31
0.0
 12
28.96499999999999
 22
-19.32679999999999
 32
0.0
 13
38.74179999999999
 23
-19.32679999999999
 33
0.0
  0
SOLID
  5
BE
330
1E
100
AcDbEntity
  8
METAL1
100
AcDbTrace
 10
38.4918
 20
-19.32679999999999
 30
0.0
 11
38.4918
 21
-9.8
 31
0.0
 12
38.74179999999999
 22
-19.32679999999999
 32
0.0
 13
38.74179999999999
 23
-9.8
 33
0.0
  0
SOLID
  5
BF
330
1E
100
AcDbEntity
  8
METAL1
100
AcDbTrace
 10
38.74179999999999
 20
-10.05
 30
0.0
 11
29.465
 21
-10.05
 31
0.0
 12
38.74179999999999
 22
-9.8
 32
0.0
 13
29.465
 23
-9.8
 33
0.0
  0
SOLID
  5
C0
330
1E
100
AcDbEntity
  8
METAL1
100
AcDbTrace
 10
29.715
 20
-9.8
 30
0.0
 11
29.715
 21
-18.82679999999999
 31
0.0
 12
29.465
 22
-9.8
 32
0.0
 13
29.465
 23
-18.82679999999999
 33
0.0
  0
SOLID
  5
C1
330
1E
100
AcDbEntity
  8
METAL1
100
AcDbTrace
 10
29.465
 20
-18.5768
 30
0.0
 11
38.2418
 21
-18.5768
 31
0.0
 12
29.465
 22
-18.82679999999999
 32
0.0
 13
38.2418
 23
-18.82679999999999
 33
0.0
  0
SOLID
  5
C2
330
1E
100
AcDbEntity
  8
METAL1
100
AcDbTrace
 10
37.99179999999999
 20
-18.82679999999999
 30
0.0
 11
37.99179999999999
 21
-10.3
 31
0.0
 12
38.2418
 22
-18.82679999999999
 32
0.0
 13
38.2418
 23
-10.3
 33
0.0
  0
SOLID
  5
C3
330
1E
100
AcDbEntity
  8
METAL1
100
AcDbTrace
 10
38.2418
 20
-10.55
 30
0.0
 11
29.965
 21
-10.55
 31
0.0
 12
38.2418
 22
-10.3
 32
0.0
 13
29.965
 23
-10.3
 33
0.0
  0
SOLID
  5
C4
330
1E
100
AcDbEntity
  8
METAL1
100
AcDbTrace
 10
30.215
 20
-10.3
 30
0.0
 11
30.215
 21
-18.32679999999999
 31
0.0
 12
29.965
 22
-10.3
 32
0.0
 13
29.965
 23
-18.32679999999999
 33
0.0
  0
SOLID
  5
C5
330
1E
100
AcDbEntity
  8
METAL1
100
AcDbTrace
 10
29.965
 20
-18.07679999999999
 30
0.0
 11
37.74179999999999
 21
-18.07679999999999
 31
0.0
 12
29.965
 22
-18.32679999999999
 32
0.0
 13
37.74179999999999
 23
-18.32679999999999
 33
0.0
  0
SOLID
  5
C6
330
1E
100
AcDbEntity
  8
METAL1
100
AcDbTrace
 10
37.49179999999999
 20
-18.32679999999999
 30
0.0
 11
37.49179999999999
 21
-10.8
 31
0.0
 12
37.74179999999999
 22
-18.32679999999999
 32
0.0
 13
37.74179999999999
 23
-10.8
 33
0.0
  0
SOLID
  5
C7
330
1E
100
AcDbEntity
  8
METAL1
100
AcDbTrace
 10
37.74179999999999
 20
-11.05
 30
0.0
 11
30.46499999999999
 21
-11.05
 31
0.0
 12
37.74179999999999
 22
-10.8
 32
0.0
 13
30.46499999999999
 23
-10.8
 33
0.0
  0
SOLID
  5
C8
330
1E
100
AcDbEntity
  8
METAL1
100
AcDbTrace
 10
30.715
 20
-10.8
 30
0.0
 11
30.715
 21
-17.8268
 31
0.0
 12
30.46499999999999
 22
-10.8
 32
0.0
 13
30.46499999999999
 23
-17.8268
 33
0.0
  0
SOLID
  5
C9
330
1E
100
AcDbEntity
  8
METAL1
100
AcDbTrace
 10
30.46499999999999
 20
-17.57679999999999
 30
0.0
 11
37.2418
 21
-17.57679999999999
 31
0.0
 12
30.46499999999999
 22
-17.8268
 32
0.0
 13
37.2418
 23
-17.8268
 33
0.0
  0
SOLID
  5
CA
330
1E
100
AcDbEntity
  8
METAL1
100
AcDbTrace
 10
36.9918
 20
-17.8268
 30
0.0
 11
36.9918
 21
-11.3
 31
0.0
 12
37.2418
 22
-17.8268
 32
0.0
 13
37.2418
 23
-11.3
 33
0.0
  0
SOLID
  5
CB
330
1E
100
AcDbEntity
  8
METAL1
100
AcDbTrace
 10
37.2418
 20
-11.55
 30
0.0
 11
30.965
 21
-11.55
 31
0.0
 12
37.2418
 22
-11.3
 32
0.0
 13
30.965
 23
-11.3
 33
0.0
  0
SOLID
  5
CC
330
1E
100
AcDbEntity
  8
METAL1
100
AcDbTrace
 10
31.215
 20
-11.3
 30
0.0
 11
31.215
 21
-17.3268
 31
0.0
 12
30.965
 22
-11.3
 32
0.0
 13
30.965
 23
-17.3268
 33
0.0
  0
SOLID
  5
CD
330
1E
100
AcDbEntity
  8
METAL1
100
AcDbTrace
 10
30.965
 20
-17.07679999999999
 30
0.0
 11
36.74179999999999
 21
-17.07679999999999
 31
0.0
 12
30.965
 22
-17.3268
 32
0.0
 13
36.74179999999999
 23
-17.3268
 33
0.0
  0
SOLID
  5
CE
330
1E
100
AcDbEntity
  8
METAL1
100
AcDbTrace
 10
36.49179999999999
 20
-17.3268
 30
0.0
 11
36.49179999999999
 21
-11.8
 31
0.0
 12
36.74179999999999
 22
-17.3268
 32
0.0
 13
36.74179999999999
 23
-11.8
 33
0.0
  0
SOLID
  5
CF
330
1E
100
AcDbEntity
  8
METAL1
100
AcDbTrace
 10
36.74179999999999
 20
-12.05
 30
0.0
 11
31.465
 21
-12.05
 31
0.0
 12
36.74179999999999
 22
-11.8
 32
0.0
 13
31.465
 23
-11.8
 33
0.0
  0
SOLID
  5
D0
330
1E
100
AcDbEntity
  8
METAL1
100
AcDbTrace
 10
31.71499999999999
 20
-11.8
 30
0.0
 11
31.71499999999999
 21
-16.82679999999999
 31
0.0
 12
31.465
 22
-11.8
 32
0.0
 13
31.465
 23
-16.82679999999999
 33
0.0
  0
SOLID
  5
D1
330
1E
100
AcDbEntity
  8
METAL1
100
AcDbTrace
 10
31.465
 20
-16.5768
 30
0.0
 11
36.24179999999999
 21
-16.5768
 31
0.0
 12
31.465
 22
-16.82679999999999
 32
0.0
 13
36.24179999999999
 23
-16.82679999999999
 33
0.0
  0
SOLID
  5
D2
330
1E
100
AcDbEntity
  8
METAL1
100
AcDbTrace
 10
35.9918
 20
-16.82679999999999
 30
0.0
 11
35.9918
 21
-16.5268
 31
0.0
 12
36.24179999999999
 22
-16.82679999999999
 32
0.0
 13
36.24179999999999
 23
-16.5268
 33
0.0
  0
SOLID
  5
D3
330
1E
100
AcDbEntity
  8
METAL1
100
AcDbTrace
 10
36.22064308918528
 20
-16.77241117125716
 30
0.0
 11
34.62064308918527
 21
-16.77241117125716
 31
0.0
 12
36.22064308918528
 22
-15.17241117125716
 32
0.0
 13
34.62064308918527
 23
-15.17241117125716
 33
0.0
  0
SOLID
  5
D4
330
1E
100
AcDbEntity
  8
CONSTR
100
AcDbTrace
 10
43.22064308918528
 20
-16.27241117125716
 30
0.0
 11
36.22064308918528
 21
-16.27241117125716
 31
0.0
 12
43.22064308918528
 22
-15.67241117125716
 32
0.0
 13
36.22064308918528
 23
-15.67241117125716
 33
0.0
  0
SOLID
  5
D5
330
1E
100
AcDbEntity
  8
METAL1
100
AcDbTrace
 10
43.17879504079331
 20
-15.93089430440216
 30
0.0
 11
43.17879504079331
 21
-15.98089430440215
 31
0.0
 12
43.1287950407933
 22
-15.93089430440216
 32
0.0
 13
43.1287950407933
 23
-15.98089430440215
 33
0.0
  0
SOLID
  5
D6
330
1E
100
AcDbEntity
  8
METAL1
100
AcDbTrace
 10
43.9787950407933
 20
-16.75589430440215
 30
0.0
 11
43.17879504079331
 21
-16.75589430440215
 31
0.0
 12
43.9787950407933
 22
-15.15589430440216
 32
0.0
 13
43.17879504079331
 23
-15.15589430440216
 33
0.0
  0
SOLID
  5
D7
330
1E
100
AcDbEntity
  8
METAL1
100
AcDbTrace
 10
43.9787950407933
 20
-15.15589430440216
 30
0.0
 11
44.77879504079331
 21
-15.15589430440216
 31
0.0
 12
43.9787950407933
 22
-16.75589430440215
 32
0.0
 13
44.77879504079331
 23
-16.75589430440215
 33
0.0
  0
SOLID
  5
D8
330
1E
100
AcDbEntity
  8
METAL1
100
AcDbTrace
 10
44.77879504079331
 20
-15.95589430440216
 30
0.0
 11
44.77879504079331
 21
-16.75589430440215
 31
0.0
 12
43.17879504079331
 22
-15.95589430440216
 32
0.0
 13
43.17879504079331
 23
-16.75589430440215
 33
0.0
  0
SOLID
  5
D9
330
1E
100
AcDbEntity
  8
METAL1
100
AcDbTrace
 10
48.22879504079331
 20
-16.79409430440216
 30
0.0
 11
47.11119504079331
 21
-16.79409430440216
 31
0.0
 12
48.22879504079331
 22
-15.11769430440216
 32
0.0
 13
47.11119504079331
 23
-15.11769430440216
 33
0.0
  0
SOLID
  5
DA
330
1E
100
AcDbEntity
  8
METAL1
100
AcDbTrace
 10
45.27879504079331
 20
-16.79409430440216
 30
0.0
 11
44.16119504079331
 21
-16.79409430440216
 31
0.0
 12
45.27879504079331
 22
-15.11769430440216
 32
0.0
 13
44.16119504079331
 23
-15.11769430440216
 33
0.0
  0
SOLID
  5
DB
330
1E
100
AcDbEntity
  8
CONSTR
100
AcDbTrace
 10
47.75379504079331
 20
-16.75589430440215
 30
0.0
 11
47.75379504079331
 21
-15.15589430440216
 31
0.0
 12
47.80379504079331
 22
-16.75589430440215
 32
0.0
 13
47.80379504079331
 23
-15.15589430440216
 33
0.0
  0
SOLID
  5
DC
330
1E
100
AcDbEntity
  8
CONSTR
100
AcDbTrace
 10
47.77879504079331
 20
-16.78089430440216
 30
0.0
 11
44.57879504079331
 21
-16.78089430440216
 31
0.0
 12
47.77879504079331
 22
-16.73089430440215
 32
0.0
 13
44.57879504079331
 23
-16.73089430440215
 33
0.0
  0
SOLID
  5
DD
330
1E
100
AcDbEntity
  8
CONSTR
100
AcDbTrace
 10
47.77879504079331
 20
-15.18089430440216
 30
0.0
 11
44.57879504079331
 21
-15.18089430440216
 31
0.0
 12
47.77879504079331
 22
-15.13089430440215
 32
0.0
 13
44.57879504079331
 23
-15.13089430440215
 33
0.0
  0
SOLID
  5
DE
330
1E
100
AcDbEntity
  8
CONSTR
100
AcDbTrace
 10
44.5537950407933
 20
-16.75589430440215
 30
0.0
 11
44.5537950407933
 21
-15.15589430440216
 31
0.0
 12
44.6037950407933
 22
-16.75589430440215
 32
0.0
 13
44.6037950407933
 23
-15.15589430440216
 33
0.0
  0
SOLID
  5
DF
330
1E
100
AcDbEntity
  8
METAL1
100
AcDbTrace
 10
48.37879504079331
 20
-16.75589430440216
 30
0.0
 11
47.57879504079331
 21
-16.75589430440215
 31
0.0
 12
48.37879504079331
 22
-15.15589430440216
 32
0.0
 13
47.57879504079331
 23
-15.15589430440216
 33
0.0
  0
SOLID
  5
E0
330
1E
100
AcDbEntity
  8
METAL1
100
AcDbTrace
 10
48.37879504079331
 20
-15.15589430440216
 30
0.0
 11
49.17879504079331
 21
-15.15589430440216
 31
0.0
 12
48.37879504079331
 22
-16.75589430440216
 32
0.0
 13
49.17879504079331
 23
-16.75589430440216
 33
0.0
  0
SOLID
  5
E1
330
1E
100
AcDbEntity
  8
METAL1
100
AcDbTrace
 10
49.17879504079331
 20
-15.95589430440216
 30
0.0
 11
49.17879504079331
 21
-16.75589430440216
 31
0.0
 12
47.57879504079331
 22
-15.95589430440216
 32
0.0
 13
47.57879504079331
 23
-16.75589430440215
 33
0.0
  0
SOLID
  5
E2
330
1E
100
AcDbEntity
  8
METAL1
100
AcDbTrace
 10
49.21699504079331
 20
-16.10589430440216
 30
0.0
 11
49.21699504079331
 21
-17.22349430440216
 31
0.0
 12
47.5405950407933
 22
-16.10589430440215
 32
0.0
 13
47.5405950407933
 23
-17.22349430440216
 33
0.0
  0
SOLID
  5
E3
330
1E
100
AcDbEntity
  8
METAL1
100
AcDbTrace
 10
49.21699504079331
 20
-19.05589430440216
 30
0.0
 11
49.2169950407933
 21
-20.17349430440216
 31
0.0
 12
47.5405950407933
 22
-19.05589430440216
 32
0.0
 13
47.5405950407933
 23
-20.17349430440215
 33
0.0
  0
SOLID
  5
E4
330
1E
100
AcDbEntity
  8
CONSTR
100
AcDbTrace
 10
49.17879504079331
 20
-16.58089430440216
 30
0.0
 11
47.57879504079331
 21
-16.58089430440216
 31
0.0
 12
49.17879504079331
 22
-16.53089430440216
 32
0.0
 13
47.57879504079331
 23
-16.53089430440216
 33
0.0
  0
SOLID
  5
E5
330
1E
100
AcDbEntity
  8
CONSTR
100
AcDbTrace
 10
49.20379504079331
 20
-16.55589430440216
 30
0.0
 11
49.2037950407933
 21
-19.75589430440216
 31
0.0
 12
49.15379504079331
 22
-16.55589430440216
 32
0.0
 13
49.1537950407933
 23
-19.75589430440216
 33
0.0
  0
SOLID
  5
E6
330
1E
100
AcDbEntity
  8
CONSTR
100
AcDbTrace
 10
47.6037950407933
 20
-16.55589430440216
 30
0.0
 11
47.6037950407933
 21
-19.75589430440215
 31
0.0
 12
47.55379504079331
 22
-16.55589430440216
 32
0.0
 13
47.5537950407933
 23
-19.75589430440215
 33
0.0
  0
SOLID
  5
E7
330
1E
100
AcDbEntity
  8
CONSTR
100
AcDbTrace
 10
49.1787950407933
 20
-19.78089430440216
 30
0.0
 11
47.5787950407933
 21
-19.78089430440216
 31
0.0
 12
49.1787950407933
 22
-19.73089430440216
 32
0.0
 13
47.5787950407933
 23
-19.73089430440215
 33
0.0
  0
SOLID
  5
E8
330
1E
100
AcDbEntity
  8
METAL1
100
AcDbTrace
 10
49.1787950407933
 20
-19.55589430440216
 30
0.0
 11
49.1787950407933
 21
-21.15589430440216
 31
0.0
 12
47.5787950407933
 22
-19.55589430440216
 32
0.0
 13
47.5787950407933
 23
-21.15589430440216
 33
0.0
  0
LWPOLYLINE
  5
EA
330
1E
100
AcDbEntity
  8
GND
100
AcDbPolyline
 90
        2
 70
     0
 43
0.2
 10
47.97879504079331
 20
-20.35589430440216
 42
1.0
 10
48.77879504079331
 20
-20.35589430440216
  0
LWPOLYLINE
  5
EE
330
1E
100
AcDbEntity
  8
GND
100
AcDbPolyline
 90
        2
 70
     0
 43
0.2
 10
48.77879504079331
 20
-20.35589430440216
 42
1.0
 10
47.97879504079331
 20
-20.35589430440216
  0
SOLID
  5
F2
330
1E
100
AcDbEntity
  8
METAL1
100
AcDbTrace
 10
44.81699504079331
 20
-16.10589430440215
 30
0.0
 11
44.81699504079331
 21
-17.22349430440216
 31
0.0
 12
43.1405950407933
 22
-16.10589430440215
 32
0.0
 13
43.1405950407933
 23
-17.22349430440216
 33
0.0
  0
SOLID
  5
F3
330
1E
100
AcDbEntity
  8
METAL1
100
AcDbTrace
 10
44.81699504079331
 20
-19.05589430440216
 30
0.0
 11
44.8169950407933
 21
-20.17349430440215
 31
0.0
 12
43.1405950407933
 22
-19.05589430440216
 32
0.0
 13
43.1405950407933
 23
-20.17349430440215
 33
0.0
  0
SOLID
  5
F4
330
1E
100
AcDbEntity
  8
CONSTR
100
AcDbTrace
 10
44.77879504079331
 20
-16.58089430440216
 30
0.0
 11
43.17879504079331
 21
-16.58089430440216
 31
0.0
 12
44.77879504079331
 22
-16.53089430440216
 32
0.0
 13
43.17879504079331
 23
-16.53089430440216
 33
0.0
  0
SOLID
  5
F5
330
1E
100
AcDbEntity
  8
CONSTR
100
AcDbTrace
 10
44.80379504079331
 20
-16.55589430440216
 30
0.0
 11
44.8037950407933
 21
-19.75589430440215
 31
0.0
 12
44.7537950407933
 22
-16.55589430440216
 32
0.0
 13
44.7537950407933
 23
-19.75589430440215
 33
0.0
  0
SOLID
  5
F6
330
1E
100
AcDbEntity
  8
CONSTR
100
AcDbTrace
 10
43.20379504079331
 20
-16.55589430440216
 30
0.0
 11
43.2037950407933
 21
-19.75589430440215
 31
0.0
 12
43.15379504079331
 22
-16.55589430440216
 32
0.0
 13
43.1537950407933
 23
-19.75589430440215
 33
0.0
  0
SOLID
  5
F7
330
1E
100
AcDbEntity
  8
CONSTR
100
AcDbTrace
 10
44.7787950407933
 20
-19.78089430440216
 30
0.0
 11
43.1787950407933
 21
-19.78089430440216
 31
0.0
 12
44.7787950407933
 22
-19.73089430440215
 32
0.0
 13
43.1787950407933
 23
-19.73089430440215
 33
0.0
  0
SOLID
  5
F8
330
1E
100
AcDbEntity
  8
METAL1
100
AcDbTrace
 10
44.7787950407933
 20
-19.55589430440216
 30
0.0
 11
44.7787950407933
 21
-21.15589430440216
 31
0.0
 12
43.1787950407933
 22
-19.55589430440216
 32
0.0
 13
43.1787950407933
 23
-21.15589430440216
 33
0.0
  0
LWPOLYLINE
  5
F9
330
1E
100
AcDbEntity
  8
GND
100
AcDbPolyline
 90
        2
 70
     0
 43
0.2
 10
43.5787950407933
 20
-20.35589430440216
 42
1.0
 10
44.3787950407933
 20
-20.35589430440216
  0
LWPOLYLINE
  5
FD
330
1E
100
AcDbEntity
  8
GND
100
AcDbPolyline
 90
        2
 70
     0
 43
0.2
 10
44.3787950407933
 20
-20.35589430440216
 42
1.0
 10
43.5787950407933
 20
-20.35589430440216
  0
SOLID
  5
110
330
1E
100
AcDbEntity
  8
METAL1
100
AcDbTrace
 10
26.49300269161099
 20
0.5957054549655841
 30
0.0
 11
26.49300269161099
 21
-0.6042945450344153
 31
0.0
 12
25.29300269161099
 22
0.5957054549655841
 32
0.0
 13
25.29300269161099
 23
-0.6042945450344153
 33
0.0
  0
LWPOLYLINE
  5
111
330
1E
100
AcDbEntity
  8
GND
100
AcDbPolyline
 90
        2
 70
     0
 43
0.2
 10
25.89300269161099
 20
-0.4042945450344156
 42
1.0
 10
25.89300269161099
 20
0.3957054549655845
  0
LWPOLYLINE
  5
115
330
1E
100
AcDbEntity
  8
GND
100
AcDbPolyline
 90
        2
 70
     0
 43
0.2
 10
25.89300269161099
 20
0.3957054549655845
 42
1.0
 10
25.89300269161099
 20
-0.4042945450344156
  0
SOLID
  5
119
330
1E
100
AcDbEntity
  8
METAL1
100
AcDbTrace
 10
4.614431880973175
 20
2.461260599652472
 30
0.0
 11
4.614431880973175
 21
3.578860599652474
 31
0.0
 12
6.290831880973175
 22
2.461260599652472
 32
0.0
 13
6.290831880973175
 23
3.578860599652474
 33
0.0
  0
SOLID
  5
11A
330
1E
100
AcDbEntity
  8
METAL1
100
AcDbTrace
 10
4.614431880973175
 20
5.411260599652472
 30
0.0
 11
4.614431880973175
 21
6.528860599652475
 31
0.0
 12
6.290831880973175
 22
5.411260599652472
 32
0.0
 13
6.290831880973175
 23
6.528860599652475
 33
0.0
  0
SOLID
  5
11B
330
1E
100
AcDbEntity
  8
CONSTR
100
AcDbTrace
 10
4.652631880973174
 20
2.936260599652474
 30
0.0
 11
6.252631880973174
 21
2.936260599652474
 31
0.0
 12
4.652631880973174
 22
2.886260599652473
 32
0.0
 13
6.252631880973174
 23
2.886260599652473
 33
0.0
  0
SOLID
  5
11C
330
1E
100
AcDbEntity
  8
CONSTR
100
AcDbTrace
 10
4.627631880973174
 20
2.911260599652473
 30
0.0
 11
4.627631880973174
 21
6.111260599652474
 31
0.0
 12
4.677631880973175
 22
2.911260599652473
 32
0.0
 13
4.677631880973175
 23
6.111260599652474
 33
0.0
  0
SOLID
  5
11D
330
1E
100
AcDbEntity
  8
CONSTR
100
AcDbTrace
 10
6.227631880973174
 20
2.911260599652473
 30
0.0
 11
6.227631880973174
 21
6.111260599652474
 31
0.0
 12
6.277631880973174
 22
2.911260599652473
 32
0.0
 13
6.277631880973174
 23
6.111260599652474
 33
0.0
  0
SOLID
  5
11E
330
1E
100
AcDbEntity
  8
CONSTR
100
AcDbTrace
 10
4.652631880973174
 20
6.136260599652473
 30
0.0
 11
6.252631880973174
 21
6.136260599652473
 31
0.0
 12
4.652631880973174
 22
6.086260599652472
 32
0.0
 13
6.252631880973174
 23
6.086260599652472
 33
0.0
  0
SOLID
  5
11F
330
1E
100
AcDbEntity
  8
METAL1
100
AcDbTrace
 10
4.652631880973174
 20
3.111260599652473
 30
0.0
 11
6.252631880973174
 21
3.111260599652473
 31
0.0
 12
4.652631880973174
 22
1.511260599652473
 32
0.0
 13
6.252631880973174
 23
1.511260599652473
 33
0.0
  0
LWPOLYLINE
  5
120
330
1E
100
AcDbEntity
  8
GND
100
AcDbPolyline
 90
        2
 70
     0
 43
0.2
 10
5.452631880973174
 20
1.911260599652473
 42
1.0
 10
5.452631880973174
 20
2.711260599652473
  0
LWPOLYLINE
  5
124
330
1E
100
AcDbEntity
  8
GND
100
AcDbPolyline
 90
        2
 70
     0
 43
0.2
 10
5.452631880973174
 20
2.711260599652473
 42
1.0
 10
5.452631880973174
 20
1.911260599652473
  0
CIRCLE
  5
15B
330
1E
100
AcDbEntity
  8
CONSTR
370
    30
100
AcDbCircle
 10
16.90057837011474
 20
0.0639162701321823
 30
0.0
 40
3.134519033452018
  0
CIRCLE
  5
15C
330
1E
100
AcDbEntity
  8
CONSTR
370
    30
100
AcDbCircle
 10
16.9460013805471
 20
-0.0268960947095707
 30
0.0
 40
1.136483575809477
  0
LWPOLYLINE
  5
15E
330
1E
100
AcDbEntity
  8
CONSTR
370
    30
100
AcDbPolyline
 90
        2
 70
     0
 43
0.0
 10
15.85584823735465
 20
-0.117708371486998
 10
17.9907313857621
 20
-0.117708371486998
  0
LWPOLYLINE
  5
165
330
1E
100
AcDbEntity
  8
CONSTR
370
    30
100
AcDbPolyline
 90
        2
 70
     0
 43
0.0
 10
15.94669438576448
 20
0.0639162701321823
 10
18.08157753417194
 20
0.0639162701321823
  0
LWPOLYLINE
  5
35E
330
1E
100
AcDbEntity
  8
CONSTR
100
AcDbPolyline
 90
        2
 70
     0
 43
0.0
 10
7.370196740114931
 20
8.749522647461427
 10
4.708327885645269
 20
5.187758634483145
  0
LWPOLYLINE
  5
35F
330
1E
100
AcDbEntity
  8
CONSTR
100
AcDbPolyline
 90
        2
 70
     0
 43
0.0
 10
7.414456060685815
 20
5.539158901631695
 10
9.26780844344352
 20
6.883224823115563
  0
LWPOLYLINE
  5
360
330
1E
100
AcDbEntity
  8
CONSTR
100
AcDbPolyline
 90
        2
 70
     0
 43
0.0
 10
6.459423941746197
 20
6.460939329372382
 10
8.320958890728723
 20
7.814417541860326
  0
LWPOLYLINE
  5
361
330
1E
100
AcDbEntity
  8
CONSTR
100
AcDbPolyline
 90
        2
 70
     0
 43
0.0
 10
5.170013222951117
 20
4.726073297177292
 10
7.820142673484042
 20
8.291748297107314
  0
LWPOLYLINE
  5
362
330
1E
100
AcDbEntity
  8
CONSTR
100
AcDbPolyline
 90
        2
 70
     0
 43
0.0
 10
8.324873099221237
 20
7.81833175035284
 10
5.647347269968511
 20
4.240910622132233
  0
LWPOLYLINE
  5
363
330
1E
100
AcDbEntity
  8
CONSTR
100
AcDbPolyline
 90
        2
 70
     0
 43
0.0
 10
8.778731665427276
 20
7.356644767161773
 10
6.093378994845118
 20
3.779222063285592
  0
LWPOLYLINE
  5
364
330
1E
100
AcDbEntity
  8
CONSTR
100
AcDbPolyline
 90
        2
 70
     0
 43
0.0
 10
7.452390673116913
 20
8.808241064360357
 10
5.193204847947537
 20
7.185417781276719
  0
ARC
  5
365
330
1E
100
AcDbEntity
  8
CONSTR
100
AcDbCircle
 10
7.593296947637413
 20
8.517650589425578
 30
0.0
 40
0.3256099016146134
100
AcDbArc
 50
314.9495733215438
 51
135.0504266784561
  0
ARC
  5
366
330
1E
100
AcDbEntity
  8
CONSTR
100
AcDbCircle
 10
8.551106390990304
 20
7.587506583795196
 30
0.0
 40
0.3256099016146134
100
AcDbArc
 50
311.5051155470028
 51
138.4948844529971
  0
ARC
  5
367
330
1E
100
AcDbEntity
  8
CONSTR
100
AcDbCircle
 10
9.487170690582422
 20
6.640543791245733
 30
0.0
 40
0.3256099016146134
100
AcDbArc
 50
312.8628392357289
 51
317.6627418064885
  0
LWPOLYLINE
  5
368
330
1E
100
AcDbEntity
  8
CONSTR
100
AcDbPolyline
 90
        4
 70
     1
 43
0.0
 10
10.90757470932594
 20
5.649526104412576
 10
10.90757470932594
 20
5.649526104412576
 10
10.90757470932594
 20
5.649526104412576
 10
10.90757470932594
 20
5.649526104412576
  0
LWPOLYLINE
  5
369
330
1E
100
AcDbEntity
  8
CONSTR
100
AcDbPolyline
 90
        2
 70
     0
 43
0.0
 10
5.170013222951117
 20
4.726073297177292
 10
7.020430732081949
 20
6.075476598866748
  0
LINE
  5
36A
330
1E
100
AcDbEntity
  8
CONSTR
100
AcDbLine
 10
5.651665929249386
 20
6.728267974530545
 30
0.0
 11
6.100717414283113
 21
7.050871802820704
 31
0.0
  0
ARC
  5
36C
330
1E
100
AcDbEntity
  8
CONSTR
100
AcDbCircle
 10
4.940991399640015
 20
4.960309666535216
 30
0.0
 40
0.3256099016146134
100
AcDbArc
 50
135.6813662363378
 51
314.3186337636621
  0
LWPOLYLINE
  5
36D
330
1E
100
AcDbEntity
  8
CONSTR
100
AcDbPolyline
 90
        2
 70
     0
 43
0.0
 10
6.10903593433648
 20
3.794879002776955
 10
7.947942942837622
 20
5.131904911007417
  0
ARC
  5
36E
330
1E
100
AcDbEntity
  8
CONSTR
100
AcDbCircle
 10
5.87954651464582
 20
4.021754551529411
 30
0.0
 40
0.3256099016146134
100
AcDbArc
 50
135.6813662363378
 51
314.3186337636621
  0
LWPOLYLINE
  5
371
330
1E
100
AcDbEntity
  8
CONSTR
100
AcDbPolyline
 90
        2
 70
     0
 43
0.0
 10
9.294926528404941
 20
6.885618853070898
 10
6.633057673935279
 20
3.323854840092616
  0
LWPOLYLINE
  5
372
330
1E
100
AcDbEntity
  8
CONSTR
100
AcDbPolyline
 90
        2
 70
     0
 43
0.0
 10
9.33918584897583
 20
3.67525510724117
 10
11.19253823173352
 20
5.019321028725037
  0
LWPOLYLINE
  5
373
330
1E
100
AcDbEntity
  8
CONSTR
100
AcDbPolyline
 90
        2
 70
     0
 43
0.0
 10
8.38415373003621
 20
4.597035534981855
 10
10.24568867901873
 20
5.950513747469799
  0
LWPOLYLINE
  5
374
330
1E
100
AcDbEntity
  8
CONSTR
100
AcDbPolyline
 90
        2
 70
     0
 43
0.0
 10
7.09474301124113
 20
2.862169502786764
 10
9.744872461774052
 20
6.427844502716784
  0
LWPOLYLINE
  5
375
330
1E
100
AcDbEntity
  8
CONSTR
100
AcDbPolyline
 90
        2
 70
     0
 43
0.0
 10
10.24960288751124
 20
5.954427955962312
 10
7.572077058258526
 20
2.377006827741702
  0
LWPOLYLINE
  5
376
330
1E
100
AcDbEntity
  8
CONSTR
100
AcDbPolyline
 90
        2
 70
     0
 43
0.0
 10
10.70346145371728
 20
5.492740972771247
 10
8.018108783135136
 20
1.915318268895065
  0
ARC
  5
377
330
1E
100
AcDbEntity
  8
CONSTR
100
AcDbCircle
 10
9.518026735927426
 20
6.653746795035051
 30
0.0
 40
0.3256099016146134
100
AcDbArc
 50
314.9495733215438
 51
135.0504266784561
  0
ARC
  5
378
330
1E
100
AcDbEntity
  8
CONSTR
100
AcDbCircle
 10
10.47583617928031
 20
5.723602789404665
 30
0.0
 40
0.3256099016146134
100
AcDbArc
 50
311.5051155470028
 51
138.4948844529971
  0
LWPOLYLINE
  5
379
330
1E
100
AcDbEntity
  8
CONSTR
100
AcDbPolyline
 90
        2
 70
     0
 43
0.0
 10
7.09474301124113
 20
2.862169502786764
 10
8.945160520371963
 20
4.21157280447622
  0
ARC
  5
37A
330
1E
100
AcDbEntity
  8
CONSTR
100
AcDbCircle
 10
6.865721187930027
 20
3.096405872144689
 30
0.0
 40
0.3256099016146134
100
AcDbArc
 50
135.6813662363378
 51
314.3186337636621
  0
LWPOLYLINE
  5
37B
330
1E
100
AcDbEntity
  8
CONSTR
100
AcDbPolyline
 90
        2
 70
     0
 43
0.0
 10
8.033765722626496
 20
1.930975208386425
 10
9.872672731127632
 20
3.26800111661689
  0
ARC
  5
37C
330
1E
100
AcDbEntity
  8
CONSTR
100
AcDbCircle
 10
7.804276302935832
 20
2.157850757138884
 30
0.0
 40
0.3256099016146134
100
AcDbArc
 50
135.6813662363378
 51
314.3186337636621
  0
LWPOLYLINE
  5
37D
330
1E
100
AcDbEntity
  8
CONSTR
100
AcDbPolyline
 90
        2
 70
     0
 43
0.0
 10
10.29218494573556
 20
2.734525407032522
 10
12.14553732849326
 20
4.078591328516389
  0
LWPOLYLINE
  5
37E
330
1E
100
AcDbEntity
  8
CONSTR
100
AcDbPolyline
 90
        2
 70
     0
 43
0.0
 10
11.20260198427098
 20
5.013698255753665
 10
8.525076155018261
 20
1.436277127533057
  0
LWPOLYLINE
  5
37F
330
1E
100
AcDbEntity
  8
CONSTR
100
AcDbPolyline
 90
        2
 70
     0
 43
0.0
 10
11.65646055047702
 20
4.552011272562598
 10
8.971107879894869
 20
0.9745885686864159
  0
ARC
  5
380
330
1E
100
AcDbEntity
  8
CONSTR
100
AcDbCircle
 10
11.42883527604005
 20
4.782873089196023
 30
0.0
 40
0.3256099016146134
100
AcDbArc
 50
311.5051155470028
 51
138.4948844529971
  0
ARC
  5
381
330
1E
100
AcDbEntity
  8
CONSTR
100
AcDbCircle
 10
12.36489957563216
 20
3.835910296646556
 30
0.0
 40
0.3256099016146134
100
AcDbArc
 50
312.8628392357289
 51
317.6627418064885
  0
LWPOLYLINE
  5
382
330
1E
100
AcDbEntity
  8
CONSTR
100
AcDbPolyline
 90
        4
 70
     1
 43
0.0
 10
13.78530359437569
 20
2.844892609813402
 10
13.78530359437569
 20
2.844892609813402
 10
13.78530359437569
 20
2.844892609813402
 10
13.78530359437569
 20
2.844892609813402
  0
LWPOLYLINE
  5
383
330
1E
100
AcDbEntity
  8
CONSTR
100
AcDbPolyline
 90
        2
 70
     0
 43
0.0
 10
8.986764819386232
 20
0.9902455081777787
 10
10.82567182788736
 20
2.327271416408241
  0
ARC
  5
384
330
1E
100
AcDbEntity
  8
CONSTR
100
AcDbCircle
 10
8.757275399695567
 20
1.217121056930235
 30
0.0
 40
0.3256099016146134
100
AcDbArc
 50
135.6813662363378
 51
314.3186337636621
  0
LWPOLYLINE
  5
385
330
1E
100
AcDbEntity
  8
CONSTR
100
AcDbPolyline
 90
        2
 70
     0
 43
0.0
 10
12.17265541345469
 20
4.080985358471727
 10
9.51078655898503
 20
0.5192213454934392
  0
LWPOLYLINE
  5
386
330
1E
100
AcDbEntity
  8
CONSTR
100
AcDbPolyline
 90
        2
 70
     0
 43
0.0
 10
12.21691473402557
 20
0.8706216126419974
 10
14.07026711678327
 20
2.214687534125861
  0
LWPOLYLINE
  5
387
330
1E
100
AcDbEntity
  8
CONSTR
100
AcDbPolyline
 90
        2
 70
     0
 43
0.0
 10
11.26188261508595
 20
1.792402040382679
 10
13.12341756406848
 20
3.145880252870627
  0
LWPOLYLINE
  5
388
330
1E
100
AcDbEntity
  8
CONSTR
100
AcDbPolyline
 90
        2
 70
     0
 43
0.0
 10
9.97247189629088
 20
0.0575360081875882
 10
12.6226013468238
 20
3.623211008117612
  0
LWPOLYLINE
  5
389
330
1E
100
AcDbEntity
  8
CONSTR
100
AcDbPolyline
 90
        2
 70
     0
 43
0.0
 10
13.12733177256099
 20
3.14979446136314
 10
10.44980594330827
 20
-0.4276266668574707
  0
LWPOLYLINE
  5
38A
330
1E
100
AcDbEntity
  8
CONSTR
100
AcDbPolyline
 90
        2
 70
     0
 43
0.0
 10
13.58119033876703
 20
2.688107478172073
 10
10.89583766818488
 20
-0.8893152257041112
  0
ARC
  5
38B
330
1E
100
AcDbEntity
  8
CONSTR
100
AcDbCircle
 10
12.39575562097717
 20
3.849113300435877
 30
0.0
 40
0.3256099016146134
100
AcDbArc
 50
314.9495733215438
 51
135.0504266784561
  0
ARC
  5
38C
330
1E
100
AcDbEntity
  8
CONSTR
100
AcDbCircle
 10
13.35356506433006
 20
2.918969294805496
 30
0.0
 40
0.3256099016146134
100
AcDbArc
 50
311.5051155470028
 51
138.4948844529971
  0
LWPOLYLINE
  5
38D
330
1E
100
AcDbEntity
  8
CONSTR
100
AcDbPolyline
 90
        2
 70
     0
 43
0.0
 10
9.97247189629088
 20
0.0575360081875882
 10
11.82288940542171
 20
1.406939309877046
  0
ARC
  5
38E
330
1E
100
AcDbEntity
  8
CONSTR
100
AcDbCircle
 10
9.743450072979772
 20
0.2917723775455165
 30
0.0
 40
0.3256099016146134
100
AcDbArc
 50
135.6813662363378
 51
314.3186337636621
  0
LWPOLYLINE
  5
38F
330
1E
100
AcDbEntity
  8
CONSTR
100
AcDbPolyline
 90
        2
 70
     0
 43
0.0
 10
10.91149460767624
 20
-0.8736582862127484
 10
12.75040161617738
 20
0.463367622017719
  0
ARC
  5
390
330
1E
100
AcDbEntity
  8
CONSTR
100
AcDbCircle
 10
10.68200518798557
 20
-0.646782737460292
 30
0.0
 40
0.3256099016146134
100
AcDbArc
 50
135.6813662363378
 51
314.3186337636621
  0
LWPOLYLINE
  5
391
330
1E
100
AcDbEntity
  8
CONSTR
100
AcDbPolyline
 90
        2
 70
     0
 43
0.0
 10
14.08136938837927
 20
2.238834911345283
 10
12.40294214823222
 20
-0.003698477308852
  0
LWPOLYLINE
  5
392
330
1E
100
AcDbEntity
  8
CONSTR
100
AcDbPolyline
 90
        2
 70
     0
 43
0.0
 10
14.53522795458531
 20
1.777147928154216
 10
12.85791318947483
 20
-0.4573682260878745
  0
ARC
  5
393
330
1E
100
AcDbEntity
  8
CONSTR
100
AcDbCircle
 10
14.30760268014834
 20
2.008009744787635
 30
0.0
 40
0.3256099016146134
100
AcDbArc
 50
311.5051155470028
 51
138.4948844529971
  0
ARC
  5
39E
330
1E
100
AcDbEntity
  8
CONSTR
100
AcDbCircle
 10
5.413008041521621
 20
6.98465187701618
 30
0.0
 40
0.3256099016146134
100
AcDbArc
 50
135.6813662363378
 51
314.3186337636621
  0
ARC
  5
3A4
330
1E
100
AcDbEntity
  8
CONSTR
100
AcDbCircle
 10
12.70008527587193
 20
-0.1924723010915237
 30
0.0
 40
0.3256099016146134
100
AcDbArc
 50
135.6813662363378
 51
314.3186337636621
  0
MTEXT
  5
438
330
1E
100
AcDbEntity
  8
CONSTR
100
AcDbMText
 10
5.079243451802838
 20
3.673285590191852
 30
0.0
 40
0.6
 41
5.133099999999999
 71
     1
 72
     5
  1
150pF
 11
0.0000000000000001
 21
1.0
 31
0.0
 73
     1
 44
1.0
  0
MTEXT
  5
439
330
1E
100
AcDbEntity
  8
CONSTR
100
AcDbMText
 10
22.16971139528452
 20
0.9394976410666089
 30
0.0
 40
0.6
 41
4.1337
 71
     1
 72
     5
  1
1k2
 11
0.0000000000000001
 21
1.0
 31
0.0
 73
     1
 44
1.0
  0
MTEXT
  5
43A
330
1E
100
AcDbEntity
  8
CONSTR
100
AcDbMText
 10
28.89273235667014
 20
-1.285540434332133
 30
0.0
 40
0.6
 41
5.314799999999999
 71
     1
 72
     5
  1
15pF
 73
     1
 44
1.0
  0
MTEXT
  5
43B
330
1E
100
AcDbEntity
  8
CONSTR
100
AcDbMText
 10
27.07569964027213
 20
-0.4227706204840587
 30
0.0
 40
0.4
 41
2.770999999999999
 71
     1
 72
     5
  1
22k+\P10nF
 11
0.0000000000000001
 21
1.0
 31
0.0
 73
     1
 44
1.0
  0
MTEXT
  5
43C
330
1E
100
AcDbEntity
  8
CONSTR
100
AcDbMText
 10
24.35015062945154
 20
-2.284537065528297
 30
0.0
 40
0.5
 41
2.816399999999999
 71
     1
 72
     5
  1
BFP196
 11
0.0000000000000001
 21
1.0
 31
0.0
 73
     1
 44
1.0
  0
MTEXT
  5
43D
330
1E
100
AcDbEntity
  8
CONSTR
100
AcDbMText
 10
44.35421138867456
 20
-17.54480668408149
 30
0.0
 40
0.6
 41
3.134399999999999
 71
     1
 72
     5
  1
1nF
 11
-0.0000000000000002
 21
-1.0
 31
0.0
 73
     1
 44
1.0
  0
MTEXT
  5
43E
330
1E
100
AcDbEntity
  8
CONSTR
100
AcDbMText
 10
48.71346936767441
 20
-17.22946485637818
 30
0.0
 40
0.6
 41
3.951999999999999
 71
     1
 72
     5
  1
20nF
 11
-0.0000000000000002
 21
-1.0
 31
0.0
 73
     1
 44
1.0
  0
MTEXT
  5
43F
330
1E
100
AcDbEntity
  8
CONSTR
100
AcDbMText
 10
45.58025265673778
 20
-15.73041313002202
 30
0.0
 40
0.6
 41
2.2713
 71
     1
 72
     5
  1
56
 73
     1
 44
1.0
  0
MTEXT
  5
440
330
1E
100
AcDbEntity
  8
CONSTR
100
AcDbMText
 10
4.444709441957641
 20
-3.576872676552937
 30
0.0
 40
0.8
 41
13.3098
 71
     1
 72
     5
  1
n=10zav.\PD=8mm\Pl=10mm\Pd=0.7mm Cul
 73
     1
 44
1.0
  0
MTEXT
  5
441
330
1E
100
AcDbEntity
  8
CONSTR
100
AcDbMText
 10
15.31041295784724
 20
-4.100894512743394
 30
0.0
 40
0.6
 41
5.9054
 71
     1
 72
     5
  1
10-30 pF\P(24pf)
 73
     1
 44
1.0
  0
MTEXT
  5
442
330
1E
100
AcDbEntity
  8
CONSTR
100
AcDbMText
 10
12.43225952225328
 20
8.010186472523843
 30
0.0
 40
1.199999999999999
 41
3.8612
 71
     1
 72
     5
  1
L
 11
0.7071067811865474
 21
-0.7071067811865478
 31
0.0
 73
     1
 44
1.0
  0
MTEXT
  5
443
330
1E
100
AcDbEntity
  8
CONSTR
100
AcDbMText
 10
15.49211608917893
 20
5.52580034500319
 30
0.0
 40
1.199999999999999
 41
7.449799999999999
 71
     1
 72
     5
  1
C{\H0.5x;trimer}
 73
     1
 44
1.0
  0
MTEXT
  5
444
330
1E
100
AcDbEntity
  8
CONSTR
100
AcDbMText
 10
-13.71333790462038
 20
-3.106787279806468
 30
0.0
 40
1.6
 41
10.6296
 71
     1
 72
     5
  1
Ant
 73
     1
 44
1.0
  0
MTEXT
  5
445
330
1E
100
AcDbEntity
  8
CONSTR
100
AcDbMText
 10
44.83111724761655
 20
3.181254162393571
 30
0.0
 40
1.6
 41
8.2675
 71
     1
 72
     5
  1
Rx
 73
     1
 44
1.0
  0
SOLID
  5
48D
330
1E
100
AcDbEntity
  8
METAL1
100
AcDbTrace
 10
24.02792612912409
 20
-1.266458311852955
 30
0.0
 11
24.02792612912409
 21
-2.466458311852955
 31
0.0
 12
22.82792612912409
 22
-1.266458311852955
 32
0.0
 13
22.82792612912409
 23
-2.466458311852955
 33
0.0
  0
LWPOLYLINE
  5
48E
330
1E
100
AcDbEntity
  8
GND
100
AcDbPolyline
 90
        2
 70
     0
 43
0.2
 10
23.42792612912409
 20
-2.266458311852955
 42
1.0
 10
23.42792612912409
 20
-1.466458311852955
  0
LWPOLYLINE
  5
48F
330
1E
100
AcDbEntity
  8
GND
100
AcDbPolyline
 90
        2
 70
     0
 43
0.2
 10
23.42792612912409
 20
-1.466458311852955
 42
1.0
 10
23.42792612912409
 20
-2.266458311852955
  0
MTEXT
  5
51A
330
1E
100
AcDbEntity
  8
METAL1
370
    30
100
AcDbMText
 10
20.40403274927155
 20
11.76663739149828
 30
0.0
 40
1.8
 41
57.7028
 71
     5
 72
     5
  1
BFP196 HI-DYNAMIC 50 MHz LNA YU1AW
 73
     1
 44
1.0
  0
SOLID
  5
56D
330
1E
100
AcDbEntity
  8
METAL1
100
AcDbTrace
 10
49.19379325708996
 20
-9.520362621563908
 30
0.0
 11
49.19379325708996
 21
-11.1203626215639
 31
0.0
 12
47.59379325708997
 22
-9.520362621563908
 32
0.0
 13
47.59379325708997
 23
-11.1203626215639
 33
0.0
  0
SOLID
  5
56E
330
1E
100
AcDbEntity
  8
METAL1
100
AcDbTrace
 10
49.14300552520768
 20
-12.26188484621609
 30
0.0
 11
49.14300552520768
 21
-13.86188484621609
 31
0.0
 12
47.54300552520769
 22
-12.26188484621609
 32
0.0
 13
47.54300552520769
 23
-13.86188484621609
 33
0.0
  0
LWPOLYLINE
  5
56F
330
1E
100
AcDbEntity
  8
GND
100
AcDbPolyline
 90
        2
 70
     0
 43
0.2
 10
48.34300552520769
 20
-13.46188484621609
 42
1.0
 10
48.34300552520769
 20
-12.66188484621609
  0
LWPOLYLINE
  5
570
330
1E
100
AcDbEntity
  8
GND
100
AcDbPolyline
 90
        2
 70
     0
 43
0.2
 10
48.34300552520769
 20
-12.66188484621609
 42
1.0
 10
48.34300552520769
 20
-13.46188484621609
  0
INSERT
  5
571
330
1E
100
AcDbEntity
  8
CONSTR
100
AcDbBlockReference
  2
elkon
 10
41.67793084735222
 20
-21.75930512985451
 30
0.0
  0
INSERT
  5
572
330
1E
100
AcDbEntity
  8
CONSTR
100
AcDbBlockReference
  2
elkon
 10
53.66873414910647
 20
-4.263222022412978
 30
0.0
 50
180.0
  0
INSERT
  5
573
330
1E
100
AcDbEntity
  8
CONSTR
100
AcDbBlockReference
  2
rfc
 10
77.95042959494731
 20
20.57655876689007
 30
0.0
 41
5.747672421525734
 42
5.747672421525731
 43
5.747672421525731
 50
180.0
  0
LWPOLYLINE
  5
574
330
1E
100
AcDbEntity
  8
CONSTR
100
AcDbPolyline
 90
        2
 70
     0
 43
0.0
 10
48.39191461255264
 20
-5.228361824045983
 10
48.39191461255264
 20
-3.971576112394281
  0
LWPOLYLINE
  5
575
330
1E
100
AcDbEntity
  8
CONSTR
100
AcDbPolyline
 90
        2
 70
     0
 43
0.0
 10
48.39191461255264
 20
-7.714611798986041
 10
48.39191461255264
 20
-8.78014749803394
  0
LWPOLYLINE
  5
576
330
1E
100
AcDbEntity
  8
CONSTR
100
AcDbPolyline
 90
        2
 70
     0
 43
0.0
 10
49.19961582970667
 20
-11.03036824031248
 10
49.31537643058931
 20
-11.64842715710627
  0
LWPOLYLINE
  5
577
330
1E
100
AcDbEntity
  8
CONSTR
100
AcDbPolyline
 90
        2
 70
     0
 43
0.0
 10
49.39013567252215
 20
-13.11352732656105
 10
48.92658131287436
 20
-13.07499464623893
  0
MTEXT
  5
578
330
1E
100
AcDbEntity
  8
CONSTR
100
AcDbMText
 10
45.48608780452653
 20
-10.55583505790425
 30
0.0
 40
0.6
 41
1.6775
 71
     1
 72
     5
  1
1uF
 73
     1
 44
1.0
  0
MTEXT
  5
579
330
1E
100
AcDbEntity
  8
CONSTR
100
AcDbMText
 10
46.9810690032907
 20
-7.696701867160967
 30
0.0
 40
0.6
 41
2.423099999999999
 71
     1
 72
     5
  1
10uH
 11
0.0000000000000001
 21
1.0
 31
0.0
 73
     1
 44
1.0
  0
MTEXT
  5
57A
330
1E
100
AcDbEntity
  8
CONSTR
100
AcDbMText
 10
45.81639351116614
 20
-13.06704959142306
 30
0.0
 40
0.6
 41
1.6775
 71
     1
 72
     5
  1
1uF
 73
     1
 44
1.0
  0
MTEXT
  5
57B
330
1E
100
AcDbEntity
  8
CONSTR
100
AcDbMText
 10
50.83711123448804
 20
-14.65947449000412
 30
0.0
 40
0.5999999999999999
 41
3.075399999999999
 71
     1
 72
     5
  1
78L10
 11
-0.0031168054897748
 21
0.999995142749973
 31
0.0
 73
     1
 44
1.0
  0
INSERT
  5
57C
330
1E
100
AcDbEntity
  8
CONSTR
100
AcDbBlockReference
  2
tri
 10
49.51979618347772
 20
-24.26861340049186
 30
0.0
 50
45.00000000000008
  0
LWPOLYLINE
  5
57D
330
1E
100
AcDbEntity
  8
CONSTR
100
AcDbPolyline
 90
        2
 70
     0
 43
0.0
 10
49.30569012517831
 20
-14.41725342077639
 10
49.49897932679744
 20
-13.76049926374417
  0
LWPOLYLINE
  5
57E
330
1E
100
AcDbEntity
  8
CONSTR
100
AcDbPolyline
 90
        2
 70
     0
 43
0.0
 10
49.33242436631403
 20
-11.67870742153019
 10
49.44818496719669
 20
-12.29676633832398
  0
LWPOLYLINE
  5
585
330
1E
100
AcDbEntity
  8
CONSTR
100
AcDbPolyline
 90
        2
 70
     0
 43
0.0
 10
49.08258312289121
 20
-15.09074967930705
 10
49.27587232451035
 20
-14.43399552227484
  0
SOLID
  5
58C
330
1E
100
AcDbEntity
  8
METAL1
100
AcDbTrace
 10
34.05245315713685
 20
-0.3711139497743598
 30
0.0
 11
49.05245315713685
 21
-0.3711139497743598
 31
0.0
 12
34.05245315713685
 22
-3.07111394977436
 32
0.0
 13
49.05245315713685
 23
-3.07111394977436
 33
0.0
  0
LWPOLYLINE
  5
593
330
1E
100
AcDbEntity
  8
CONSTR
100
AcDbPolyline
 90
        2
 70
     0
 43
0.0
 10
48.38475569365603
 20
-8.686134714774468
 10
48.38475569365603
 20
-9.751670413822367
  0
LWPOLYLINE
  5
59B
330
1E
100
AcDbEntity
  8
CONSTR
100
AcDbPolyline
 90
        2
 70
     0
 43
0.0
 10
48.38475569365606
 20
-3.02510094738453
 10
48.38475569365606
 20
-4.090636646432429
  0
MTEXT
  5
5A3
330
1E
100
AcDbEntity
  8
CONSTR
100
AcDbMText
 10
40.35591490432506
 20
-13.73832021300715
 30
0.0
 40
0.6
 41
6.372399999999999
 71
     1
 72
     5
  1
0.3-0.4mm\PCul
 73
     1
 44
1.0
  0
LWPOLYLINE
  5
5F7
330
1E
100
AcDbEntity
  8
CONSTR
100
AcDbPolyline
 90
        2
 70
     0
 43
0.0
 10
-11.29417144132148
 20
1.984202160882158
 10
-7.732407428343208
 20
-0.6776666935875042
  0
LWPOLYLINE
  5
5F8
330
1E
100
AcDbEntity
  8
CONSTR
100
AcDbPolyline
 90
        2
 70
     0
 43
0.0
 10
-8.083807695491756
 20
2.028461481453042
 10
-9.427873616975624
 20
3.881813864210748
  0
LWPOLYLINE
  5
5F9
330
1E
100
AcDbEntity
  8
CONSTR
100
AcDbPolyline
 90
        2
 70
     0
 43
0.0
 10
-9.005588123232445
 20
1.073429362513426
 10
-10.35906633572038
 20
2.934964311495949
  0
LWPOLYLINE
  5
5FA
330
1E
100
AcDbEntity
  8
CONSTR
100
AcDbPolyline
 90
        2
 70
     0
 43
0.0
 10
-7.270722091037356
 20
-0.2159813562816559
 10
-10.83639709096737
 20
2.43414809425127
  0
LWPOLYLINE
  5
5FB
330
1E
100
AcDbEntity
  8
CONSTR
100
AcDbPolyline
 90
        2
 70
     0
 43
0.0
 10
-10.3629805442129
 20
2.938878519988463
 10
-6.785559415992295
 20
0.2613526907357375
  0
LWPOLYLINE
  5
5FC
330
1E
100
AcDbEntity
  8
CONSTR
100
AcDbPolyline
 90
        2
 70
     0
 43
0.0
 10
-9.901293561021837
 20
3.392737086194504
 10
-6.323870857145656
 20
0.7073844156123457
  0
LWPOLYLINE
  5
5FD
330
1E
100
AcDbEntity
  8
CONSTR
100
AcDbPolyline
 90
        2
 70
     0
 43
0.0
 10
-11.35288985822042
 20
2.06639609388414
 10
-9.730066575136781
 20
-0.1927897312852345
  0
ARC
  5
5FE
330
1E
100
AcDbEntity
  8
CONSTR
100
AcDbCircle
 10
-11.06229938328564
 20
2.20730236840464
 30
0.0
 40
0.3256099016146134
100
AcDbArc
 50
44.94957332154391
 51
225.0504266784561
  0
ARC
  5
5FF
330
1E
100
AcDbEntity
  8
CONSTR
100
AcDbCircle
 10
-10.13215537765525
 20
3.165111811757533
 30
0.0
 40
0.3256099016146134
100
AcDbArc
 50
41.50511554700281
 51
228.4948844529971
  0
ARC
  5
600
330
1E
100
AcDbEntity
  8
CONSTR
100
AcDbCircle
 10
-9.185192585105795
 20
4.101176111349651
 30
0.0
 40
0.3256099016146134
100
AcDbArc
 50
42.86283923572905
 51
47.66274180648856
  0
LWPOLYLINE
  5
601
330
1E
100
AcDbEntity
  8
CONSTR
100
AcDbPolyline
 90
        4
 70
     1
 43
0.0
 10
-8.194174898272638
 20
5.521580130093173
 10
-8.194174898272638
 20
5.521580130093173
 10
-8.194174898272638
 20
5.521580130093173
 10
-8.194174898272638
 20
5.521580130093173
  0
LWPOLYLINE
  5
602
330
1E
100
AcDbEntity
  8
CONSTR
100
AcDbPolyline
 90
        2
 70
     0
 43
0.0
 10
-7.270722091037356
 20
-0.2159813562816559
 10
-8.620125392726812
 20
1.634436152849175
  0
LINE
  5
603
330
1E
100
AcDbEntity
  8
CONSTR
100
AcDbLine
 10
-9.272916768390608
 20
0.2656713500166141
 30
0.0
 11
-9.595520596680767
 21
0.7147228350503419
 31
0.0
  0
ARC
  5
604
330
1E
100
AcDbEntity
  8
CONSTR
100
AcDbCircle
 10
-7.504958460395279
 20
-0.4450031795927565
 30
0.0
 40
0.3256099016146134
100
AcDbArc
 50
225.6813662363378
 51
44.31863376366203
  0
LWPOLYLINE
  5
605
330
1E
100
AcDbEntity
  8
CONSTR
100
AcDbPolyline
 90
        2
 70
     0
 43
0.0
 10
-6.339527796637018
 20
0.7230413551037067
 10
-7.67655370486748
 20
2.561948363604848
  0
ARC
  5
606
330
1E
100
AcDbEntity
  8
CONSTR
100
AcDbCircle
 10
-6.566403345389474
 20
0.4935519354130485
 30
0.0
 40
0.3256099016146134
100
AcDbArc
 50
225.6813662363378
 51
44.31863376366203
  0
LWPOLYLINE
  5
607
330
1E
100
AcDbEntity
  8
CONSTR
100
AcDbPolyline
 90
        2
 70
     0
 43
0.0
 10
-9.43026764693096
 20
3.908931949172167
 10
-5.868503633952677
 20
1.247063094702504
  0
LWPOLYLINE
  5
608
330
1E
100
AcDbEntity
  8
CONSTR
100
AcDbPolyline
 90
        2
 70
     0
 43
0.0
 10
-6.219903901101233
 20
3.953191269743058
 10
-7.5639698225851
 20
5.806543652500756
  0
LWPOLYLINE
  5
609
330
1E
100
AcDbEntity
  8
CONSTR
100
AcDbPolyline
 90
        2
 70
     0
 43
0.0
 10
-7.141684328841918
 20
2.998159150803438
 10
-8.495162541329861
 20
4.859694099785961
  0
LWPOLYLINE
  5
60A
330
1E
100
AcDbEntity
  8
CONSTR
100
AcDbPolyline
 90
        2
 70
     0
 43
0.0
 10
-5.406818296646827
 20
1.708748432008356
 10
-8.972493296576846
 20
4.358877882541278
  0
LWPOLYLINE
  5
60B
330
1E
100
AcDbEntity
  8
CONSTR
100
AcDbPolyline
 90
        2
 70
     0
 43
0.0
 10
-8.499076749822375
 20
4.863608308278475
 10
-4.921655621601765
 20
2.186082479025753
  0
LWPOLYLINE
  5
60C
330
1E
100
AcDbEntity
  8
CONSTR
100
AcDbPolyline
 90
        2
 70
     0
 43
0.0
 10
-8.03738976663131
 20
5.317466874484516
 10
-4.459967062755126
 20
2.632114203902364
  0
ARC
  5
60D
330
1E
100
AcDbEntity
  8
CONSTR
100
AcDbCircle
 10
-9.198395588895113
 20
4.132032156694656
 30
0.0
 40
0.3256099016146134
100
AcDbArc
 50
44.94957332154391
 51
225.0504266784561
  0
ARC
  5
60E
330
1E
100
AcDbEntity
  8
CONSTR
100
AcDbCircle
 10
-8.268251583264728
 20
5.089841600047545
 30
0.0
 40
0.3256099016146134
100
AcDbArc
 50
41.50511554700281
 51
228.4948844529971
  0
LWPOLYLINE
  5
60F
330
1E
100
AcDbEntity
  8
CONSTR
100
AcDbPolyline
 90
        2
 70
     0
 43
0.0
 10
-5.406818296646827
 20
1.708748432008356
 10
-6.756221598336281
 20
3.559165941139191
  0
ARC
  5
610
330
1E
100
AcDbEntity
  8
CONSTR
100
AcDbCircle
 10
-5.641054666004752
 20
1.479726608697255
 30
0.0
 40
0.3256099016146134
100
AcDbArc
 50
225.6813662363378
 51
44.31863376366203
  0
LWPOLYLINE
  5
611
330
1E
100
AcDbEntity
  8
CONSTR
100
AcDbPolyline
 90
        2
 70
     0
 43
0.0
 10
-4.475624002246487
 20
2.647771143393722
 10
-5.812649910476952
 20
4.48667815189486
  0
ARC
  5
612
330
1E
100
AcDbEntity
  8
CONSTR
100
AcDbCircle
 10
-4.702499550998947
 20
2.41828172370306
 30
0.0
 40
0.3256099016146134
100
AcDbArc
 50
225.6813662363378
 51
44.31863376366203
  0
LWPOLYLINE
  5
613
330
1E
100
AcDbEntity
  8
CONSTR
100
AcDbPolyline
 90
        2
 70
     0
 43
0.0
 10
-5.279174200892585
 20
4.906190366502791
 10
-6.623240122376451
 20
6.759542749260489
  0
LWPOLYLINE
  5
614
330
1E
100
AcDbEntity
  8
CONSTR
100
AcDbPolyline
 90
        2
 70
     0
 43
0.0
 10
-7.558347049613729
 20
5.816607405038208
 10
-3.980925921393119
 20
3.139081575785489
  0
LWPOLYLINE
  5
615
330
1E
100
AcDbEntity
  8
CONSTR
100
AcDbPolyline
 90
        2
 70
     0
 43
0.0
 10
-7.096660066422661
 20
6.270465971244249
 10
-3.519237362546476
 20
3.585113300662097
  0
ARC
  5
616
330
1E
100
AcDbEntity
  8
CONSTR
100
AcDbCircle
 10
-7.327521883056085
 20
6.042840696807282
 30
0.0
 40
0.3256099016146134
100
AcDbArc
 50
41.50511554700281
 51
228.4948844529971
  0
ARC
  5
617
330
1E
100
AcDbEntity
  8
CONSTR
100
AcDbCircle
 10
-6.380559090506618
 20
6.978904996399396
 30
0.0
 40
0.3256099016146134
100
AcDbArc
 50
42.86283923572905
 51
47.66274180648856
  0
LWPOLYLINE
  5
618
330
1E
100
AcDbEntity
  8
CONSTR
100
AcDbPolyline
 90
        4
 70
     1
 43
0.0
 10
-5.389541403673465
 20
8.399309015142918
 10
-5.389541403673465
 20
8.399309015142918
 10
-5.389541403673465
 20
8.399309015142918
 10
-5.389541403673465
 20
8.399309015142918
  0
LWPOLYLINE
  5
619
330
1E
100
AcDbEntity
  8
CONSTR
100
AcDbPolyline
 90
        2
 70
     0
 43
0.0
 10
-3.534894302037841
 20
3.600770240153458
 10
-4.871920210268303
 20
5.439677248654593
  0
ARC
  5
61A
330
1E
100
AcDbEntity
  8
CONSTR
100
AcDbCircle
 10
-3.761769850790297
 20
3.371280820462793
 30
0.0
 40
0.3256099016146134
100
AcDbArc
 50
225.6813662363378
 51
44.31863376366203
  0
LWPOLYLINE
  5
61B
330
1E
100
AcDbEntity
  8
CONSTR
100
AcDbPolyline
 90
        2
 70
     0
 43
0.0
 10
-6.625634152331791
 20
6.786660834221919
 10
-3.0638701393535
 20
4.124791979752256
  0
LWPOLYLINE
  5
61C
330
1E
100
AcDbEntity
  8
CONSTR
100
AcDbPolyline
 90
        2
 70
     0
 43
0.0
 10
-3.41527040650206
 20
6.830920154792806
 10
-4.759336327985923
 20
8.684272537550501
  0
LWPOLYLINE
  5
61D
330
1E
100
AcDbEntity
  8
CONSTR
100
AcDbPolyline
 90
        2
 70
     0
 43
0.0
 10
-4.337050834242742
 20
5.875888035853183
 10
-5.690529046730688
 20
7.73742298483571
  0
LWPOLYLINE
  5
61E
330
1E
100
AcDbEntity
  8
CONSTR
100
AcDbPolyline
 90
        2
 70
     0
 43
0.0
 10
-2.602184802047652
 20
4.586477317058108
 10
-6.167859801977677
 20
7.236606767591027
  0
LWPOLYLINE
  5
61F
330
1E
100
AcDbEntity
  8
CONSTR
100
AcDbPolyline
 90
        2
 70
     0
 43
0.0
 10
-5.694443255223202
 20
7.741337193328224
 10
-2.117022127002591
 20
5.063811364075501
  0
LWPOLYLINE
  5
620
330
1E
100
AcDbEntity
  8
CONSTR
100
AcDbPolyline
 90
        2
 70
     0
 43
0.0
 10
-5.232756272032135
 20
8.195195759534264
 10
-1.655333568155953
 20
5.509843088952109
  0
ARC
  5
621
330
1E
100
AcDbEntity
  8
CONSTR
100
AcDbCircle
 10
-6.39376209429594
 20
7.0097610417444
 30
0.0
 40
0.3256099016146134
100
AcDbArc
 50
44.94957332154391
 51
225.0504266784561
  0
ARC
  5
622
330
1E
100
AcDbEntity
  8
CONSTR
100
AcDbCircle
 10
-5.463618088665558
 20
7.96757048509729
 30
0.0
 40
0.3256099016146134
100
AcDbArc
 50
41.50511554700281
 51
228.4948844529971
  0
LWPOLYLINE
  5
623
330
1E
100
AcDbEntity
  8
CONSTR
100
AcDbPolyline
 90
        2
 70
     0
 43
0.0
 10
-2.602184802047652
 20
4.586477317058108
 10
-3.951588103737108
 20
6.436894826188936
  0
ARC
  5
624
330
1E
100
AcDbEntity
  8
CONSTR
100
AcDbCircle
 10
-2.836421171405579
 20
4.357455493747
 30
0.0
 40
0.3256099016146134
100
AcDbArc
 50
225.6813662363378
 51
44.31863376366203
  0
LWPOLYLINE
  5
625
330
1E
100
AcDbEntity
  8
CONSTR
100
AcDbPolyline
 90
        2
 70
     0
 43
0.0
 10
-1.670990507647314
 20
5.52550002844347
 10
-3.008016415877783
 20
7.364407036944605
  0
ARC
  5
626
330
1E
100
AcDbEntity
  8
CONSTR
100
AcDbCircle
 10
-1.89786605639977
 20
5.296010608752805
 30
0.0
 40
0.3256099016146134
100
AcDbArc
 50
225.6813662363378
 51
44.31863376366203
  0
LWPOLYLINE
  5
627
330
1E
100
AcDbEntity
  8
CONSTR
100
AcDbPolyline
 90
        2
 70
     0
 43
0.0
 10
-4.783483705205345
 20
8.695374809146503
 10
-2.54095031655121
 20
7.016947568999448
  0
LWPOLYLINE
  5
628
330
1E
100
AcDbEntity
  8
CONSTR
100
AcDbPolyline
 90
        2
 70
     0
 43
0.0
 10
-4.32179672201428
 20
9.149233375352544
 10
-2.087280567772189
 20
7.471918610242063
  0
ARC
  5
629
330
1E
100
AcDbEntity
  8
CONSTR
100
AcDbCircle
 10
-4.552658538647698
 20
8.921608100915573
 30
0.0
 40
0.3256099016146134
100
AcDbArc
 50
41.50511554700281
 51
228.4948844529971
  0
ARC
  5
62A
330
1E
100
AcDbEntity
  8
CONSTR
100
AcDbCircle
 10
-9.529300670876242
 20
0.0270134622888492
 30
0.0
 40
0.3256099016146134
100
AcDbArc
 50
225.6813662363378
 51
44.31863376366203
  0
ARC
  5
62B
330
1E
100
AcDbEntity
  8
CONSTR
100
AcDbCircle
 10
-2.352176492768538
 20
7.314090696639162
 30
0.0
 40
0.3256099016146134
100
AcDbArc
 50
225.6813662363378
 51
44.31863376366203
  0
MTEXT
  5
62C
330
1E
100
AcDbEntity
  8
CONSTR
100
AcDbMText
 10
-10.5548352663839
 20
7.04626494302051
 30
0.0
 40
1.199999999999999
 41
3.8612
 71
     1
 72
     5
  1
L
 11
0.7071067811865478
 21
0.7071067811865474
 31
0.0
 73
     1
 44
1.0
  0
SOLID
  5
637
330
1E
100
AcDbEntity
  8
METAL1
100
AcDbTrace
 10
4.26616667955232
 20
8.584896061223442
 30
0.0
 11
6.466166679552323
 21
8.584896061223442
 31
0.0
 12
4.26616667955232
 22
6.184896061223443
 32
0.0
 13
6.466166679552323
 23
6.184896061223443
 33
0.0
  0
SOLID
  5
638
330
1E
100
AcDbEntity
  8
METAL1
100
AcDbTrace
 10
-3.75375052273919
 20
8.625831309361611
 30
0.0
 11
-1.553750522739189
 21
8.625831309361611
 31
0.0
 12
-3.75375052273919
 22
6.225831309361613
 32
0.0
 13
-1.553750522739189
 23
6.225831309361613
 33
0.0
  0
CIRCLE
  5
639
330
1E
100
AcDbEntity
  8
CONSTR
370
    30
100
AcDbCircle
 10
1.266745049667065
 20
7.448812331355625
 30
0.0
 40
3.134519033452018
  0
MTEXT
  5
63A
330
1E
100
AcDbEntity
  8
CONSTR
100
AcDbMText
 10
-0.3234203626004302
 20
3.284001548480048
 30
0.0
 40
0.6
 41
5.9054
 71
     1
 72
     5
  1
10-30 pF\P(24pf)
 73
     1
 44
1.0
  0
MTEXT
  5
63B
330
1E
100
AcDbEntity
  8
CONSTR
100
AcDbMText
 10
-0.9812777415827582
 20
0.6025927199550978
 30
0.0
 40
1.199999999999999
 41
7.449799999999999
 71
     1
 72
     5
  1
C{\H0.5x;trimer}
 73
     1
 44
1.0
  0
CIRCLE
  5
644
330
1E
100
AcDbEntity
  8
CONSTR
370
    30
100
AcDbCircle
 10
1.302829845748647
 20
7.433820960749329
 30
0.0
 40
1.136483575809477
  0
LWPOLYLINE
  5
645
330
1E
100
AcDbEntity
  8
CONSTR
370
    30
100
AcDbPolyline
 90
        2
 70
     0
 43
0.0
 10
0.2126767025561946
 20
7.343008683971902
 10
2.347559850963648
 20
7.343008683971902
  0
LWPOLYLINE
  5
646
330
1E
100
AcDbEntity
  8
CONSTR
370
    30
100
AcDbPolyline
 90
        2
 70
     0
 43
0.0
 10
0.3035228509660328
 20
7.524633325591082
 10
2.438405999373486
 20
7.524633325591082
  0
MTEXT
  5
657
330
1E
100
AcDbEntity
  8
CONSTR
100
AcDbMText
 10
-7.711981161763603
 20
-3.335301258674377
 30
0.0
 40
0.8
 41
13.3098
 71
     1
 72
     5
  1
n=10zav.\PD=8mm\Pl=10mm\Pd=0.7mm Cul
 73
     1
 44
1.0
  0
LWPOLYLINE
  5
65A
330
1E
100
AcDbEntity
  8
METAL1
100
AcDbPolyline
 90
        4
 70
     1
 43
0.0
 10
50.42757937218508
 20
-24.77921416928056
 10
-14.57242062781492
 20
-24.77921416928056
 10
-14.57242062781492
 20
15.22078583071943
 10
50.42757937218508
 20
15.22078583071943
  0
DIMENSION
  5
65C
330
1E
100
AcDbEntity
  8
Defpoints
100
AcDbDimension
  2
*D6
 10
50.36478641545778
 20
17.30727241967768
 30
0.0
 11
17.89703082374749
 21
17.30727241967768
 31
0.0
 70
    32
 71
     5
 42
64.93551118342058
  3
Standard
100
AcDbAlignedDimension
 13
-14.5707247679628
 23
16.3733620097543
 33
0.0
 14
50.36478641545778
 24
16.3733620097543
 34
0.0
100
AcDbRotatedDimension
1001
ACAD
1000
DSTYLE
1002
{
1070
   271
1070
     0
1002
}
  0
DIMENSION
  5
66A
330
1E
100
AcDbEntity
  8
Defpoints
100
AcDbDimension
  2
*D7
 10
53.16775818379091
 20
-24.79652182780045
 30
0.0
 11
53.16775818379092
 21
-4.834186815688339
 31
0.0
 70
    32
 71
     5
 42
39.9246700242242
  3
Standard
100
AcDbAlignedDimension
 13
52.38915494024161
 23
15.12814819642375
 33
0.0
 14
52.46701520355947
 24
-24.79652182780045
 34
0.0
 50
90.0
100
AcDbRotatedDimension
1001
ACAD
1000
DSTYLE
1002
{
1070
   271
1070
     0
1002
}
  0
ENDSEC
  0
SECTION
  2
OBJECTS
  0
DICTIONARY
  5
C
330
0
100
AcDbDictionary
281
     1
  3
ACAD_GROUP
350
D
  3
ACAD_LAYOUT
350
19
  3
ACAD_MLINESTYLE
350
16
  3
ACAD_PLOTSETTINGS
350
18
  3
ACAD_PLOTSTYLENAME
350
E
  3
AcDbVariableDictionary
350
166
  0
DICTIONARY
  5
168
330
1E
100
AcDbDictionary
280
     1
281
     1
  3
ACAD_SORTENTS
360
169
  0
DICTIONARY
  5
D
102
{ACAD_REACTORS
330
C
102
}
330
C
100
AcDbDictionary
281
     1
  0
DICTIONARY
  5
19
102
{ACAD_REACTORS
330
C
102
}
330
C
100
AcDbDictionary
281
     1
  3
Layout1
350
1D
  3
Model
350
21
  0
DICTIONARY
  5
16
102
{ACAD_REACTORS
330
C
102
}
330
C
100
AcDbDictionary
281
     1
  3
Standard
350
17
  0
DICTIONARY
  5
18
102
{ACAD_REACTORS
330
C
102
}
330
C
100
AcDbDictionary
281
     1
  0
ACDBDICTIONARYWDFLT
  5
E
102
{ACAD_REACTORS
330
C
102
}
330
C
100
AcDbDictionary
281
     1
  3
Normal
350
F
100
AcDbDictionaryWithDefault
340
F
  0
DICTIONARY
  5
166
102
{ACAD_REACTORS
330
C
102
}
330
C
100
AcDbDictionary
281
     1
  3
DIMASSOC
350
6A1
  3
SORTENTS
350
167
  0
SORTENTSTABLE
  5
169
102
{ACAD_REACTORS
330
168
102
}
330
168
100
AcDbSortentsTable
330
1E
331
369
  5
35E
331
DB
  5
444
331
438
  5
38B
331
E3
  5
CB
331
371
  5
363
331
440
  5
439
331
61D
  5
620
331
379
  5
36C
331
625
  5
628
331
F3
  5
CE
331
381
  5
376
331
A2
  5
F2
331
23
  5
3D
331
53
  5
66
331
AA
  5
443
331
B2
  5
9F
331
BC
  5
A9
331
389
  5
37E
331
C4
  5
B1
331
391
  5
386
331
5FE
  5
601
331
CC
  5
B9
331
11B
  5
51A
331
606
  5
609
331
645
  5
646
331
D4
  5
11A
331
362
  5
11F
331
60E
  5
611
331
616
  5
619
331
7B
  5
E3
331
93
  5
24
331
9B
  5
23
331
36A
  5
35F
331
DC
  5
445
331
439
  5
38C
331
E4
  5
F6
331
372
  5
364
331
441
  5
43A
331
61E
  5
621
331
15B
  5
110
331
37A
  5
36D
331
626
  5
629
331
5F7
  5
5FA
331
F4
  5
F7
331
382
  5
377
331
A3
  5
F3
331
24
  5
3E
331
54
  5
67
331
AB
  5
95
331
B3
  5
A0
331
64
  5
77
331
BD
  5
AA
331
38A
  5
37F
331
C5
  5
B2
331
392
  5
387
331
5FF
  5
602
331
CD
  5
BA
331
11C
  5
56D
331
607
  5
60A
331
646
  5
657
331
D5
  5
C1
331
124
  5
FD
331
363
  5
120
331
60F
  5
612
331
617
  5
61A
331
7C
  5
E4
331
94
  5
7B
331
9C
  5
7E
331
43A
  5
38D
331
DD
  5
464
331
373
  5
365
331
E5
  5
466
331
442
  5
43B
331
61F
  5
622
331
15C
  5
111
331
37B
  5
36E
331
627
  5
62A
331
F5
  5
48F
331
383
  5
378
331
637
  5
D8
331
A4
  5
F4
331
25
  5
53
331
AC
  5
97
331
B4
  5
A1
331
65
  5
78
331
38B
  5
380
331
BE
  5
AB
331
FD
  5
5F8
331
5F8
  5
5FB
331
C6
  5
B3
331
115
  5
DC
331
393
  5
388
331
600
  5
603
331
CE
  5
BB
331
11D
  5
56E
331
608
  5
60B
331
657
  5
65A
331
51A
  5
D4
331
D6
  5
C2
331
364
  5
124
331
610
  5
613
331
95
  5
7C
331
9D
  5
7F
331
36C
  5
360
331
DE
  5
465
331
43B
  5
38E
331
618
  5
61B
331
374
  5
366
331
E6
  5
468
331
443
  5
43C
331
620
  5
623
331
37C
  5
371
331
EE
  5
5A3
331
628
  5
62B
331
384
  5
379
331
F6
  5
494
331
A5
  5
83
331
26
  5
54
331
AD
  5
99
331
B5
  5
A2
331
66
  5
79
331
638
  5
D9
331
BF
  5
AC
331
165
  5
119
331
38C
  5
381
331
5F9
  5
5FC
331
C7
  5
B4
331
601
  5
604
331
CF
  5
BC
331
11E
  5
F8
331
609
  5
60C
331
611
  5
614
331
D7
  5
C3
331
365
  5
15B
331
3A4
  5
38A
331
7E
  5
E5
331
96
  5
7D
331
9E
  5
80
331
DF
  5
C7
331
36D
  5
361
331
43C
  5
38F
331
619
  5
61C
331
375
  5
367
331
E7
  5
48E
331
444
  5
43D
331
621
  5
624
331
15E
  5
115
331
37D
  5
372
331
629
  5
62C
331
F7
  5
4A2
331
385
  5
37A
331
A6
  5
93
331
AE
  5
9B
331
B6
  5
A3
331
67
  5
7A
331
77
  5
DF
331
B8
  5
A5
331
C0
  5
AD
331
38D
  5
382
331
5FA
  5
5FD
331
639
  5
63A
331
C8
  5
B5
331
602
  5
605
331
D0
  5
BD
331
11F
  5
D2
331
35E
  5
11B
331
60A
  5
60D
331
593
  5
58C
331
366
  5
15C
331
612
  5
615
331
97
  5
43F
331
9F
  5
81
331
D8
  5
C4
331
59B
  5
593
331
E0
  5
C8
331
36E
  5
362
331
43D
  5
390
331
61A
  5
61D
331
5A3
  5
5F9
331
E8
  5
CC
331
376
  5
368
331
445
  5
43E
331
622
  5
625
331
37E
  5
373
331
62A
  5
637
331
386
  5
37B
331
A7
  5
F5
331
AF
  5
9C
331
B7
  5
A4
331
F8
  5
CF
331
B9
  5
A6
331
110
  5
25
331
C1
  5
AE
331
38E
  5
383
331
5FB
  5
5FE
331
63A
  5
63B
331
C9
  5
B6
331
603
  5
606
331
58C
  5
D7
331
48D
  5
26
331
D1
  5
BE
331
120
  5
F9
331
35F
  5
11C
331
39E
  5
389
331
60B
  5
60E
331
65A
  5
DA
331
367
  5
15E
331
613
  5
616
331
78
  5
E0
331
80
  5
E6
331
98
  5
E8
331
D9
  5
C5
331
E1
  5
C9
331
43E
  5
3A4
331
61B
  5
61E
331
377
  5
369
331
623
  5
626
331
56D
  5
D5
331
37F
  5
374
331
62B
  5
638
331
387
  5
37C
331
A0
  5
82
331
A8
  5
441
331
B0
  5
9D
331
BA
  5
A7
331
F9
  5
5F7
331
C2
  5
AF
331
111
  5
DB
331
38F
  5
384
331
5FC
  5
5FF
331
63B
  5
644
331
CA
  5
B7
331
119
  5
D0
331
604
  5
607
331
48E
  5
DD
331
D2
  5
BF
331
360
  5
11D
331
60C
  5
60F
331
614
  5
617
331
79
  5
E1
331
99
  5
440
331
DA
  5
C6
331
368
  5
165
331
E2
  5
CA
331
43F
  5
438
331
61C
  5
61F
331
378
  5
36A
331
EA
  5
59B
331
624
  5
627
331
56E
  5
D6
331
F2
  5
CD
331
380
  5
375
331
62C
  5
639
331
A1
  5
EE
331
A9
  5
442
331
B1
  5
9E
331
BB
  5
A8
331
388
  5
37D
331
C3
  5
B0
331
390
  5
385
331
5FD
  5
600
331
CB
  5
B8
331
11A
  5
D1
331
605
  5
608
331
644
  5
645
331
48F
  5
DE
331
D3
  5
C0
331
361
  5
11E
331
60D
  5
610
331
615
  5
618
331
7A
  5
E2
331
82
  5
E7
331
9A
  5
EA
  0
LAYOUT
  5
1D
102
{ACAD_REACTORS
330
19
102
}
330
19
100
AcDbPlotSettings
  1

  2
C:\PROGRAM FILES\ACAD2000\plotters\LaserJet 5L.pc3
  4

  6

 40
0.0
 41
0.0
 42
0.0
 43
0.0
 44
0.0
 45
0.0
 46
0.0
 47
0.0
 48
0.0
 49
0.0
140
0.0
141
0.0
142
1.0
143
1.0
 70
   688
 72
     0
 73
     0
 74
     5
  7

 75
    16
147
1.0
148
0.0
149
0.0
100
AcDbLayout
  1
Layout1
 70
     1
 71
     1
 10
0.0
 20
0.0
 11
12.0
 21
9.0
 12
0.0
 22
0.0
 32
0.0
 14
1.660416676303533
 24
1.043749897498784
 34
0.0
 15
14.94375008673179
 25
9.393749077489056
 35
0.0
146
0.0
 13
0.0
 23
0.0
 33
0.0
 16
1.0
 26
0.0
 36
0.0
 17
0.0
 27
1.0
 37
0.0
 76
     0
330
1A
  0
LAYOUT
  5
21
102
{ACAD_REACTORS
330
19
102
}
330
19
100
AcDbPlotSettings
  1

  2
C:\PROGRAM FILES\ACAD2000\plotters\LaserJet 5L.pc3
  4

  6

 40
0.0
 41
0.0
 42
0.0
 43
0.0
 44
0.0
 45
0.0
 46
0.0
 47
0.0
 48
0.0
 49
0.0
140
0.0
141
0.0
142
1.0
143
1.0
 70
  1712
 72
     0
 73
     0
 74
     0
  7

 75
     0
147
1.0
148
0.0
149
0.0
100
AcDbLayout
  1
Model
 70
     1
 71
     0
 10
0.0
 20
0.0
 11
12.0
 21
9.0
 12
0.0
 22
0.0
 32
0.0
 14
0.0
 24
0.0
 34
0.0
 15
0.0
 25
0.0
 35
0.0
146
0.0
 13
0.0
 23
0.0
 33
0.0
 16
1.0
 26
0.0
 36
0.0
 17
0.0
 27
1.0
 37
0.0
 76
     0
330
1E
  0
MLINESTYLE
  5
17
102
{ACAD_REACTORS
330
16
102
}
330
16
100
AcDbMlineStyle
  2
STANDARD
 70
     0
  3

 62
   256
 51
90.0
 52
90.0
 71
     2
 49
0.5
 62
   256
  6
BYLAYER
 49
-0.5
 62
   256
  6
BYLAYER
  0
ACDBPLACEHOLDER
  5
F
102
{ACAD_REACTORS
330
E
102
}
330
E
  0
DICTIONARYVAR
  5
6A1
102
{ACAD_REACTORS
330
166
102
}
330
166
100
DictionaryVariables
280
     0
  1
1
  0
DICTIONARYVAR
  5
167
102
{ACAD_REACTORS
330
166
102
}
330
166
100
DictionaryVariables
280
     0
  1
127
  0
ENDSEC
  0
EOF
