  0
SECTION
  2
HEADER
  9
$ACADVER
  1
AC1015
  9
$ACADMAINTVER
 70
    13
  9
$DWGCODEPAGE
  3
ANSI_1252
  9
$INSBASE
 10
0.0
 20
0.0
 30
0.0
  9
$EXTMIN
 10
-12.89695419807289
 20
-20.70545927198217
 30
-0.0015258207003583
  9
$EXTMAX
 10
51.31788914629843
 20
22.08628877814285
 30
0.0000000349246037
  9
$LIMMIN
 10
0.0
 20
0.0
  9
$LIMMAX
 10
12.0
 20
9.0
  9
$ORTHOMODE
 70
     0
  9
$REGENMODE
 70
     1
  9
$FILLMODE
 70
     1
  9
$QTEXTMODE
 70
     0
  9
$MIRRTEXT
 70
     1
  9
$LTSCALE
 40
1.0
  9
$ATTMODE
 70
     1
  9
$TEXTSIZE
 40
0.2
  9
$TRACEWID
 40
0.05
  9
$TEXTSTYLE
  7
Standard
  9
$CLAYER
  8
Defpoints
  9
$CELTYPE
  6
ByLayer
  9
$CECOLOR
 62
   256
  9
$CELTSCALE
 40
1.0
  9
$DISPSILH
 70
     0
  9
$DIMSCALE
 40
1.0
  9
$DIMASZ
 40
1.8
  9
$DIMEXO
 40
0.0625
  9
$DIMDLI
 40
0.38
  9
$DIMRND
 40
0.0
  9
$DIMDLE
 40
0.0
  9
$DIMEXE
 40
0.18
  9
$DIMTP
 40
0.0
  9
$DIMTM
 40
0.0
  9
$DIMTXT
 40
1.8
  9
$DIMCEN
 40
0.09
  9
$DIMTSZ
 40
0.0
  9
$DIMTOL
 70
     0
  9
$DIMLIM
 70
     0
  9
$DIMTIH
 70
     1
  9
$DIMTOH
 70
     1
  9
$DIMSE1
 70
     0
  9
$DIMSE2
 70
     0
  9
$DIMTAD
 70
     0
  9
$DIMZIN
 70
     0
  9
$DIMBLK
  1

  9
$DIMASO
 70
     1
  9
$DIMSHO
 70
     1
  9
$DIMPOST
  1

  9
$DIMAPOST
  1

  9
$DIMALT
 70
     0
  9
$DIMALTD
 70
     2
  9
$DIMALTF
 40
25.4
  9
$DIMLFAC
 40
1.0
  9
$DIMTOFL
 70
     0
  9
$DIMTVP
 40
0.0
  9
$DIMTIX
 70
     0
  9
$DIMSOXD
 70
     0
  9
$DIMSAH
 70
     0
  9
$DIMBLK1
  1

  9
$DIMBLK2
  1

  9
$DIMSTYLE
  2
Standard
  9
$DIMCLRD
 70
     0
  9
$DIMCLRE
 70
     0
  9
$DIMCLRT
 70
     0
  9
$DIMTFAC
 40
1.0
  9
$DIMGAP
 40
0.09
  9
$DIMJUST
 70
     0
  9
$DIMSD1
 70
     0
  9
$DIMSD2
 70
     0
  9
$DIMTOLJ
 70
     1
  9
$DIMTZIN
 70
     0
  9
$DIMALTZ
 70
     0
  9
$DIMALTTZ
 70
     0
  9
$DIMUPT
 70
     0
  9
$DIMDEC
 70
     4
  9
$DIMTDEC
 70
     4
  9
$DIMALTU
 70
     2
  9
$DIMALTTD
 70
     2
  9
$DIMTXSTY
  7
Standard
  9
$DIMAUNIT
 70
     0
  9
$DIMADEC
 70
     0
  9
$DIMALTRND
 40
0.0
  9
$DIMAZIN
 70
     0
  9
$DIMDSEP
 70
    46
  9
$DIMATFIT
 70
     3
  9
$DIMFRAC
 70
     0
  9
$DIMLDRBLK
  1

  9
$DIMLUNIT
 70
     2
  9
$DIMLWD
 70
    -2
  9
$DIMLWE
 70
    -2
  9
$DIMTMOVE
 70
     0
  9
$LUNITS
 70
     2
  9
$LUPREC
 70
     4
  9
$SKETCHINC
 40
0.1
  9
$FILLETRAD
 40
0.0
  9
$AUNITS
 70
     0
  9
$AUPREC
 70
     0
  9
$MENU
  1
.
  9
$ELEVATION
 40
0.0
  9
$PELEVATION
 40
0.0
  9
$THICKNESS
 40
0.0
  9
$LIMCHECK
 70
     0
  9
$CHAMFERA
 40
0.0
  9
$CHAMFERB
 40
0.0
  9
$CHAMFERC
 40
0.0
  9
$CHAMFERD
 40
0.0
  9
$SKPOLY
 70
     0
  9
$TDCREATE
 40
2451867.659834606
  9
$TDUCREATE
 40
2451867.576501273
  9
$TDUPDATE
 40
2452935.467125822
  9
$TDUUPDATE
 40
2452935.383792488
  9
$TDINDWG
 40
0.2067093519
  9
$TDUSRTIMER
 40
0.2067093519
  9
$USRTIMER
 70
     1
  9
$ANGBASE
 50
0.0
  9
$ANGDIR
 70
     0
  9
$PDMODE
 70
     0
  9
$PDSIZE
 40
0.0
  9
$PLINEWID
 40
0.0
  9
$SPLFRAME
 70
     0
  9
$SPLINETYPE
 70
     6
  9
$SPLINESEGS
 70
     8
  9
$HANDSEED
  5
409
  9
$SURFTAB1
 70
     6
  9
$SURFTAB2
 70
     6
  9
$SURFTYPE
 70
     6
  9
$SURFU
 70
     6
  9
$SURFV
 70
     6
  9
$UCSBASE
  2

  9
$UCSNAME
  2

  9
$UCSORG
 10
0.0
 20
0.0
 30
0.0
  9
$UCSXDIR
 10
1.0
 20
0.0
 30
0.0
  9
$UCSYDIR
 10
0.0
 20
1.0
 30
0.0
  9
$UCSORTHOREF
  2

  9
$UCSORTHOVIEW
 70
     0
  9
$UCSORGTOP
 10
0.0
 20
0.0
 30
0.0
  9
$UCSORGBOTTOM
 10
0.0
 20
0.0
 30
0.0
  9
$UCSORGLEFT
 10
0.0
 20
0.0
 30
0.0
  9
$UCSORGRIGHT
 10
0.0
 20
0.0
 30
0.0
  9
$UCSORGFRONT
 10
0.0
 20
0.0
 30
0.0
  9
$UCSORGBACK
 10
0.0
 20
0.0
 30
0.0
  9
$PUCSBASE
  2

  9
$PUCSNAME
  2

  9
$PUCSORG
 10
0.0
 20
0.0
 30
0.0
  9
$PUCSXDIR
 10
1.0
 20
0.0
 30
0.0
  9
$PUCSYDIR
 10
0.0
 20
1.0
 30
0.0
  9
$PUCSORTHOREF
  2

  9
$PUCSORTHOVIEW
 70
     0
  9
$PUCSORGTOP
 10
0.0
 20
0.0
 30
0.0
  9
$PUCSORGBOTTOM
 10
0.0
 20
0.0
 30
0.0
  9
$PUCSORGLEFT
 10
0.0
 20
0.0
 30
0.0
  9
$PUCSORGRIGHT
 10
0.0
 20
0.0
 30
0.0
  9
$PUCSORGFRONT
 10
0.0
 20
0.0
 30
0.0
  9
$PUCSORGBACK
 10
0.0
 20
0.0
 30
0.0
  9
$USERI1
 70
     0
  9
$USERI2
 70
     0
  9
$USERI3
 70
     0
  9
$USERI4
 70
     0
  9
$USERI5
 70
     0
  9
$USERR1
 40
0.0
  9
$USERR2
 40
0.0
  9
$USERR3
 40
0.0
  9
$USERR4
 40
0.0
  9
$USERR5
 40
0.0
  9
$WORLDVIEW
 70
     1
  9
$SHADEDGE
 70
     3
  9
$SHADEDIF
 70
    70
  9
$TILEMODE
 70
     1
  9
$MAXACTVP
 70
    64
  9
$PINSBASE
 10
0.0
 20
0.0
 30
0.0
  9
$PLIMCHECK
 70
     0
  9
$PEXTMIN
 10
1.049999952316284
 20
0.7999999523162842
 30
0.0
  9
$PEXTMAX
 10
9.449999570846555
 20
7.199999570846556
 30
0.0
  9
$PLIMMIN
 10
-0.2500002402958907
 20
-0.2499999962453767
  9
$PLIMMAX
 10
10.74999951940821
 20
8.249999763458731
  9
$UNITMODE
 70
     0
  9
$VISRETAIN
 70
     1
  9
$PLINEGEN
 70
     0
  9
$PSLTSCALE
 70
     1
  9
$TREEDEPTH
 70
  3020
  9
$CMLSTYLE
  2
Standard
  9
$CMLJUST
 70
     0
  9
$CMLSCALE
 40
1.0
  9
$PROXYGRAPHICS
 70
     1
  9
$MEASUREMENT
 70
     0
  9
$CELWEIGHT
370
    -1
  9
$ENDCAPS
280
     0
  9
$JOINSTYLE
280
     0
  9
$LWDISPLAY
290
     1
  9
$INSUNITS
 70
     0
  9
$HYPERLINKBASE
  1

  9
$STYLESHEET
  1

  9
$XEDIT
290
     1
  9
$CEPSNTYPE
380
     0
  9
$PSTYLEMODE
290
     1
  9
$FINGERPRINTGUID
  2
{61AAA7DB-BD59-11D4-85D5-E6203D5D4530}
  9
$VERSIONGUID
  2
{0A2CFD4F-4884-4E05-A4D0-05B427FD19D1}
  9
$EXTNAMES
290
     1
  9
$PSVPSCALE
 40
0.0
  9
$OLESTARTUP
290
     0
  0
ENDSEC
  0
SECTION
  2
CLASSES
  0
CLASS
  1
ACDBDICTIONARYWDFLT
  2
AcDbDictionaryWithDefault
  3
AutoCAD 2000
 90
        0
280
     0
281
     0
  0
CLASS
  1
ACDBPLACEHOLDER
  2
AcDbPlaceHolder
  3
AutoCAD 2000
 90
        0
280
     0
281
     0
  0
CLASS
  1
LAYOUT
  2
AcDbLayout
  3
AutoCAD 2000
 90
        0
280
     0
281
     0
  0
CLASS
  1
DICTIONARYVAR
  2
AcDbDictionaryVar
  3
AutoCAD 2000
 90
        0
280
     0
281
     0
  0
CLASS
  1
SORTENTSTABLE
  2
AcDbSortentsTable
  3
AutoCAD 2000
 90
        0
280
     0
281
     0
  0
ENDSEC
  0
SECTION
  2
TABLES
  0
TABLE
  2
VPORT
  5
8
330
0
100
AcDbSymbolTable
 70
     3
  0
VPORT
  5
408
330
8
100
AcDbSymbolTableRecord
100
AcDbViewportTableRecord
  2
*Active
 70
     0
 10
0.0
 20
0.0
 11
1.0
 21
1.0
 12
19.21046747411277
 22
0.69041475308034
 13
0.0
 23
0.0
 14
1.0
 24
1.0
 15
0.0
 25
0.0
 16
0.0
 26
0.0
 36
1.0
 17
0.0
 27
0.0
 37
0.0
 40
43.12049387381358
 41
1.528205128205128
 42
50.0
 43
0.0
 44
0.0
 50
0.0
 51
0.0
 71
     0
 72
   100
 73
     1
 74
     2
 75
     0
 76
     0
 77
     0
 78
     0
281
     0
 65
     1
110
0.0
120
0.0
130
0.0
111
1.0
121
0.0
131
0.0
112
0.0
122
1.0
132
0.0
 79
     0
146
0.0
  0
ENDTAB
  0
TABLE
  2
LTYPE
  5
5
330
0
100
AcDbSymbolTable
 70
     1
  0
LTYPE
  5
13
330
5
100
AcDbSymbolTableRecord
100
AcDbLinetypeTableRecord
  2
ByBlock
 70
     0
  3

 72
    65
 73
     0
 40
0.0
  0
LTYPE
  5
14
330
5
100
AcDbSymbolTableRecord
100
AcDbLinetypeTableRecord
  2
ByLayer
 70
     0
  3

 72
    65
 73
     0
 40
0.0
  0
LTYPE
  5
15
330
5
100
AcDbSymbolTableRecord
100
AcDbLinetypeTableRecord
  2
Continuous
 70
     0
  3
Solid line
 72
    65
 73
     0
 40
0.0
  0
ENDTAB
  0
TABLE
  2
LAYER
  5
2
330
0
100
AcDbSymbolTable
 70
     5
  0
LAYER
  5
10
330
2
100
AcDbSymbolTableRecord
100
AcDbLayerTableRecord
  2
0
 70
     0
 62
     7
  6
Continuous
370
    -3
390
F
  0
LAYER
  5
22
330
2
100
AcDbSymbolTableRecord
100
AcDbLayerTableRecord
  2
METAL1
 70
     0
 62
     7
  6
Continuous
370
    -3
390
F
  0
LAYER
  5
27
330
2
100
AcDbSymbolTableRecord
100
AcDbLayerTableRecord
  2
CONSTR
 70
     0
 62
    -7
  6
Continuous
370
    -3
390
F
  0
LAYER
  5
D8
330
2
100
AcDbSymbolTableRecord
100
AcDbLayerTableRecord
  2
GND
 70
     0
 62
     9
  6
Continuous
370
    -3
390
F
  0
LAYER
  5
20B
330
2
100
AcDbSymbolTableRecord
100
AcDbLayerTableRecord
  2
Defpoints
 70
     0
 62
     7
  6
Continuous
290
     0
370
    -3
390
F
  0
ENDTAB
  0
TABLE
  2
STYLE
  5
3
330
0
100
AcDbSymbolTable
 70
     1
  0
STYLE
  5
11
330
3
100
AcDbSymbolTableRecord
100
AcDbTextStyleTableRecord
  2
Standard
 70
     0
 40
0.0
 41
1.0
 50
0.0
 71
     0
 42
0.2
  3
txt
  4

  0
ENDTAB
  0
TABLE
  2
VIEW
  5
6
330
0
100
AcDbSymbolTable
 70
     0
  0
ENDTAB
  0
TABLE
  2
UCS
  5
7
330
0
100
AcDbSymbolTable
 70
     0
  0
ENDTAB
  0
TABLE
  2
APPID
  5
9
330
0
100
AcDbSymbolTable
 70
     1
  0
APPID
  5
12
330
9
100
AcDbSymbolTableRecord
100
AcDbRegAppTableRecord
  2
ACAD
 70
     0
  0
ENDTAB
  0
TABLE
  2
DIMSTYLE
  5
A
330
0
100
AcDbSymbolTable
 70
     1
100
AcDbDimStyleTable
 71
     1
340
117
  0
DIMSTYLE
105
117
102
{ACAD_REACTORS
330
3CD
330
3EF
102
}
330
A
100
AcDbSymbolTableRecord
100
AcDbDimStyleTableRecord
  2
Standard
 70
     0
 41
1.8
140
1.8
340
11
  0
ENDTAB
  0
TABLE
  2
BLOCK_RECORD
  5
1
330
0
100
AcDbSymbolTable
 70
     9
  0
BLOCK_RECORD
  5
1E
102
{ACAD_XDICTIONARY
360
11E
102
}
330
1
100
AcDbSymbolTableRecord
100
AcDbBlockTableRecord
  2
*Model_Space
340
21
  0
BLOCK_RECORD
  5
1A
330
1
100
AcDbSymbolTableRecord
100
AcDbBlockTableRecord
  2
*Paper_Space
340
1D
  0
BLOCK_RECORD
  5
1A3
330
1
100
AcDbSymbolTableRecord
100
AcDbBlockTableRecord
  2
Inductor
340
0
310
280000002000000020000000010004000000000000020000000000000000000000000000000000000000000000008000008000000080800080000000800080008080000080808000C0C0C0000000FF0000FF000000FFFF00FF000000FF00FF00FFFF0000FFFFFF00FFFFFFFFFFFFFFFFFFFFFFFFFFFFFFFFFFFFFFFFFFFFFF
310
FFFFFFFFFFFFFFFFFFFFFFFFFFFFFFFFFFFFFFFFFFFFFFFFFFFFFFFFFFFFFFFFFFFFFFFFFFFFFFFFFFFFFFFFFFFFFFFFFFFFFFFFFFFFFFFFFFFFFFFFFFFFFFFFFFFFFFFFFFFFFFFFFFFFFFFFFFFFFFFFFFFFFFFFFFFFFFFFFFFFFFFFFFFFFFFFFFFFFFFFFFFFFFFFFFFFFFFFFFFFFFFFFFFFFFFFFFFFFFFFFFFFFFFFFFFFFF
310
FFFFFFFFFFFFFFFFFFFFFFFFFFFFFFFFFFFFFFFFFFFFFFFFFFFFFFFFFFFFFFFFFFFFFFFFFFFFFFFFFFFF0000FFFFFFFF0FFFFFF0FFFFFFF0000FFFF0FFFFFFF00FFFFFF0FFFFFFF0FFFFFFF0FFFFFFF00FFFFFF00FFFFFFF0FFFFFF0FFFFFFF00FFFFF0F0FFFFFFF0FFFFFF0FFFFFFF0F0FFFF0F0FFFFFFF0FFFFFFF0FFFFF
310
F00FFFFFF00FFFFFF0FFFFFFFF0FFFFFF00FFFFFF0FFFFFF0FFFFFFFFFF0FFFFF0F0FFFF0F0FFFFF0FFFFFFFFFFF00000FFF0000FFF00000FFFFFFFFFFFFFFFFFFFFFFFFFFFFFFFFFFFFFFFFFFFFFFFFFFFFFFFFFFFFFFFFFFFFFFFFFFFFFFFFFFFFFFFFFFFFFFFFFFFFFFFFFFFFFFFFFFFFFFFFFFFFFFFFFFFFFFFFFFFFFF
310
FFFFFFFFFFFFFFFFFFFFFFFFFFFFFFFFFFFFFFFFFFFFFFFFFFFFFFFFFFFFFFFFFFFFFFFFFFFFFFFFFFFFFFFFFFFFFFFFFFFFFFFFFFFFFFFFFFFFFFFFFFFFFFFFFFFFFFFFFFFFFFFFFFFFFFFFFFFFFFFFFFFFFFFFFFFFFFFFFFFFFFFFFFFFFFFFFFFFFFFFFFFFFFFFFFFFFFFF
102
{BLKREFS
331
1B1
102
}
1001
ACAD
1000
DesignCenter Data
1002
{
1070
     1
1070
     1
1002
}
  0
BLOCK_RECORD
  5
1AB
330
1
100
AcDbSymbolTableRecord
100
AcDbBlockTableRecord
  2
conpoint
340
0
310
28000000200000002000000001000800000000000004000000000000000000000000000000000000000000004000000080000000FF000000002000004020000080200000FF200000004000004040000080400000FF400000006000004060000080600000FF600000008000004080000080800000FF80000000A0000040A000
310
0080A00000FFA0000000C0000040C0000080C00000FFC0000000FF000040FF000080FF0000FFFF0000000020004000200080002000FF002000002020004020200080202000FF202000004020004040200080402000FF402000006020004060200080602000FF602000008020004080200080802000FF80200000A0200040A0
310
200080A02000FFA0200000C0200040C0200080C02000FFC0200000FF200040FF200080FF2000FFFF2000000040004000400080004000FF004000002040004020400080204000FF204000004040004040400080404000FF404000006040004060400080604000FF604000008040004080400080804000FF80400000A0400040
310
A0400080A04000FFA0400000C0400040C0400080C04000FFC0400000FF400040FF400080FF4000FFFF4000000060004000600080006000FF006000002060004020600080206000FF206000004060004040600080406000FF406000006060004060600080606000FF606000008060004080600080806000FF80600000A06000
310
40A0600080A06000FFA0600000C0600040C0600080C06000FFC0600000FF600040FF600080FF6000FFFF6000000080004000800080008000FF008000002080004020800080208000FF208000004080004040800080408000FF408000006080004060800080608000FF608000008080004080800080808000FF80800000A080
310
0040A0800080A08000FFA0800000C0800040C0800080C08000FFC0800000FF800040FF800080FF8000FFFF80000000A0004000A0008000A000FF00A0000020A0004020A0008020A000FF20A0000040A0004040A0008040A000FF40A0000060A0004060A0008060A000FF60A0000080A0004080A0008080A000FF80A00000A0
310
A00040A0A00080A0A000FFA0A00000C0A00040C0A00080C0A000FFC0A00000FFA00040FFA00080FFA000FFFFA0000000C0004000C0008000C000FF00C0000020C0004020C0008020C000FF20C0000040C0004040C0008040C000FF40C0000060C0004060C0008060C000FF60C0000080C0004080C0008080C000FF80C00000
310
A0C00040A0C00080A0C000FFA0C00000C0C00040C0C00080C0C000FFC0C00000FFC00040FFC00080FFC000FFFFC0000000FF004000FF008000FF00FF00FF000020FF004020FF008020FF00FF20FF000040FF004040FF008040FF00FF40FF000060FF004060FF008060FF00FF60FF000080FF004080FF008080FF00FF80FF00
310
00A0FF0040A0FF0080A0FF00FFA0FF0000C0FF0040C0FF0080C0FF00FFC0FF0000FFFF0040FFFF0080FFFF00FFFFFF000000000000000000000000000000000000000000000000000000000000000000000000000000000000000000000000FFFFFF000000000000000000000000000000000000000000000000FFFFFFFFFF
310
FF00FFFFFF0000000000000000000000000000000000000000FFFF0000FFFF0000000000FFFFFFFF00000000000000000000000000000000FF0000FFFF000000000000000000FFFFFFFF00000000000000000000000000FF00FFFF00000000000000000000000000FFFFFF0000000000000000000000FFFFFF000000000000
310
0000000000000000000000FFFF000000000000000000FF00FF00000000000000000000000000000000000000FFFF0000000000000000FFFF0000000000000000000000000000000000000000FFFF00000000000000FF00FF000000000000000000000000000000000000000000FFFF000000000000FFFF0000000000000000
310
0000000000000000000000000000FF00FF00000000FF00FF0000000000000000000000000000000000000000000000FFFF00000000FFFF000000000000000000000000000000000000000000000000FFFF00000000FFFF00000000000000000000000000000000000000000000000000FF000000FFFF000000000000000000
310
0000000000000000000000000000000000FF000000FFFF000000000000000000000000000000000000000000000000000000FF0000FF00000000000000000000000000000000000000000000000000000000FF0000FFFF0000000000000000000000000000000000000000000000000000FFFF000000FF0000000000000000
310
000000000000000000000000000000000000FF00000000FFFF000000000000000000000000000000000000000000000000FFFF00000000FFFF000000000000000000000000000000000000000000000000FFFF0000000000FFFF00000000000000000000000000000000000000000000FF00FF0000000000FFFF0000000000
310
0000000000000000000000000000000000FFFF00000000000000FFFF0000000000000000000000000000000000000000FFFF0000000000000000FFFF0000000000000000000000000000000000000000FFFF000000000000000000FFFF000000000000000000000000000000000000FFFF0000000000000000000000FFFFFF
310
0000000000000000000000000000FFFFFF00000000000000000000000000FF00FFFF00000000000000000000FFFFFFFF000000000000000000000000000000FFFF00FFFF000000000000FFFFFFFF00000000000000000000000000000000000000FFFFFFFFFF0000FFFFFFFF00000000000000000000000000000000000000
310
00000000000000FFFFFF00000000000000000000000000000000000000000000000000000000000000000000000000000000000000000000
102
{BLKREFS
331
1B2
331
1B3
102
}
1001
ACAD
1000
DesignCenter Data
1002
{
1070
     1
1070
     1
1002
}
  0
BLOCK_RECORD
  5
1B0
330
1
100
AcDbSymbolTableRecord
100
AcDbBlockTableRecord
  2
ind
340
0
310
28000000200000002000000001000800000000000004000000000000000000000000000000000000000000004000000080000000FF000000002000004020000080200000FF200000004000004040000080400000FF400000006000004060000080600000FF600000008000004080000080800000FF80000000A0000040A000
310
0080A00000FFA0000000C0000040C0000080C00000FFC0000000FF000040FF000080FF0000FFFF0000000020004000200080002000FF002000002020004020200080202000FF202000004020004040200080402000FF402000006020004060200080602000FF602000008020004080200080802000FF80200000A0200040A0
310
200080A02000FFA0200000C0200040C0200080C02000FFC0200000FF200040FF200080FF2000FFFF2000000040004000400080004000FF004000002040004020400080204000FF204000004040004040400080404000FF404000006040004060400080604000FF604000008040004080400080804000FF80400000A0400040
310
A0400080A04000FFA0400000C0400040C0400080C04000FFC0400000FF400040FF400080FF4000FFFF4000000060004000600080006000FF006000002060004020600080206000FF206000004060004040600080406000FF406000006060004060600080606000FF606000008060004080600080806000FF80600000A06000
310
40A0600080A06000FFA0600000C0600040C0600080C06000FFC0600000FF600040FF600080FF6000FFFF6000000080004000800080008000FF008000002080004020800080208000FF208000004080004040800080408000FF408000006080004060800080608000FF608000008080004080800080808000FF80800000A080
310
0040A0800080A08000FFA0800000C0800040C0800080C08000FFC0800000FF800040FF800080FF8000FFFF80000000A0004000A0008000A000FF00A0000020A0004020A0008020A000FF20A0000040A0004040A0008040A000FF40A0000060A0004060A0008060A000FF60A0000080A0004080A0008080A000FF80A00000A0
310
A00040A0A00080A0A000FFA0A00000C0A00040C0A00080C0A000FFC0A00000FFA00040FFA00080FFA000FFFFA0000000C0004000C0008000C000FF00C0000020C0004020C0008020C000FF20C0000040C0004040C0008040C000FF40C0000060C0004060C0008060C000FF60C0000080C0004080C0008080C000FF80C00000
310
A0C00040A0C00080A0C000FFA0C00000C0C00040C0C00080C0C000FFC0C00000FFC00040FFC00080FFC000FFFFC0000000FF004000FF008000FF00FF00FF000020FF004020FF008020FF00FF20FF000040FF004040FF008040FF00FF40FF000060FF004060FF008060FF00FF60FF000080FF004080FF008080FF00FF80FF00
310
00A0FF0040A0FF0080A0FF00FFA0FF0000C0FF0040C0FF0080C0FF00FFC0FF0000FFFF0040FFFF0080FFFF00FFFFFF0000000000000000000000000000000000000000000000000000000000000000000000000000000000000000000000000000FFFF00000000000000000000000000000000000000000000000000000000
310
00FFFFFFFF00000000000000000000000000000000000000000000000000000000FF0000FF00000000000000000000000000000000000000000000000000000000FFFFFFFF000000000000000000000000000000000000000000000000000000000000FF000000000000000000000000000000000000000000000000000000
310
FFFFFFFFFF0000000000000000000000000000000000000000000000000000FF00000000FF00000000000000000000000000000000000000000000000000FF00000000000000000000000000000000000000000000000000000000000000FF00000000000000000000000000000000000000000000000000000000000000FF
310
00000000000000000000000000000000000000000000000000000000000000FF0000000000000000000000000000000000000000000000000000000000000000FFFFFFFFFF000000000000000000000000000000000000000000000000000000FFFFFFFFFFFF00000000000000000000000000000000000000000000000000
310
FF00000000000000000000000000000000000000000000000000000000000000FF00000000000000000000000000000000000000000000000000000000000000FF00000000000000000000000000000000000000000000000000000000000000FF000000000000000000000000000000000000000000000000000000000000
310
0000FFFFFFFFFFFF0000000000000000000000000000000000000000000000000000FFFFFFFFFF0000000000000000000000000000000000000000000000000000FF00000000000000000000000000000000000000000000000000000000000000FF0000000000000000000000000000000000000000000000000000000000
310
0000FF00000000000000000000000000000000000000000000000000000000000000FF0000000000000000000000000000000000000000000000000000000000000000FF00000000FF000000000000000000000000000000000000000000000000000000FFFFFFFFFF00000000000000000000000000000000000000000000
310
000000000000000000FF0000000000000000000000000000000000000000000000000000000000FFFFFFFF00000000000000000000000000000000000000000000000000000000FF0000FF00000000000000000000000000000000000000000000000000000000FFFFFFFF0000000000000000000000000000000000000000
310
000000000000000000FFFF000000000000000000000000000000000000000000000000000000000000000000000000000000000000000000
102
{BLKREFS
331
1B7
102
}
1001
ACAD
1000
DesignCenter Data
1002
{
1070
     1
1070
     1
1002
}
  0
BLOCK_RECORD
  5
1B6
330
1
100
AcDbSymbolTableRecord
100
AcDbBlockTableRecord
  2
rfc
340
0
310
28000000200000002000000001000800000000000004000000000000000000000000000000000000000000004000000080000000FF000000002000004020000080200000FF200000004000004040000080400000FF400000006000004060000080600000FF600000008000004080000080800000FF80000000A0000040A000
310
0080A00000FFA0000000C0000040C0000080C00000FFC0000000FF000040FF000080FF0000FFFF0000000020004000200080002000FF002000002020004020200080202000FF202000004020004040200080402000FF402000006020004060200080602000FF602000008020004080200080802000FF80200000A0200040A0
310
200080A02000FFA0200000C0200040C0200080C02000FFC0200000FF200040FF200080FF2000FFFF2000000040004000400080004000FF004000002040004020400080204000FF204000004040004040400080404000FF404000006040004060400080604000FF604000008040004080400080804000FF80400000A0400040
310
A0400080A04000FFA0400000C0400040C0400080C04000FFC0400000FF400040FF400080FF4000FFFF4000000060004000600080006000FF006000002060004020600080206000FF206000004060004040600080406000FF406000006060004060600080606000FF606000008060004080600080806000FF80600000A06000
310
40A0600080A06000FFA0600000C0600040C0600080C06000FFC0600000FF600040FF600080FF6000FFFF6000000080004000800080008000FF008000002080004020800080208000FF208000004080004040800080408000FF408000006080004060800080608000FF608000008080004080800080808000FF80800000A080
310
0040A0800080A08000FFA0800000C0800040C0800080C08000FFC0800000FF800040FF800080FF8000FFFF80000000A0004000A0008000A000FF00A0000020A0004020A0008020A000FF20A0000040A0004040A0008040A000FF40A0000060A0004060A0008060A000FF60A0000080A0004080A0008080A000FF80A00000A0
310
A00040A0A00080A0A000FFA0A00000C0A00040C0A00080C0A000FFC0A00000FFA00040FFA00080FFA000FFFFA0000000C0004000C0008000C000FF00C0000020C0004020C0008020C000FF20C0000040C0004040C0008040C000FF40C0000060C0004060C0008060C000FF60C0000080C0004080C0008080C000FF80C00000
310
A0C00040A0C00080A0C000FFA0C00000C0C00040C0C00080C0C000FFC0C00000FFC00040FFC00080FFC000FFFFC0000000FF004000FF008000FF00FF00FF000020FF004020FF008020FF00FF20FF000040FF004040FF008040FF00FF40FF000060FF004060FF008060FF00FF60FF000080FF004080FF008080FF00FF80FF00
310
00A0FF0040A0FF0080A0FF00FFA0FF0000C0FF0040C0FF0080C0FF00FFC0FF0000FFFF0040FFFF0080FFFF00FFFFFF00000000000000000000000000000000000000000000000000000000000000000000000000000000000000000000000000000000FFFF0000000000000000000000000000000000000000000000000000
310
000000FFFFFFFF00000000000000000000000000000000000000000000000000000000FF0000FF00000000000000000000000000000000000000000000000000000000FFFFFFFF0000000000000000000000000000000000000000000000000000000000FF0000000000000000000000000000000000000000000000000000
310
00FFFFFFFFFF00000000000000000000000000000000000000000000FFFFFF00FFFF000000FF00000000000000000000000000000000000000000000FF00FF00FF000000000000000000000000000000000000000000000000000000FF00FFFF00000000000000000000000000000000000000000000000000000000FF00FF
310
FF00000000000000000000000000000000000000000000000000000000FFFFFFFFFF000000000000000000000000000000000000000000000000000000FFFFFF00FFFFFFFFFFFF00000000000000000000000000000000000000000000FFFFFF00FFFFFFFFFFFF00000000000000000000000000000000000000000000FFFF
310
FFFFFF000000000000000000000000000000000000000000000000000000FFFFFFFF00000000000000000000000000000000000000000000000000000000FFFFFFFF00000000000000000000000000000000000000000000000000000000FFFFFFFFFF000000000000000000000000000000000000000000000000000000FF
310
FFFF00FFFFFFFFFFFF00000000000000000000000000000000000000000000FFFFFF00FFFFFFFFFFFF00000000000000000000000000000000000000000000FF00FFFFFF000000000000000000000000000000000000000000000000000000FF00FFFF00000000000000000000000000000000000000000000000000000000
310
FF00FFFF00000000000000000000000000000000000000000000000000000000FF00FF00FF000000000000000000000000000000000000000000000000000000FFFFFF00FFFF000000FF000000000000000000000000000000000000000000000000000000FFFFFFFFFF000000000000000000000000000000000000000000
310
00000000000000000000FF000000000000000000000000000000000000000000000000000000000000FFFFFF0000000000000000000000000000000000000000000000000000000000FF00FFFF00000000000000000000000000000000000000000000000000000000FF00FF00000000000000000000000000000000000000
310
0000000000000000000000FF0000000000000000000000000000000000000000000000000000000000000000000000000000000000000000
102
{BLKREFS
331
1CF
331
2D8
102
}
1001
ACAD
1000
DesignCenter Data
1002
{
1070
     1
1070
     1
1002
}
  0
BLOCK_RECORD
  5
1CD
330
1
100
AcDbSymbolTableRecord
100
AcDbBlockTableRecord
  2
A$C38CF55EC
340
0
  0
BLOCK_RECORD
  5
2B8
330
1
100
AcDbSymbolTableRecord
100
AcDbBlockTableRecord
  2
elkon
340
0
310
28000000200000002000000001000800000000000004000000000000000000000000000000000000000000004000000080000000FF000000002000004020000080200000FF200000004000004040000080400000FF400000006000004060000080600000FF600000008000004080000080800000FF80000000A0000040A000
310
0080A00000FFA0000000C0000040C0000080C00000FFC0000000FF000040FF000080FF0000FFFF0000000020004000200080002000FF002000002020004020200080202000FF202000004020004040200080402000FF402000006020004060200080602000FF602000008020004080200080802000FF80200000A0200040A0
310
200080A02000FFA0200000C0200040C0200080C02000FFC0200000FF200040FF200080FF2000FFFF2000000040004000400080004000FF004000002040004020400080204000FF204000004040004040400080404000FF404000006040004060400080604000FF604000008040004080400080804000FF80400000A0400040
310
A0400080A04000FFA0400000C0400040C0400080C04000FFC0400000FF400040FF400080FF4000FFFF4000000060004000600080006000FF006000002060004020600080206000FF206000004060004040600080406000FF406000006060004060600080606000FF606000008060004080600080806000FF80600000A06000
310
40A0600080A06000FFA0600000C0600040C0600080C06000FFC0600000FF600040FF600080FF6000FFFF6000000080004000800080008000FF008000002080004020800080208000FF208000004080004040800080408000FF408000006080004060800080608000FF608000008080004080800080808000FF80800000A080
310
0040A0800080A08000FFA0800000C0800040C0800080C08000FFC0800000FF800040FF800080FF8000FFFF80000000A0004000A0008000A000FF00A0000020A0004020A0008020A000FF20A0000040A0004040A0008040A000FF40A0000060A0004060A0008060A000FF60A0000080A0004080A0008080A000FF80A00000A0
310
A00040A0A00080A0A000FFA0A00000C0A00040C0A00080C0A000FFC0A00000FFA00040FFA00080FFA000FFFFA0000000C0004000C0008000C000FF00C0000020C0004020C0008020C000FF20C0000040C0004040C0008040C000FF40C0000060C0004060C0008060C000FF60C0000080C0004080C0008080C000FF80C00000
310
A0C00040A0C00080A0C000FFA0C00000C0C00040C0C00080C0C000FFC0C00000FFC00040FFC00080FFC000FFFFC0000000FF004000FF008000FF00FF00FF000020FF004020FF008020FF00FF20FF000040FF004040FF008040FF00FF40FF000060FF004060FF008060FF00FF60FF000080FF004080FF008080FF00FF80FF00
310
00A0FF0040A0FF0080A0FF00FFA0FF0000C0FF0040C0FF0080C0FF00FFC0FF0000FFFF0040FFFF0080FFFF00FFFFFF000000000000000000000000000000000000000000000000000000000000000000000000000000000000000000000000FF00000000000000000000000000000000000000000000000000000000000000
310
FF00000000000000000000000000000000000000000000000000000000000000FF00000000000000000000000000000000000000000000000000000000000000FF00000000000000000000000000000000000000000000000000000000000000FF000000000000000000000000000000000000000000000000000000000000
310
00FF00000000000000000000000000000000000000000000000000000000000000FF00000000000000000000000000000000000000000000000000000000000000FF00000000000000000000000000000000000000000000000000000000000000FF0000000000000000000000000000000000000000000000000000000000
310
0000FF00000000000000000000000000000000000000000000000000000000000000FF0000000000000000000000000000000000000000FFFFFFFFFFFFFFFFFFFFFFFFFFFFFFFFFFFFFFFFFFFFFFFF0000000000000000FF00000000000000000000000000000000000000000000FF0000000000000000FF00000000000000
310
000000000000000000000000000000FF0000000000000000FFFFFFFFFFFFFFFFFFFFFFFFFFFFFFFFFFFFFFFFFFFFFFFF00000000000000000000000000000000000000000000000000000000000000000000000000000000FFFFFFFFFFFFFFFFFFFFFFFFFFFFFFFFFFFFFFFFFFFFFFFF0000000000000000FF0000FFFFFFFF
310
FFFF000000000000FFFFFFFFFFFF0000FF0000000000000000FF0000000000FFFFFFFFFFFFFFFFFFFFFF000000000000FF0000000000000000FFFFFFFFFFFFFFFFFFFFFFFFFFFFFFFFFFFFFFFFFFFFFFFF00000000000000000000000000000000000000FF0000000000000000000000000000000000000000000000000000
310
0000000000FF00000000000000000000000000000000000000000000000000000000000000FF00000000000000000000000000000000000000000000000000000000000000FF00000000000000000000000000000000000000000000000000000000000000FF00000000000000000000000000000000000000000000000000
310
000000000000FF00000000000000000000000000000000000000000000000000000000000000FF00000000000000000000000000000000000000000000000000000000000000FF00000000000000000000000000000000000000000000000000000000000000FF000000000000000000000000000000000000000000000000
310
00000000000000FF000000000000000000000000000000000000000000000000000000000000000000000000000000000000000000000000
102
{BLKREFS
331
2D6
331
2D7
102
}
  0
BLOCK_RECORD
  5
2C0
330
1
100
AcDbSymbolTableRecord
100
AcDbBlockTableRecord
  2
tri
340
0
310
28000000200000002000000001000800000000000004000000000000000000000000000000000000000000004000000080000000FF000000002000004020000080200000FF200000004000004040000080400000FF400000006000004060000080600000FF600000008000004080000080800000FF80000000A0000040A000
310
0080A00000FFA0000000C0000040C0000080C00000FFC0000000FF000040FF000080FF0000FFFF0000000020004000200080002000FF002000002020004020200080202000FF202000004020004040200080402000FF402000006020004060200080602000FF602000008020004080200080802000FF80200000A0200040A0
310
200080A02000FFA0200000C0200040C0200080C02000FFC0200000FF200040FF200080FF2000FFFF2000000040004000400080004000FF004000002040004020400080204000FF204000004040004040400080404000FF404000006040004060400080604000FF604000008040004080400080804000FF80400000A0400040
310
A0400080A04000FFA0400000C0400040C0400080C04000FFC0400000FF400040FF400080FF4000FFFF4000000060004000600080006000FF006000002060004020600080206000FF206000004060004040600080406000FF406000006060004060600080606000FF606000008060004080600080806000FF80600000A06000
310
40A0600080A06000FFA0600000C0600040C0600080C06000FFC0600000FF600040FF600080FF6000FFFF6000000080004000800080008000FF008000002080004020800080208000FF208000004080004040800080408000FF408000006080004060800080608000FF608000008080004080800080808000FF80800000A080
310
0040A0800080A08000FFA0800000C0800040C0800080C08000FFC0800000FF800040FF800080FF8000FFFF80000000A0004000A0008000A000FF00A0000020A0004020A0008020A000FF20A0000040A0004040A0008040A000FF40A0000060A0004060A0008060A000FF60A0000080A0004080A0008080A000FF80A00000A0
310
A00040A0A00080A0A000FFA0A00000C0A00040C0A00080C0A000FFC0A00000FFA00040FFA00080FFA000FFFFA0000000C0004000C0008000C000FF00C0000020C0004020C0008020C000FF20C0000040C0004040C0008040C000FF40C0000060C0004060C0008060C000FF60C0000080C0004080C0008080C000FF80C00000
310
A0C00040A0C00080A0C000FFA0C00000C0C00040C0C00080C0C000FFC0C00000FFC00040FFC00080FFC000FFFFC0000000FF004000FF008000FF00FF00FF000020FF004020FF008020FF00FF20FF000040FF004040FF008040FF00FF40FF000060FF004060FF008060FF00FF60FF000080FF004080FF008080FF00FF80FF00
310
00A0FF0040A0FF0080A0FF00FFA0FF0000C0FF0040C0FF0080C0FF00FFC0FF0000FFFF0040FFFF0080FFFF00FFFFFF0000000000000000000000000000000000000000000000000000000000000000000000000000000000000000FF00000000000000000000000000000000000000000000000000000000000000FFFF0000
310
0000000000000000000000000000000000000000000000000000FFFF0000FF00000000000000000000000000000000000000000000000000FFFF0000000000FF0000000000000000000000000000000000000000000000FF0000000000000000FF000000000000000000000000000000000000000000FF0000000000000000
310
0000FF00000000000000000000000000000000000000FF000000000000000000000000FF000000000000000000000000000000000000FF00000000000000000000000000FF00000000000000000000000000000000FF000000000000000000000000000000FF000000000000000000000000000000FF000000000000000000
310
00000000000000FF00000000000000000000000000FF000000000000000000000000000000000000FF000000000000000000000000FF00000000000000000000000000000000000000FF00000000000000000000FF000000000000000000000000000000000000000000FF000000000000000000FF00000000000000000000
310
000000000000000000000000FF0000000000000000FF0000000000000000000000000000000000000000000000FF00000000000000FF000000000000000000000000000000000000000000000000FF000000000000FF00000000000000000000000000000000000000000000000000FF000000000000FF0000000000000000
310
0000000000000000000000000000000000FF0000000000FF0000000000000000000000000000000000000000000000000000FF00000000FF0000000000000000000000000000000000000000000000000000FFFF00000000FF00000000000000000000000000000000000000000000000000FF0000000000FF000000000000
310
000000000000000000000000000000000000FF00000000000000FF0000000000000000000000000000000000000000000000FF0000000000000000FF000000000000000000000000000000000000000000FF00000000000000000000FF00000000000000000000000000000000000000FF000000000000000000000000FF00
310
00000000000000000000000000000000FF0000000000000000000000000000FF0000000000000000000000000000FFFF00000000000000000000000000000000FFFF0000000000000000000000FF0000000000000000000000000000000000000000FFFFFFFFFFFFFFFFFFFFFF000000000000000000000000000000000000
310
0000000000000000000000000000000000000000000000000000000000000000000000000000000000000000000000000000000000000000
102
{BLKREFS
331
2E2
102
}
  0
BLOCK_RECORD
  5
3CE
330
1
100
AcDbSymbolTableRecord
100
AcDbBlockTableRecord
  2
*D7
340
0
  0
BLOCK_RECORD
  5
3F0
330
1
100
AcDbSymbolTableRecord
100
AcDbBlockTableRecord
  2
*D8
340
0
  0
ENDTAB
  0
ENDSEC
  0
SECTION
  2
BLOCKS
  0
BLOCK
  5
1F
330
1E
100
AcDbEntity
  8
0
100
AcDbBlockBegin
  2
*Model_Space
 70
     0
 10
0.0
 20
0.0
 30
0.0
  3
*Model_Space
  1

  0
ENDBLK
  5
20
330
1E
100
AcDbEntity
  8
0
100
AcDbBlockEnd
  0
BLOCK
  5
1B
330
1A
100
AcDbEntity
 67
     1
  8
0
100
AcDbBlockBegin
  2
*Paper_Space
 70
     0
 10
0.0
 20
0.0
 30
0.0
  3
*Paper_Space
  1

  0
ENDBLK
  5
1C
330
1A
100
AcDbEntity
 67
     1
  8
0
100
AcDbBlockEnd
  0
BLOCK
  5
1A9
330
1A3
100
AcDbEntity
  8
0
100
AcDbBlockBegin
  2
Inductor
 70
     2
 10
0.0
 20
0.0
 30
0.0
  3
Inductor
  1
INDUCTOR
  4
DesignCenter Basic Electronics example
  0
LINE
  5
1A4
330
1A3
100
AcDbEntity
  8
0
 62
     7
100
AcDbLine
 10
0.3500000000000001
 20
0.0
 30
0.0
 11
0.3999999999999999
 21
0.0
 31
0.0
  0
ARC
  5
1A5
330
1A3
100
AcDbEntity
  8
0
 62
     7
100
AcDbCircle
 10
0.2999999999999998
 20
0.0374999999999997
 30
0.0
 40
0.0625
100
AcDbArc
 50
323.1301
 51
216.8699
  0
LINE
  5
1A6
330
1A3
100
AcDbEntity
  8
0
 62
     7
100
AcDbLine
 10
0.0
 20
0.0
 30
0.0
 11
0.0499999999999998
 21
0.0
 31
0.0
  0
ARC
  5
1A7
330
1A3
100
AcDbEntity
  8
0
 62
     7
100
AcDbCircle
 10
0.1000000000000001
 20
0.0374999999999997
 30
0.0
 40
0.0625
100
AcDbArc
 50
323.1301
 51
216.8699
  0
ARC
  5
1A8
330
1A3
100
AcDbEntity
  8
0
 62
     7
100
AcDbCircle
 10
0.2000000000000002
 20
0.0374999999999997
 30
0.0
 40
0.0625
100
AcDbArc
 50
323.1301
 51
216.8699
  0
ENDBLK
  5
1AA
330
1A3
100
AcDbEntity
  8
0
100
AcDbBlockEnd
  0
BLOCK
  5
1AE
330
1AB
100
AcDbEntity
  8
0
100
AcDbBlockBegin
  2
conpoint
 70
     0
 10
0.0
 20
0.0
 30
0.0
  3
conpoint
  1

  0
HATCH
  5
1AC
330
1AB
100
AcDbEntity
  8
0
100
AcDbHatch
 10
0.0
 20
0.0
 30
0.0
210
0.0
220
0.0
230
1.0
  2
SOLID
 70
     1
 71
     1
 91
        1
 92
        1
 93
        1
 72
     2
 10
3.932944225599126
 20
4.517912367231916
 40
0.0251551376970127
 50
0.0
 51
360.0
 73
     1
 97
        1
330
1AD
 75
     0
 76
     1
 98
        1
 10
0.0
 20
0.0
  0
CIRCLE
  5
1AD
102
{ACAD_REACTORS
330
1AC
102
}
330
1AB
100
AcDbEntity
  8
0
100
AcDbCircle
 10
3.932944225599126
 20
4.517912367231916
 30
0.0
 40
0.0251551376970127
  0
ENDBLK
  5
1AF
330
1AB
100
AcDbEntity
  8
0
100
AcDbBlockEnd
  0
BLOCK
  5
1B4
330
1B0
100
AcDbEntity
  8
0
100
AcDbBlockBegin
  2
ind
 70
     0
 10
0.0
 20
0.0
 30
0.0
  3
ind
  1

  0
INSERT
  5
1B1
330
1B0
100
AcDbEntity
  8
0
100
AcDbBlockReference
  2
Inductor
 10
5.142686818928233
 20
4.506130839892044
 30
0.0
 50
90.0
  0
INSERT
  5
1B2
330
1B0
100
AcDbEntity
  8
0
100
AcDbBlockReference
  2
conpoint
 10
1.213283901823427
 20
-0.0258025784579612
 30
0.0
  0
INSERT
  5
1B3
330
1B0
100
AcDbEntity
  8
0
100
AcDbBlockReference
  2
conpoint
 10
1.20936500961606
 20
0.4012205201373665
 30
0.0
  0
ENDBLK
  5
1B5
330
1B0
100
AcDbEntity
  8
0
100
AcDbBlockEnd
  0
BLOCK
  5
1BA
330
1B6
100
AcDbEntity
  8
0
100
AcDbBlockBegin
  2
rfc
 70
     0
 10
0.0
 20
0.0
 30
0.0
  3
rfc
  1

  0
INSERT
  5
1B7
330
1B6
100
AcDbEntity
  8
0
100
AcDbBlockReference
  2
ind
 10
0.0
 20
0.0
 30
0.0
  0
HATCH
  5
1B8
330
1B6
100
AcDbEntity
  8
0
100
AcDbHatch
 10
0.0
 20
0.0
 30
0.0
210
0.0
220
0.0
230
1.0
  2
SOLID
 70
     1
 71
     1
 91
        1
 92
        1
 93
        4
 72
     1
 10
5.019171584733157
 20
4.850883942041264
 11
4.991736945333968
 21
4.850883942041264
 72
     1
 10
4.991736945333968
 20
4.850883942041264
 11
4.991736945333968
 21
4.557060643284785
 72
     1
 10
4.991736945333968
 20
4.557060643284785
 11
5.019171584733157
 21
4.557060643284785
 72
     1
 10
5.019171584733157
 20
4.557060643284785
 11
5.019171584733157
 21
4.850883942041264
 97
        1
330
1B9
 75
     0
 76
     1
 98
        1
 10
0.0
 20
0.0
  0
LWPOLYLINE
  5
1B9
102
{ACAD_REACTORS
330
1B8
102
}
330
1B6
100
AcDbEntity
  8
0
100
AcDbPolyline
 90
        4
 70
     1
 43
0.0
 10
5.019171584733157
 20
4.850883942041264
 10
4.991736945333968
 20
4.850883942041264
 10
4.991736945333968
 20
4.557060643284785
 10
5.019171584733157
 20
4.557060643284785
  0
ENDBLK
  5
1BB
330
1B6
100
AcDbEntity
  8
0
100
AcDbBlockEnd
  0
BLOCK
  5
1D1
330
1CD
100
AcDbEntity
  8
0
 62
     3
100
AcDbBlockBegin
  2
A$C38CF55EC
 70
     0
 10
0.0
 20
0.0
 30
0.0
  3
A$C38CF55EC
  1

  0
MTEXT
  5
1CE
330
1CD
100
AcDbEntity
  8
0
 62
     3
100
AcDbMText
 10
-0.0000000196864391
 20
6.710114783395795
 30
0.0
 40
0.5
 41
2.816399999999999
 71
     1
 72
     5
  1
BFP196
 11
0.0000000000000001
 21
1.0
 31
0.0
 73
     1
 44
1.0
  0
INSERT
  5
1CF
330
1CD
100
AcDbEntity
  8
CONSTR
100
AcDbBlockReference
  2
rfc
 10
-42.8924235945596
 20
-53.54591120857048
 30
0.0
 41
11.98711769948618
 42
11.98711769948618
 43
11.98711769948618
  0
MTEXT
  5
1D0
330
1CD
100
AcDbEntity
  8
0
 62
     3
100
AcDbMText
 10
19.44379258077894
 20
3.23806040961206
 30
0.0
 40
0.6
 41
8.181699999999999
 71
     1
 72
     5
  1
10uH
 73
     1
 44
1.0
  0
ENDBLK
  5
1D2
330
1CD
100
AcDbEntity
  8
0
 62
     3
100
AcDbBlockEnd
  0
BLOCK
  5
2BE
330
2B8
100
AcDbEntity
  8
0
100
AcDbBlockBegin
  2
elkon
 70
     0
 10
0.0
 20
0.0
 30
0.0
  3
elkon
  1

  0
LWPOLYLINE
  5
2B9
102
{ACAD_REACTORS
330
2BD
102
}
330
2B8
100
AcDbEntity
  8
0
100
AcDbPolyline
 90
        4
 70
     1
 43
0.0
 10
5.277469087657244
 20
7.736467907658294
 10
6.725437308244949
 20
7.736467907658294
 10
6.725437308244949
 20
7.545307269129267
 10
5.277469087657244
 20
7.545307269129267
  0
LWPOLYLINE
  5
2BA
330
2B8
100
AcDbEntity
  8
0
100
AcDbPolyline
 90
        4
 70
     1
 43
0.0
 10
5.277469087657244
 20
7.381455311208465
 10
6.725437308244949
 20
7.381455311208465
 10
6.725437308244949
 20
7.190294672679439
 10
5.277469087657244
 20
7.190294672679439
  0
LWPOLYLINE
  5
2BB
330
2B8
100
AcDbEntity
  8
0
100
AcDbPolyline
 90
        2
 70
     0
 43
0.0
 10
5.987793119210273
 20
7.736467907658294
 10
5.987793119210273
 20
8.337258440989323
  0
LWPOLYLINE
  5
2BC
330
2B8
100
AcDbEntity
  8
0
100
AcDbPolyline
 90
        2
 70
     0
 43
0.0
 10
5.987793119210273
 20
7.190294672679439
 10
5.987793119210273
 20
6.507578139433253
  0
HATCH
  5
2BD
330
2B8
100
AcDbEntity
  8
0
100
AcDbHatch
 10
0.0
 20
0.0
 30
0.0
210
0.0
220
0.0
230
1.0
  2
SOLID
 70
     1
 71
     1
 91
        1
 92
        1
 93
        4
 72
     1
 10
5.277469087657244
 20
7.736467907658294
 11
6.725437308244949
 21
7.736467907658294
 72
     1
 10
6.725437308244949
 20
7.736467907658294
 11
6.725437308244949
 21
7.545307269129267
 72
     1
 10
6.725437308244949
 20
7.545307269129267
 11
5.277469087657244
 21
7.545307269129267
 72
     1
 10
5.277469087657244
 20
7.545307269129267
 11
5.277469087657244
 21
7.736467907658294
 97
        1
330
2B9
 75
     0
 76
     1
 98
        1
 10
0.0
 20
0.0
  0
ENDBLK
  5
2BF
330
2B8
100
AcDbEntity
  8
0
100
AcDbBlockEnd
  0
BLOCK
  5
2C3
330
2C0
100
AcDbEntity
  8
0
100
AcDbBlockBegin
  2
tri
 70
     0
 10
0.0
 20
0.0
 30
0.0
  3
tri
  1

  0
ARC
  5
2C1
330
2C0
100
AcDbEntity
  8
CONSTR
370
    50
100
AcDbCircle
 10
8.146085339866083
 20
7.572615928782735
 30
0.0
 40
0.8498249588931228
100
AcDbArc
 50
17.41576346451058
 51
252.8164832811067
  0
LWPOLYLINE
  5
2C2
330
2C0
100
AcDbEntity
  8
CONSTR
370
    50
100
AcDbPolyline
 90
        2
 70
     0
 43
0.0
 10
7.888244942516251
 20
6.7539228815622
 10
8.968782859461427
 20
7.838849627961277
  0
ENDBLK
  5
2C4
330
2C0
100
AcDbEntity
  8
0
100
AcDbBlockEnd
  0
BLOCK
  5
3D9
330
3CE
100
AcDbEntity
  8
0
100
AcDbBlockBegin
  2
*D7
 70
     1
 10
0.0
 20
0.0
 30
0.0
  3
*D7
  1

  0
LINE
  5
3E5
330
3CE
100
AcDbEntity
  8
Defpoints
 62
     0
370
    -2
100
AcDbLine
 10
-12.8571216362255
 20
20.31830350383455
 30
0.0
 11
-12.8571216362255
 21
21.3648376200633
 31
0.0
  0
LINE
  5
3E6
330
3CE
100
AcDbEntity
  8
Defpoints
 62
     0
370
    -2
100
AcDbLine
 10
47.09211085075961
 20
20.31830350383455
 30
0.0
 11
47.09211085075961
 21
21.3648376200633
 31
0.0
  0
LINE
  5
3E7
330
3CE
100
AcDbEntity
  8
Defpoints
 62
     0
370
    -2
100
AcDbLine
 10
-11.05712163622549
 20
21.1848376200633
 30
0.0
 11
15.67749460726705
 21
21.1848376200633
 31
0.0
  0
LINE
  5
3E8
330
3CE
100
AcDbEntity
  8
Defpoints
 62
     0
370
    -2
100
AcDbLine
 10
45.29211085075961
 20
21.1848376200633
 30
0.0
 11
18.55749460726705
 21
21.1848376200633
 31
0.0
  0
SOLID
  5
3E9
330
3CE
100
AcDbEntity
  8
Defpoints
 62
     0
100
AcDbTrace
 10
-11.05712163622549
 20
21.4848376200633
 30
0.0
 11
-11.05712163622549
 21
20.8848376200633
 31
0.0
 12
-12.8571216362255
 22
21.1848376200633
 32
0.0
 13
-12.8571216362255
 23
21.1848376200633
 33
0.0
  0
SOLID
  5
3EA
330
3CE
100
AcDbEntity
  8
Defpoints
 62
     0
100
AcDbTrace
 10
45.29211085075961
 20
21.4848376200633
 30
0.0
 11
45.29211085075961
 21
20.8848376200633
 31
0.0
 12
47.09211085075961
 22
21.1848376200633
 32
0.0
 13
47.09211085075961
 23
21.1848376200633
 33
0.0
  0
MTEXT
  5
3EB
330
3CE
100
AcDbEntity
  8
Defpoints
 62
     0
100
AcDbMText
 10
17.11749460726705
 20
21.1848376200633
 30
0.0
 40
1.8
 41
0.0
 71
     5
 72
     1
  1
\A1;60
 73
     1
 44
1.0
  0
POINT
  5
3EC
330
3CE
100
AcDbEntity
  8
Defpoints
 62
     0
100
AcDbPoint
 10
-12.8571216362255
 20
20.25580350383455
 30
0.0
  0
POINT
  5
3ED
330
3CE
100
AcDbEntity
  8
Defpoints
 62
     0
100
AcDbPoint
 10
47.09211085075961
 20
20.25580350383455
 30
0.0
  0
POINT
  5
3EE
330
3CE
100
AcDbEntity
  8
Defpoints
 62
     0
100
AcDbPoint
 10
47.09211085075961
 20
21.1848376200633
 30
0.0
  0
ENDBLK
  5
3DA
330
3CE
100
AcDbEntity
  8
0
100
AcDbBlockEnd
  0
BLOCK
  5
3FB
330
3F0
100
AcDbEntity
  8
0
100
AcDbBlockBegin
  2
*D8
 70
     1
 10
0.0
 20
0.0
 30
0.0
  3
*D8
  1

  0
LINE
  5
3FD
330
3F0
100
AcDbEntity
  8
Defpoints
 62
     0
370
    -2
100
AcDbLine
 10
48.37579877039352
 20
19.26999527239286
 30
0.0
 11
50.14564616585051
 21
19.26999527239286
 31
0.0
  0
LINE
  5
3FE
330
3F0
100
AcDbEntity
  8
Defpoints
 62
     0
370
    -2
100
AcDbLine
 10
48.37579877039352
 20
-20.67847238245782
 30
0.0
 11
50.1456461658505
 21
-20.67847238245782
 31
0.0
  0
LINE
  5
3FF
330
3F0
100
AcDbEntity
  8
Defpoints
 62
     0
370
    -2
100
AcDbLine
 10
49.96564616585051
 20
17.46999527239286
 30
0.0
 11
49.9656461658505
 21
0.2857614449675172
 31
0.0
  0
LINE
  5
400
330
3F0
100
AcDbEntity
  8
Defpoints
 62
     0
370
    -2
100
AcDbLine
 10
49.9656461658505
 20
-18.87847238245782
 30
0.0
 11
49.9656461658505
 21
-1.694238555032482
 31
0.0
  0
SOLID
  5
401
330
3F0
100
AcDbEntity
  8
Defpoints
 62
     0
100
AcDbTrace
 10
49.66564616585052
 20
17.46999527239286
 30
0.0
 11
50.26564616585051
 21
17.46999527239286
 31
0.0
 12
49.96564616585051
 22
19.26999527239286
 32
0.0
 13
49.96564616585051
 23
19.26999527239286
 33
0.0
  0
SOLID
  5
402
330
3F0
100
AcDbEntity
  8
Defpoints
 62
     0
100
AcDbTrace
 10
49.6656461658505
 20
-18.87847238245782
 30
0.0
 11
50.2656461658505
 21
-18.87847238245782
 31
0.0
 12
49.9656461658505
 22
-20.67847238245782
 32
0.0
 13
49.9656461658505
 23
-20.67847238245782
 33
0.0
  0
MTEXT
  5
403
330
3F0
100
AcDbEntity
  8
Defpoints
 62
     0
100
AcDbMText
 10
49.9656461658505
 20
-0.7042385550324748
 30
0.0
 40
1.8
 41
0.0
 71
     5
 72
     1
  1
\A1;40
 73
     1
 44
1.0
  0
POINT
  5
404
330
3F0
100
AcDbEntity
  8
Defpoints
 62
     0
100
AcDbPoint
 10
48.31329877039351
 20
19.26999527239286
 30
0.0
  0
POINT
  5
405
330
3F0
100
AcDbEntity
  8
Defpoints
 62
     0
100
AcDbPoint
 10
48.31329877039351
 20
-20.67847238245782
 30
0.0
  0
POINT
  5
406
330
3F0
100
AcDbEntity
  8
Defpoints
 62
     0
100
AcDbPoint
 10
49.9656461658505
 20
-20.67847238245782
 30
0.0
  0
ENDBLK
  5
3FC
330
3F0
100
AcDbEntity
  8
0
100
AcDbBlockEnd
  0
ENDSEC
  0
SECTION
  2
ENTITIES
  0
SOLID
  5
24
330
1E
100
AcDbEntity
  8
METAL1
100
AcDbTrace
 10
4.583999163792615
 20
5.635752899450004
 30
0.0
 11
3.783999163792614
 21
5.635752899450004
 31
0.0
 12
4.583999163792615
 22
8.335752899450007
 32
0.0
 13
3.783999163792614
 23
8.335752899450007
 33
0.0
  0
SOLID
  5
25
330
1E
100
AcDbEntity
  8
METAL1
100
AcDbTrace
 10
4.583999163792615
 20
8.335752899450007
 30
0.0
 11
5.383999163792614
 21
8.335752899450007
 31
0.0
 12
4.583999163792615
 22
5.635752899450004
 32
0.0
 13
5.383999163792614
 23
5.635752899450004
 33
0.0
  0
SOLID
  5
26
330
1E
100
AcDbEntity
  8
METAL1
100
AcDbTrace
 10
5.383999163792614
 20
6.985752899450005
 30
0.0
 11
5.383999163792614
 21
5.635752899450004
 31
0.0
 12
3.783999163792614
 22
6.985752899450005
 32
0.0
 13
3.783999163792614
 23
5.635752899450004
 33
0.0
  0
TEXT
  5
4D
330
1E
100
AcDbEntity
  8
CONSTR
100
AcDbText
 10
13.84485632597346
 20
-0.8383930162807793
 30
0.0
 40
0.3
  1
C
100
AcDbText
  0
SOLID
  5
52
330
1E
100
AcDbEntity
  8
CONSTR
100
AcDbTrace
 10
21.625
 20
2.5
 30
0.0
 11
21.625
 21
-0.1
 31
0.0
 12
21.575
 22
2.5
 32
0.0
 13
21.575
 23
-0.1
 33
0.0
  0
SOLID
  5
53
330
1E
100
AcDbEntity
  8
METAL1
100
AcDbTrace
 10
13.99485632597346
 20
-1.238393016280777
 30
0.0
 11
11.79485632597346
 21
-1.238393016280777
 31
0.0
 12
13.99485632597346
 22
1.16160698371922
 32
0.0
 13
11.79485632597346
 23
1.16160698371922
 33
0.0
  0
SOLID
  5
54
330
1E
100
AcDbEntity
  8
METAL1
100
AcDbTrace
 10
22.1
 20
-1.199999999999999
 30
0.0
 11
19.9
 21
-1.199999999999999
 31
0.0
 12
22.1
 22
1.199999999999999
 32
0.0
 13
19.9
 23
1.199999999999999
 33
0.0
  0
SOLID
  5
64
330
1E
100
AcDbEntity
  8
METAL1
100
AcDbTrace
 10
22.39999999999999
 20
0.125
 30
0.0
 11
23.19999999999999
 21
0.125
 31
0.0
 12
22.39999999999999
 22
-0.125
 32
0.0
 13
23.19999999999999
 23
-0.125
 33
0.0
  0
SOLID
  5
65
330
1E
100
AcDbEntity
  8
METAL1
100
AcDbTrace
 10
22.39999999999999
 20
-0.125
 30
0.0
 11
21.6
 21
-0.125
 31
0.0
 12
22.39999999999999
 22
0.125
 32
0.0
 13
21.6
 23
0.125
 33
0.0
  0
SOLID
  5
66
330
1E
100
AcDbEntity
  8
METAL1
100
AcDbTrace
 10
21.6
 20
0.0
 30
0.0
 11
21.6
 21
0.125
 31
0.0
 12
23.19999999999999
 22
0.0
 32
0.0
 13
23.19999999999999
 23
0.125
 33
0.0
  0
SOLID
  5
67
330
1E
100
AcDbEntity
  8
METAL1
100
AcDbTrace
 10
23.19999999999999
 20
0.5
 30
0.0
 11
23.9
 21
0.5
 31
0.0
 12
23.19999999999999
 22
-0.5
 32
0.0
 13
23.9
 23
-0.5
 33
0.0
  0
SOLID
  5
77
330
1E
100
AcDbEntity
  8
CONSTR
100
AcDbTrace
 10
23.875
 20
-2.41
 30
0.0
 11
23.875
 21
0.0
 31
0.0
 12
23.925
 22
-2.41
 32
0.0
 13
23.925
 23
0.0
 33
0.0
  0
SOLID
  5
78
330
1E
100
AcDbEntity
  8
CONSTR
100
AcDbTrace
 10
23.875
 20
0.0
 30
0.0
 11
23.875
 21
0.51
 31
0.0
 12
23.925
 22
0.0
 32
0.0
 13
23.925
 23
0.51
 33
0.0
  0
SOLID
  5
79
330
1E
100
AcDbEntity
  8
CONSTR
100
AcDbTrace
 10
23.9
 20
0.5350000000000001
 30
0.0
 11
25.19
 21
0.5350000000000001
 31
0.0
 12
23.9
 22
0.485
 32
0.0
 13
25.19
 23
0.485
 33
0.0
  0
SOLID
  5
7A
330
1E
100
AcDbEntity
  8
CONSTR
100
AcDbTrace
 10
25.215
 20
0.51
 30
0.0
 11
25.215
 21
-2.41
 31
0.0
 12
25.165
 22
0.51
 32
0.0
 13
25.165
 23
-2.41
 33
0.0
  0
SOLID
  5
7B
330
1E
100
AcDbEntity
  8
CONSTR
100
AcDbTrace
 10
25.19
 20
-2.435
 30
0.0
 11
23.9
 21
-2.435
 31
0.0
 12
25.19
 22
-2.384999999999999
 32
0.0
 13
23.9
 23
-2.384999999999999
 33
0.0
  0
SOLID
  5
7C
330
1E
100
AcDbEntity
  8
CONSTR
100
AcDbTrace
 10
23.91
 20
-0.22
 30
0.0
 11
23.41
 21
-0.22
 31
0.0
 12
23.91
 22
0.22
 32
0.0
 13
23.41
 23
0.22
 33
0.0
  0
SOLID
  5
7E
330
1E
100
AcDbEntity
  8
CONSTR
100
AcDbTrace
 10
23.9
 20
-2.12
 30
0.0
 11
23.39999999999999
 21
-2.12
 31
0.0
 12
23.9
 22
-1.679999999999999
 32
0.0
 13
23.39999999999999
 23
-1.679999999999999
 33
0.0
  0
SOLID
  5
80
330
1E
100
AcDbEntity
  8
CONSTR
100
AcDbTrace
 10
25.19
 20
-1.27
 30
0.0
 11
25.69
 21
-1.27
 31
0.0
 12
25.19
 22
-2.129999999999999
 32
0.0
 13
25.69
 23
-2.129999999999999
 33
0.0
  0
SOLID
  5
82
330
1E
100
AcDbEntity
  8
CONSTR
100
AcDbTrace
 10
25.19
 20
0.22
 30
0.0
 11
25.69
 21
0.22
 31
0.0
 12
25.19
 22
-0.22
 32
0.0
 13
25.69
 23
-0.22
 33
0.0
  0
SOLID
  5
93
330
1E
100
AcDbEntity
  8
METAL1
100
AcDbTrace
 10
25.19
 20
-1.1
 30
0.0
 11
26.69
 21
-1.1
 31
0.0
 12
25.19
 22
-2.299999999999999
 32
0.0
 13
26.69
 23
-2.299999999999999
 33
0.0
  0
SOLID
  5
94
330
1E
100
AcDbEntity
  8
METAL1
100
AcDbTrace
 10
27.49
 20
-2.299999999999999
 30
0.0
 11
26.69
 21
-2.299999999999999
 31
0.0
 12
27.49
 22
-1.1
 32
0.0
 13
26.69
 23
-1.1
 33
0.0
  0
SOLID
  5
95
330
1E
100
AcDbEntity
  8
METAL1
100
AcDbTrace
 10
27.49
 20
-0.9
 30
0.0
 11
28.29
 21
-0.9
 31
0.0
 12
27.49
 22
-2.5
 32
0.0
 13
28.29
 23
-2.5
 33
0.0
  0
SOLID
  5
96
330
1E
100
AcDbEntity
  8
METAL1
100
AcDbTrace
 10
26.69
 20
-1.7
 30
0.0
 11
26.69
 21
-0.9
 31
0.0
 12
28.29
 22
-1.7
 32
0.0
 13
28.29
 23
-0.9
 33
0.0
  0
SOLID
  5
97
330
1E
100
AcDbEntity
  8
METAL1
100
AcDbTrace
 10
27.61499999999999
 20
-1.7
 30
0.0
 11
27.61499999999999
 21
-2.5
 31
0.0
 12
27.36499999999999
 22
-1.7
 32
0.0
 13
27.36499999999999
 23
-2.5
 33
0.0
  0
SOLID
  5
98
330
1E
100
AcDbEntity
  8
METAL1
100
AcDbTrace
 10
26.6518
 20
-1.55
 30
0.0
 11
26.6518
 21
-0.4324
 31
0.0
 12
28.32819999999999
 22
-1.55
 32
0.0
 13
28.32819999999999
 23
-0.4324
 33
0.0
  0
SOLID
  5
99
330
1E
100
AcDbEntity
  8
METAL1
100
AcDbTrace
 10
26.6518
 20
1.399999999999999
 30
0.0
 11
26.6518
 21
2.517599999999999
 31
0.0
 12
28.32819999999999
 22
1.399999999999999
 32
0.0
 13
28.32819999999999
 23
2.517599999999999
 33
0.0
  0
SOLID
  5
9A
330
1E
100
AcDbEntity
  8
CONSTR
100
AcDbTrace
 10
26.69
 20
-1.074999999999999
 30
0.0
 11
28.29
 21
-1.074999999999999
 31
0.0
 12
26.69
 22
-1.125
 32
0.0
 13
28.29
 23
-1.125
 33
0.0
  0
SOLID
  5
9B
330
1E
100
AcDbEntity
  8
CONSTR
100
AcDbTrace
 10
26.665
 20
-1.1
 30
0.0
 11
26.665
 21
2.1
 31
0.0
 12
26.71499999999999
 22
-1.1
 32
0.0
 13
26.71499999999999
 23
2.1
 33
0.0
  0
SOLID
  5
9C
330
1E
100
AcDbEntity
  8
CONSTR
100
AcDbTrace
 10
28.265
 20
-1.1
 30
0.0
 11
28.265
 21
2.1
 31
0.0
 12
28.315
 22
-1.1
 32
0.0
 13
28.315
 23
2.1
 33
0.0
  0
SOLID
  5
9D
330
1E
100
AcDbEntity
  8
CONSTR
100
AcDbTrace
 10
26.69
 20
2.125
 30
0.0
 11
28.29
 21
2.125
 31
0.0
 12
26.69
 22
2.075
 32
0.0
 13
28.29
 23
2.075
 33
0.0
  0
SOLID
  5
9E
330
1E
100
AcDbEntity
  8
METAL1
100
AcDbTrace
 10
27.36499999999999
 20
1.9
 30
0.0
 11
27.36499999999999
 21
2.9
 31
0.0
 12
27.61499999999999
 22
1.9
 32
0.0
 13
27.61499999999999
 23
2.9
 33
0.0
  0
SOLID
  5
9F
330
1E
100
AcDbEntity
  8
METAL1
100
AcDbTrace
 10
27.36499999999999
 20
2.9
 30
0.0
 11
27.36499999999999
 21
3.149999999999999
 31
0.0
 12
27.36499999999999
 22
2.9
 32
0.0
 13
27.61499999999999
 23
2.9
 33
0.0
  0
SOLID
  5
A0
330
1E
100
AcDbEntity
  8
METAL1
100
AcDbTrace
 10
22.665
 20
3.149999999999999
 30
0.0
 11
27.36499999999999
 21
3.149999999999999
 31
0.0
 12
22.665
 22
2.9
 32
0.0
 13
27.36499999999999
 23
2.9
 33
0.0
  0
SOLID
  5
A1
330
1E
100
AcDbEntity
  8
METAL1
100
AcDbTrace
 10
22.665
 20
2.9
 30
0.0
 11
22.41499999999999
 21
2.9
 31
0.0
 12
22.665
 22
2.9
 32
0.0
 13
22.665
 23
3.149999999999999
 33
0.0
  0
SOLID
  5
A2
330
1E
100
AcDbEntity
  8
METAL1
100
AcDbTrace
 10
21.5618
 20
-0.525
 30
0.0
 11
21.5618
 21
0.5926000000000001
 31
0.0
 12
23.23819999999999
 22
-0.525
 32
0.0
 13
23.23819999999999
 23
0.5926000000000001
 33
0.0
  0
SOLID
  5
A3
330
1E
100
AcDbEntity
  8
METAL1
100
AcDbTrace
 10
21.5618
 20
2.424999999999999
 30
0.0
 11
21.5618
 21
3.5426
 31
0.0
 12
23.23819999999999
 22
2.424999999999999
 32
0.0
 13
23.23819999999999
 23
3.5426
 33
0.0
  0
SOLID
  5
A4
330
1E
100
AcDbEntity
  8
CONSTR
100
AcDbTrace
 10
21.6
 20
-0.05
 30
0.0
 11
23.19999999999999
 21
-0.05
 31
0.0
 12
21.6
 22
-0.1
 32
0.0
 13
23.19999999999999
 23
-0.1
 33
0.0
  0
SOLID
  5
A5
330
1E
100
AcDbEntity
  8
CONSTR
100
AcDbTrace
 10
21.575
 20
-0.075
 30
0.0
 11
21.575
 21
3.125
 31
0.0
 12
21.625
 22
-0.075
 32
0.0
 13
21.625
 23
3.125
 33
0.0
  0
SOLID
  5
A6
330
1E
100
AcDbEntity
  8
CONSTR
100
AcDbTrace
 10
23.175
 20
-0.075
 30
0.0
 11
23.175
 21
3.125
 31
0.0
 12
23.225
 22
-0.075
 32
0.0
 13
23.225
 23
3.125
 33
0.0
  0
SOLID
  5
A7
330
1E
100
AcDbEntity
  8
CONSTR
100
AcDbTrace
 10
21.6
 20
3.149999999999999
 30
0.0
 11
23.19999999999999
 21
3.149999999999999
 31
0.0
 12
21.6
 22
3.1
 32
0.0
 13
23.19999999999999
 23
3.1
 33
0.0
  0
SOLID
  5
A8
330
1E
100
AcDbEntity
  8
METAL1
100
AcDbTrace
 10
27.64
 20
-0.8618
 30
0.0
 11
28.7576
 21
-0.8618
 31
0.0
 12
27.64
 22
-2.538199999999999
 32
0.0
 13
28.7576
 23
-2.538199999999999
 33
0.0
  0
SOLID
  5
A9
330
1E
100
AcDbEntity
  8
METAL1
100
AcDbTrace
 10
30.59
 20
-0.8618
 30
0.0
 11
31.7076
 21
-0.8618
 31
0.0
 12
30.59
 22
-2.538199999999999
 32
0.0
 13
31.7076
 23
-2.538199999999999
 33
0.0
  0
SOLID
  5
AA
330
1E
100
AcDbEntity
  8
CONSTR
100
AcDbTrace
 10
28.115
 20
-0.9
 30
0.0
 11
28.115
 21
-2.5
 31
0.0
 12
28.065
 22
-0.9
 32
0.0
 13
28.065
 23
-2.5
 33
0.0
  0
SOLID
  5
AB
330
1E
100
AcDbEntity
  8
CONSTR
100
AcDbTrace
 10
28.09
 20
-0.875
 30
0.0
 11
31.29
 21
-0.875
 31
0.0
 12
28.09
 22
-0.925
 32
0.0
 13
31.29
 23
-0.925
 33
0.0
  0
SOLID
  5
AC
330
1E
100
AcDbEntity
  8
CONSTR
100
AcDbTrace
 10
28.09
 20
-2.475
 30
0.0
 11
31.29
 21
-2.475
 31
0.0
 12
28.09
 22
-2.524999999999999
 32
0.0
 13
31.29
 23
-2.524999999999999
 33
0.0
  0
SOLID
  5
AD
330
1E
100
AcDbEntity
  8
CONSTR
100
AcDbTrace
 10
31.315
 20
-0.9
 30
0.0
 11
31.315
 21
-2.5
 31
0.0
 12
31.265
 22
-0.9
 32
0.0
 13
31.265
 23
-2.5
 33
0.0
  0
SOLID
  5
AE
330
1E
100
AcDbEntity
  8
METAL1
100
AcDbTrace
 10
31.08999999999999
 20
-0.35
 30
0.0
 11
46.09
 21
-0.35
 31
0.0
 12
31.08999999999999
 22
-3.049999999999999
 32
0.0
 13
46.09
 23
-3.049999999999999
 33
0.0
  0
SOLID
  5
AF
330
1E
100
AcDbEntity
  8
METAL1
100
AcDbTrace
 10
27.36499999999999
 20
-6.5
 30
0.0
 11
27.36499999999999
 21
-2.5
 31
0.0
 12
27.61499999999999
 22
-6.5
 32
0.0
 13
27.61499999999999
 23
-2.5
 33
0.0
  0
SOLID
  5
B0
330
1E
100
AcDbEntity
  8
METAL1
100
AcDbTrace
 10
27.61499999999999
 20
-6.5
 30
0.0
 11
27.61499999999999
 21
-14.9607
 31
0.0
 12
27.36499999999999
 22
-6.5
 32
0.0
 13
27.36499999999999
 23
-14.9607
 33
0.0
  0
SOLID
  5
B1
330
1E
100
AcDbEntity
  8
METAL1
100
AcDbTrace
 10
27.36499999999999
 20
-14.7107
 30
0.0
 11
28.115
 21
-14.7107
 31
0.0
 12
27.36499999999999
 22
-14.9607
 32
0.0
 13
28.115
 23
-14.9607
 33
0.0
  0
SOLID
  5
B2
330
1E
100
AcDbEntity
  8
METAL1
100
AcDbTrace
 10
27.865
 20
-14.7107
 30
0.0
 11
36.07569999999999
 21
-14.7107
 31
0.0
 12
27.865
 22
-14.9607
 32
0.0
 13
36.07569999999999
 23
-14.9607
 33
0.0
  0
SOLID
  5
B3
330
1E
100
AcDbEntity
  8
METAL1
100
AcDbTrace
 10
35.8257
 20
-14.9607
 30
0.0
 11
35.8257
 21
-14.2107
 31
0.0
 12
36.07569999999999
 22
-14.9607
 32
0.0
 13
36.07569999999999
 23
-14.2107
 33
0.0
  0
SOLID
  5
B4
330
1E
100
AcDbEntity
  8
METAL1
100
AcDbTrace
 10
35.8257
 20
-14.46069999999999
 30
0.0
 11
35.8257
 21
-6.5
 31
0.0
 12
36.07569999999999
 22
-14.46069999999999
 32
0.0
 13
36.07569999999999
 23
-6.5
 33
0.0
  0
SOLID
  5
B5
330
1E
100
AcDbEntity
  8
METAL1
100
AcDbTrace
 10
36.07569999999999
 20
-6.75
 30
0.0
 11
35.32569999999999
 21
-6.75
 31
0.0
 12
36.07569999999999
 22
-6.5
 32
0.0
 13
35.32569999999999
 23
-6.5
 33
0.0
  0
SOLID
  5
B6
330
1E
100
AcDbEntity
  8
METAL1
100
AcDbTrace
 10
35.5757
 20
-6.75
 30
0.0
 11
27.865
 21
-6.75
 31
0.0
 12
35.5757
 22
-6.5
 32
0.0
 13
27.865
 23
-6.5
 33
0.0
  0
SOLID
  5
B7
330
1E
100
AcDbEntity
  8
METAL1
100
AcDbTrace
 10
28.115
 20
-6.5
 30
0.0
 11
28.115
 21
-14.46069999999999
 31
0.0
 12
27.865
 22
-6.5
 32
0.0
 13
27.865
 23
-14.46069999999999
 33
0.0
  0
SOLID
  5
B8
330
1E
100
AcDbEntity
  8
METAL1
100
AcDbTrace
 10
27.865
 20
-14.2107
 30
0.0
 11
35.5757
 21
-14.2107
 31
0.0
 12
27.865
 22
-14.46069999999999
 32
0.0
 13
35.5757
 23
-14.46069999999999
 33
0.0
  0
SOLID
  5
B9
330
1E
100
AcDbEntity
  8
METAL1
100
AcDbTrace
 10
35.32569999999999
 20
-14.46069999999999
 30
0.0
 11
35.32569999999999
 21
-7.0
 31
0.0
 12
35.5757
 22
-14.46069999999999
 32
0.0
 13
35.5757
 23
-7.0
 33
0.0
  0
SOLID
  5
BA
330
1E
100
AcDbEntity
  8
METAL1
100
AcDbTrace
 10
35.5757
 20
-7.25
 30
0.0
 11
28.365
 21
-7.25
 31
0.0
 12
35.5757
 22
-7.0
 32
0.0
 13
28.365
 23
-7.0
 33
0.0
  0
SOLID
  5
BB
330
1E
100
AcDbEntity
  8
METAL1
100
AcDbTrace
 10
28.61499999999999
 20
-7.0
 30
0.0
 11
28.61499999999999
 21
-13.96069999999999
 31
0.0
 12
28.365
 22
-7.0
 32
0.0
 13
28.365
 23
-13.96069999999999
 33
0.0
  0
SOLID
  5
BC
330
1E
100
AcDbEntity
  8
METAL1
100
AcDbTrace
 10
28.365
 20
-13.7107
 30
0.0
 11
35.07569999999999
 21
-13.7107
 31
0.0
 12
28.365
 22
-13.96069999999999
 32
0.0
 13
35.07569999999999
 23
-13.96069999999999
 33
0.0
  0
SOLID
  5
BD
330
1E
100
AcDbEntity
  8
METAL1
100
AcDbTrace
 10
34.82569999999999
 20
-13.96069999999999
 30
0.0
 11
34.82569999999999
 21
-7.5
 31
0.0
 12
35.07569999999999
 22
-13.96069999999999
 32
0.0
 13
35.07569999999999
 23
-7.5
 33
0.0
  0
SOLID
  5
BE
330
1E
100
AcDbEntity
  8
METAL1
100
AcDbTrace
 10
35.07569999999999
 20
-7.75
 30
0.0
 11
28.86499999999999
 21
-7.75
 31
0.0
 12
35.07569999999999
 22
-7.5
 32
0.0
 13
28.86499999999999
 23
-7.5
 33
0.0
  0
SOLID
  5
BF
330
1E
100
AcDbEntity
  8
METAL1
100
AcDbTrace
 10
29.115
 20
-7.5
 30
0.0
 11
29.115
 21
-13.4607
 31
0.0
 12
28.86499999999999
 22
-7.5
 32
0.0
 13
28.86499999999999
 23
-13.4607
 33
0.0
  0
SOLID
  5
C0
330
1E
100
AcDbEntity
  8
METAL1
100
AcDbTrace
 10
28.86499999999999
 20
-13.21069999999999
 30
0.0
 11
34.5757
 21
-13.21069999999999
 31
0.0
 12
28.86499999999999
 22
-13.4607
 32
0.0
 13
34.5757
 23
-13.4607
 33
0.0
  0
SOLID
  5
C1
330
1E
100
AcDbEntity
  8
METAL1
100
AcDbTrace
 10
34.3257
 20
-13.4607
 30
0.0
 11
34.3257
 21
-12.9607
 31
0.0
 12
34.5757
 22
-13.4607
 32
0.0
 13
34.5757
 23
-12.9607
 33
0.0
  0
SOLID
  5
C2
330
1E
100
AcDbEntity
  8
METAL1
100
AcDbTrace
 10
33.48787969947093
 20
-13.41113053409592
 30
0.0
 11
33.48787969947093
 21
-12.41113053409592
 31
0.0
 12
34.48787969947094
 22
-13.41113053409592
 32
0.0
 13
34.48787969947094
 23
-12.41113053409592
 33
0.0
  0
SOLID
  5
C3
330
1E
100
AcDbEntity
  8
METAL1
100
AcDbTrace
 10
34.5757
 20
-12.9607
 30
0.0
 11
34.3257
 21
-12.9607
 31
0.0
 12
34.5757
 22
-12.71069999999999
 32
0.0
 13
34.3257
 23
-12.71069999999999
 33
0.0
  0
SOLID
  5
C4
330
1E
100
AcDbEntity
  8
CONSTR
100
AcDbTrace
 10
34.11287969947093
 20
-12.53613053409592
 30
0.0
 11
39.11287969947093
 21
-12.53613053409592
 31
0.0
 12
34.11287969947093
 22
-13.03613053409592
 32
0.0
 13
39.11287969947093
 23
-13.03613053409592
 33
0.0
  0
SOLID
  5
C5
330
1E
100
AcDbEntity
  8
METAL1
100
AcDbTrace
 10
39.91287969947094
 20
-13.58613053409593
 30
0.0
 11
39.11287969947093
 21
-13.58613053409593
 31
0.0
 12
39.91287969947094
 22
-11.98613053409592
 32
0.0
 13
39.11287969947093
 23
-11.98613053409592
 33
0.0
  0
SOLID
  5
C6
330
1E
100
AcDbEntity
  8
METAL1
100
AcDbTrace
 10
39.91287969947094
 20
-11.98613053409592
 30
0.0
 11
40.71287969947094
 21
-11.98613053409592
 31
0.0
 12
39.91287969947094
 22
-13.58613053409593
 32
0.0
 13
40.71287969947094
 23
-13.58613053409593
 33
0.0
  0
SOLID
  5
C7
330
1E
100
AcDbEntity
  8
METAL1
100
AcDbTrace
 10
40.71287969947094
 20
-12.78613053409592
 30
0.0
 11
40.71287969947094
 21
-13.58613053409593
 31
0.0
 12
39.11287969947093
 22
-12.78613053409592
 32
0.0
 13
39.11287969947093
 23
-13.58613053409593
 33
0.0
  0
SOLID
  5
C8
330
1E
100
AcDbEntity
  8
METAL1
100
AcDbTrace
 10
44.16287969947094
 20
-13.62433053409592
 30
0.0
 11
43.04527969947094
 21
-13.62433053409592
 31
0.0
 12
44.16287969947094
 22
-11.94793053409592
 32
0.0
 13
43.04527969947094
 23
-11.94793053409592
 33
0.0
  0
SOLID
  5
C9
330
1E
100
AcDbEntity
  8
METAL1
100
AcDbTrace
 10
41.21287969947093
 20
-13.62433053409592
 30
0.0
 11
40.09527969947094
 21
-13.62433053409592
 31
0.0
 12
41.21287969947093
 22
-11.94793053409592
 32
0.0
 13
40.09527969947094
 23
-11.94793053409592
 33
0.0
  0
SOLID
  5
CA
330
1E
100
AcDbEntity
  8
CONSTR
100
AcDbTrace
 10
43.68787969947094
 20
-13.58613053409593
 30
0.0
 11
43.68787969947094
 21
-11.98613053409592
 31
0.0
 12
43.73787969947094
 22
-13.58613053409593
 32
0.0
 13
43.73787969947094
 23
-11.98613053409592
 33
0.0
  0
SOLID
  5
CB
330
1E
100
AcDbEntity
  8
CONSTR
100
AcDbTrace
 10
43.71287969947093
 20
-13.61113053409592
 30
0.0
 11
40.51287969947094
 21
-13.61113053409592
 31
0.0
 12
43.71287969947093
 22
-13.56113053409592
 32
0.0
 13
40.51287969947094
 23
-13.56113053409592
 33
0.0
  0
SOLID
  5
CC
330
1E
100
AcDbEntity
  8
CONSTR
100
AcDbTrace
 10
43.71287969947093
 20
-12.01113053409593
 30
0.0
 11
40.51287969947094
 21
-12.01113053409593
 31
0.0
 12
43.71287969947093
 22
-11.96113053409592
 32
0.0
 13
40.51287969947094
 23
-11.96113053409592
 33
0.0
  0
SOLID
  5
CD
330
1E
100
AcDbEntity
  8
CONSTR
100
AcDbTrace
 10
40.48787969947094
 20
-13.58613053409593
 30
0.0
 11
40.48787969947094
 21
-11.98613053409592
 31
0.0
 12
40.53787969947094
 22
-13.58613053409593
 32
0.0
 13
40.53787969947094
 23
-11.98613053409592
 33
0.0
  0
SOLID
  5
CE
330
1E
100
AcDbEntity
  8
METAL1
100
AcDbTrace
 10
44.31287969947094
 20
-13.58613053409593
 30
0.0
 11
43.51287969947094
 21
-13.58613053409593
 31
0.0
 12
44.31287969947094
 22
-11.98613053409592
 32
0.0
 13
43.51287969947094
 23
-11.98613053409592
 33
0.0
  0
SOLID
  5
CF
330
1E
100
AcDbEntity
  8
METAL1
100
AcDbTrace
 10
44.31287969947094
 20
-11.98613053409592
 30
0.0
 11
45.11287969947093
 21
-11.98613053409592
 31
0.0
 12
44.31287969947094
 22
-13.58613053409593
 32
0.0
 13
45.11287969947093
 23
-13.58613053409593
 33
0.0
  0
SOLID
  5
D0
330
1E
100
AcDbEntity
  8
METAL1
100
AcDbTrace
 10
45.11287969947093
 20
-12.78613053409592
 30
0.0
 11
45.11287969947093
 21
-13.58613053409593
 31
0.0
 12
43.51287969947094
 22
-12.78613053409592
 32
0.0
 13
43.51287969947094
 23
-13.58613053409593
 33
0.0
  0
SOLID
  5
D1
330
1E
100
AcDbEntity
  8
METAL1
100
AcDbTrace
 10
45.15107969947094
 20
-12.93613053409592
 30
0.0
 11
45.15107969947094
 21
-14.05373053409593
 31
0.0
 12
43.47467969947094
 22
-12.93613053409592
 32
0.0
 13
43.47467969947094
 23
-14.05373053409593
 33
0.0
  0
SOLID
  5
D2
330
1E
100
AcDbEntity
  8
METAL1
100
AcDbTrace
 10
45.15107969947094
 20
-15.88613053409592
 30
0.0
 11
45.15107969947094
 21
-17.00373053409593
 31
0.0
 12
43.47467969947094
 22
-15.88613053409592
 32
0.0
 13
43.47467969947094
 23
-17.00373053409593
 33
0.0
  0
SOLID
  5
D3
330
1E
100
AcDbEntity
  8
CONSTR
100
AcDbTrace
 10
45.11287969947093
 20
-13.41113053409592
 30
0.0
 11
43.51287969947094
 21
-13.41113053409592
 31
0.0
 12
45.11287969947093
 22
-13.36113053409593
 32
0.0
 13
43.51287969947094
 23
-13.36113053409593
 33
0.0
  0
SOLID
  5
D4
330
1E
100
AcDbEntity
  8
CONSTR
100
AcDbTrace
 10
45.13787969947094
 20
-13.38613053409593
 30
0.0
 11
45.13787969947094
 21
-16.58613053409593
 31
0.0
 12
45.08787969947094
 22
-13.38613053409593
 32
0.0
 13
45.08787969947094
 23
-16.58613053409593
 33
0.0
  0
SOLID
  5
D5
330
1E
100
AcDbEntity
  8
CONSTR
100
AcDbTrace
 10
43.53787969947094
 20
-13.38613053409593
 30
0.0
 11
43.53787969947094
 21
-16.58613053409593
 31
0.0
 12
43.48787969947093
 22
-13.38613053409593
 32
0.0
 13
43.48787969947093
 23
-16.58613053409593
 33
0.0
  0
SOLID
  5
D6
330
1E
100
AcDbEntity
  8
CONSTR
100
AcDbTrace
 10
45.11287969947093
 20
-16.61113053409592
 30
0.0
 11
43.51287969947094
 21
-16.61113053409592
 31
0.0
 12
45.11287969947093
 22
-16.56113053409593
 32
0.0
 13
43.51287969947094
 23
-16.56113053409593
 33
0.0
  0
SOLID
  5
D7
330
1E
100
AcDbEntity
  8
METAL1
100
AcDbTrace
 10
45.11287969947093
 20
-16.38613053409593
 30
0.0
 11
45.11287969947093
 21
-17.98613053409592
 31
0.0
 12
43.51287969947094
 22
-16.38613053409593
 32
0.0
 13
43.51287969947094
 23
-17.98613053409592
 33
0.0
  0
LWPOLYLINE
  5
D9
330
1E
100
AcDbEntity
  8
GND
100
AcDbPolyline
 90
        2
 70
     0
 43
0.2
 10
44.31287969947094
 20
-17.58613053409592
 42
1.0
 10
44.31287969947094
 20
-16.78613053409592
  0
LWPOLYLINE
  5
DD
330
1E
100
AcDbEntity
  8
GND
100
AcDbPolyline
 90
        2
 70
     0
 43
0.2
 10
44.31287969947094
 20
-16.78613053409592
 42
1.0
 10
44.31287969947094
 20
-17.58613053409592
  0
SOLID
  5
E1
330
1E
100
AcDbEntity
  8
METAL1
100
AcDbTrace
 10
40.75107969947094
 20
-12.93613053409592
 30
0.0
 11
40.75107969947094
 21
-14.05373053409593
 31
0.0
 12
39.07467969947094
 22
-12.93613053409592
 32
0.0
 13
39.07467969947094
 23
-14.05373053409593
 33
0.0
  0
SOLID
  5
E2
330
1E
100
AcDbEntity
  8
METAL1
100
AcDbTrace
 10
40.75107969947094
 20
-15.88613053409592
 30
0.0
 11
40.75107969947094
 21
-17.00373053409593
 31
0.0
 12
39.07467969947094
 22
-15.88613053409592
 32
0.0
 13
39.07467969947094
 23
-17.00373053409593
 33
0.0
  0
SOLID
  5
E3
330
1E
100
AcDbEntity
  8
CONSTR
100
AcDbTrace
 10
40.71287969947094
 20
-13.41113053409592
 30
0.0
 11
39.11287969947093
 21
-13.41113053409592
 31
0.0
 12
40.71287969947094
 22
-13.36113053409593
 32
0.0
 13
39.11287969947093
 23
-13.36113053409593
 33
0.0
  0
SOLID
  5
E4
330
1E
100
AcDbEntity
  8
CONSTR
100
AcDbTrace
 10
40.73787969947093
 20
-13.38613053409593
 30
0.0
 11
40.73787969947093
 21
-16.58613053409593
 31
0.0
 12
40.68787969947094
 22
-13.38613053409593
 32
0.0
 13
40.68787969947094
 23
-16.58613053409593
 33
0.0
  0
SOLID
  5
E5
330
1E
100
AcDbEntity
  8
CONSTR
100
AcDbTrace
 10
39.13787969947094
 20
-13.38613053409593
 30
0.0
 11
39.13787969947094
 21
-16.58613053409593
 31
0.0
 12
39.08787969947093
 22
-13.38613053409593
 32
0.0
 13
39.08787969947093
 23
-16.58613053409593
 33
0.0
  0
SOLID
  5
E6
330
1E
100
AcDbEntity
  8
CONSTR
100
AcDbTrace
 10
40.71287969947094
 20
-16.61113053409592
 30
0.0
 11
39.11287969947093
 21
-16.61113053409592
 31
0.0
 12
40.71287969947094
 22
-16.56113053409593
 32
0.0
 13
39.11287969947093
 23
-16.56113053409593
 33
0.0
  0
SOLID
  5
E7
330
1E
100
AcDbEntity
  8
METAL1
100
AcDbTrace
 10
40.71287969947094
 20
-16.38613053409593
 30
0.0
 11
40.71287969947094
 21
-17.98613053409592
 31
0.0
 12
39.11287969947093
 22
-16.38613053409593
 32
0.0
 13
39.11287969947093
 23
-17.98613053409592
 33
0.0
  0
LWPOLYLINE
  5
E8
330
1E
100
AcDbEntity
  8
GND
100
AcDbPolyline
 90
        2
 70
     0
 43
0.2
 10
39.91287969947094
 20
-17.58613053409592
 42
1.0
 10
39.91287969947094
 20
-16.78613053409592
  0
LWPOLYLINE
  5
EC
330
1E
100
AcDbEntity
  8
GND
100
AcDbPolyline
 90
        2
 70
     0
 43
0.2
 10
39.91287969947094
 20
-16.78613053409592
 42
1.0
 10
39.91287969947094
 20
-17.58613053409592
  0
SOLID
  5
FF
330
1E
100
AcDbEntity
  8
METAL1
100
AcDbTrace
 10
23.9
 20
-1.31
 30
0.0
 11
23.9
 21
-2.509999999999999
 31
0.0
 12
22.7
 22
-1.31
 32
0.0
 13
22.7
 23
-2.509999999999999
 33
0.0
  0
LWPOLYLINE
  5
100
330
1E
100
AcDbEntity
  8
GND
100
AcDbPolyline
 90
        2
 70
     0
 43
0.2
 10
23.3
 20
-2.31
 42
1.0
 10
23.3
 20
-1.509999999999999
  0
LWPOLYLINE
  5
104
330
1E
100
AcDbEntity
  8
GND
100
AcDbPolyline
 90
        2
 70
     0
 43
0.2
 10
23.3
 20
-1.509999999999999
 42
1.0
 10
23.3
 20
-2.31
  0
SOLID
  5
108
330
1E
100
AcDbEntity
  8
METAL1
100
AcDbTrace
 10
3.745799163792614
 20
2.185752899450005
 30
0.0
 11
3.745799163792614
 21
3.303352899450004
 31
0.0
 12
5.422199163792615
 22
2.185752899450005
 32
0.0
 13
5.422199163792615
 23
3.303352899450004
 33
0.0
  0
SOLID
  5
109
330
1E
100
AcDbEntity
  8
METAL1
100
AcDbTrace
 10
3.745799163792614
 20
5.135752899450004
 30
0.0
 11
3.745799163792614
 21
6.253352899450007
 31
0.0
 12
5.422199163792615
 22
5.135752899450004
 32
0.0
 13
5.422199163792615
 23
6.253352899450007
 33
0.0
  0
SOLID
  5
10A
330
1E
100
AcDbEntity
  8
CONSTR
100
AcDbTrace
 10
3.783999163792614
 20
2.660752899450006
 30
0.0
 11
5.383999163792614
 21
2.660752899450006
 31
0.0
 12
3.783999163792614
 22
2.610752899450005
 32
0.0
 13
5.383999163792614
 23
2.610752899450005
 33
0.0
  0
SOLID
  5
10B
330
1E
100
AcDbEntity
  8
CONSTR
100
AcDbTrace
 10
3.758999163792614
 20
2.635752899450004
 30
0.0
 11
3.758999163792614
 21
5.835752899450007
 31
0.0
 12
3.808999163792615
 22
2.635752899450004
 32
0.0
 13
3.808999163792615
 23
5.835752899450007
 33
0.0
  0
SOLID
  5
10C
330
1E
100
AcDbEntity
  8
CONSTR
100
AcDbTrace
 10
5.358999163792613
 20
2.635752899450004
 30
0.0
 11
5.358999163792613
 21
5.835752899450007
 31
0.0
 12
5.408999163792614
 22
2.635752899450004
 32
0.0
 13
5.408999163792614
 23
5.835752899450007
 33
0.0
  0
SOLID
  5
10D
330
1E
100
AcDbEntity
  8
CONSTR
100
AcDbTrace
 10
3.783999163792614
 20
5.860752899450005
 30
0.0
 11
5.383999163792614
 21
5.860752899450005
 31
0.0
 12
3.783999163792614
 22
5.810752899450005
 32
0.0
 13
5.383999163792614
 23
5.810752899450005
 33
0.0
  0
SOLID
  5
10E
330
1E
100
AcDbEntity
  8
METAL1
100
AcDbTrace
 10
5.383999163792614
 20
1.235752899450005
 30
0.0
 11
3.783999163792614
 21
1.235752899450005
 31
0.0
 12
5.383999163792614
 22
2.835752899450007
 32
0.0
 13
3.783999163792614
 23
2.835752899450007
 33
0.0
  0
LWPOLYLINE
  5
10F
330
1E
100
AcDbEntity
  8
GND
100
AcDbPolyline
 90
        2
 70
     0
 43
0.2
 10
4.583999163792614
 20
1.635752899450006
 42
1.0
 10
4.583999163792614
 20
2.435752899450005
  0
LWPOLYLINE
  5
113
330
1E
100
AcDbEntity
  8
GND
100
AcDbPolyline
 90
        2
 70
     0
 43
0.2
 10
4.583999163792614
 20
2.435752899450005
 42
1.0
 10
4.583999163792614
 20
1.635752899450006
  0
CIRCLE
  5
15F
330
1E
100
AcDbEntity
  8
CONSTR
370
    30
100
AcDbCircle
 10
16.90513374174422
 20
-0.1087767021927704
 30
0.0
 40
1.136483575809477
  0
LWPOLYLINE
  5
160
330
1E
100
AcDbEntity
  8
CONSTR
370
    30
100
AcDbPolyline
 90
        2
 70
     0
 43
0.0
 10
15.81498059855177
 20
-0.1995889789701977
 10
17.94986374695922
 20
-0.1995889789701977
  0
LWPOLYLINE
  5
161
330
1E
100
AcDbEntity
  8
CONSTR
370
    30
100
AcDbPolyline
 90
        2
 70
     0
 43
0.0
 10
15.9058267469616
 20
-0.0179643373510174
 10
18.04070989536906
 20
-0.0179643373510174
  0
LWPOLYLINE
  5
162
330
1E
100
AcDbEntity
  8
CONSTR
100
AcDbPolyline
 90
        2
 70
     0
 43
0.0
 10
7.220756202085889
 20
8.613975344723355
 10
4.558887347616227
 20
5.052211331745073
  0
LWPOLYLINE
  5
163
330
1E
100
AcDbEntity
  8
CONSTR
100
AcDbPolyline
 90
        2
 70
     0
 43
0.0
 10
7.265015522656772
 20
5.403611598893624
 10
9.118367905414476
 20
6.747677520377491
  0
LWPOLYLINE
  5
164
330
1E
100
AcDbEntity
  8
CONSTR
100
AcDbPolyline
 90
        2
 70
     0
 43
0.0
 10
6.309983403717154
 20
6.32539202663431
 10
8.171518352699681
 20
7.678870239122254
  0
LWPOLYLINE
  5
165
330
1E
100
AcDbEntity
  8
CONSTR
100
AcDbPolyline
 90
        2
 70
     0
 43
0.0
 10
5.020572684922075
 20
4.59052599443922
 10
7.670702135454999
 20
8.156200994369243
  0
LWPOLYLINE
  5
166
330
1E
100
AcDbEntity
  8
CONSTR
100
AcDbPolyline
 90
        2
 70
     0
 43
0.0
 10
8.175432561192195
 20
7.682784447614768
 10
5.497906731939469
 20
4.105363319394161
  0
LWPOLYLINE
  5
167
330
1E
100
AcDbEntity
  8
CONSTR
100
AcDbPolyline
 90
        2
 70
     0
 43
0.0
 10
8.629291127398234
 20
7.221097464423701
 10
5.943938456816076
 20
3.64367476054752
  0
LWPOLYLINE
  5
168
330
1E
100
AcDbEntity
  8
CONSTR
100
AcDbPolyline
 90
        2
 70
     0
 43
0.0
 10
7.30295013508787
 20
8.672693761622285
 10
5.043764309918495
 20
7.049870478538648
  0
ARC
  5
169
330
1E
100
AcDbEntity
  8
CONSTR
100
AcDbCircle
 10
7.44385640960837
 20
8.382103286687506
 30
0.0
 40
0.3256099016146134
100
AcDbArc
 50
314.9495733215438
 51
135.0504266784561
  0
ARC
  5
16A
330
1E
100
AcDbEntity
  8
CONSTR
100
AcDbCircle
 10
8.401665852961262
 20
7.451959281057121
 30
0.0
 40
0.3256099016146134
100
AcDbArc
 50
311.5051155470028
 51
138.4948844529971
  0
ARC
  5
16B
330
1E
100
AcDbEntity
  8
CONSTR
100
AcDbCircle
 10
9.33773015255338
 20
6.504996488507661
 30
0.0
 40
0.3256099016146134
100
AcDbArc
 50
312.8628392357289
 51
317.6627418064885
  0
LWPOLYLINE
  5
16C
330
1E
100
AcDbEntity
  8
CONSTR
100
AcDbPolyline
 90
        4
 70
     1
 43
0.0
 10
10.7581341712969
 20
5.513978801674505
 10
10.7581341712969
 20
5.513978801674505
 10
10.7581341712969
 20
5.513978801674505
 10
10.7581341712969
 20
5.513978801674505
  0
LWPOLYLINE
  5
16D
330
1E
100
AcDbEntity
  8
CONSTR
100
AcDbPolyline
 90
        2
 70
     0
 43
0.0
 10
5.020572684922075
 20
4.59052599443922
 10
6.870990194052907
 20
5.939929296128676
  0
LINE
  5
16E
330
1E
100
AcDbEntity
  8
CONSTR
100
AcDbLine
 10
5.502225391220342
 20
6.592720671792474
 30
0.0
 11
5.951276876254071
 21
6.915324500082633
 31
0.0
  0
ARC
  5
16F
330
1E
100
AcDbEntity
  8
CONSTR
100
AcDbCircle
 10
4.791550861610971
 20
4.824762363797148
 30
0.0
 40
0.3256099016146134
100
AcDbArc
 50
135.6813662363378
 51
314.3186337636621
  0
LWPOLYLINE
  5
170
330
1E
100
AcDbEntity
  8
CONSTR
100
AcDbPolyline
 90
        2
 70
     0
 43
0.0
 10
5.959595396307438
 20
3.659331700038883
 10
7.798502404808578
 20
4.996357608269345
  0
ARC
  5
171
330
1E
100
AcDbEntity
  8
CONSTR
100
AcDbCircle
 10
5.73010597661678
 20
3.88620724879134
 30
0.0
 40
0.3256099016146134
100
AcDbArc
 50
135.6813662363378
 51
314.3186337636621
  0
LWPOLYLINE
  5
172
330
1E
100
AcDbEntity
  8
CONSTR
100
AcDbPolyline
 90
        2
 70
     0
 43
0.0
 10
9.145485990375899
 20
6.750071550332825
 10
6.483617135906236
 20
3.188307537354544
  0
LWPOLYLINE
  5
173
330
1E
100
AcDbEntity
  8
CONSTR
100
AcDbPolyline
 90
        2
 70
     0
 43
0.0
 10
9.189745310946786
 20
3.539707804503098
 10
11.04309769370448
 20
4.883773725986966
  0
LWPOLYLINE
  5
174
330
1E
100
AcDbEntity
  8
CONSTR
100
AcDbPolyline
 90
        2
 70
     0
 43
0.0
 10
8.234713192007166
 20
4.461488232243782
 10
10.09624814098969
 20
5.814966444731727
  0
LWPOLYLINE
  5
175
330
1E
100
AcDbEntity
  8
CONSTR
100
AcDbPolyline
 90
        2
 70
     0
 43
0.0
 10
6.945302473212088
 20
2.726622200048693
 10
9.59543192374501
 20
6.292297199978713
  0
LWPOLYLINE
  5
176
330
1E
100
AcDbEntity
  8
CONSTR
100
AcDbPolyline
 90
        2
 70
     0
 43
0.0
 10
10.1001623494822
 20
5.81888065322424
 10
7.422636520229483
 20
2.241459525003631
  0
LWPOLYLINE
  5
177
330
1E
100
AcDbEntity
  8
CONSTR
100
AcDbPolyline
 90
        2
 70
     0
 43
0.0
 10
10.55402091568824
 20
5.357193670033175
 10
7.868668245106093
 20
1.779770966156993
  0
ARC
  5
178
330
1E
100
AcDbEntity
  8
CONSTR
100
AcDbCircle
 10
9.368586197898382
 20
6.518199492296979
 30
0.0
 40
0.3256099016146134
100
AcDbArc
 50
314.9495733215438
 51
135.0504266784561
  0
ARC
  5
179
330
1E
100
AcDbEntity
  8
CONSTR
100
AcDbCircle
 10
10.32639564125127
 20
5.588055486666597
 30
0.0
 40
0.3256099016146134
100
AcDbArc
 50
311.5051155470028
 51
138.4948844529971
  0
LWPOLYLINE
  5
17A
330
1E
100
AcDbEntity
  8
CONSTR
100
AcDbPolyline
 90
        2
 70
     0
 43
0.0
 10
6.945302473212088
 20
2.726622200048693
 10
8.795719982342919
 20
4.076025501738148
  0
ARC
  5
17B
330
1E
100
AcDbEntity
  8
CONSTR
100
AcDbCircle
 10
6.716280649900985
 20
2.960858569406617
 30
0.0
 40
0.3256099016146134
100
AcDbArc
 50
135.6813662363378
 51
314.3186337636621
  0
LWPOLYLINE
  5
17C
330
1E
100
AcDbEntity
  8
CONSTR
100
AcDbPolyline
 90
        2
 70
     0
 43
0.0
 10
7.884325184597452
 20
1.795427905648352
 10
9.72323219309859
 20
3.132453813878817
  0
ARC
  5
17D
330
1E
100
AcDbEntity
  8
CONSTR
100
AcDbCircle
 10
7.65483576490679
 20
2.022303454400812
 30
0.0
 40
0.3256099016146134
100
AcDbArc
 50
135.6813662363378
 51
314.3186337636621
  0
LWPOLYLINE
  5
17E
330
1E
100
AcDbEntity
  8
CONSTR
100
AcDbPolyline
 90
        2
 70
     0
 43
0.0
 10
10.14274440770652
 20
2.59897810429445
 10
11.99609679046422
 20
3.943044025778316
  0
LWPOLYLINE
  5
17F
330
1E
100
AcDbEntity
  8
CONSTR
100
AcDbPolyline
 90
        2
 70
     0
 43
0.0
 10
11.05316144624194
 20
4.878150953015593
 10
8.375635616989219
 20
1.300729824794984
  0
LWPOLYLINE
  5
180
330
1E
100
AcDbEntity
  8
CONSTR
100
AcDbPolyline
 90
        2
 70
     0
 43
0.0
 10
11.50702001244797
 20
4.416463969824526
 10
8.821667341865826
 20
0.839041265948345
  0
ARC
  5
181
330
1E
100
AcDbEntity
  8
CONSTR
100
AcDbCircle
 10
11.27939473801101
 20
4.647325786457948
 30
0.0
 40
0.3256099016146134
100
AcDbArc
 50
311.5051155470028
 51
138.4948844529971
  0
ARC
  5
182
330
1E
100
AcDbEntity
  8
CONSTR
100
AcDbCircle
 10
12.21545903760312
 20
3.700362993908484
 30
0.0
 40
0.3256099016146134
100
AcDbArc
 50
312.8628392357289
 51
317.6627418064885
  0
LWPOLYLINE
  5
183
330
1E
100
AcDbEntity
  8
CONSTR
100
AcDbPolyline
 90
        4
 70
     1
 43
0.0
 10
13.63586305634665
 20
2.709345307075329
 10
13.63586305634665
 20
2.709345307075329
 10
13.63586305634665
 20
2.709345307075329
 10
13.63586305634665
 20
2.709345307075329
  0
LWPOLYLINE
  5
184
330
1E
100
AcDbEntity
  8
CONSTR
100
AcDbPolyline
 90
        2
 70
     0
 43
0.0
 10
8.83732428135719
 20
0.8546982054397069
 10
10.67623128985832
 20
2.191724113670169
  0
ARC
  5
185
330
1E
100
AcDbEntity
  8
CONSTR
100
AcDbCircle
 10
8.607834861666523
 20
1.081573754192165
 30
0.0
 40
0.3256099016146134
100
AcDbArc
 50
135.6813662363378
 51
314.3186337636621
  0
LWPOLYLINE
  5
186
330
1E
100
AcDbEntity
  8
CONSTR
100
AcDbPolyline
 90
        2
 70
     0
 43
0.0
 10
12.02321487542564
 20
3.945438055733655
 10
9.361346020955988
 20
0.3836740427553682
  0
LWPOLYLINE
  5
187
330
1E
100
AcDbEntity
  8
CONSTR
100
AcDbPolyline
 90
        2
 70
     0
 43
0.0
 10
12.06747419599653
 20
0.7350743099039248
 10
13.92082657875423
 20
2.079140231387789
  0
LWPOLYLINE
  5
188
330
1E
100
AcDbEntity
  8
CONSTR
100
AcDbPolyline
 90
        2
 70
     0
 43
0.0
 10
11.11244207705691
 20
1.656854737644606
 10
12.97397702603944
 20
3.010332950132554
  0
LWPOLYLINE
  5
189
330
1E
100
AcDbEntity
  8
CONSTR
100
AcDbPolyline
 90
        2
 70
     0
 43
0.0
 10
9.82303135826184
 20
-0.0780112945504836
 10
12.47316080879476
 20
3.48766370537954
  0
LWPOLYLINE
  5
18A
330
1E
100
AcDbEntity
  8
CONSTR
100
AcDbPolyline
 90
        2
 70
     0
 43
0.0
 10
12.97789123453195
 20
3.014247158625067
 10
10.30036540527923
 20
-0.5631739695955425
  0
LWPOLYLINE
  5
18B
330
1E
100
AcDbEntity
  8
CONSTR
100
AcDbPolyline
 90
        2
 70
     0
 43
0.0
 10
13.43174980073799
 20
2.552560175434001
 10
10.74639713015584
 20
-1.024862528442183
  0
ARC
  5
18C
330
1E
100
AcDbEntity
  8
CONSTR
100
AcDbCircle
 10
12.24631508294812
 20
3.713565997697806
 30
0.0
 40
0.3256099016146134
100
AcDbArc
 50
314.9495733215438
 51
135.0504266784561
  0
ARC
  5
18D
330
1E
100
AcDbEntity
  8
CONSTR
100
AcDbCircle
 10
13.20412452630102
 20
2.783421992067424
 30
0.0
 40
0.3256099016146134
100
AcDbArc
 50
311.5051155470028
 51
138.4948844529971
  0
LWPOLYLINE
  5
18E
330
1E
100
AcDbEntity
  8
CONSTR
100
AcDbPolyline
 90
        2
 70
     0
 43
0.0
 10
9.82303135826184
 20
-0.0780112945504836
 10
11.67344886739266
 20
1.271392007138975
  0
ARC
  5
18F
330
1E
100
AcDbEntity
  8
CONSTR
100
AcDbCircle
 10
9.594009534950728
 20
0.1562250748074447
 30
0.0
 40
0.3256099016146134
100
AcDbArc
 50
135.6813662363378
 51
314.3186337636621
  0
LWPOLYLINE
  5
190
330
1E
100
AcDbEntity
  8
CONSTR
100
AcDbPolyline
 90
        2
 70
     0
 43
0.0
 10
10.7620540696472
 20
-1.00920558895082
 10
12.60096107814833
 20
0.3278203192796472
  0
ARC
  5
191
330
1E
100
AcDbEntity
  8
CONSTR
100
AcDbCircle
 10
10.53256464995653
 20
-0.7823300401983638
 30
0.0
 40
0.3256099016146134
100
AcDbArc
 50
135.6813662363378
 51
314.3186337636621
  0
LWPOLYLINE
  5
192
330
1E
100
AcDbEntity
  8
CONSTR
100
AcDbPolyline
 90
        2
 70
     0
 43
0.0
 10
13.93192885035023
 20
2.103287608607212
 10
12.25350161020317
 20
-0.1392457800469238
  0
LWPOLYLINE
  5
193
330
1E
100
AcDbEntity
  8
CONSTR
100
AcDbPolyline
 90
        2
 70
     0
 43
0.0
 10
14.38578741655627
 20
1.641600625416145
 10
12.70847265144579
 20
-0.5929155288259463
  0
ARC
  5
194
330
1E
100
AcDbEntity
  8
CONSTR
100
AcDbCircle
 10
14.1581621421193
 20
1.872462442049565
 30
0.0
 40
0.3256099016146134
100
AcDbArc
 50
311.5051155470028
 51
138.4948844529971
  0
ARC
  5
195
330
1E
100
AcDbEntity
  8
CONSTR
100
AcDbCircle
 10
5.263567503492577
 20
6.849104574278108
 30
0.0
 40
0.3256099016146134
100
AcDbArc
 50
135.6813662363378
 51
314.3186337636621
  0
ARC
  5
196
330
1E
100
AcDbEntity
  8
CONSTR
100
AcDbCircle
 10
12.55064473784289
 20
-0.3280196038295955
 30
0.0
 40
0.3256099016146134
100
AcDbArc
 50
135.6813662363378
 51
314.3186337636621
  0
MTEXT
  5
1A2
330
1E
100
AcDbEntity
  8
CONSTR
100
AcDbMText
 10
-1.956311829834035
 20
-3.878154427282936
 30
0.0
 40
0.8
 41
13.3098
 71
     1
 72
     5
  1
n=8zav.\PD=8mm\Pl=10mm\Pd=1mm CuAg
 73
     1
 44
1.0
  0
MTEXT
  5
1C7
330
1E
100
AcDbEntity
  8
CONSTR
100
AcDbMText
 10
4.198780734032155
 20
3.339326362760147
 30
0.0
 40
0.6
 41
3.3612
 71
     1
 72
     5
  1
33pF
 11
0.0000000000000001
 21
1.0
 31
0.0
 73
     1
 44
1.0
  0
MTEXT
  5
1C8
330
1E
100
AcDbEntity
  8
CONSTR
100
AcDbMText
 10
22.24986667485835
 20
1.222483230412137
 30
0.0
 40
0.6
 41
3.4054
 71
     1
 72
     5
  1
1k
 11
0.0000000000000001
 21
1.0
 31
0.0
 73
     1
 44
1.0
  0
MTEXT
  5
1C9
330
1E
100
AcDbEntity
  8
CONSTR
100
AcDbMText
 10
41.39988469260186
 20
-12.39417672841017
 30
0.0
 40
0.6
 41
3.8919
 71
     1
 72
     5
  1
82
 73
     1
 44
1.0
  0
MTEXT
  5
1CA
330
1E
100
AcDbEntity
  8
CONSTR
100
AcDbMText
 10
39.5866035737616
 20
-15.97518156009575
 30
0.0
 40
0.5
 41
5.9263
 71
     1
 72
     5
  1
680pF
 11
0.0000000000000001
 21
1.0
 31
0.0
 73
     1
 44
1.0
  0
MTEXT
  5
1CB
330
1E
100
AcDbEntity
  8
CONSTR
100
AcDbMText
 10
44.05346687722802
 20
-15.93097154696946
 30
0.0
 40
0.6
 41
5.8379
 71
     1
 72
     5
  1
20nF
 11
0.0000000000000001
 21
1.0
 31
0.0
 73
     1
 44
1.0
  0
MTEXT
  5
1CC
330
1E
100
AcDbEntity
  8
CONSTR
100
AcDbMText
 10
28.79536943759049
 20
-1.253273125737379
 30
0.0
 40
0.6
 41
5.1303
 71
     1
 72
     5
  1
6.8pF
 73
     1
 44
1.0
  0
MTEXT
  5
1D8
330
1E
100
AcDbEntity
  8
CONSTR
100
AcDbMText
 10
24.37273240287284
 20
-2.358521496720186
 30
0.0
 40
0.5
 41
2.816399999999999
 71
     1
 72
     5
  1
BFP196
 11
0.0000000000000001
 21
1.0
 31
0.0
 73
     1
 44
1.0
  0
MTEXT
  5
1DE
330
1E
100
AcDbEntity
  8
CONSTR
100
AcDbMText
 10
27.02631434421923
 20
-0.2806544750723248
 30
0.0
 40
0.4
 41
2.770999999999999
 71
     1
 72
     5
  1
33k+\P10nF
 11
0.0000000000000001
 21
1.0
 31
0.0
 73
     1
 44
1.0
  0
MTEXT
  5
1E7
330
1E
100
AcDbEntity
  8
CONSTR
100
AcDbMText
 10
-12.53620528150366
 20
-2.513773743878218
 30
0.0
 40
1.6
 41
10.6296
 71
     1
 72
     5
  1
Ant
 73
     1
 44
1.0
  0
MTEXT
  5
1EE
330
1E
100
AcDbEntity
  8
CONSTR
100
AcDbMText
 10
10.01484683137117
 20
9.189352318073163
 30
0.0
 40
1.199999999999999
 41
3.8612
 71
     1
 72
     5
  1
L
 73
     1
 44
1.0
  0
MTEXT
  5
1EF
330
1E
100
AcDbEntity
  8
CONSTR
100
AcDbMText
 10
14.81715746719109
 20
6.097903022212747
 30
0.0
 40
1.199999999999999
 41
7.449799999999999
 71
     1
 72
     5
  1
C{\H0.5x;trimer}
 73
     1
 44
1.0
  0
MTEXT
  5
1F0
330
1E
100
AcDbEntity
  8
CONSTR
100
AcDbMText
 10
15.35055299483036
 20
-4.126918926343066
 30
0.0
 40
0.6
 41
5.1303
 71
     1
 72
     5
  1
2-10pF\P(4.3pf)
 73
     1
 44
1.0
  0
LWPOLYLINE
  5
1F1
330
1E
100
AcDbEntity
  8
METAL1
100
AcDbPolyline
 90
        4
 70
     1
 43
0.0
 10
-12.89511463513888
 20
19.29576133801198
 10
47.10488536486112
 20
19.29576133801198
 10
47.10488536486112
 20
-20.70423866198801
 10
-12.89511463513888
 20
-20.70423866198801
  0
MTEXT
  5
1F9
330
1E
100
AcDbEntity
  8
CONSTR
100
AcDbMText
 10
43.18198005671945
 20
2.603407589462648
 30
0.0
 40
1.6
 41
8.2675
 71
     1
 72
     5
  1
Rx
 73
     1
 44
1.0
  0
SOLID
  5
206
330
1E
100
AcDbEntity
  8
METAL1
100
AcDbTrace
 10
26.33799590511304
 20
0.6359134999056715
 30
0.0
 11
26.33799590511304
 21
-0.5640865000943283
 31
0.0
 12
25.13799590511304
 22
0.6359134999056715
 32
0.0
 13
25.13799590511304
 23
-0.5640865000943283
 33
0.0
  0
LWPOLYLINE
  5
207
330
1E
100
AcDbEntity
  8
GND
100
AcDbPolyline
 90
        2
 70
     0
 43
0.2
 10
25.73799590511304
 20
-0.3640865000943285
 42
1.0
 10
25.73799590511304
 20
0.4359134999056716
  0
LWPOLYLINE
  5
208
330
1E
100
AcDbEntity
  8
GND
100
AcDbPolyline
 90
        2
 70
     0
 43
0.2
 10
25.73799590511304
 20
0.4359134999056716
 42
1.0
 10
25.73799590511304
 20
-0.3640865000943285
  0
MTEXT
  5
297
330
1E
100
AcDbEntity
  8
METAL1
370
    30
100
AcDbMText
 10
21.18560252701762
 20
15.769614066559
 30
0.0
 40
1.8
 41
57.7028
 71
     5
 72
     5
  1
BFP196 HI-DYNAMIC 144 MHz LNA YU1AW
 73
     1
 44
1.0
  0
CIRCLE
  5
29A
330
1E
100
AcDbEntity
  8
CONSTR
370
    30
100
AcDbCircle
 10
16.85604593658354
 20
-0.0668143783277628
 30
0.0
 40
3.12552617030451
  0
SOLID
  5
2AC
330
1E
100
AcDbEntity
  8
METAL1
100
AcDbTrace
 10
45.14527939128299
 20
-6.588268678117959
 30
0.0
 11
45.14527939128299
 21
-8.188268678117957
 31
0.0
 12
43.545279391283
 22
-6.588268678117959
 32
0.0
 13
43.545279391283
 23
-8.188268678117957
 33
0.0
  0
SOLID
  5
2B5
330
1E
100
AcDbEntity
  8
METAL1
100
AcDbTrace
 10
45.09449165940071
 20
-9.329790902770145
 30
0.0
 11
45.09449165940071
 21
-10.92979090277014
 31
0.0
 12
43.49449165940072
 22
-9.329790902770145
 32
0.0
 13
43.49449165940072
 23
-10.92979090277014
 33
0.0
  0
LWPOLYLINE
  5
2B6
330
1E
100
AcDbEntity
  8
GND
100
AcDbPolyline
 90
        2
 70
     0
 43
0.2
 10
44.29449165940072
 20
-10.52979090277014
 42
1.0
 10
44.29449165940072
 20
-9.729790902770144
  0
LWPOLYLINE
  5
2B7
330
1E
100
AcDbEntity
  8
GND
100
AcDbPolyline
 90
        2
 70
     0
 43
0.2
 10
44.29449165940072
 20
-9.729790902770144
 42
1.0
 10
44.29449165940072
 20
-10.52979090277014
  0
INSERT
  5
2D6
330
1E
100
AcDbEntity
  8
CONSTR
100
AcDbBlockReference
  2
elkon
 10
37.62941698154524
 20
-18.82721118640856
 30
0.0
  0
INSERT
  5
2D7
330
1E
100
AcDbEntity
  8
CONSTR
100
AcDbBlockReference
  2
elkon
 10
49.6202202832995
 20
-1.331128078967029
 30
0.0
 50
180.0
  0
INSERT
  5
2D8
330
1E
100
AcDbEntity
  8
CONSTR
100
AcDbBlockReference
  2
rfc
 10
73.92875523030753
 20
22.27449376488519
 30
0.0
 41
5.747672421525731
 42
5.747672421525731
 43
5.747672421525731
 50
180.0
  0
LWPOLYLINE
  5
2D9
330
1E
100
AcDbEntity
  8
CONSTR
100
AcDbPolyline
 90
        2
 70
     0
 43
0.0
 10
44.37024024791286
 20
-3.530426826050863
 10
44.37024024791286
 20
-2.273641114399161
  0
LWPOLYLINE
  5
2DA
330
1E
100
AcDbEntity
  8
CONSTR
100
AcDbPolyline
 90
        2
 70
     0
 43
0.0
 10
44.37024024791286
 20
-6.016676800990921
 10
44.37024024791286
 20
-7.082212500038821
  0
LWPOLYLINE
  5
2DB
330
1E
100
AcDbEntity
  8
CONSTR
100
AcDbPolyline
 90
        2
 70
     0
 43
0.0
 10
45.1511019638997
 20
-8.098274296866536
 10
45.26686256478234
 20
-8.716333213660329
  0
LWPOLYLINE
  5
2DC
330
1E
100
AcDbEntity
  8
CONSTR
100
AcDbPolyline
 90
        2
 70
     0
 43
0.0
 10
45.04774119865713
 20
-12.12295650437646
 10
45.24103040027625
 20
-11.46620234734424
  0
LWPOLYLINE
  5
2DD
330
1E
100
AcDbEntity
  8
CONSTR
100
AcDbPolyline
 90
        2
 70
     0
 43
0.0
 10
45.34162180671518
 20
-10.18143338311511
 10
44.87806744706739
 20
-10.14290070279298
  0
MTEXT
  5
2DE
330
1E
100
AcDbEntity
  8
CONSTR
100
AcDbMText
 10
41.43757393871957
 20
-7.623741114458304
 30
0.0
 40
0.6
 41
1.6775
 71
     1
 72
     5
  1
1uF
 73
     1
 44
1.0
  0
MTEXT
  5
2DF
330
1E
100
AcDbEntity
  8
CONSTR
100
AcDbMText
 10
42.95939463865091
 20
-5.998766869165848
 30
0.0
 40
0.6
 41
2.423099999999999
 71
     1
 72
     5
  1
10uH
 11
0.0000000000000001
 21
1.0
 31
0.0
 73
     1
 44
1.0
  0
MTEXT
  5
2E0
330
1E
100
AcDbEntity
  8
CONSTR
100
AcDbMText
 10
41.76787964535917
 20
-10.13495564797711
 30
0.0
 40
0.6
 41
1.6775
 71
     1
 72
     5
  1
1uF
 73
     1
 44
1.0
  0
MTEXT
  5
2E1
330
1E
100
AcDbEntity
  8
CONSTR
100
AcDbMText
 10
46.78859736868107
 20
-11.72738054655817
 30
0.0
 40
0.5999999999999999
 41
3.075399999999999
 71
     1
 72
     5
  1
78L10
 11
-0.0031168054897748
 21
0.999995142749973
 31
0.0
 73
     1
 44
1.0
  0
INSERT
  5
2E2
330
1E
100
AcDbEntity
  8
CONSTR
100
AcDbBlockReference
  2
tri
 10
45.58557400669704
 20
-21.18721788732066
 30
0.0
 50
45.0
  0
LWPOLYLINE
  5
2E9
330
1E
100
AcDbEntity
  8
CONSTR
100
AcDbPolyline
 90
        2
 70
     0
 43
0.0
 10
45.25717625937134
 20
-11.48515947733044
 10
45.45046546099047
 20
-10.82840532029822
  0
LWPOLYLINE
  5
2F0
330
1E
100
AcDbEntity
  8
CONSTR
100
AcDbPolyline
 90
        2
 70
     0
 43
0.0
 10
45.28391050050706
 20
-8.746613478084244
 10
45.39967110138972
 20
-9.364672394878036
  0
MTEXT
  5
2FD
330
1E
100
AcDbEntity
  8
CONSTR
100
AcDbMText
 10
36.26772302742478
 20
-10.60455689452396
 30
0.0
 40
0.6
 41
6.372399999999999
 71
     1
 72
     5
  1
0.3-0.4mm\PCul
 73
     1
 44
1.0
  0
LWPOLYLINE
  5
350
330
1E
100
AcDbEntity
  8
CONSTR
100
AcDbPolyline
 90
        2
 70
     0
 43
0.0
 10
-11.73113203610169
 20
1.60977659977869
 10
-8.169368023123414
 20
-1.052092254690968
  0
LWPOLYLINE
  5
351
330
1E
100
AcDbEntity
  8
CONSTR
100
AcDbPolyline
 90
        2
 70
     0
 43
0.0
 10
-8.520768290271965
 20
1.654035920349574
 10
-9.864834211755832
 20
3.50738830310728
  0
LWPOLYLINE
  5
352
330
1E
100
AcDbEntity
  8
CONSTR
100
AcDbPolyline
 90
        2
 70
     0
 43
0.0
 10
-9.442548718012652
 20
0.6990038014099583
 10
-10.79602693050059
 20
2.560538750392485
  0
LWPOLYLINE
  5
353
330
1E
100
AcDbEntity
  8
CONSTR
100
AcDbPolyline
 90
        2
 70
     0
 43
0.0
 10
-7.707682685817561
 20
-0.5904069173851206
 10
-11.27335768574758
 20
2.059722533147802
  0
LWPOLYLINE
  5
354
330
1E
100
AcDbEntity
  8
CONSTR
100
AcDbPolyline
 90
        2
 70
     0
 43
0.0
 10
-10.7999411389931
 20
2.564452958884999
 10
-7.222520010772502
 20
-0.1130728703677271
  0
LWPOLYLINE
  5
355
330
1E
100
AcDbEntity
  8
CONSTR
100
AcDbPolyline
 90
        2
 70
     0
 43
0.0
 10
-10.33825415580204
 20
3.018311525091036
 10
-6.760831451925861
 20
0.3329588545088811
  0
LWPOLYLINE
  5
356
330
1E
100
AcDbEntity
  8
CONSTR
100
AcDbPolyline
 90
        2
 70
     0
 43
0.0
 10
-11.78985045300062
 20
1.691970532780672
 10
-10.16702716991698
 20
-0.5672152923887026
  0
ARC
  5
357
330
1E
100
AcDbEntity
  8
CONSTR
100
AcDbCircle
 10
-11.49925997806584
 20
1.832876807301175
 30
0.0
 40
0.3256099016146134
100
AcDbArc
 50
44.94957332154391
 51
225.0504266784561
  0
ARC
  5
358
330
1E
100
AcDbEntity
  8
CONSTR
100
AcDbCircle
 10
-10.56911597243546
 20
2.790686250654065
 30
0.0
 40
0.3256099016146134
100
AcDbArc
 50
41.50511554700281
 51
228.4948844529971
  0
ARC
  5
359
330
1E
100
AcDbEntity
  8
CONSTR
100
AcDbCircle
 10
-9.622153179886002
 20
3.726750550246183
 30
0.0
 40
0.3256099016146134
100
AcDbArc
 50
42.86283923572905
 51
47.66274180648848
  0
LWPOLYLINE
  5
35A
330
1E
100
AcDbEntity
  8
CONSTR
100
AcDbPolyline
 90
        4
 70
     1
 43
0.0
 10
-8.631135493052845
 20
5.147154568989709
 10
-8.631135493052845
 20
5.147154568989709
 10
-8.631135493052845
 20
5.147154568989709
 10
-8.631135493052845
 20
5.147154568989709
  0
LWPOLYLINE
  5
35B
330
1E
100
AcDbEntity
  8
CONSTR
100
AcDbPolyline
 90
        2
 70
     0
 43
0.0
 10
-7.707682685817561
 20
-0.5904069173851206
 10
-9.057085987507017
 20
1.260010591745711
  0
LINE
  5
35C
330
1E
100
AcDbEntity
  8
CONSTR
100
AcDbLine
 10
-9.709877363170814
 20
-0.108754211086854
 30
0.0
 11
-10.03248119146097
 21
0.3402972739468737
 31
0.0
  0
ARC
  5
35D
330
1E
100
AcDbEntity
  8
CONSTR
100
AcDbCircle
 10
-7.941919055175487
 20
-0.8194287406962246
 30
0.0
 40
0.3256099016146134
100
AcDbArc
 50
225.6813662363378
 51
44.31863376366203
  0
LWPOLYLINE
  5
35E
330
1E
100
AcDbEntity
  8
CONSTR
100
AcDbPolyline
 90
        2
 70
     0
 43
0.0
 10
-6.776488391417224
 20
0.3486157940002421
 10
-8.113514299647686
 20
2.18752280250138
  0
ARC
  5
35F
330
1E
100
AcDbEntity
  8
CONSTR
100
AcDbCircle
 10
-7.003363940169681
 20
0.1191263743095838
 30
0.0
 40
0.3256099016146134
100
AcDbArc
 50
225.6813662363378
 51
44.31863376366203
  0
LWPOLYLINE
  5
360
330
1E
100
AcDbEntity
  8
CONSTR
100
AcDbPolyline
 90
        2
 70
     0
 43
0.0
 10
-9.867228241711167
 20
3.534506388068702
 10
-6.305464228732885
 20
0.8726375335990397
  0
LWPOLYLINE
  5
361
330
1E
100
AcDbEntity
  8
CONSTR
100
AcDbPolyline
 90
        2
 70
     0
 43
0.0
 10
-6.656864495881439
 20
3.57876570863959
 10
-8.000930417365307
 20
5.432118091397292
  0
LWPOLYLINE
  5
362
330
1E
100
AcDbEntity
  8
CONSTR
100
AcDbPolyline
 90
        2
 70
     0
 43
0.0
 10
-7.578644923622123
 20
2.62373358969997
 10
-8.932123136110067
 20
4.485268538682497
  0
LWPOLYLINE
  5
363
330
1E
100
AcDbEntity
  8
CONSTR
100
AcDbPolyline
 90
        2
 70
     0
 43
0.0
 10
-5.843778891427033
 20
1.334322870904891
 10
-9.409453891357053
 20
3.984452321437814
  0
LWPOLYLINE
  5
364
330
1E
100
AcDbEntity
  8
CONSTR
100
AcDbPolyline
 90
        2
 70
     0
 43
0.0
 10
-8.936037344602581
 20
4.489182747175007
 10
-5.358616216381971
 20
1.811656917922285
  0
LWPOLYLINE
  5
365
330
1E
100
AcDbEntity
  8
CONSTR
100
AcDbPolyline
 90
        2
 70
     0
 43
0.0
 10
-8.474350361411516
 20
4.943041313381048
 10
-4.896927657535334
 20
2.257688642798896
  0
ARC
  5
366
330
1E
100
AcDbEntity
  8
CONSTR
100
AcDbCircle
 10
-9.63535618367532
 20
3.757606595591184
 30
0.0
 40
0.3256099016146134
100
AcDbArc
 50
44.94957332154391
 51
225.0504266784561
  0
ARC
  5
367
330
1E
100
AcDbEntity
  8
CONSTR
100
AcDbCircle
 10
-8.705212178044938
 20
4.715416038944077
 30
0.0
 40
0.3256099016146134
100
AcDbArc
 50
41.50511554700281
 51
228.4948844529971
  0
LWPOLYLINE
  5
368
330
1E
100
AcDbEntity
  8
CONSTR
100
AcDbPolyline
 90
        2
 70
     0
 43
0.0
 10
-5.843778891427033
 20
1.334322870904891
 10
-7.193182193116488
 20
3.184740380035723
  0
ARC
  5
369
330
1E
100
AcDbEntity
  8
CONSTR
100
AcDbCircle
 10
-6.078015260784958
 20
1.10530104759379
 30
0.0
 40
0.3256099016146134
100
AcDbArc
 50
225.6813662363378
 51
44.31863376366203
  0
LWPOLYLINE
  5
36A
330
1E
100
AcDbEntity
  8
CONSTR
100
AcDbPolyline
 90
        2
 70
     0
 43
0.0
 10
-4.912584597026693
 20
2.273345582290254
 10
-6.249610505257159
 20
4.112252590791392
  0
ARC
  5
36B
330
1E
100
AcDbEntity
  8
CONSTR
100
AcDbCircle
 10
-5.139460145779153
 20
2.043856162599595
 30
0.0
 40
0.3256099016146134
100
AcDbArc
 50
225.6813662363378
 51
44.31863376366203
  0
LWPOLYLINE
  5
36C
330
1E
100
AcDbEntity
  8
CONSTR
100
AcDbPolyline
 90
        2
 70
     0
 43
0.0
 10
-5.71613479567279
 20
4.531764805399323
 10
-7.060200717156657
 20
6.385117188157025
  0
LWPOLYLINE
  5
36D
330
1E
100
AcDbEntity
  8
CONSTR
100
AcDbPolyline
 90
        2
 70
     0
 43
0.0
 10
-7.995307644393934
 20
5.442181843934744
 10
-4.417886516173325
 20
2.764656014682021
  0
LWPOLYLINE
  5
36E
330
1E
100
AcDbEntity
  8
CONSTR
100
AcDbPolyline
 90
        2
 70
     0
 43
0.0
 10
-7.533620661202867
 20
5.896040410140781
 10
-3.956197957326686
 20
3.210687739558629
  0
ARC
  5
36F
330
1E
100
AcDbEntity
  8
CONSTR
100
AcDbCircle
 10
-7.764482477836288
 20
5.668415135703813
 30
0.0
 40
0.3256099016146134
100
AcDbArc
 50
41.50511554700281
 51
228.4948844529971
  0
ARC
  5
370
330
1E
100
AcDbEntity
  8
CONSTR
100
AcDbCircle
 10
-6.817519685286825
 20
6.604479435295928
 30
0.0
 40
0.3256099016146134
100
AcDbArc
 50
42.86283923572905
 51
47.66274180648848
  0
LWPOLYLINE
  5
371
330
1E
100
AcDbEntity
  8
CONSTR
100
AcDbPolyline
 90
        4
 70
     1
 43
0.0
 10
-5.82650199845367
 20
8.024883454039454
 10
-5.82650199845367
 20
8.024883454039454
 10
-5.82650199845367
 20
8.024883454039454
 10
-5.82650199845367
 20
8.024883454039454
  0
LWPOLYLINE
  5
372
330
1E
100
AcDbEntity
  8
CONSTR
100
AcDbPolyline
 90
        2
 70
     0
 43
0.0
 10
-3.971854896818047
 20
3.226344679049994
 10
-5.308880805048509
 20
5.065251687551128
  0
ARC
  5
373
330
1E
100
AcDbEntity
  8
CONSTR
100
AcDbCircle
 10
-4.198730445570504
 20
2.996855259359328
 30
0.0
 40
0.3256099016146134
100
AcDbArc
 50
225.6813662363378
 51
44.31863376366203
  0
LWPOLYLINE
  5
374
330
1E
100
AcDbEntity
  8
CONSTR
100
AcDbPolyline
 90
        2
 70
     0
 43
0.0
 10
-7.062594747111996
 20
6.412235273118453
 10
-3.500830734133709
 20
3.750366418648791
  0
LWPOLYLINE
  5
375
330
1E
100
AcDbEntity
  8
CONSTR
100
AcDbPolyline
 90
        2
 70
     0
 43
0.0
 10
-3.852231001282266
 20
6.456494593689338
 10
-5.19629692276613
 20
8.309846976447037
  0
LWPOLYLINE
  5
376
330
1E
100
AcDbEntity
  8
CONSTR
100
AcDbPolyline
 90
        2
 70
     0
 43
0.0
 10
-4.774011429022948
 20
5.501462474749715
 10
-6.127489641510894
 20
7.362997423732242
  0
LWPOLYLINE
  5
377
330
1E
100
AcDbEntity
  8
CONSTR
100
AcDbPolyline
 90
        2
 70
     0
 43
0.0
 10
-3.039145396827857
 20
4.212051755954643
 10
-6.60482039675788
 20
6.862181206487562
  0
LWPOLYLINE
  5
378
330
1E
100
AcDbEntity
  8
CONSTR
100
AcDbPolyline
 90
        2
 70
     0
 43
0.0
 10
-6.131403850003408
 20
7.366911632224756
 10
-2.553982721782798
 20
4.689385802972036
  0
LWPOLYLINE
  5
379
330
1E
100
AcDbEntity
  8
CONSTR
100
AcDbPolyline
 90
        2
 70
     0
 43
0.0
 10
-5.669716866812342
 20
7.820770198430796
 10
-2.092294162936157
 20
5.135417527848641
  0
ARC
  5
37A
330
1E
100
AcDbEntity
  8
CONSTR
100
AcDbCircle
 10
-6.830722689076146
 20
6.635335480640932
 30
0.0
 40
0.3256099016146134
100
AcDbArc
 50
44.94957332154391
 51
225.0504266784561
  0
ARC
  5
37B
330
1E
100
AcDbEntity
  8
CONSTR
100
AcDbCircle
 10
-5.900578683445765
 20
7.593144923993826
 30
0.0
 40
0.3256099016146134
100
AcDbArc
 50
41.50511554700281
 51
228.4948844529971
  0
LWPOLYLINE
  5
37C
330
1E
100
AcDbEntity
  8
CONSTR
100
AcDbPolyline
 90
        2
 70
     0
 43
0.0
 10
-3.039145396827857
 20
4.212051755954643
 10
-4.388548698517315
 20
6.062469265085471
  0
ARC
  5
37D
330
1E
100
AcDbEntity
  8
CONSTR
100
AcDbCircle
 10
-3.273381766185785
 20
3.983029932643532
 30
0.0
 40
0.3256099016146134
100
AcDbArc
 50
225.6813662363378
 51
44.31863376366203
  0
LWPOLYLINE
  5
37E
330
1E
100
AcDbEntity
  8
CONSTR
100
AcDbPolyline
 90
        2
 70
     0
 43
0.0
 10
-2.10795110242752
 20
5.151074467340006
 10
-3.444977010657988
 20
6.98998147584114
  0
ARC
  5
37F
330
1E
100
AcDbEntity
  8
CONSTR
100
AcDbCircle
 10
-2.334826651179977
 20
4.921585047649337
 30
0.0
 40
0.3256099016146134
100
AcDbArc
 50
225.6813662363378
 51
44.31863376366203
  0
LWPOLYLINE
  5
380
330
1E
100
AcDbEntity
  8
CONSTR
100
AcDbPolyline
 90
        2
 70
     0
 43
0.0
 10
-5.220444299985553
 20
8.320949248043035
 10
-2.977910911331417
 20
6.64252200789598
  0
LWPOLYLINE
  5
381
330
1E
100
AcDbEntity
  8
CONSTR
100
AcDbPolyline
 90
        2
 70
     0
 43
0.0
 10
-4.758757316794486
 20
8.774807814249076
 10
-2.524241162552394
 20
7.097493049138599
  0
ARC
  5
382
330
1E
100
AcDbEntity
  8
CONSTR
100
AcDbCircle
 10
-4.989619133427904
 20
8.547182539812105
 30
0.0
 40
0.3256099016146134
100
AcDbArc
 50
41.50511554700281
 51
228.4948844529971
  0
ARC
  5
383
330
1E
100
AcDbEntity
  8
CONSTR
100
AcDbCircle
 10
-9.966261265656449
 20
-0.347412098814619
 30
0.0
 40
0.3256099016146134
100
AcDbArc
 50
225.6813662363378
 51
44.31863376366203
  0
ARC
  5
384
330
1E
100
AcDbEntity
  8
CONSTR
100
AcDbCircle
 10
-2.789137087548745
 20
6.939665135535694
 30
0.0
 40
0.3256099016146134
100
AcDbArc
 50
225.6813662363378
 51
44.31863376366203
  0
MTEXT
  5
385
330
1E
100
AcDbEntity
  8
CONSTR
100
AcDbMText
 10
-9.728751352659374
 20
7.98706956611366
 30
0.0
 40
1.199999999999999
 41
3.8612
 71
     1
 72
     5
  1
L
 73
     1
 44
1.0
  0
TEXT
  5
39C
330
1E
100
AcDbEntity
  8
CONSTR
100
AcDbText
 10
-2.240100244057009
 20
6.24356431533722
 30
0.0
 40
0.3
  1
C
100
AcDbText
  0
SOLID
  5
39D
330
1E
100
AcDbEntity
  8
METAL1
100
AcDbTrace
 10
-2.090100244057008
 20
5.843564315337221
 30
0.0
 11
-4.290100244057009
 21
5.843564315337221
 31
0.0
 12
-2.090100244057008
 22
8.24356431533722
 32
0.0
 13
-4.290100244057009
 23
8.24356431533722
 33
0.0
  0
SOLID
  5
39E
330
1E
100
AcDbEntity
  8
METAL1
100
AcDbTrace
 10
6.01504342996953
 20
5.881957331618
 30
0.0
 11
3.815043429969527
 21
5.881957331618
 31
0.0
 12
6.01504342996953
 22
8.281957331617999
 32
0.0
 13
3.815043429969527
 23
8.281957331617999
 33
0.0
  0
CIRCLE
  5
39F
330
1E
100
AcDbEntity
  8
CONSTR
370
    30
100
AcDbCircle
 10
0.8201771717137518
 20
6.973180629425229
 30
0.0
 40
1.136483575809477
  0
LWPOLYLINE
  5
3A0
330
1E
100
AcDbEntity
  8
CONSTR
370
    30
100
AcDbPolyline
 90
        2
 70
     0
 43
0.0
 10
-0.2699759714787007
 20
6.882368352647802
 10
1.864907176928753
 20
6.882368352647802
  0
LWPOLYLINE
  5
3A1
330
1E
100
AcDbEntity
  8
CONSTR
370
    30
100
AcDbPolyline
 90
        2
 70
     0
 43
0.0
 10
-0.1791298230688625
 20
7.063992994266982
 10
1.955753325338591
 20
7.063992994266982
  0
MTEXT
  5
3A2
330
1E
100
AcDbEntity
  8
CONSTR
100
AcDbMText
 10
-1.765793586388241
 20
13.17986035383074
 30
0.0
 40
1.199999999999999
 41
7.449799999999999
 71
     1
 72
     5
  1
C{\H0.5x;trimer}
 73
     1
 44
1.0
  0
MTEXT
  5
3A3
330
1E
100
AcDbEntity
  8
CONSTR
100
AcDbMText
 10
-0.7344035752001048
 20
2.955038405274933
 30
0.0
 40
0.6
 41
5.1303
 71
     1
 72
     5
  1
2-10pF\P(4.3pf)
 73
     1
 44
1.0
  0
CIRCLE
  5
3A4
330
1E
100
AcDbEntity
  8
CONSTR
370
    30
100
AcDbCircle
 10
0.7710893665530705
 20
7.015142953290236
 30
0.0
 40
3.12552617030451
  0
SOLID
  5
3AB
330
1E
100
AcDbEntity
  8
METAL1
100
AcDbTrace
 10
-9.105736329712492
 20
-1.61037334317174
 30
0.0
 11
-12.44614939450485
 21
-1.63370261149366
 31
0.0
 12
-9.105736329712492
 22
0.7896266568282578
 32
0.0
 13
-12.44614939450485
 23
0.7922567790031252
 33
0.0
  0
MTEXT
  5
3B4
330
1E
100
AcDbEntity
  8
CONSTR
100
AcDbMText
 10
-2.120504009462324
 20
-1.737770946110968
 30
0.0
 40
1.199999999999999
 41
3.8612
 71
     1
 72
     5
  1
L
 73
     1
 44
1.0
  0
DIMENSION
  5
3CD
330
1E
100
AcDbEntity
  8
Defpoints
100
AcDbDimension
  2
*D7
 10
47.09211085075961
 20
21.1848376200633
 30
0.0
 11
17.11749460726705
 21
21.1848376200633
 31
0.0
 70
    32
 71
     5
 42
59.94923248698511
  3
Standard
100
AcDbAlignedDimension
 13
-12.8571216362255
 23
20.25580350383455
 33
0.0
 14
47.09211085075961
 24
20.25580350383455
 34
0.0
100
AcDbRotatedDimension
1001
ACAD
1000
DSTYLE
1002
{
1070
   271
1070
     0
1002
}
  0
DIMENSION
  5
3EF
330
1E
100
AcDbEntity
  8
Defpoints
100
AcDbDimension
  2
*D8
 10
49.9656461658505
 20
-20.67847238245782
 30
0.0
 11
49.9656461658505
 21
-0.7042385550324748
 31
0.0
 70
    32
 71
     5
 42
39.94846765485069
  3
Standard
100
AcDbAlignedDimension
 13
48.31329877039351
 23
19.26999527239286
 33
0.0
 14
48.31329877039351
 24
-20.67847238245782
 34
0.0
 50
90.0
100
AcDbRotatedDimension
1001
ACAD
1000
DSTYLE
1002
{
1070
   271
1070
     0
1002
}
  0
VIEWPORT
  5
3C4
330
1A
100
AcDbEntity
 67
     1
  8
0
100
AcDbViewport
 10
5.249999639556163
 20
3.999999883606677
 30
0.0
 40
13.74314832942846
 41
8.992999745766947
 68
     1
 69
     1
 12
5.249999639556163
 22
3.999999883606677
 13
0.0
 23
0.0
 14
10.0
 24
10.0
 15
10.0
 25
10.0
 16
0.0
 26
0.0
 36
1.0
 17
0.0
 27
0.0
 37
0.0
 42
50.0
 43
0.0
 44
0.0
 45
8.992999745766947
 50
0.0
 51
0.0
 72
   100
 90
    32800
  1

281
     0
 71
     1
 74
     0
110
0.0
120
0.0
130
0.0
111
1.0
121
0.0
131
0.0
112
0.0
122
1.0
132
0.0
 79
     0
146
0.0
  0
VIEWPORT
  5
3C6
330
1A
100
AcDbEntity
 67
     1
  8
CONSTR
100
AcDbViewport
 10
5.24999976158142
 20
3.99999976158142
 30
0.0
 40
8.399999618530271
 41
6.399999618530272
 68
     2
 69
     2
 12
17.24658406932159
 22
-0.7042386619880148
 13
0.0
 23
0.0
 14
1.0
 24
1.0
 15
0.0
 25
0.0
 16
0.0
 26
0.0
 36
1.0
 17
0.0
 27
0.0
 37
0.0
 42
50.0
 43
0.0
 44
0.0
 45
46.30927325462263
 50
0.0
 51
0.0
 72
   100
 90
    32832
  1

281
     0
 71
     1
 74
     0
110
0.0
120
0.0
130
0.0
111
1.0
121
0.0
131
0.0
112
0.0
122
1.0
132
0.0
 79
     0
146
0.0
  0
ENDSEC
  0
SECTION
  2
OBJECTS
  0
DICTIONARY
  5
C
330
0
100
AcDbDictionary
281
     1
  3
ACAD_GROUP
350
D
  3
ACAD_LAYOUT
350
19
  3
ACAD_MLINESTYLE
350
16
  3
ACAD_PLOTSETTINGS
350
18
  3
ACAD_PLOTSTYLENAME
350
E
  3
AcDbVariableDictionary
350
11C
  0
DICTIONARY
  5
11E
330
1E
100
AcDbDictionary
280
     1
281
     1
  3
ACAD_SORTENTS
360
11F
  0
DICTIONARY
  5
D
102
{ACAD_REACTORS
330
C
102
}
330
C
100
AcDbDictionary
281
     1
  0
DICTIONARY
  5
19
102
{ACAD_REACTORS
330
C
102
}
330
C
100
AcDbDictionary
281
     1
  3
Layout1
350
1D
  3
Model
350
21
  0
DICTIONARY
  5
16
102
{ACAD_REACTORS
330
C
102
}
330
C
100
AcDbDictionary
281
     1
  3
Standard
350
17
  0
DICTIONARY
  5
18
102
{ACAD_REACTORS
330
C
102
}
330
C
100
AcDbDictionary
281
     1
  0
ACDBDICTIONARYWDFLT
  5
E
102
{ACAD_REACTORS
330
C
102
}
330
C
100
AcDbDictionary
281
     1
  3
Normal
350
F
100
AcDbDictionaryWithDefault
340
F
  0
DICTIONARY
  5
11C
102
{ACAD_REACTORS
330
C
102
}
330
C
100
AcDbDictionary
281
     1
  3
DIMASSOC
350
3BD
  3
SORTENTS
350
11D
  0
SORTENTSTABLE
  5
11F
102
{ACAD_REACTORS
330
11E
102
}
330
11E
100
AcDbSortentsTable
330
1E
331
25
  5
4D
331
9C
  5
206
331
A4
  5
D3
331
4D
  5
CB
331
AC
  5
DD
331
65
  5
67
331
D3
  5
E3
331
365
  5
368
331
1D8
  5
1CC
331
2DE
  5
2D8
331
3B4
  5
3B4
331
36D
  5
370
331
E3
  5
E5
331
297
  5
C1
331
375
  5
378
331
37D
  5
380
331
95
  5
7A
331
B4
  5
9F
331
385
  5
39E
331
1F0
  5
1F1
331
BC
  5
A7
331
2B7
  5
20A
331
39D
  5
C4
331
10B
  5
2E1
331
C4
  5
E2
331
356
  5
359
331
1C9
  5
1C8
331
CC
  5
2DF
331
113
  5
EC
331
35E
  5
361
331
2D7
  5
297
331
26
  5
52
331
9D
  5
108
331
A5
  5
D4
331
AD
  5
E1
331
66
  5
77
331
D4
  5
2FD
331
208
  5
CA
331
366
  5
369
331
2DF
  5
2D9
331
36E
  5
371
331
E4
  5
351
331
376
  5
379
331
EC
  5
E7
331
37E
  5
381
331
7E
  5
CF
331
96
  5
7B
331
B5
  5
A0
331
1F1
  5
C0
331
104
  5
C8
331
BD
  5
A8
331
39E
  5
C5
331
10C
  5
2E2
331
C5
  5
AF
331
357
  5
35A
331
1CA
  5
1C9
331
CD
  5
100
331
35F
  5
362
331
9E
  5
82
331
A6
  5
D5
331
AE
  5
3D
331
67
  5
78
331
D5
  5
350
331
2D8
  5
29A
331
367
  5
36A
331
DD
  5
FF
331
2E0
  5
2DA
331
36F
  5
372
331
E5
  5
352
331
377
  5
37A
331
37F
  5
382
331
77
  5
10D
331
97
  5
7C
331
B6
  5
A1
331
2F0
  5
2DE
331
BE
  5
A9
331
350
  5
353
331
10D
  5
2E9
331
C6
  5
B0
331
39F
  5
3A0
331
358
  5
35B
331
1CB
  5
1CA
331
CE
  5
B4
331
9F
  5
93
331
A7
  5
D6
331
AF
  5
9A
331
360
  5
363
331
D6
  5
10B
331
2D9
  5
2AC
331
368
  5
36B
331
2E1
  5
2DB
331
370
  5
373
331
E6
  5
10C
331
29A
  5
207
331
2E9
  5
2DD
331
378
  5
37B
331
78
  5
CD
331
80
  5
D0
331
380
  5
383
331
B7
  5
A2
331
BF
  5
AA
331
351
  5
354
331
10E
  5
BF
331
C7
  5
B1
331
3A0
  5
3A1
331
359
  5
35C
331
1CC
  5
1CB
331
CF
  5
B5
331
98
  5
7E
331
A0
  5
94
331
A8
  5
98
331
361
  5
364
331
D7
  5
B9
331
2DA
  5
2B5
331
369
  5
36C
331
2E2
  5
2DC
331
371
  5
374
331
E7
  5
BC
331
379
  5
37C
331
79
  5
10E
331
B0
  5
9B
331
381
  5
384
331
B8
  5
A3
331
FF
  5
23
331
C0
  5
AB
331
352
  5
355
331
10F
  5
E8
331
C8
  5
B2
331
3A1
  5
3A2
331
35A
  5
35D
331
99
  5
80
331
A1
  5
95
331
52
  5
CC
331
A9
  5
99
331
D0
  5
B6
331
2DB
  5
2B7
331
362
  5
365
331
36A
  5
36D
331
15F
  5
15E
331
372
  5
375
331
E8
  5
E6
331
2AC
  5
C2
331
37A
  5
37D
331
7A
  5
10F
331
82
  5
D1
331
B1
  5
9C
331
382
  5
385
331
100
  5
C7
331
B9
  5
A4
331
108
  5
BD
331
C1
  5
AC
331
3A2
  5
3A3
331
C9
  5
B3
331
353
  5
356
331
35B
  5
35E
331
9A
  5
104
331
A2
  5
96
331
53
  5
64
331
AA
  5
D7
331
D1
  5
B7
331
363
  5
366
331
D9
  5
E4
331
2DC
  5
2D6
331
36B
  5
36E
331
1DE
  5
1D8
331
E1
  5
BA
331
160
  5
15F
331
373
  5
376
331
37B
  5
37E
331
7B
  5
113
331
93
  5
24
331
B2
  5
9D
331
383
  5
39C
331
1EE
  5
1EF
331
BA
  5
A5
331
2B5
  5
C3
331
109
  5
BE
331
C2
  5
AD
331
354
  5
357
331
1C7
  5
1C2
331
CA
  5
109
331
3A3
  5
3A4
331
35C
  5
35F
331
206
  5
25
331
3AB
  5
C6
331
24
  5
3E
331
9B
  5
D2
331
A3
  5
97
331
54
  5
65
331
AB
  5
D9
331
64
  5
66
331
D2
  5
B8
331
364
  5
367
331
2DD
  5
2D7
331
36C
  5
36F
331
E2
  5
BB
331
374
  5
377
331
1E7
  5
1EE
331
37C
  5
37F
331
7C
  5
CE
331
94
  5
79
331
B3
  5
9E
331
384
  5
39D
331
1EF
  5
1F0
331
BB
  5
A6
331
2B6
  5
208
331
39C
  5
39F
331
10A
  5
2F0
331
C3
  5
AE
331
2FD
  5
2E0
331
355
  5
358
331
1C8
  5
1C7
331
CB
  5
10A
331
3A4
  5
3AB
331
35D
  5
360
331
207
  5
C9
331
2D6
  5
24B
  0
LAYOUT
  5
1D
102
{ACAD_REACTORS
330
19
102
}
330
19
100
AcDbPlotSettings
  1

  2
none_device
  4
Letter_(8.50_x_11.00_Inches)
  6

 40
6.349999904632568
 41
6.349999904632568
 42
6.350006103515625
 43
6.350006103515625
 44
215.8999938964843
 45
279.3999938964843
 46
0.0
 47
0.0
 48
0.0
 49
0.0
140
0.0
141
0.0
142
1.0
143
1.0
 70
   688
 72
     0
 73
     1
 74
     5
  7

 75
    16
147
1.0
148
0.0
149
0.0
100
AcDbLayout
  1
Layout1
 70
     1
 71
     1
 10
-0.2500002402958907
 20
-0.2499999962453767
 11
10.74999951940821
 21
8.249999763458731
 12
0.0
 22
0.0
 32
0.0
 14
1.049999952316284
 24
0.7999999523162842
 34
0.0
 15
9.449999570846555
 25
7.199999570846556
 35
0.0
146
0.0
 13
0.0
 23
0.0
 33
0.0
 16
1.0
 26
0.0
 36
0.0
 17
0.0
 27
1.0
 37
0.0
 76
     0
330
1A
331
3C4
  0
LAYOUT
  5
21
102
{ACAD_REACTORS
330
19
102
}
330
19
100
AcDbPlotSettings
  1

  2
HP LaserJet 5L PCL
  4
A4
  6

 40
6.297083377838134
 41
7.143756389617919
 42
7.397750854492187
 43
7.14373779296875
 44
210.0579986572265
 45
296.9259948730469
 46
0.0
 47
0.0
 48
0.0
 49
0.0
140
0.0
141
0.0
142
1.0
143
0.2213375977064907
 70
 11952
 72
     1
 73
     1
 74
     0
  7

 75
     0
147
4.517985242281659
148
9.615682192682278
149
21.57685537062987
100
AcDbLayout
  1
Model
 70
     1
 71
     0
 10
0.0
 20
0.0
 11
12.0
 21
9.0
 12
0.0
 22
0.0
 32
0.0
 14
0.0
 24
0.0
 34
0.0
 15
0.0
 25
0.0
 35
0.0
146
0.0
 13
0.0
 23
0.0
 33
0.0
 16
1.0
 26
0.0
 36
0.0
 17
0.0
 27
1.0
 37
0.0
 76
     0
330
1E
  0
MLINESTYLE
  5
17
102
{ACAD_REACTORS
330
16
102
}
330
16
100
AcDbMlineStyle
  2
STANDARD
 70
     0
  3

 62
   256
 51
90.0
 52
90.0
 71
     2
 49
0.5
 62
   256
  6
BYLAYER
 49
-0.5
 62
   256
  6
BYLAYER
  0
ACDBPLACEHOLDER
  5
F
102
{ACAD_REACTORS
330
E
102
}
330
E
  0
DICTIONARYVAR
  5
3BD
102
{ACAD_REACTORS
330
11C
102
}
330
11C
100
DictionaryVariables
280
     0
  1
1
  0
DICTIONARYVAR
  5
11D
102
{ACAD_REACTORS
330
11C
102
}
330
11C
100
DictionaryVariables
280
     0
  1
127
  0
ENDSEC
  0
EOF
