  0
SECTION
  2
HEADER
  9
$ACADVER
  1
AC1015
  9
$ACADMAINTVER
 70
    13
  9
$DWGCODEPAGE
  3
ANSI_1252
  9
$INSBASE
 10
0.0
 20
0.0
 30
0.0
  9
$EXTMIN
 10
1.166203968995816
 20
-22.68767676033644
 30
-0.0015258207003583
  9
$EXTMAX
 10
55.87037082155044
 20
19.88392386269782
 30
0.0000000349246037
  9
$LIMMIN
 10
0.0
 20
0.0
  9
$LIMMAX
 10
12.0
 20
9.0
  9
$ORTHOMODE
 70
     0
  9
$REGENMODE
 70
     1
  9
$FILLMODE
 70
     1
  9
$QTEXTMODE
 70
     0
  9
$MIRRTEXT
 70
     1
  9
$LTSCALE
 40
1.0
  9
$ATTMODE
 70
     1
  9
$TEXTSIZE
 40
0.2
  9
$TRACEWID
 40
0.05
  9
$TEXTSTYLE
  7
Standard
  9
$CLAYER
  8
0
  9
$CELTYPE
  6
ByLayer
  9
$CECOLOR
 62
   256
  9
$CELTSCALE
 40
1.0
  9
$DISPSILH
 70
     0
  9
$DIMSCALE
 40
1.0
  9
$DIMASZ
 40
0.18
  9
$DIMEXO
 40
0.0625
  9
$DIMDLI
 40
0.38
  9
$DIMRND
 40
0.0
  9
$DIMDLE
 40
0.0
  9
$DIMEXE
 40
0.18
  9
$DIMTP
 40
0.0
  9
$DIMTM
 40
0.0
  9
$DIMTXT
 40
0.18
  9
$DIMCEN
 40
0.09
  9
$DIMTSZ
 40
0.0
  9
$DIMTOL
 70
     0
  9
$DIMLIM
 70
     0
  9
$DIMTIH
 70
     1
  9
$DIMTOH
 70
     1
  9
$DIMSE1
 70
     0
  9
$DIMSE2
 70
     0
  9
$DIMTAD
 70
     0
  9
$DIMZIN
 70
     0
  9
$DIMBLK
  1

  9
$DIMASO
 70
     1
  9
$DIMSHO
 70
     1
  9
$DIMPOST
  1

  9
$DIMAPOST
  1

  9
$DIMALT
 70
     0
  9
$DIMALTD
 70
     2
  9
$DIMALTF
 40
25.4
  9
$DIMLFAC
 40
1.0
  9
$DIMTOFL
 70
     0
  9
$DIMTVP
 40
0.0
  9
$DIMTIX
 70
     0
  9
$DIMSOXD
 70
     0
  9
$DIMSAH
 70
     0
  9
$DIMBLK1
  1

  9
$DIMBLK2
  1

  9
$DIMSTYLE
  2
Standard
  9
$DIMCLRD
 70
     0
  9
$DIMCLRE
 70
     0
  9
$DIMCLRT
 70
     0
  9
$DIMTFAC
 40
1.0
  9
$DIMGAP
 40
0.09
  9
$DIMJUST
 70
     0
  9
$DIMSD1
 70
     0
  9
$DIMSD2
 70
     0
  9
$DIMTOLJ
 70
     1
  9
$DIMTZIN
 70
     0
  9
$DIMALTZ
 70
     0
  9
$DIMALTTZ
 70
     0
  9
$DIMUPT
 70
     0
  9
$DIMDEC
 70
     4
  9
$DIMTDEC
 70
     4
  9
$DIMALTU
 70
     2
  9
$DIMALTTD
 70
     2
  9
$DIMTXSTY
  7
Standard
  9
$DIMAUNIT
 70
     0
  9
$DIMADEC
 70
     0
  9
$DIMALTRND
 40
0.0
  9
$DIMAZIN
 70
     0
  9
$DIMDSEP
 70
    46
  9
$DIMATFIT
 70
     3
  9
$DIMFRAC
 70
     0
  9
$DIMLDRBLK
  1

  9
$DIMLUNIT
 70
     2
  9
$DIMLWD
 70
    -2
  9
$DIMLWE
 70
    -2
  9
$DIMTMOVE
 70
     0
  9
$LUNITS
 70
     2
  9
$LUPREC
 70
     4
  9
$SKETCHINC
 40
0.1
  9
$FILLETRAD
 40
0.0
  9
$AUNITS
 70
     0
  9
$AUPREC
 70
     0
  9
$MENU
  1
.
  9
$ELEVATION
 40
0.0
  9
$PELEVATION
 40
0.0
  9
$THICKNESS
 40
0.0
  9
$LIMCHECK
 70
     0
  9
$CHAMFERA
 40
0.0
  9
$CHAMFERB
 40
0.0
  9
$CHAMFERC
 40
0.0
  9
$CHAMFERD
 40
0.0
  9
$SKPOLY
 70
     0
  9
$TDCREATE
 40
2451969.800906713
  9
$TDUCREATE
 40
2451969.717573379
  9
$TDUPDATE
 40
2452548.444476736
  9
$TDUUPDATE
 40
2452548.361143402
  9
$TDINDWG
 40
0.0322539931
  9
$TDUSRTIMER
 40
0.0322539931
  9
$USRTIMER
 70
     1
  9
$ANGBASE
 50
0.0
  9
$ANGDIR
 70
     0
  9
$PDMODE
 70
     0
  9
$PDSIZE
 40
0.0
  9
$PLINEWID
 40
0.0
  9
$SPLFRAME
 70
     0
  9
$SPLINETYPE
 70
     6
  9
$SPLINESEGS
 70
     8
  9
$HANDSEED
  5
340
  9
$SURFTAB1
 70
     6
  9
$SURFTAB2
 70
     6
  9
$SURFTYPE
 70
     6
  9
$SURFU
 70
     6
  9
$SURFV
 70
     6
  9
$UCSBASE
  2

  9
$UCSNAME
  2

  9
$UCSORG
 10
0.0
 20
0.0
 30
0.0
  9
$UCSXDIR
 10
1.0
 20
0.0
 30
0.0
  9
$UCSYDIR
 10
0.0
 20
1.0
 30
0.0
  9
$UCSORTHOREF
  2

  9
$UCSORTHOVIEW
 70
     0
  9
$UCSORGTOP
 10
0.0
 20
0.0
 30
0.0
  9
$UCSORGBOTTOM
 10
0.0
 20
0.0
 30
0.0
  9
$UCSORGLEFT
 10
0.0
 20
0.0
 30
0.0
  9
$UCSORGRIGHT
 10
0.0
 20
0.0
 30
0.0
  9
$UCSORGFRONT
 10
0.0
 20
0.0
 30
0.0
  9
$UCSORGBACK
 10
0.0
 20
0.0
 30
0.0
  9
$PUCSBASE
  2

  9
$PUCSNAME
  2

  9
$PUCSORG
 10
0.0
 20
0.0
 30
0.0
  9
$PUCSXDIR
 10
1.0
 20
0.0
 30
0.0
  9
$PUCSYDIR
 10
0.0
 20
1.0
 30
0.0
  9
$PUCSORTHOREF
  2

  9
$PUCSORTHOVIEW
 70
     0
  9
$PUCSORGTOP
 10
0.0
 20
0.0
 30
0.0
  9
$PUCSORGBOTTOM
 10
0.0
 20
0.0
 30
0.0
  9
$PUCSORGLEFT
 10
0.0
 20
0.0
 30
0.0
  9
$PUCSORGRIGHT
 10
0.0
 20
0.0
 30
0.0
  9
$PUCSORGFRONT
 10
0.0
 20
0.0
 30
0.0
  9
$PUCSORGBACK
 10
0.0
 20
0.0
 30
0.0
  9
$USERI1
 70
     0
  9
$USERI2
 70
     0
  9
$USERI3
 70
     0
  9
$USERI4
 70
     0
  9
$USERI5
 70
     0
  9
$USERR1
 40
0.0
  9
$USERR2
 40
0.0
  9
$USERR3
 40
0.0
  9
$USERR4
 40
0.0
  9
$USERR5
 40
0.0
  9
$WORLDVIEW
 70
     1
  9
$SHADEDGE
 70
     3
  9
$SHADEDIF
 70
    70
  9
$TILEMODE
 70
     1
  9
$MAXACTVP
 70
    64
  9
$PINSBASE
 10
0.0
 20
0.0
 30
0.0
  9
$PLIMCHECK
 70
     0
  9
$PEXTMIN
 10
1.000000000000000E+20
 20
1.000000000000000E+20
 30
1.000000000000000E+20
  9
$PEXTMAX
 10
-1.000000000000000E+20
 20
-1.000000000000000E+20
 30
-1.000000000000000E+20
  9
$PLIMMIN
 10
0.0
 20
0.0
  9
$PLIMMAX
 10
12.0
 20
9.0
  9
$UNITMODE
 70
     0
  9
$VISRETAIN
 70
     1
  9
$PLINEGEN
 70
     0
  9
$PSLTSCALE
 70
     1
  9
$TREEDEPTH
 70
  3020
  9
$CMLSTYLE
  2
Standard
  9
$CMLJUST
 70
     0
  9
$CMLSCALE
 40
1.0
  9
$PROXYGRAPHICS
 70
     1
  9
$MEASUREMENT
 70
     0
  9
$CELWEIGHT
370
    -1
  9
$ENDCAPS
280
     0
  9
$JOINSTYLE
280
     0
  9
$LWDISPLAY
290
     1
  9
$INSUNITS
 70
     0
  9
$HYPERLINKBASE
  1

  9
$STYLESHEET
  1

  9
$XEDIT
290
     1
  9
$CEPSNTYPE
380
     0
  9
$PSTYLEMODE
290
     1
  9
$FINGERPRINTGUID
  2
{9BCDFE06-F91B-4928-B6F4-2BDCA3FC3051}
  9
$VERSIONGUID
  2
{C3BCEB70-22BA-4097-8793-1D400D5102BE}
  9
$EXTNAMES
290
     1
  9
$PSVPSCALE
 40
0.0
  9
$OLESTARTUP
290
     0
  0
ENDSEC
  0
SECTION
  2
CLASSES
  0
CLASS
  1
ACDBDICTIONARYWDFLT
  2
AcDbDictionaryWithDefault
  3
AutoCAD 2000
 90
        0
280
     0
281
     0
  0
CLASS
  1
ACDBPLACEHOLDER
  2
AcDbPlaceHolder
  3
AutoCAD 2000
 90
        0
280
     0
281
     0
  0
CLASS
  1
LAYOUT
  2
AcDbLayout
  3
AutoCAD 2000
 90
        0
280
     0
281
     0
  0
CLASS
  1
DICTIONARYVAR
  2
AcDbDictionaryVar
  3
AutoCAD 2000
 90
        0
280
     0
281
     0
  0
CLASS
  1
SORTENTSTABLE
  2
AcDbSortentsTable
  3
AutoCAD 2000
 90
        0
280
     0
281
     0
  0
ENDSEC
  0
SECTION
  2
TABLES
  0
TABLE
  2
VPORT
  5
8
330
0
100
AcDbSymbolTable
 70
     2
  0
VPORT
  5
33F
330
8
100
AcDbSymbolTableRecord
100
AcDbViewportTableRecord
  2
*Active
 70
     0
 10
0.0
 20
0.0
 11
1.0
 21
1.0
 12
28.51828739527313
 22
-1.401876448819308
 13
0.0
 23
0.0
 14
1.0
 24
1.0
 15
0.0
 25
0.0
 16
0.0
 26
0.0
 36
1.0
 17
0.0
 27
0.0
 37
0.0
 40
42.87823880279201
 41
1.448317307692307
 42
50.0
 43
0.0
 44
0.0
 50
0.0
 51
0.0
 71
     0
 72
   100
 73
     1
 74
     2
 75
     0
 76
     0
 77
     0
 78
     0
281
     0
 65
     1
110
0.0
120
0.0
130
0.0
111
1.0
121
0.0
131
0.0
112
0.0
122
1.0
132
0.0
 79
     0
146
0.0
  0
ENDTAB
  0
TABLE
  2
LTYPE
  5
5
330
0
100
AcDbSymbolTable
 70
     1
  0
LTYPE
  5
13
330
5
100
AcDbSymbolTableRecord
100
AcDbLinetypeTableRecord
  2
ByBlock
 70
     0
  3

 72
    65
 73
     0
 40
0.0
  0
LTYPE
  5
14
330
5
100
AcDbSymbolTableRecord
100
AcDbLinetypeTableRecord
  2
ByLayer
 70
     0
  3

 72
    65
 73
     0
 40
0.0
  0
LTYPE
  5
15
330
5
100
AcDbSymbolTableRecord
100
AcDbLinetypeTableRecord
  2
Continuous
 70
     0
  3
Solid line
 72
    65
 73
     0
 40
0.0
  0
ENDTAB
  0
TABLE
  2
LAYER
  5
2
330
0
100
AcDbSymbolTable
 70
     5
  0
LAYER
  5
10
330
2
100
AcDbSymbolTableRecord
100
AcDbLayerTableRecord
  2
0
 70
     0
 62
     7
  6
Continuous
370
    -3
390
F
  0
LAYER
  5
22
330
2
100
AcDbSymbolTableRecord
100
AcDbLayerTableRecord
  2
METAL1
 70
     0
 62
     7
  6
Continuous
370
    -3
390
F
  0
LAYER
  5
27
330
2
100
AcDbSymbolTableRecord
100
AcDbLayerTableRecord
  2
CONSTR
 70
     0
 62
    -3
  6
Continuous
370
    -3
390
F
  0
LAYER
  5
F2
330
2
100
AcDbSymbolTableRecord
100
AcDbLayerTableRecord
  2
GND
 70
     0
 62
     9
  6
Continuous
370
    -3
390
F
  0
LAYER
  5
2A9
330
2
100
AcDbSymbolTableRecord
100
AcDbLayerTableRecord
  2
Defpoints
 70
     0
 62
     7
  6
Continuous
290
     0
370
    -3
390
F
  0
ENDTAB
  0
TABLE
  2
STYLE
  5
3
330
0
100
AcDbSymbolTable
 70
     1
  0
STYLE
  5
11
330
3
100
AcDbSymbolTableRecord
100
AcDbTextStyleTableRecord
  2
Standard
 70
     0
 40
0.0
 41
1.0
 50
0.0
 71
     0
 42
0.2
  3
txt
  4

  0
ENDTAB
  0
TABLE
  2
VIEW
  5
6
330
0
100
AcDbSymbolTable
 70
     0
  0
ENDTAB
  0
TABLE
  2
UCS
  5
7
330
0
100
AcDbSymbolTable
 70
     0
  0
ENDTAB
  0
TABLE
  2
APPID
  5
9
330
0
100
AcDbSymbolTable
 70
     1
  0
APPID
  5
12
330
9
100
AcDbSymbolTableRecord
100
AcDbRegAppTableRecord
  2
ACAD
 70
     0
  0
ENDTAB
  0
TABLE
  2
DIMSTYLE
  5
A
330
0
100
AcDbSymbolTable
 70
     1
100
AcDbDimStyleTable
 71
     1
340
131
  0
DIMSTYLE
105
131
102
{ACAD_REACTORS
330
2A8
330
2B7
102
}
330
A
100
AcDbSymbolTableRecord
100
AcDbDimStyleTableRecord
  2
Standard
 70
     0
340
11
  0
ENDTAB
  0
TABLE
  2
BLOCK_RECORD
  5
1
330
0
100
AcDbSymbolTable
 70
    10
  0
BLOCK_RECORD
  5
1E
102
{ACAD_XDICTIONARY
360
29A
102
}
330
1
100
AcDbSymbolTableRecord
100
AcDbBlockTableRecord
  2
*Model_Space
340
21
  0
BLOCK_RECORD
  5
1A
330
1
100
AcDbSymbolTableRecord
100
AcDbBlockTableRecord
  2
*Paper_Space
340
1D
  0
BLOCK_RECORD
  5
135
330
1
100
AcDbSymbolTableRecord
100
AcDbBlockTableRecord
  2
Inductor
340
0
310
280000002000000020000000010004000000000000020000000000000000000000000000000000000000000000008000008000000080800080000000800080008080000080808000C0C0C0000000FF0000FF000000FFFF00FF000000FF00FF00FFFF0000FFFFFF00FFFFFFFFFFFFFFFFFFFFFFFFFFFFFFFFFFFFFFFFFFFFFF
310
FFFFFFFFFFFFFFFFFFFFFFFFFFFFFFFFFFFFFFFFFFFFFFFFFFFFFFFFFFFFFFFFFFFFFFFFFFFFFFFFFFFFFFFFFFFFFFFFFFFFFFFFFFFFFFFFFFFFFFFFFFFFFFFFFFFFFFFFFFFFFFFFFFFFFFFFFFFFFFFFFFFFFFFFFFFFFFFFFFFFFFFFFFFFFFFFFFFFFFFFFFFFFFFFFFFFFFFFFFFFFFFFFFFFFFFFFFFFFFFFFFFFFFFFFFFFFF
310
FFFFFFFFFFFFFFFFFFFFFFFFFFFFFFFFFFFFFFFFFFFFFFFFFFFFFFFFFFFFFFFFFFFFFFFFFFFFFFFFFFFF0000FFFFFFFF0FFFFFF0FFFFFFF0000FFFF0FFFFFFF00FFFFFF0FFFFFFF0FFFFFFF0FFFFFFF00FFFFFF00FFFFFFF0FFFFFF0FFFFFFF00FFFFF0F0FFFFFFF0FFFFFF0FFFFFFF0F0FFFF0F0FFFFFFF0FFFFFFF0FFFFF
310
F00FFFFFF00FFFFFF0FFFFFFFF0FFFFFF00FFFFFF0FFFFFF0FFFFFFFFFF0FFFFF0F0FFFF0F0FFFFF0FFFFFFFFFFF00000FFF0000FFF00000FFFFFFFFFFFFFFFFFFFFFFFFFFFFFFFFFFFFFFFFFFFFFFFFFFFFFFFFFFFFFFFFFFFFFFFFFFFFFFFFFFFFFFFFFFFFFFFFFFFFFFFFFFFFFFFFFFFFFFFFFFFFFFFFFFFFFFFFFFFFFF
310
FFFFFFFFFFFFFFFFFFFFFFFFFFFFFFFFFFFFFFFFFFFFFFFFFFFFFFFFFFFFFFFFFFFFFFFFFFFFFFFFFFFFFFFFFFFFFFFFFFFFFFFFFFFFFFFFFFFFFFFFFFFFFFFFFFFFFFFFFFFFFFFFFFFFFFFFFFFFFFFFFFFFFFFFFFFFFFFFFFFFFFFFFFFFFFFFFFFFFFFFFFFFFFFFFFFFFFFF
102
{BLKREFS
331
143
102
}
1001
ACAD
1000
DesignCenter Data
1002
{
1070
     1
1070
     1
1002
}
  0
BLOCK_RECORD
  5
13D
330
1
100
AcDbSymbolTableRecord
100
AcDbBlockTableRecord
  2
conpoint
340
0
310
28000000200000002000000001000800000000000004000000000000000000000000000000000000000000004000000080000000FF000000002000004020000080200000FF200000004000004040000080400000FF400000006000004060000080600000FF600000008000004080000080800000FF80000000A0000040A000
310
0080A00000FFA0000000C0000040C0000080C00000FFC0000000FF000040FF000080FF0000FFFF0000000020004000200080002000FF002000002020004020200080202000FF202000004020004040200080402000FF402000006020004060200080602000FF602000008020004080200080802000FF80200000A0200040A0
310
200080A02000FFA0200000C0200040C0200080C02000FFC0200000FF200040FF200080FF2000FFFF2000000040004000400080004000FF004000002040004020400080204000FF204000004040004040400080404000FF404000006040004060400080604000FF604000008040004080400080804000FF80400000A0400040
310
A0400080A04000FFA0400000C0400040C0400080C04000FFC0400000FF400040FF400080FF4000FFFF4000000060004000600080006000FF006000002060004020600080206000FF206000004060004040600080406000FF406000006060004060600080606000FF606000008060004080600080806000FF80600000A06000
310
40A0600080A06000FFA0600000C0600040C0600080C06000FFC0600000FF600040FF600080FF6000FFFF6000000080004000800080008000FF008000002080004020800080208000FF208000004080004040800080408000FF408000006080004060800080608000FF608000008080004080800080808000FF80800000A080
310
0040A0800080A08000FFA0800000C0800040C0800080C08000FFC0800000FF800040FF800080FF8000FFFF80000000A0004000A0008000A000FF00A0000020A0004020A0008020A000FF20A0000040A0004040A0008040A000FF40A0000060A0004060A0008060A000FF60A0000080A0004080A0008080A000FF80A00000A0
310
A00040A0A00080A0A000FFA0A00000C0A00040C0A00080C0A000FFC0A00000FFA00040FFA00080FFA000FFFFA0000000C0004000C0008000C000FF00C0000020C0004020C0008020C000FF20C0000040C0004040C0008040C000FF40C0000060C0004060C0008060C000FF60C0000080C0004080C0008080C000FF80C00000
310
A0C00040A0C00080A0C000FFA0C00000C0C00040C0C00080C0C000FFC0C00000FFC00040FFC00080FFC000FFFFC0000000FF004000FF008000FF00FF00FF000020FF004020FF008020FF00FF20FF000040FF004040FF008040FF00FF40FF000060FF004060FF008060FF00FF60FF000080FF004080FF008080FF00FF80FF00
310
00A0FF0040A0FF0080A0FF00FFA0FF0000C0FF0040C0FF0080C0FF00FFC0FF0000FFFF0040FFFF0080FFFF00FFFFFF000000000000000000000000000000000000000000000000000000000000000000000000000000000000000000000000FFFFFF000000000000000000000000000000000000000000000000FFFFFFFFFF
310
FF00FFFFFF0000000000000000000000000000000000000000FFFF0000FFFF0000000000FFFFFFFF00000000000000000000000000000000FF0000FFFF000000000000000000FFFFFFFF00000000000000000000000000FF00FFFF00000000000000000000000000FFFFFF0000000000000000000000FFFFFF000000000000
310
0000000000000000000000FFFF000000000000000000FF00FF00000000000000000000000000000000000000FFFF0000000000000000FFFF0000000000000000000000000000000000000000FFFF00000000000000FF00FF000000000000000000000000000000000000000000FFFF000000000000FFFF0000000000000000
310
0000000000000000000000000000FF00FF00000000FF00FF0000000000000000000000000000000000000000000000FFFF00000000FFFF000000000000000000000000000000000000000000000000FFFF00000000FFFF00000000000000000000000000000000000000000000000000FF000000FFFF000000000000000000
310
0000000000000000000000000000000000FF000000FFFF000000000000000000000000000000000000000000000000000000FF0000FF00000000000000000000000000000000000000000000000000000000FF0000FFFF0000000000000000000000000000000000000000000000000000FFFF000000FF0000000000000000
310
000000000000000000000000000000000000FF00000000FFFF000000000000000000000000000000000000000000000000FFFF00000000FFFF000000000000000000000000000000000000000000000000FFFF0000000000FFFF00000000000000000000000000000000000000000000FF00FF0000000000FFFF0000000000
310
0000000000000000000000000000000000FFFF00000000000000FFFF0000000000000000000000000000000000000000FFFF0000000000000000FFFF0000000000000000000000000000000000000000FFFF000000000000000000FFFF000000000000000000000000000000000000FFFF0000000000000000000000FFFFFF
310
0000000000000000000000000000FFFFFF00000000000000000000000000FF00FFFF00000000000000000000FFFFFFFF000000000000000000000000000000FFFF00FFFF000000000000FFFFFFFF00000000000000000000000000000000000000FFFFFFFFFF0000FFFFFFFF00000000000000000000000000000000000000
310
00000000000000FFFFFF00000000000000000000000000000000000000000000000000000000000000000000000000000000000000000000
102
{BLKREFS
331
144
331
145
102
}
1001
ACAD
1000
DesignCenter Data
1002
{
1070
     1
1070
     1
1002
}
  0
BLOCK_RECORD
  5
142
330
1
100
AcDbSymbolTableRecord
100
AcDbBlockTableRecord
  2
ind
340
0
310
28000000200000002000000001000800000000000004000000000000000000000000000000000000000000004000000080000000FF000000002000004020000080200000FF200000004000004040000080400000FF400000006000004060000080600000FF600000008000004080000080800000FF80000000A0000040A000
310
0080A00000FFA0000000C0000040C0000080C00000FFC0000000FF000040FF000080FF0000FFFF0000000020004000200080002000FF002000002020004020200080202000FF202000004020004040200080402000FF402000006020004060200080602000FF602000008020004080200080802000FF80200000A0200040A0
310
200080A02000FFA0200000C0200040C0200080C02000FFC0200000FF200040FF200080FF2000FFFF2000000040004000400080004000FF004000002040004020400080204000FF204000004040004040400080404000FF404000006040004060400080604000FF604000008040004080400080804000FF80400000A0400040
310
A0400080A04000FFA0400000C0400040C0400080C04000FFC0400000FF400040FF400080FF4000FFFF4000000060004000600080006000FF006000002060004020600080206000FF206000004060004040600080406000FF406000006060004060600080606000FF606000008060004080600080806000FF80600000A06000
310
40A0600080A06000FFA0600000C0600040C0600080C06000FFC0600000FF600040FF600080FF6000FFFF6000000080004000800080008000FF008000002080004020800080208000FF208000004080004040800080408000FF408000006080004060800080608000FF608000008080004080800080808000FF80800000A080
310
0040A0800080A08000FFA0800000C0800040C0800080C08000FFC0800000FF800040FF800080FF8000FFFF80000000A0004000A0008000A000FF00A0000020A0004020A0008020A000FF20A0000040A0004040A0008040A000FF40A0000060A0004060A0008060A000FF60A0000080A0004080A0008080A000FF80A00000A0
310
A00040A0A00080A0A000FFA0A00000C0A00040C0A00080C0A000FFC0A00000FFA00040FFA00080FFA000FFFFA0000000C0004000C0008000C000FF00C0000020C0004020C0008020C000FF20C0000040C0004040C0008040C000FF40C0000060C0004060C0008060C000FF60C0000080C0004080C0008080C000FF80C00000
310
A0C00040A0C00080A0C000FFA0C00000C0C00040C0C00080C0C000FFC0C00000FFC00040FFC00080FFC000FFFFC0000000FF004000FF008000FF00FF00FF000020FF004020FF008020FF00FF20FF000040FF004040FF008040FF00FF40FF000060FF004060FF008060FF00FF60FF000080FF004080FF008080FF00FF80FF00
310
00A0FF0040A0FF0080A0FF00FFA0FF0000C0FF0040C0FF0080C0FF00FFC0FF0000FFFF0040FFFF0080FFFF00FFFFFF0000000000000000000000000000000000000000000000000000000000000000000000000000000000000000000000000000FFFF00000000000000000000000000000000000000000000000000000000
310
00FFFFFFFF00000000000000000000000000000000000000000000000000000000FF0000FF00000000000000000000000000000000000000000000000000000000FFFFFFFF000000000000000000000000000000000000000000000000000000000000FF000000000000000000000000000000000000000000000000000000
310
FFFFFFFFFF0000000000000000000000000000000000000000000000000000FF00000000FF00000000000000000000000000000000000000000000000000FF00000000000000000000000000000000000000000000000000000000000000FF00000000000000000000000000000000000000000000000000000000000000FF
310
00000000000000000000000000000000000000000000000000000000000000FF0000000000000000000000000000000000000000000000000000000000000000FFFFFFFFFF000000000000000000000000000000000000000000000000000000FFFFFFFFFFFF00000000000000000000000000000000000000000000000000
310
FF00000000000000000000000000000000000000000000000000000000000000FF00000000000000000000000000000000000000000000000000000000000000FF00000000000000000000000000000000000000000000000000000000000000FF000000000000000000000000000000000000000000000000000000000000
310
0000FFFFFFFFFFFF0000000000000000000000000000000000000000000000000000FFFFFFFFFF0000000000000000000000000000000000000000000000000000FF00000000000000000000000000000000000000000000000000000000000000FF0000000000000000000000000000000000000000000000000000000000
310
0000FF00000000000000000000000000000000000000000000000000000000000000FF0000000000000000000000000000000000000000000000000000000000000000FF00000000FF000000000000000000000000000000000000000000000000000000FFFFFFFFFF00000000000000000000000000000000000000000000
310
000000000000000000FF0000000000000000000000000000000000000000000000000000000000FFFFFFFF00000000000000000000000000000000000000000000000000000000FF0000FF00000000000000000000000000000000000000000000000000000000FFFFFFFF0000000000000000000000000000000000000000
310
000000000000000000FFFF000000000000000000000000000000000000000000000000000000000000000000000000000000000000000000
102
{BLKREFS
331
149
102
}
1001
ACAD
1000
DesignCenter Data
1002
{
1070
     1
1070
     1
1002
}
  0
BLOCK_RECORD
  5
148
330
1
100
AcDbSymbolTableRecord
100
AcDbBlockTableRecord
  2
rfc
340
0
310
28000000200000002000000001000800000000000004000000000000000000000000000000000000000000004000000080000000FF000000002000004020000080200000FF200000004000004040000080400000FF400000006000004060000080600000FF600000008000004080000080800000FF80000000A0000040A000
310
0080A00000FFA0000000C0000040C0000080C00000FFC0000000FF000040FF000080FF0000FFFF0000000020004000200080002000FF002000002020004020200080202000FF202000004020004040200080402000FF402000006020004060200080602000FF602000008020004080200080802000FF80200000A0200040A0
310
200080A02000FFA0200000C0200040C0200080C02000FFC0200000FF200040FF200080FF2000FFFF2000000040004000400080004000FF004000002040004020400080204000FF204000004040004040400080404000FF404000006040004060400080604000FF604000008040004080400080804000FF80400000A0400040
310
A0400080A04000FFA0400000C0400040C0400080C04000FFC0400000FF400040FF400080FF4000FFFF4000000060004000600080006000FF006000002060004020600080206000FF206000004060004040600080406000FF406000006060004060600080606000FF606000008060004080600080806000FF80600000A06000
310
40A0600080A06000FFA0600000C0600040C0600080C06000FFC0600000FF600040FF600080FF6000FFFF6000000080004000800080008000FF008000002080004020800080208000FF208000004080004040800080408000FF408000006080004060800080608000FF608000008080004080800080808000FF80800000A080
310
0040A0800080A08000FFA0800000C0800040C0800080C08000FFC0800000FF800040FF800080FF8000FFFF80000000A0004000A0008000A000FF00A0000020A0004020A0008020A000FF20A0000040A0004040A0008040A000FF40A0000060A0004060A0008060A000FF60A0000080A0004080A0008080A000FF80A00000A0
310
A00040A0A00080A0A000FFA0A00000C0A00040C0A00080C0A000FFC0A00000FFA00040FFA00080FFA000FFFFA0000000C0004000C0008000C000FF00C0000020C0004020C0008020C000FF20C0000040C0004040C0008040C000FF40C0000060C0004060C0008060C000FF60C0000080C0004080C0008080C000FF80C00000
310
A0C00040A0C00080A0C000FFA0C00000C0C00040C0C00080C0C000FFC0C00000FFC00040FFC00080FFC000FFFFC0000000FF004000FF008000FF00FF00FF000020FF004020FF008020FF00FF20FF000040FF004040FF008040FF00FF40FF000060FF004060FF008060FF00FF60FF000080FF004080FF008080FF00FF80FF00
310
00A0FF0040A0FF0080A0FF00FFA0FF0000C0FF0040C0FF0080C0FF00FFC0FF0000FFFF0040FFFF0080FFFF00FFFFFF00000000000000000000000000000000000000000000000000000000000000000000000000000000000000000000000000000000FFFF0000000000000000000000000000000000000000000000000000
310
000000FFFFFFFF00000000000000000000000000000000000000000000000000000000FF0000FF00000000000000000000000000000000000000000000000000000000FFFFFFFF0000000000000000000000000000000000000000000000000000000000FF0000000000000000000000000000000000000000000000000000
310
00FFFFFFFFFF00000000000000000000000000000000000000000000FFFFFF00FFFF000000FF00000000000000000000000000000000000000000000FF00FF00FF000000000000000000000000000000000000000000000000000000FF00FFFF00000000000000000000000000000000000000000000000000000000FF00FF
310
FF00000000000000000000000000000000000000000000000000000000FFFFFFFFFF000000000000000000000000000000000000000000000000000000FFFFFF00FFFFFFFFFFFF00000000000000000000000000000000000000000000FFFFFF00FFFFFFFFFFFF00000000000000000000000000000000000000000000FFFF
310
FFFFFF000000000000000000000000000000000000000000000000000000FFFFFFFF00000000000000000000000000000000000000000000000000000000FFFFFFFF00000000000000000000000000000000000000000000000000000000FFFFFFFFFF000000000000000000000000000000000000000000000000000000FF
310
FFFF00FFFFFFFFFFFF00000000000000000000000000000000000000000000FFFFFF00FFFFFFFFFFFF00000000000000000000000000000000000000000000FF00FFFFFF000000000000000000000000000000000000000000000000000000FF00FFFF00000000000000000000000000000000000000000000000000000000
310
FF00FFFF00000000000000000000000000000000000000000000000000000000FF00FF00FF000000000000000000000000000000000000000000000000000000FFFFFF00FFFF000000FF000000000000000000000000000000000000000000000000000000FFFFFFFFFF000000000000000000000000000000000000000000
310
00000000000000000000FF000000000000000000000000000000000000000000000000000000000000FFFFFF0000000000000000000000000000000000000000000000000000000000FF00FFFF00000000000000000000000000000000000000000000000000000000FF00FF00000000000000000000000000000000000000
310
0000000000000000000000FF0000000000000000000000000000000000000000000000000000000000000000000000000000000000000000
102
{BLKREFS
331
246
102
}
1001
ACAD
1000
DesignCenter Data
1002
{
1070
     1
1070
     1
1002
}
  0
BLOCK_RECORD
  5
14E
330
1
100
AcDbSymbolTableRecord
100
AcDbBlockTableRecord
  2
elkon
340
0
310
28000000200000002000000001000800000000000004000000000000000000000000000000000000000000004000000080000000FF000000002000004020000080200000FF200000004000004040000080400000FF400000006000004060000080600000FF600000008000004080000080800000FF80000000A0000040A000
310
0080A00000FFA0000000C0000040C0000080C00000FFC0000000FF000040FF000080FF0000FFFF0000000020004000200080002000FF002000002020004020200080202000FF202000004020004040200080402000FF402000006020004060200080602000FF602000008020004080200080802000FF80200000A0200040A0
310
200080A02000FFA0200000C0200040C0200080C02000FFC0200000FF200040FF200080FF2000FFFF2000000040004000400080004000FF004000002040004020400080204000FF204000004040004040400080404000FF404000006040004060400080604000FF604000008040004080400080804000FF80400000A0400040
310
A0400080A04000FFA0400000C0400040C0400080C04000FFC0400000FF400040FF400080FF4000FFFF4000000060004000600080006000FF006000002060004020600080206000FF206000004060004040600080406000FF406000006060004060600080606000FF606000008060004080600080806000FF80600000A06000
310
40A0600080A06000FFA0600000C0600040C0600080C06000FFC0600000FF600040FF600080FF6000FFFF6000000080004000800080008000FF008000002080004020800080208000FF208000004080004040800080408000FF408000006080004060800080608000FF608000008080004080800080808000FF80800000A080
310
0040A0800080A08000FFA0800000C0800040C0800080C08000FFC0800000FF800040FF800080FF8000FFFF80000000A0004000A0008000A000FF00A0000020A0004020A0008020A000FF20A0000040A0004040A0008040A000FF40A0000060A0004060A0008060A000FF60A0000080A0004080A0008080A000FF80A00000A0
310
A00040A0A00080A0A000FFA0A00000C0A00040C0A00080C0A000FFC0A00000FFA00040FFA00080FFA000FFFFA0000000C0004000C0008000C000FF00C0000020C0004020C0008020C000FF20C0000040C0004040C0008040C000FF40C0000060C0004060C0008060C000FF60C0000080C0004080C0008080C000FF80C00000
310
A0C00040A0C00080A0C000FFA0C00000C0C00040C0C00080C0C000FFC0C00000FFC00040FFC00080FFC000FFFFC0000000FF004000FF008000FF00FF00FF000020FF004020FF008020FF00FF20FF000040FF004040FF008040FF00FF40FF000060FF004060FF008060FF00FF60FF000080FF004080FF008080FF00FF80FF00
310
00A0FF0040A0FF0080A0FF00FFA0FF0000C0FF0040C0FF0080C0FF00FFC0FF0000FFFF0040FFFF0080FFFF00FFFFFF000000000000000000000000000000000000000000000000000000000000000000000000000000000000000000000000FF00000000000000000000000000000000000000000000000000000000000000
310
FF00000000000000000000000000000000000000000000000000000000000000FF00000000000000000000000000000000000000000000000000000000000000FF00000000000000000000000000000000000000000000000000000000000000FF000000000000000000000000000000000000000000000000000000000000
310
00FF00000000000000000000000000000000000000000000000000000000000000FF00000000000000000000000000000000000000000000000000000000000000FF00000000000000000000000000000000000000000000000000000000000000FF0000000000000000000000000000000000000000000000000000000000
310
0000FF00000000000000000000000000000000000000000000000000000000000000FF0000000000000000000000000000000000000000FFFFFFFFFFFFFFFFFFFFFFFFFFFFFFFFFFFFFFFFFFFFFFFF0000000000000000FF00000000000000000000000000000000000000000000FF0000000000000000FF00000000000000
310
000000000000000000000000000000FF0000000000000000FFFFFFFFFFFFFFFFFFFFFFFFFFFFFFFFFFFFFFFFFFFFFFFF00000000000000000000000000000000000000000000000000000000000000000000000000000000FFFFFFFFFFFFFFFFFFFFFFFFFFFFFFFFFFFFFFFFFFFFFFFF0000000000000000FF0000FFFFFFFF
310
FFFF000000000000FFFFFFFFFFFF0000FF0000000000000000FF0000000000FFFFFFFFFFFFFFFFFFFFFF000000000000FF0000000000000000FFFFFFFFFFFFFFFFFFFFFFFFFFFFFFFFFFFFFFFFFFFFFFFF00000000000000000000000000000000000000FF0000000000000000000000000000000000000000000000000000
310
0000000000FF00000000000000000000000000000000000000000000000000000000000000FF00000000000000000000000000000000000000000000000000000000000000FF00000000000000000000000000000000000000000000000000000000000000FF00000000000000000000000000000000000000000000000000
310
000000000000FF00000000000000000000000000000000000000000000000000000000000000FF00000000000000000000000000000000000000000000000000000000000000FF00000000000000000000000000000000000000000000000000000000000000FF000000000000000000000000000000000000000000000000
310
00000000000000FF000000000000000000000000000000000000000000000000000000000000000000000000000000000000000000000000
102
{BLKREFS
331
244
331
245
102
}
  0
BLOCK_RECORD
  5
156
330
1
100
AcDbSymbolTableRecord
100
AcDbBlockTableRecord
  2
tri
340
0
310
28000000200000002000000001000800000000000004000000000000000000000000000000000000000000004000000080000000FF000000002000004020000080200000FF200000004000004040000080400000FF400000006000004060000080600000FF600000008000004080000080800000FF80000000A0000040A000
310
0080A00000FFA0000000C0000040C0000080C00000FFC0000000FF000040FF000080FF0000FFFF0000000020004000200080002000FF002000002020004020200080202000FF202000004020004040200080402000FF402000006020004060200080602000FF602000008020004080200080802000FF80200000A0200040A0
310
200080A02000FFA0200000C0200040C0200080C02000FFC0200000FF200040FF200080FF2000FFFF2000000040004000400080004000FF004000002040004020400080204000FF204000004040004040400080404000FF404000006040004060400080604000FF604000008040004080400080804000FF80400000A0400040
310
A0400080A04000FFA0400000C0400040C0400080C04000FFC0400000FF400040FF400080FF4000FFFF4000000060004000600080006000FF006000002060004020600080206000FF206000004060004040600080406000FF406000006060004060600080606000FF606000008060004080600080806000FF80600000A06000
310
40A0600080A06000FFA0600000C0600040C0600080C06000FFC0600000FF600040FF600080FF6000FFFF6000000080004000800080008000FF008000002080004020800080208000FF208000004080004040800080408000FF408000006080004060800080608000FF608000008080004080800080808000FF80800000A080
310
0040A0800080A08000FFA0800000C0800040C0800080C08000FFC0800000FF800040FF800080FF8000FFFF80000000A0004000A0008000A000FF00A0000020A0004020A0008020A000FF20A0000040A0004040A0008040A000FF40A0000060A0004060A0008060A000FF60A0000080A0004080A0008080A000FF80A00000A0
310
A00040A0A00080A0A000FFA0A00000C0A00040C0A00080C0A000FFC0A00000FFA00040FFA00080FFA000FFFFA0000000C0004000C0008000C000FF00C0000020C0004020C0008020C000FF20C0000040C0004040C0008040C000FF40C0000060C0004060C0008060C000FF60C0000080C0004080C0008080C000FF80C00000
310
A0C00040A0C00080A0C000FFA0C00000C0C00040C0C00080C0C000FFC0C00000FFC00040FFC00080FFC000FFFFC0000000FF004000FF008000FF00FF00FF000020FF004020FF008020FF00FF20FF000040FF004040FF008040FF00FF40FF000060FF004060FF008060FF00FF60FF000080FF004080FF008080FF00FF80FF00
310
00A0FF0040A0FF0080A0FF00FFA0FF0000C0FF0040C0FF0080C0FF00FFC0FF0000FFFF0040FFFF0080FFFF00FFFFFF0000000000000000000000000000000000000000000000000000000000000000000000000000000000000000FF00000000000000000000000000000000000000000000000000000000000000FFFF0000
310
0000000000000000000000000000000000000000000000000000FFFF0000FF00000000000000000000000000000000000000000000000000FFFF0000000000FF0000000000000000000000000000000000000000000000FF0000000000000000FF000000000000000000000000000000000000000000FF0000000000000000
310
0000FF00000000000000000000000000000000000000FF000000000000000000000000FF000000000000000000000000000000000000FF00000000000000000000000000FF00000000000000000000000000000000FF000000000000000000000000000000FF000000000000000000000000000000FF000000000000000000
310
00000000000000FF00000000000000000000000000FF000000000000000000000000000000000000FF000000000000000000000000FF00000000000000000000000000000000000000FF00000000000000000000FF000000000000000000000000000000000000000000FF000000000000000000FF00000000000000000000
310
000000000000000000000000FF0000000000000000FF0000000000000000000000000000000000000000000000FF00000000000000FF000000000000000000000000000000000000000000000000FF000000000000FF00000000000000000000000000000000000000000000000000FF000000000000FF0000000000000000
310
0000000000000000000000000000000000FF0000000000FF0000000000000000000000000000000000000000000000000000FF00000000FF0000000000000000000000000000000000000000000000000000FFFF00000000FF00000000000000000000000000000000000000000000000000FF0000000000FF000000000000
310
000000000000000000000000000000000000FF00000000000000FF0000000000000000000000000000000000000000000000FF0000000000000000FF000000000000000000000000000000000000000000FF00000000000000000000FF00000000000000000000000000000000000000FF000000000000000000000000FF00
310
00000000000000000000000000000000FF0000000000000000000000000000FF0000000000000000000000000000FFFF00000000000000000000000000000000FFFF0000000000000000000000FF0000000000000000000000000000000000000000FFFFFFFFFFFFFFFFFFFFFF000000000000000000000000000000000000
310
0000000000000000000000000000000000000000000000000000000000000000000000000000000000000000000000000000000000000000
102
{BLKREFS
331
250
102
}
  0
BLOCK_RECORD
  5
25F
330
1
100
AcDbSymbolTableRecord
100
AcDbBlockTableRecord
  2
A$C0D510A1E
340
0
  0
BLOCK_RECORD
  5
264
330
1
100
AcDbSymbolTableRecord
100
AcDbBlockTableRecord
  2
A$C320A6B3E
340
0
  0
BLOCK_RECORD
  5
2AA
330
1
100
AcDbSymbolTableRecord
100
AcDbBlockTableRecord
  2
*D8
340
0
  0
BLOCK_RECORD
  5
2B8
330
1
100
AcDbSymbolTableRecord
100
AcDbBlockTableRecord
  2
*D9
340
0
  0
ENDTAB
  0
ENDSEC
  0
SECTION
  2
BLOCKS
  0
BLOCK
  5
1F
330
1E
100
AcDbEntity
  8
0
100
AcDbBlockBegin
  2
*Model_Space
 70
     0
 10
0.0
 20
0.0
 30
0.0
  3
*Model_Space
  1

  0
ENDBLK
  5
20
330
1E
100
AcDbEntity
  8
0
100
AcDbBlockEnd
  0
BLOCK
  5
1B
330
1A
100
AcDbEntity
 67
     1
  8
0
100
AcDbBlockBegin
  2
*Paper_Space
 70
     0
 10
0.0
 20
0.0
 30
0.0
  3
*Paper_Space
  1

  0
ENDBLK
  5
1C
330
1A
100
AcDbEntity
 67
     1
  8
0
100
AcDbBlockEnd
  0
BLOCK
  5
13B
330
135
100
AcDbEntity
  8
0
100
AcDbBlockBegin
  2
Inductor
 70
     2
 10
0.0
 20
0.0
 30
0.0
  3
Inductor
  1
INDUCTOR
  4
DesignCenter Basic Electronics example
  0
LINE
  5
136
330
135
100
AcDbEntity
  8
0
 62
     7
100
AcDbLine
 10
0.3500000000000001
 20
0.0
 30
0.0
 11
0.3999999999999999
 21
0.0
 31
0.0
  0
ARC
  5
137
330
135
100
AcDbEntity
  8
0
 62
     7
100
AcDbCircle
 10
0.2999999999999998
 20
0.0374999999999997
 30
0.0
 40
0.0625
100
AcDbArc
 50
323.1301
 51
216.8699
  0
LINE
  5
138
330
135
100
AcDbEntity
  8
0
 62
     7
100
AcDbLine
 10
0.0
 20
0.0
 30
0.0
 11
0.0499999999999998
 21
0.0
 31
0.0
  0
ARC
  5
139
330
135
100
AcDbEntity
  8
0
 62
     7
100
AcDbCircle
 10
0.1000000000000001
 20
0.0374999999999997
 30
0.0
 40
0.0625
100
AcDbArc
 50
323.1301
 51
216.8699
  0
ARC
  5
13A
330
135
100
AcDbEntity
  8
0
 62
     7
100
AcDbCircle
 10
0.2000000000000002
 20
0.0374999999999997
 30
0.0
 40
0.0625
100
AcDbArc
 50
323.1301
 51
216.8699
  0
ENDBLK
  5
13C
330
135
100
AcDbEntity
  8
0
100
AcDbBlockEnd
  0
BLOCK
  5
140
330
13D
100
AcDbEntity
  8
0
100
AcDbBlockBegin
  2
conpoint
 70
     0
 10
0.0
 20
0.0
 30
0.0
  3
conpoint
  1

  0
HATCH
  5
13E
330
13D
100
AcDbEntity
  8
0
100
AcDbHatch
 10
0.0
 20
0.0
 30
0.0
210
0.0
220
0.0
230
1.0
  2
SOLID
 70
     1
 71
     1
 91
        1
 92
        1
 93
        1
 72
     2
 10
3.932944225599126
 20
4.517912367231916
 40
0.0251551376970127
 50
0.0
 51
360.0
 73
     1
 97
        1
330
13F
 75
     0
 76
     1
 98
        1
 10
0.0
 20
0.0
  0
CIRCLE
  5
13F
102
{ACAD_REACTORS
330
13E
102
}
330
13D
100
AcDbEntity
  8
0
100
AcDbCircle
 10
3.932944225599126
 20
4.517912367231916
 30
0.0
 40
0.0251551376970127
  0
ENDBLK
  5
141
330
13D
100
AcDbEntity
  8
0
100
AcDbBlockEnd
  0
BLOCK
  5
146
330
142
100
AcDbEntity
  8
0
100
AcDbBlockBegin
  2
ind
 70
     0
 10
0.0
 20
0.0
 30
0.0
  3
ind
  1

  0
INSERT
  5
143
330
142
100
AcDbEntity
  8
0
100
AcDbBlockReference
  2
Inductor
 10
5.142686818928233
 20
4.506130839892044
 30
0.0
 50
90.0
  0
INSERT
  5
144
330
142
100
AcDbEntity
  8
0
100
AcDbBlockReference
  2
conpoint
 10
1.213283901823427
 20
-0.0258025784579612
 30
0.0
  0
INSERT
  5
145
330
142
100
AcDbEntity
  8
0
100
AcDbBlockReference
  2
conpoint
 10
1.20936500961606
 20
0.4012205201373665
 30
0.0
  0
ENDBLK
  5
147
330
142
100
AcDbEntity
  8
0
100
AcDbBlockEnd
  0
BLOCK
  5
14C
330
148
100
AcDbEntity
  8
0
100
AcDbBlockBegin
  2
rfc
 70
     0
 10
0.0
 20
0.0
 30
0.0
  3
rfc
  1

  0
INSERT
  5
149
330
148
100
AcDbEntity
  8
0
100
AcDbBlockReference
  2
ind
 10
0.0
 20
0.0
 30
0.0
  0
HATCH
  5
14A
330
148
100
AcDbEntity
  8
0
100
AcDbHatch
 10
0.0
 20
0.0
 30
0.0
210
0.0
220
0.0
230
1.0
  2
SOLID
 70
     1
 71
     1
 91
        1
 92
        1
 93
        4
 72
     1
 10
5.019171584733157
 20
4.850883942041264
 11
4.991736945333968
 21
4.850883942041264
 72
     1
 10
4.991736945333968
 20
4.850883942041264
 11
4.991736945333968
 21
4.557060643284785
 72
     1
 10
4.991736945333968
 20
4.557060643284785
 11
5.019171584733157
 21
4.557060643284785
 72
     1
 10
5.019171584733157
 20
4.557060643284785
 11
5.019171584733157
 21
4.850883942041264
 97
        1
330
14B
 75
     0
 76
     1
 98
        1
 10
0.0
 20
0.0
  0
LWPOLYLINE
  5
14B
102
{ACAD_REACTORS
330
14A
102
}
330
148
100
AcDbEntity
  8
0
100
AcDbPolyline
 90
        4
 70
     1
 43
0.0
 10
5.019171584733157
 20
4.850883942041264
 10
4.991736945333968
 20
4.850883942041264
 10
4.991736945333968
 20
4.557060643284785
 10
5.019171584733157
 20
4.557060643284785
  0
ENDBLK
  5
14D
330
148
100
AcDbEntity
  8
0
100
AcDbBlockEnd
  0
BLOCK
  5
154
330
14E
100
AcDbEntity
  8
0
100
AcDbBlockBegin
  2
elkon
 70
     0
 10
0.0
 20
0.0
 30
0.0
  3
elkon
  1

  0
LWPOLYLINE
  5
14F
102
{ACAD_REACTORS
330
153
102
}
330
14E
100
AcDbEntity
  8
0
100
AcDbPolyline
 90
        4
 70
     1
 43
0.0
 10
5.277469087657244
 20
7.736467907658294
 10
6.725437308244949
 20
7.736467907658294
 10
6.725437308244949
 20
7.545307269129267
 10
5.277469087657244
 20
7.545307269129267
  0
LWPOLYLINE
  5
150
330
14E
100
AcDbEntity
  8
0
100
AcDbPolyline
 90
        4
 70
     1
 43
0.0
 10
5.277469087657244
 20
7.381455311208465
 10
6.725437308244949
 20
7.381455311208465
 10
6.725437308244949
 20
7.190294672679439
 10
5.277469087657244
 20
7.190294672679439
  0
LWPOLYLINE
  5
151
330
14E
100
AcDbEntity
  8
0
100
AcDbPolyline
 90
        2
 70
     0
 43
0.0
 10
5.987793119210273
 20
7.736467907658294
 10
5.987793119210273
 20
8.337258440989323
  0
LWPOLYLINE
  5
152
330
14E
100
AcDbEntity
  8
0
100
AcDbPolyline
 90
        2
 70
     0
 43
0.0
 10
5.987793119210273
 20
7.190294672679439
 10
5.987793119210273
 20
6.507578139433253
  0
HATCH
  5
153
330
14E
100
AcDbEntity
  8
0
100
AcDbHatch
 10
0.0
 20
0.0
 30
0.0
210
0.0
220
0.0
230
1.0
  2
SOLID
 70
     1
 71
     1
 91
        1
 92
        1
 93
        4
 72
     1
 10
5.277469087657244
 20
7.736467907658294
 11
6.725437308244949
 21
7.736467907658294
 72
     1
 10
6.725437308244949
 20
7.736467907658294
 11
6.725437308244949
 21
7.545307269129267
 72
     1
 10
6.725437308244949
 20
7.545307269129267
 11
5.277469087657244
 21
7.545307269129267
 72
     1
 10
5.277469087657244
 20
7.545307269129267
 11
5.277469087657244
 21
7.736467907658294
 97
        1
330
14F
 75
     0
 76
     1
 98
        1
 10
0.0
 20
0.0
  0
ENDBLK
  5
155
330
14E
100
AcDbEntity
  8
0
100
AcDbBlockEnd
  0
BLOCK
  5
159
330
156
100
AcDbEntity
  8
0
100
AcDbBlockBegin
  2
tri
 70
     0
 10
0.0
 20
0.0
 30
0.0
  3
tri
  1

  0
ARC
  5
157
330
156
100
AcDbEntity
  8
CONSTR
370
    50
100
AcDbCircle
 10
8.146085339866083
 20
7.572615928782735
 30
0.0
 40
0.8498249588931228
100
AcDbArc
 50
17.41576346451058
 51
252.8164832811067
  0
LWPOLYLINE
  5
158
330
156
100
AcDbEntity
  8
CONSTR
370
    50
100
AcDbPolyline
 90
        2
 70
     0
 43
0.0
 10
7.888244942516251
 20
6.7539228815622
 10
8.968782859461427
 20
7.838849627961277
  0
ENDBLK
  5
15A
330
156
100
AcDbEntity
  8
0
100
AcDbBlockEnd
  0
BLOCK
  5
261
330
25F
100
AcDbEntity
  8
0
100
AcDbBlockBegin
  2
A$C0D510A1E
 70
     0
 10
0.0
 20
0.0
 30
0.0
  3
A$C0D510A1E
  1

  0
SOLID
  5
260
330
25F
100
AcDbEntity
  8
METAL1
100
AcDbTrace
 10
2.199999910967608
 20
0.0000000017052342
 30
0.0
 11
-0.0000000890323903
 21
0.0000000017052342
 31
0.0
 12
2.199999910967608
 22
2.400000001705234
 32
0.0
 13
-0.0000000890323903
 23
2.400000001705234
 33
0.0
  0
ENDBLK
  5
262
330
25F
100
AcDbEntity
  8
0
100
AcDbBlockEnd
  0
BLOCK
  5
268
330
264
100
AcDbEntity
  8
0
100
AcDbBlockBegin
  2
A$C320A6B3E
 70
     0
 10
0.0
 20
0.0
 30
0.0
  3
A$C320A6B3E
  1

  0
SOLID
  5
265
330
264
100
AcDbEntity
  8
METAL1
100
AcDbTrace
 10
0.7999998588735338
 20
1.599999855674287
 30
0.0
 11
1.59999985887353
 21
1.599999855674287
 31
0.0
 12
0.7999998588735338
 22
-0.000000144325714
 32
0.0
 13
1.59999985887353
 23
-0.000000144325714
 33
0.0
  0
SOLID
  5
266
330
264
100
AcDbEntity
  8
METAL1
100
AcDbTrace
 10
1.59999985887353
 20
0.7999998556742867
 30
0.0
 11
1.59999985887353
 21
-0.000000144325714
 31
0.0
 12
-0.0000001411264705
 22
0.7999998556742867
 32
0.0
 13
-0.0000001411264705
 23
-0.000000144325714
 33
0.0
  0
SOLID
  5
267
330
264
100
AcDbEntity
  8
METAL1
100
AcDbTrace
 10
0.7999998588735338
 20
-0.000000144325714
 30
0.0
 11
-0.0000001411264705
 21
-0.000000144325714
 31
0.0
 12
0.7999998588735338
 22
1.599999855674287
 32
0.0
 13
-0.0000001411264705
 23
1.599999855674287
 33
0.0
  0
ENDBLK
  5
269
330
264
100
AcDbEntity
  8
0
100
AcDbBlockEnd
  0
BLOCK
  5
2B5
330
2AA
100
AcDbEntity
  8
0
100
AcDbBlockBegin
  2
*D8
 70
     1
 10
0.0
 20
0.0
 30
0.0
  3
*D8
  1

  0
LINE
  5
320
330
2AA
100
AcDbEntity
  8
METAL1
 62
     0
370
    -2
100
AcDbLine
 10
1.166625879154651
 20
18.99598847915939
 30
0.0
 11
1.166625879154651
 21
18.80262466072566
 31
0.0
  0
LINE
  5
321
330
2AA
100
AcDbEntity
  8
METAL1
 62
     0
370
    -2
100
AcDbLine
 10
51.1794196978247
 20
18.99598847915939
 30
0.0
 11
51.1794196978247
 21
18.80262466072566
 31
0.0
  0
LINE
  5
322
330
2AA
100
AcDbEntity
  8
METAL1
 62
     0
370
    -2
100
AcDbLine
 10
2.96662587915465
 20
18.98262466072566
 30
0.0
 11
23.92302278848967
 21
18.98262466072566
 31
0.0
  0
LINE
  5
323
330
2AA
100
AcDbEntity
  8
METAL1
 62
     0
370
    -2
100
AcDbLine
 10
49.3794196978247
 20
18.98262466072566
 30
0.0
 11
28.42302278848967
 21
18.98262466072566
 31
0.0
  0
SOLID
  5
324
330
2AA
100
AcDbEntity
  8
METAL1
 62
     0
100
AcDbTrace
 10
2.96662587915465
 20
19.28262466072566
 30
0.0
 11
2.96662587915465
 21
18.68262466072566
 31
0.0
 12
1.166625879154651
 22
18.98262466072566
 32
0.0
 13
1.166625879154651
 23
18.98262466072566
 33
0.0
  0
SOLID
  5
325
330
2AA
100
AcDbEntity
  8
METAL1
 62
     0
100
AcDbTrace
 10
49.3794196978247
 20
19.28262466072566
 30
0.0
 11
49.3794196978247
 21
18.68262466072566
 31
0.0
 12
51.1794196978247
 22
18.98262466072566
 32
0.0
 13
51.1794196978247
 23
18.98262466072566
 33
0.0
  0
MTEXT
  5
326
330
2AA
100
AcDbEntity
  8
METAL1
 62
     0
100
AcDbMText
 10
26.17302278848967
 20
18.98262466072566
 30
0.0
 40
1.8
 41
0.0
 71
     5
 72
     1
  1
\A1;50
 73
     1
 44
1.0
  0
POINT
  5
327
330
2AA
100
AcDbEntity
  8
Defpoints
 62
     0
100
AcDbPoint
 10
1.166625879154651
 20
19.05848847915939
 30
0.0
  0
POINT
  5
328
330
2AA
100
AcDbEntity
  8
Defpoints
 62
     0
100
AcDbPoint
 10
51.1794196978247
 20
19.05848847915939
 30
0.0
  0
POINT
  5
329
330
2AA
100
AcDbEntity
  8
Defpoints
 62
     0
100
AcDbPoint
 10
51.1794196978247
 20
18.98262466072566
 30
0.0
  0
ENDBLK
  5
2B6
330
2AA
100
AcDbEntity
  8
0
100
AcDbBlockEnd
  0
BLOCK
  5
2C3
330
2B8
100
AcDbEntity
  8
0
100
AcDbBlockBegin
  2
*D9
 70
     1
 10
0.0
 20
0.0
 30
0.0
  3
*D9
  1

  0
LINE
  5
32A
330
2B8
100
AcDbEntity
  8
METAL1
 62
     0
370
    -2
100
AcDbLine
 10
52.60797511673485
 20
17.31362224340836
 30
0.0
 11
54.6986657150984
 21
17.31362224340836
 31
0.0
  0
LINE
  5
32B
330
2B8
100
AcDbEntity
  8
METAL1
 62
     0
370
    -2
100
AcDbLine
 10
52.60797511673485
 20
-22.66657227141814
 30
0.0
 11
54.6986657150984
 21
-22.66657227141814
 31
0.0
  0
LINE
  5
32C
330
2B8
100
AcDbEntity
  8
METAL1
 62
     0
370
    -2
100
AcDbLine
 10
54.5186657150984
 20
15.51362224340835
 30
0.0
 11
54.5186657150984
 21
-0.8764750140048946
 31
0.0
  0
LINE
  5
32D
330
2B8
100
AcDbEntity
  8
METAL1
 62
     0
370
    -2
100
AcDbLine
 10
54.51866571509839
 20
-20.86657227141814
 30
0.0
 11
54.5186657150984
 21
-4.476475014004894
 31
0.0
  0
SOLID
  5
32E
330
2B8
100
AcDbEntity
  8
METAL1
 62
     0
100
AcDbTrace
 10
54.2186657150984
 20
15.51362224340835
 30
0.0
 11
54.8186657150984
 21
15.51362224340835
 31
0.0
 12
54.51866571509841
 22
17.31362224340836
 32
0.0
 13
54.51866571509841
 23
17.31362224340836
 33
0.0
  0
SOLID
  5
32F
330
2B8
100
AcDbEntity
  8
METAL1
 62
     0
100
AcDbTrace
 10
54.21866571509839
 20
-20.86657227141814
 30
0.0
 11
54.81866571509839
 21
-20.86657227141814
 31
0.0
 12
54.51866571509839
 22
-22.66657227141814
 32
0.0
 13
54.51866571509839
 23
-22.66657227141814
 33
0.0
  0
MTEXT
  5
330
330
2B8
100
AcDbEntity
  8
METAL1
 62
     0
100
AcDbMText
 10
54.5186657150984
 20
-2.676475014004886
 30
0.0
 40
1.8
 41
0.0
 71
     5
 72
     1
  1
\A1;40
 73
     1
 44
1.0
  0
POINT
  5
331
330
2B8
100
AcDbEntity
  8
Defpoints
 62
     0
100
AcDbPoint
 10
52.54547511673485
 20
17.31362224340836
 30
0.0
  0
POINT
  5
332
330
2B8
100
AcDbEntity
  8
Defpoints
 62
     0
100
AcDbPoint
 10
52.54547511673485
 20
-22.66657227141814
 30
0.0
  0
POINT
  5
333
330
2B8
100
AcDbEntity
  8
Defpoints
 62
     0
100
AcDbPoint
 10
54.51866571509839
 20
-22.66657227141814
 30
0.0
  0
ENDBLK
  5
2C4
330
2B8
100
AcDbEntity
  8
0
100
AcDbBlockEnd
  0
ENDSEC
  0
SECTION
  2
ENTITIES
  0
SOLID
  5
23
330
1E
100
AcDbEntity
  8
METAL1
100
AcDbTrace
 10
3.646148286092113
 20
1.176438708413433
 30
0.0
 11
11.64614828609211
 21
1.176438708413433
 31
0.0
 12
3.646148286092113
 22
-1.523561291586565
 32
0.0
 13
11.64614828609211
 23
-1.523561291586565
 33
0.0
  0
SOLID
  5
24
330
1E
100
AcDbEntity
  8
METAL1
100
AcDbTrace
 10
12.44614828609211
 20
-1.523561291586565
 30
0.0
 11
11.64614828609211
 21
-1.523561291586565
 31
0.0
 12
12.44614828609211
 22
1.176438708413433
 32
0.0
 13
11.64614828609211
 23
1.176438708413433
 33
0.0
  0
SOLID
  5
25
330
1E
100
AcDbEntity
  8
METAL1
100
AcDbTrace
 10
12.44614828609211
 20
1.176438708413433
 30
0.0
 11
13.24614828609211
 21
1.176438708413433
 31
0.0
 12
12.44614828609211
 22
-1.523561291586565
 32
0.0
 13
13.24614828609211
 23
-1.523561291586565
 33
0.0
  0
SOLID
  5
26
330
1E
100
AcDbEntity
  8
METAL1
100
AcDbTrace
 10
13.24614828609211
 20
-0.1735612915865659
 30
0.0
 11
13.24614828609211
 21
-1.523561291586565
 31
0.0
 12
11.64614828609211
 22
-0.1735612915865659
 32
0.0
 13
11.64614828609211
 23
-1.523561291586565
 33
0.0
  0
SOLID
  5
53
330
1E
100
AcDbEntity
  8
METAL1
100
AcDbTrace
 10
16.93351959262479
 20
-1.2867809634384
 30
0.0
 11
14.73351959262479
 21
-1.2867809634384
 31
0.0
 12
16.93351959262479
 22
1.113219036561599
 32
0.0
 13
14.73351959262479
 23
1.113219036561599
 33
0.0
  0
SOLID
  5
54
330
1E
100
AcDbEntity
  8
METAL1
100
AcDbTrace
 10
25.1
 20
-1.199999999999999
 30
0.0
 11
22.9
 21
-1.199999999999999
 31
0.0
 12
25.1
 22
1.199999999999999
 32
0.0
 13
22.9
 23
1.199999999999999
 33
0.0
  0
SOLID
  5
64
330
1E
100
AcDbEntity
  8
METAL1
100
AcDbTrace
 10
25.4
 20
0.125
 30
0.0
 11
26.2
 21
0.125
 31
0.0
 12
25.4
 22
-0.125
 32
0.0
 13
26.2
 23
-0.125
 33
0.0
  0
SOLID
  5
65
330
1E
100
AcDbEntity
  8
METAL1
100
AcDbTrace
 10
25.4
 20
-0.125
 30
0.0
 11
24.6
 21
-0.125
 31
0.0
 12
25.4
 22
0.125
 32
0.0
 13
24.6
 23
0.125
 33
0.0
  0
SOLID
  5
66
330
1E
100
AcDbEntity
  8
METAL1
100
AcDbTrace
 10
24.6
 20
0.0
 30
0.0
 11
24.6
 21
0.125
 31
0.0
 12
26.2
 22
0.0
 32
0.0
 13
26.2
 23
0.125
 33
0.0
  0
SOLID
  5
67
330
1E
100
AcDbEntity
  8
METAL1
100
AcDbTrace
 10
26.2
 20
0.5
 30
0.0
 11
26.89999999999999
 21
0.5
 31
0.0
 12
26.2
 22
-0.5
 32
0.0
 13
26.89999999999999
 23
-0.5
 33
0.0
  0
SOLID
  5
7D
330
1E
100
AcDbEntity
  8
METAL1
100
AcDbTrace
 10
27.03
 20
-0.425
 30
0.0
 11
26.18
 21
-0.425
 31
0.0
 12
27.03
 22
0.425
 32
0.0
 13
26.18
 23
0.425
 33
0.0
  0
SOLID
  5
7F
330
1E
100
AcDbEntity
  8
METAL1
100
AcDbTrace
 10
27.03
 20
-2.325
 30
0.0
 11
26.18
 21
-2.325
 31
0.0
 12
27.03
 22
-1.475
 32
0.0
 13
26.18
 23
-1.475
 33
0.0
  0
SOLID
  5
81
330
1E
100
AcDbEntity
  8
METAL1
100
AcDbTrace
 10
28.07
 20
-1.1
 30
0.0
 11
28.92
 21
-1.1
 31
0.0
 12
28.07
 22
-2.299999999999999
 32
0.0
 13
28.92
 23
-2.299999999999999
 33
0.0
  0
SOLID
  5
83
330
1E
100
AcDbEntity
  8
METAL1
100
AcDbTrace
 10
28.07
 20
0.425
 30
0.0
 11
28.92
 21
0.425
 31
0.0
 12
28.07
 22
-0.425
 32
0.0
 13
28.92
 23
-0.425
 33
0.0
  0
SOLID
  5
93
330
1E
100
AcDbEntity
  8
METAL1
100
AcDbTrace
 10
28.19
 20
-1.1
 30
0.0
 11
29.69
 21
-1.1
 31
0.0
 12
28.19
 22
-2.299999999999999
 32
0.0
 13
29.69
 23
-2.299999999999999
 33
0.0
  0
SOLID
  5
94
330
1E
100
AcDbEntity
  8
METAL1
100
AcDbTrace
 10
30.48999999999999
 20
-2.299999999999999
 30
0.0
 11
29.69
 21
-2.299999999999999
 31
0.0
 12
30.48999999999999
 22
-1.1
 32
0.0
 13
29.69
 23
-1.1
 33
0.0
  0
SOLID
  5
95
330
1E
100
AcDbEntity
  8
METAL1
100
AcDbTrace
 10
30.48999999999999
 20
-0.9
 30
0.0
 11
31.29
 21
-0.9
 31
0.0
 12
30.48999999999999
 22
-2.5
 32
0.0
 13
31.29
 23
-2.5
 33
0.0
  0
SOLID
  5
96
330
1E
100
AcDbEntity
  8
METAL1
100
AcDbTrace
 10
29.69
 20
-1.7
 30
0.0
 11
29.69
 21
-0.9
 31
0.0
 12
31.29
 22
-1.7
 32
0.0
 13
31.29
 23
-0.9
 33
0.0
  0
SOLID
  5
97
330
1E
100
AcDbEntity
  8
METAL1
100
AcDbTrace
 10
30.615
 20
-1.7
 30
0.0
 11
30.615
 21
-2.5
 31
0.0
 12
30.365
 22
-1.7
 32
0.0
 13
30.365
 23
-2.5
 33
0.0
  0
SOLID
  5
98
330
1E
100
AcDbEntity
  8
METAL1
100
AcDbTrace
 10
29.6518
 20
-1.55
 30
0.0
 11
29.6518
 21
-0.4324
 31
0.0
 12
31.3282
 22
-1.55
 32
0.0
 13
31.3282
 23
-0.4324
 33
0.0
  0
SOLID
  5
99
330
1E
100
AcDbEntity
  8
METAL1
100
AcDbTrace
 10
29.6518
 20
1.399999999999999
 30
0.0
 11
29.6518
 21
2.517599999999999
 31
0.0
 12
31.3282
 22
1.399999999999999
 32
0.0
 13
31.3282
 23
2.517599999999999
 33
0.0
  0
SOLID
  5
9E
330
1E
100
AcDbEntity
  8
METAL1
100
AcDbTrace
 10
30.365
 20
1.9
 30
0.0
 11
30.365
 21
2.9
 31
0.0
 12
30.615
 22
1.9
 32
0.0
 13
30.615
 23
2.9
 33
0.0
  0
SOLID
  5
9F
330
1E
100
AcDbEntity
  8
METAL1
100
AcDbTrace
 10
30.365
 20
2.9
 30
0.0
 11
30.365
 21
3.149999999999999
 31
0.0
 12
30.365
 22
2.9
 32
0.0
 13
30.615
 23
2.9
 33
0.0
  0
SOLID
  5
A0
330
1E
100
AcDbEntity
  8
METAL1
100
AcDbTrace
 10
25.665
 20
3.149999999999999
 30
0.0
 11
30.365
 21
3.149999999999999
 31
0.0
 12
25.665
 22
2.9
 32
0.0
 13
30.365
 23
2.9
 33
0.0
  0
SOLID
  5
A1
330
1E
100
AcDbEntity
  8
METAL1
100
AcDbTrace
 10
25.665
 20
2.9
 30
0.0
 11
25.415
 21
2.9
 31
0.0
 12
25.665
 22
2.9
 32
0.0
 13
25.665
 23
3.149999999999999
 33
0.0
  0
SOLID
  5
B1
330
1E
100
AcDbEntity
  8
METAL1
100
AcDbTrace
 10
24.5618
 20
-0.525
 30
0.0
 11
24.5618
 21
0.5926000000000001
 31
0.0
 12
26.2382
 22
-0.525
 32
0.0
 13
26.2382
 23
0.5926000000000001
 33
0.0
  0
SOLID
  5
B2
330
1E
100
AcDbEntity
  8
METAL1
100
AcDbTrace
 10
24.5618
 20
2.424999999999999
 30
0.0
 11
24.5618
 21
3.5426
 31
0.0
 12
26.2382
 22
2.424999999999999
 32
0.0
 13
26.2382
 23
3.5426
 33
0.0
  0
SOLID
  5
C6
330
1E
100
AcDbEntity
  8
METAL1
100
AcDbTrace
 10
30.64
 20
-0.8618
 30
0.0
 11
31.7576
 21
-0.8618
 31
0.0
 12
30.64
 22
-2.538199999999999
 32
0.0
 13
31.7576
 23
-2.538199999999999
 33
0.0
  0
SOLID
  5
C7
330
1E
100
AcDbEntity
  8
METAL1
100
AcDbTrace
 10
33.59
 20
-0.8618
 30
0.0
 11
34.7076
 21
-0.8618
 31
0.0
 12
33.59
 22
-2.538199999999999
 32
0.0
 13
34.7076
 23
-2.538199999999999
 33
0.0
  0
SOLID
  5
DB
330
1E
100
AcDbEntity
  8
METAL1
100
AcDbTrace
 10
34.09
 20
-0.35
 30
0.0
 11
49.09
 21
-0.35
 31
0.0
 12
34.09
 22
-3.049999999999999
 32
0.0
 13
49.09
 23
-3.049999999999999
 33
0.0
  0
SOLID
  5
DC
330
1E
100
AcDbEntity
  8
METAL1
100
AcDbTrace
 10
30.365
 20
-12.5
 30
0.0
 11
30.365
 21
-2.5
 31
0.0
 12
30.615
 22
-12.5
 32
0.0
 13
30.615
 23
-2.5
 33
0.0
  0
SOLID
  5
DD
330
1E
100
AcDbEntity
  8
METAL1
100
AcDbTrace
 10
30.615
 20
-12.5
 30
0.0
 11
30.615
 21
-12.75
 31
0.0
 12
30.615
 22
-12.5
 32
0.0
 13
30.365
 23
-12.5
 33
0.0
  0
SOLID
  5
DE
330
1E
100
AcDbEntity
  8
METAL1
100
AcDbTrace
 10
34.50509999999999
 20
-12.75
 30
0.0
 11
30.615
 21
-12.75
 31
0.0
 12
34.50509999999999
 22
-12.5
 32
0.0
 13
30.615
 23
-12.5
 33
0.0
  0
SOLID
  5
DF
330
1E
100
AcDbEntity
  8
METAL1
100
AcDbTrace
 10
35.3051
 20
-12.75
 30
0.0
 11
34.50509999999999
 21
-12.75
 31
0.0
 12
35.3051
 22
-12.5
 32
0.0
 13
34.50509999999999
 23
-12.5
 33
0.0
  0
SOLID
  5
E0
330
1E
100
AcDbEntity
  8
METAL1
100
AcDbTrace
 10
35.3051
 20
-11.82499999999999
 30
0.0
 11
36.1051
 21
-11.82499999999999
 31
0.0
 12
35.3051
 22
-13.425
 32
0.0
 13
36.1051
 23
-13.425
 33
0.0
  0
SOLID
  5
E1
330
1E
100
AcDbEntity
  8
METAL1
100
AcDbTrace
 10
36.1051
 20
-12.625
 30
0.0
 11
36.1051
 21
-13.425
 31
0.0
 12
34.50509999999999
 22
-12.625
 32
0.0
 13
34.50509999999999
 23
-13.425
 33
0.0
  0
SOLID
  5
E2
330
1E
100
AcDbEntity
  8
METAL1
100
AcDbTrace
 10
39.5551
 20
-13.4632
 30
0.0
 11
38.4375
 21
-13.4632
 31
0.0
 12
39.5551
 22
-11.78679999999999
 32
0.0
 13
38.4375
 23
-11.78679999999999
 33
0.0
  0
SOLID
  5
E3
330
1E
100
AcDbEntity
  8
METAL1
100
AcDbTrace
 10
36.6051
 20
-13.4632
 30
0.0
 11
35.4875
 21
-13.4632
 31
0.0
 12
36.6051
 22
-11.78679999999999
 32
0.0
 13
35.4875
 23
-11.78679999999999
 33
0.0
  0
SOLID
  5
E8
330
1E
100
AcDbEntity
  8
METAL1
100
AcDbTrace
 10
39.7051
 20
-13.425
 30
0.0
 11
38.90509999999999
 21
-13.425
 31
0.0
 12
39.7051
 22
-11.82499999999999
 32
0.0
 13
38.90509999999999
 23
-11.82499999999999
 33
0.0
  0
SOLID
  5
E9
330
1E
100
AcDbEntity
  8
METAL1
100
AcDbTrace
 10
39.7051
 20
-11.82499999999999
 30
0.0
 11
40.5051
 21
-11.82499999999999
 31
0.0
 12
39.7051
 22
-13.425
 32
0.0
 13
40.5051
 23
-13.425
 33
0.0
  0
SOLID
  5
EA
330
1E
100
AcDbEntity
  8
METAL1
100
AcDbTrace
 10
40.5051
 20
-12.625
 30
0.0
 11
40.5051
 21
-13.425
 31
0.0
 12
38.90509999999999
 22
-12.625
 32
0.0
 13
38.90509999999999
 23
-13.425
 33
0.0
  0
SOLID
  5
EB
330
1E
100
AcDbEntity
  8
METAL1
100
AcDbTrace
 10
40.5433
 20
-12.775
 30
0.0
 11
40.5433
 21
-13.8926
 31
0.0
 12
38.8669
 22
-12.775
 32
0.0
 13
38.8669
 23
-13.8926
 33
0.0
  0
SOLID
  5
EC
330
1E
100
AcDbEntity
  8
METAL1
100
AcDbTrace
 10
40.5433
 20
-15.72499999999999
 30
0.0
 11
40.5433
 21
-16.8426
 31
0.0
 12
38.8669
 22
-15.72499999999999
 32
0.0
 13
38.8669
 23
-16.8426
 33
0.0
  0
SOLID
  5
F1
330
1E
100
AcDbEntity
  8
METAL1
100
AcDbTrace
 10
40.5051
 20
-16.225
 30
0.0
 11
40.5051
 21
-17.82499999999999
 31
0.0
 12
38.90509999999999
 22
-16.225
 32
0.0
 13
38.90509999999999
 23
-17.82499999999999
 33
0.0
  0
LWPOLYLINE
  5
F3
330
1E
100
AcDbEntity
  8
GND
100
AcDbPolyline
 90
        2
 70
     0
 43
0.2
 10
39.7051
 20
-17.425
 42
1.0
 10
39.7051
 20
-16.625
  0
LWPOLYLINE
  5
F7
330
1E
100
AcDbEntity
  8
GND
100
AcDbPolyline
 90
        2
 70
     0
 43
0.2
 10
39.7051
 20
-16.625
 42
1.0
 10
39.7051
 20
-17.425
  0
SOLID
  5
FB
330
1E
100
AcDbEntity
  8
METAL1
100
AcDbTrace
 10
36.1433
 20
-12.775
 30
0.0
 11
36.1433
 21
-13.8926
 31
0.0
 12
34.4669
 22
-12.775
 32
0.0
 13
34.4669
 23
-13.8926
 33
0.0
  0
SOLID
  5
FC
330
1E
100
AcDbEntity
  8
METAL1
100
AcDbTrace
 10
36.1433
 20
-15.72499999999999
 30
0.0
 11
36.1433
 21
-16.8426
 31
0.0
 12
34.4669
 22
-15.72499999999999
 32
0.0
 13
34.4669
 23
-16.8426
 33
0.0
  0
SOLID
  5
101
330
1E
100
AcDbEntity
  8
METAL1
100
AcDbTrace
 10
36.1051
 20
-16.225
 30
0.0
 11
36.1051
 21
-17.82499999999999
 31
0.0
 12
34.50509999999999
 22
-16.225
 32
0.0
 13
34.50509999999999
 23
-17.82499999999999
 33
0.0
  0
LWPOLYLINE
  5
102
330
1E
100
AcDbEntity
  8
GND
100
AcDbPolyline
 90
        2
 70
     0
 43
0.2
 10
35.3051
 20
-17.425
 42
1.0
 10
35.3051
 20
-16.625
  0
LWPOLYLINE
  5
106
330
1E
100
AcDbEntity
  8
GND
100
AcDbPolyline
 90
        2
 70
     0
 43
0.2
 10
35.3051
 20
-16.625
 42
1.0
 10
35.3051
 20
-17.425
  0
SOLID
  5
119
330
1E
100
AcDbEntity
  8
METAL1
100
AcDbTrace
 10
26.89999999999999
 20
-1.31
 30
0.0
 11
26.89999999999999
 21
-2.509999999999999
 31
0.0
 12
25.7
 22
-1.31
 32
0.0
 13
25.7
 23
-2.509999999999999
 33
0.0
  0
LWPOLYLINE
  5
11A
330
1E
100
AcDbEntity
  8
GND
100
AcDbPolyline
 90
        2
 70
     0
 43
0.2
 10
26.3
 20
-2.31
 42
1.0
 10
26.3
 20
-1.509999999999999
  0
LWPOLYLINE
  5
11E
330
1E
100
AcDbEntity
  8
GND
100
AcDbPolyline
 90
        2
 70
     0
 43
0.2
 10
26.3
 20
-1.509999999999999
 42
1.0
 10
26.3
 20
-2.31
  0
SOLID
  5
122
330
1E
100
AcDbEntity
  8
METAL1
100
AcDbTrace
 10
11.60794828609211
 20
-4.973561291586565
 30
0.0
 11
11.60794828609211
 21
-3.855961291586565
 31
0.0
 12
13.28434828609211
 22
-4.973561291586565
 32
0.0
 13
13.28434828609211
 23
-3.855961291586565
 33
0.0
  0
SOLID
  5
123
330
1E
100
AcDbEntity
  8
METAL1
100
AcDbTrace
 10
11.60794828609211
 20
-2.023561291586565
 30
0.0
 11
11.60794828609211
 21
-0.905961291586566
 31
0.0
 12
13.28434828609211
 22
-2.023561291586565
 32
0.0
 13
13.28434828609211
 23
-0.905961291586566
 33
0.0
  0
SOLID
  5
128
330
1E
100
AcDbEntity
  8
METAL1
100
AcDbTrace
 10
13.24614828609211
 20
-5.923561291586565
 30
0.0
 11
11.64614828609211
 21
-5.923561291586565
 31
0.0
 12
13.24614828609211
 22
-4.323561291586566
 32
0.0
 13
11.64614828609211
 23
-4.323561291586566
 33
0.0
  0
LWPOLYLINE
  5
129
330
1E
100
AcDbEntity
  8
GND
100
AcDbPolyline
 90
        2
 70
     0
 43
0.2
 10
12.44614828609211
 20
-5.523561291586565
 42
1.0
 10
12.44614828609211
 20
-4.723561291586565
  0
LWPOLYLINE
  5
12D
330
1E
100
AcDbEntity
  8
GND
100
AcDbPolyline
 90
        2
 70
     0
 43
0.2
 10
12.44614828609211
 20
-4.723561291586565
 42
1.0
 10
12.44614828609211
 20
-5.523561291586565
  0
TEXT
  5
1DE
330
1E
100
AcDbEntity
  8
CONSTR
100
AcDbText
 10
16.86160626735027
 20
-0.8359726822840123
 30
0.0
 40
0.3
  1

100
AcDbText
  0
SOLID
  5
1DF
330
1E
100
AcDbEntity
  8
CONSTR
100
AcDbTrace
 10
24.64174994137681
 20
2.502420333996766
 30
0.0
 11
24.64174994137681
 21
-0.0975796660032344
 31
0.0
 12
24.59174994137681
 22
2.502420333996766
 32
0.0
 13
24.59174994137681
 23
-0.0975796660032344
 33
0.0
  0
SOLID
  5
1E0
330
1E
100
AcDbEntity
  8
CONSTR
100
AcDbTrace
 10
26.89174994137681
 20
0.002420333996767
 30
0.0
 11
26.89174994137681
 21
0.5124203339967686
 31
0.0
 12
26.94174994137681
 22
0.002420333996767
 32
0.0
 13
26.94174994137681
 23
0.5124203339967686
 33
0.0
  0
SOLID
  5
1E1
330
1E
100
AcDbEntity
  8
CONSTR
100
AcDbTrace
 10
26.92674994137681
 20
-0.2175796660032319
 30
0.0
 11
26.42674994137681
 21
-0.2175796660032319
 31
0.0
 12
26.92674994137681
 22
0.2224203339967659
 32
0.0
 13
26.42674994137681
 23
0.2224203339967659
 33
0.0
  0
SOLID
  5
1E2
330
1E
100
AcDbEntity
  8
CONSTR
100
AcDbTrace
 10
26.91674994137681
 20
-2.117579666003233
 30
0.0
 11
26.41674994137681
 21
-2.117579666003233
 31
0.0
 12
26.91674994137681
 22
-1.677579666003232
 32
0.0
 13
26.41674994137681
 23
-1.677579666003232
 33
0.0
  0
SOLID
  5
1E3
330
1E
100
AcDbEntity
  8
CONSTR
100
AcDbTrace
 10
28.20674994137681
 20
-1.267579666003232
 30
0.0
 11
28.70674994137681
 21
-1.267579666003232
 31
0.0
 12
28.20674994137681
 22
-2.127579666003232
 32
0.0
 13
28.70674994137681
 23
-2.127579666003232
 33
0.0
  0
SOLID
  5
1E4
330
1E
100
AcDbEntity
  8
CONSTR
100
AcDbTrace
 10
28.20674994137681
 20
0.2224203339967659
 30
0.0
 11
28.70674994137681
 21
0.2224203339967659
 31
0.0
 12
28.20674994137681
 22
-0.2175796660032319
 32
0.0
 13
28.70674994137681
 23
-0.2175796660032319
 33
0.0
  0
SOLID
  5
1E5
330
1E
100
AcDbEntity
  8
CONSTR
100
AcDbTrace
 10
29.68174994137681
 20
-1.097579666003234
 30
0.0
 11
29.68174994137681
 21
2.102420333996768
 31
0.0
 12
29.73174994137682
 22
-1.097579666003234
 32
0.0
 13
29.73174994137682
 23
2.102420333996768
 33
0.0
  0
SOLID
  5
1E6
330
1E
100
AcDbEntity
  8
CONSTR
100
AcDbTrace
 10
24.61674994137681
 20
-0.0475796660032337
 30
0.0
 11
26.21674994137681
 21
-0.0475796660032337
 31
0.0
 12
24.61674994137681
 22
-0.0975796660032344
 32
0.0
 13
26.21674994137681
 23
-0.0975796660032344
 33
0.0
  0
SOLID
  5
1E7
330
1E
100
AcDbEntity
  8
CONSTR
100
AcDbTrace
 10
24.59174994137681
 20
-0.0725796660032323
 30
0.0
 11
24.59174994137681
 21
3.127420333996766
 31
0.0
 12
24.64174994137681
 22
-0.0725796660032323
 32
0.0
 13
24.64174994137681
 23
3.127420333996766
 33
0.0
  0
SOLID
  5
1E8
330
1E
100
AcDbEntity
  8
CONSTR
100
AcDbTrace
 10
26.19174994137681
 20
-0.0725796660032323
 30
0.0
 11
26.19174994137681
 21
3.127420333996766
 31
0.0
 12
26.24174994137681
 22
-0.0725796660032323
 32
0.0
 13
26.24174994137681
 23
3.127420333996766
 33
0.0
  0
SOLID
  5
1E9
330
1E
100
AcDbEntity
  8
CONSTR
100
AcDbTrace
 10
24.61674994137681
 20
3.152420333996765
 30
0.0
 11
26.21674994137681
 21
3.152420333996765
 31
0.0
 12
24.61674994137681
 22
3.102420333996768
 32
0.0
 13
26.21674994137681
 23
3.102420333996768
 33
0.0
  0
SOLID
  5
1EA
330
1E
100
AcDbEntity
  8
CONSTR
100
AcDbTrace
 10
31.13174994137681
 20
-0.8975796660032315
 30
0.0
 11
31.13174994137681
 21
-2.497579666003233
 31
0.0
 12
31.08174994137681
 22
-0.8975796660032315
 32
0.0
 13
31.08174994137681
 23
-2.497579666003233
 33
0.0
  0
SOLID
  5
1EB
330
1E
100
AcDbEntity
  8
CONSTR
100
AcDbTrace
 10
31.10674994137681
 20
-0.872579666003233
 30
0.0
 11
34.30674994137681
 21
-0.872579666003233
 31
0.0
 12
31.10674994137681
 22
-0.9225796660032337
 32
0.0
 13
34.30674994137681
 23
-0.9225796660032337
 33
0.0
  0
SOLID
  5
1EC
330
1E
100
AcDbEntity
  8
CONSTR
100
AcDbTrace
 10
31.10674994137681
 20
-2.472579666003234
 30
0.0
 11
34.30674994137681
 21
-2.472579666003234
 31
0.0
 12
31.10674994137681
 22
-2.522579666003231
 32
0.0
 13
34.30674994137681
 23
-2.522579666003231
 33
0.0
  0
SOLID
  5
1ED
330
1E
100
AcDbEntity
  8
CONSTR
100
AcDbTrace
 10
34.33174994137681
 20
-0.8975796660032315
 30
0.0
 11
34.33174994137681
 21
-2.497579666003233
 31
0.0
 12
34.28174994137681
 22
-0.8975796660032315
 32
0.0
 13
34.28174994137681
 23
-2.497579666003233
 33
0.0
  0
SOLID
  5
1EF
330
1E
100
AcDbEntity
  8
CONSTR
100
AcDbTrace
 10
40.43667012214578
 20
-13.40871020009916
 30
0.0
 11
38.83667012214579
 21
-13.40871020009916
 31
0.0
 12
40.43667012214578
 22
-13.35871020009916
 32
0.0
 13
38.83667012214579
 23
-13.35871020009916
 33
0.0
  0
SOLID
  5
1F0
330
1E
100
AcDbEntity
  8
CONSTR
100
AcDbTrace
 10
36.03667012214578
 20
-13.40871020009916
 30
0.0
 11
34.43667012214578
 21
-13.40871020009916
 31
0.0
 12
36.03667012214578
 22
-13.35871020009916
 32
0.0
 13
34.43667012214578
 23
-13.35871020009916
 33
0.0
  0
SOLID
  5
1F1
330
1E
100
AcDbEntity
  8
CONSTR
100
AcDbTrace
 10
35.81167012214578
 20
-13.58371020009916
 30
0.0
 11
35.81167012214578
 21
-11.98371020009916
 31
0.0
 12
35.86167012214579
 22
-13.58371020009916
 32
0.0
 13
35.86167012214579
 23
-11.98371020009916
 33
0.0
  0
SOLID
  5
1F2
330
1E
100
AcDbEntity
  8
CONSTR
100
AcDbTrace
 10
29.70674994137681
 20
-1.072579666003232
 30
0.0
 11
31.30674994137681
 21
-1.072579666003232
 31
0.0
 12
29.70674994137681
 22
-1.122579666003233
 32
0.0
 13
31.30674994137681
 23
-1.122579666003233
 33
0.0
  0
SOLID
  5
1F3
330
1E
100
AcDbEntity
  8
CONSTR
100
AcDbTrace
 10
29.70674994137681
 20
2.127420333996766
 30
0.0
 11
31.30674994137681
 21
2.127420333996766
 31
0.0
 12
29.70674994137681
 22
2.077420333996769
 32
0.0
 13
31.30674994137681
 23
2.077420333996769
 33
0.0
  0
SOLID
  5
1F4
330
1E
100
AcDbEntity
  8
CONSTR
100
AcDbTrace
 10
39.01167012214578
 20
-13.58371020009916
 30
0.0
 11
39.01167012214578
 21
-11.98371020009916
 31
0.0
 12
39.06167012214578
 22
-13.58371020009916
 32
0.0
 13
39.06167012214578
 23
-11.98371020009916
 33
0.0
  0
SOLID
  5
1F5
330
1E
100
AcDbEntity
  8
CONSTR
100
AcDbTrace
 10
39.03667012214578
 20
-13.60871020009916
 30
0.0
 11
35.83667012214579
 21
-13.60871020009916
 31
0.0
 12
39.03667012214578
 22
-13.55871020009916
 32
0.0
 13
35.83667012214579
 23
-13.55871020009916
 33
0.0
  0
SOLID
  5
1F6
330
1E
100
AcDbEntity
  8
CONSTR
100
AcDbTrace
 10
40.43667012214578
 20
-16.60871020009916
 30
0.0
 11
38.83667012214579
 21
-16.60871020009916
 31
0.0
 12
40.43667012214578
 22
-16.55871020009916
 32
0.0
 13
38.83667012214579
 23
-16.55871020009916
 33
0.0
  0
SOLID
  5
1F7
330
1E
100
AcDbEntity
  8
CONSTR
100
AcDbTrace
 10
36.03667012214578
 20
-16.60871020009916
 30
0.0
 11
34.43667012214578
 21
-16.60871020009916
 31
0.0
 12
36.03667012214578
 22
-16.55871020009916
 32
0.0
 13
34.43667012214578
 23
-16.55871020009916
 33
0.0
  0
SOLID
  5
1F8
330
1E
100
AcDbEntity
  8
CONSTR
100
AcDbTrace
 10
26.89174994137681
 20
-2.407579666003233
 30
0.0
 11
26.89174994137681
 21
0.002420333996767
 31
0.0
 12
26.94174994137681
 22
-2.407579666003233
 32
0.0
 13
26.94174994137681
 23
0.002420333996767
 33
0.0
  0
SOLID
  5
1F9
330
1E
100
AcDbEntity
  8
CONSTR
100
AcDbTrace
 10
26.91674994137681
 20
0.5374203339967672
 30
0.0
 11
28.20674994137681
 21
0.5374203339967672
 31
0.0
 12
26.91674994137681
 22
0.4874203339967665
 32
0.0
 13
28.20674994137681
 23
0.4874203339967665
 33
0.0
  0
SOLID
  5
1FA
330
1E
100
AcDbEntity
  8
CONSTR
100
AcDbTrace
 10
28.23174994137681
 20
0.5124203339967686
 30
0.0
 11
28.23174994137681
 21
-2.407579666003233
 31
0.0
 12
28.18174994137681
 22
0.5124203339967686
 32
0.0
 13
28.18174994137681
 23
-2.407579666003233
 33
0.0
  0
SOLID
  5
1FB
330
1E
100
AcDbEntity
  8
CONSTR
100
AcDbTrace
 10
28.20674994137681
 20
-2.432579666003235
 30
0.0
 11
26.91674994137681
 21
-2.432579666003235
 31
0.0
 12
28.20674994137681
 22
-2.382579666003231
 32
0.0
 13
26.91674994137681
 23
-2.382579666003231
 33
0.0
  0
CIRCLE
  5
1FC
330
1E
100
AcDbEntity
  8
CONSTR
370
    30
100
AcDbCircle
 10
19.92188368312103
 20
-0.1063563681960034
 30
0.0
 40
1.136483575809477
  0
LWPOLYLINE
  5
1FD
330
1E
100
AcDbEntity
  8
CONSTR
370
    30
100
AcDbPolyline
 90
        2
 70
     0
 43
0.0
 10
18.83173053992858
 20
-0.1971686449734307
 10
20.96661368833604
 20
-0.1971686449734307
  0
LWPOLYLINE
  5
1FE
330
1E
100
AcDbEntity
  8
CONSTR
370
    30
100
AcDbPolyline
 90
        2
 70
     0
 43
0.0
 10
18.92257668833842
 20
-0.0155440033542504
 10
21.05745983674587
 20
-0.0155440033542504
  0
LWPOLYLINE
  5
1FF
330
1E
100
AcDbEntity
  8
CONSTR
100
AcDbPolyline
 90
        2
 70
     0
 43
0.0
 10
13.35927957296618
 20
2.249446607136505
 10
13.99560154190457
 20
-2.151326397051416
  0
LWPOLYLINE
  5
202
330
1E
100
AcDbEntity
  8
CONSTR
100
AcDbPolyline
 90
        2
 70
     0
 43
0.0
 10
14.6485232074713
 20
-2.15132639705142
 10
14.00113474100745
 20
2.243911080400451
  0
ARC
  5
206
330
1E
100
AcDbEntity
  8
CONSTR
100
AcDbCircle
 10
13.68099354719428
 20
2.243243972154942
 30
0.0
 40
0.3256099016146134
100
AcDbArc
 50
359.9495733215438
 51
180.0504266784561
  0
LWPOLYLINE
  5
20A
330
1E
100
AcDbEntity
  8
CONSTR
100
AcDbPolyline
 90
        2
 70
     0
 43
0.0
 10
14.6485232074713
 20
-2.15132639705142
 10
15.0027937510239
 20
0.1112885968614421
  0
ARC
  5
20C
330
1E
100
AcDbEntity
  8
CONSTR
100
AcDbCircle
 10
14.32095019799481
 20
-2.1476391561809
 30
0.0
 40
0.3256099016146134
100
AcDbArc
 50
180.6813662363378
 51
359.3186337636621
  0
LWPOLYLINE
  5
22D
330
1E
100
AcDbEntity
  8
CONSTR
100
AcDbPolyline
 90
        2
 70
     0
 43
0.0
 10
14.64003724941194
 20
-2.199116775525656
 10
14.99492077876269
 20
0.0466069264888311
  0
ARC
  5
231
330
1E
100
AcDbEntity
  8
CONSTR
100
AcDbCircle
 10
14.67591471982952
 20
0.1464757269403378
 30
0.0
 40
0.3256099016146134
100
AcDbArc
 50
356.5051155470028
 51
183.4948844529971
  0
ARC
  5
232
330
1E
100
AcDbEntity
  8
CONSTR
100
AcDbCircle
 10
13.31848307804137
 20
-0.0441090935654813
 30
0.0
 40
0.3256099016146134
100
AcDbArc
 50
180.6813662363378
 51
359.3186337636621
  0
MTEXT
  5
234
330
1E
100
AcDbEntity
  8
CONSTR
100
AcDbMText
 10
11.55398003116214
 20
-8.061691686059987
 30
0.0
 40
0.8
 41
13.3098
 71
     1
 72
     5
  1
n=1 zav.\PD=6.5 mm\Pl=2 mm\Pd=1 mm CuAg
 73
     1
 44
1.0
  0
MTEXT
  5
235
330
1E
100
AcDbEntity
  8
CONSTR
100
AcDbMText
 10
12.08123891188064
 20
-3.899350833457077
 30
0.0
 40
0.6
 41
3.3612
 71
     1
 72
     5
  1
3.9pF
 11
0.0000000000000001
 21
1.0
 31
0.0
 73
     1
 44
1.0
  0
MTEXT
  5
236
330
1E
100
AcDbEntity
  8
CONSTR
100
AcDbMText
 10
25.26661661623517
 20
1.224903564408904
 30
0.0
 40
0.6
 41
3.4054
 71
     1
 72
     5
  1
1k
 11
0.0000000000000001
 21
1.0
 31
0.0
 73
     1
 44
1.0
  0
MTEXT
  5
237
330
1E
100
AcDbEntity
  8
CONSTR
100
AcDbMText
 10
36.7236751152767
 20
-12.3917563944134
 30
0.0
 40
0.6
 41
3.8919
 71
     1
 72
     5
  1
82
 73
     1
 44
1.0
  0
MTEXT
  5
238
330
1E
100
AcDbEntity
  8
CONSTR
100
AcDbMText
 10
34.91039399643645
 20
-15.97276122609898
 30
0.0
 40
0.5
 41
5.9263
 71
     1
 72
     5
  1
100pF
 11
0.0000000000000001
 21
1.0
 31
0.0
 73
     1
 44
1.0
  0
MTEXT
  5
239
330
1E
100
AcDbEntity
  8
CONSTR
100
AcDbMText
 10
39.37725729990286
 20
-15.92855121297269
 30
0.0
 40
0.6
 41
5.8379
 71
     1
 72
     5
  1
10nF
 11
0.0000000000000001
 21
1.0
 31
0.0
 73
     1
 44
1.0
  0
MTEXT
  5
23A
330
1E
100
AcDbEntity
  8
CONSTR
100
AcDbMText
 10
31.81211937896731
 20
-1.250852791740612
 30
0.0
 40
0.6
 41
5.1303
 71
     1
 72
     5
  1
4.7pF
 73
     1
 44
1.0
  0
MTEXT
  5
23B
330
1E
100
AcDbEntity
  8
CONSTR
100
AcDbMText
 10
27.38948234424965
 20
-2.356101162723419
 30
0.0
 40
0.4
 41
2.816399999999999
 71
     1
 72
     5
  1
BFG540X
 11
0.0000000000000001
 21
1.0
 31
0.0
 73
     1
 44
1.0
  0
MTEXT
  5
23C
330
1E
100
AcDbEntity
  8
CONSTR
100
AcDbMText
 10
30.04306428559604
 20
-0.2782341410755578
 30
0.0
 40
0.4
 41
2.770999999999999
 71
     1
 72
     5
  1
47k+\P100pF
 11
0.0000000000000001
 21
1.0
 31
0.0
 73
     1
 44
1.0
  0
MTEXT
  5
23D
330
1E
100
AcDbEntity
  8
CONSTR
100
AcDbMText
 10
3.560351313949738
 20
4.197142412103815
 30
0.0
 40
1.6
 41
10.6296
 71
     1
 72
     5
  1
Ant
 73
     1
 44
1.0
  0
MTEXT
  5
23E
330
1E
100
AcDbEntity
  8
CONSTR
100
AcDbMText
 10
12.94495657310328
 20
5.871995256932933
 30
0.0
 40
1.199999999999999
 41
3.8612
 71
     1
 72
     5
  1
L
 73
     1
 44
1.0
  0
MTEXT
  5
23F
330
1E
100
AcDbEntity
  8
CONSTR
100
AcDbMText
 10
17.64102139939419
 20
5.838697497269208
 30
0.0
 40
1.199999999999999
 41
7.449799999999999
 71
     1
 72
     5
  1
C{\H0.5x;trimer}
 73
     1
 44
1.0
  0
MTEXT
  5
240
330
1E
100
AcDbEntity
  8
CONSTR
100
AcDbMText
 10
18.36730293620718
 20
-4.124498592346299
 30
0.0
 40
0.6
 41
5.1303
 71
     1
 72
     5
  1
0.5-3 pF\P(1 pf)
 73
     1
 44
1.0
  0
MTEXT
  5
241
330
1E
100
AcDbEntity
  8
CONSTR
100
AcDbMText
 10
44.66949681820608
 20
2.258704704995992
 30
0.0
 40
1.6
 41
8.2675
 71
     1
 72
     5
  1
Rx
 73
     1
 44
1.0
  0
SOLID
  5
242
330
1E
100
AcDbEntity
  8
CONSTR
100
AcDbTrace
 10
31.28174994137681
 20
-1.097579666003234
 30
0.0
 11
31.28174994137681
 21
2.102420333996768
 31
0.0
 12
31.33174994137681
 22
-1.097579666003234
 32
0.0
 13
31.33174994137681
 23
2.102420333996768
 33
0.0
  0
CIRCLE
  5
243
330
1E
100
AcDbEntity
  8
CONSTR
370
    30
100
AcDbCircle
 10
19.87279587796035
 20
-0.0643940443309958
 30
0.0
 40
3.12552617030451
  0
INSERT
  5
244
330
1E
100
AcDbEntity
  8
CONSTR
100
AcDbBlockReference
  2
elkon
 10
32.95320740422009
 20
-18.82479085241179
 30
0.0
  0
INSERT
  5
245
330
1E
100
AcDbEntity
  8
CONSTR
100
AcDbBlockReference
  2
elkon
 10
44.94401070597435
 20
-1.328707744970262
 30
0.0
 50
180.0
  0
INSERT
  5
246
330
1E
100
AcDbEntity
  8
CONSTR
100
AcDbBlockReference
  2
rfc
 10
69.25254565298238
 20
22.27691409888195
 30
0.0
 41
5.747672421525731
 42
5.747672421525731
 43
5.747672421525731
 50
180.0
  0
LWPOLYLINE
  5
247
330
1E
100
AcDbEntity
  8
CONSTR
100
AcDbPolyline
 90
        2
 70
     0
 43
0.0
 10
39.6940306705877
 20
-3.528006492054096
 10
39.6940306705877
 20
-2.271220780402394
  0
LWPOLYLINE
  5
248
330
1E
100
AcDbEntity
  8
CONSTR
100
AcDbPolyline
 90
        2
 70
     0
 43
0.0
 10
39.6940306705877
 20
-6.014256466994154
 10
39.6940306705877
 20
-7.079792166042054
  0
LWPOLYLINE
  5
249
330
1E
100
AcDbEntity
  8
CONSTR
100
AcDbPolyline
 90
        2
 70
     0
 43
0.0
 10
40.47489238657454
 20
-8.095853962869767
 10
40.5906529874572
 20
-8.71391287966356
  0
LWPOLYLINE
  5
24A
330
1E
100
AcDbEntity
  8
CONSTR
100
AcDbPolyline
 90
        2
 70
     0
 43
0.0
 10
40.37153162133197
 20
-12.12053617037969
 10
40.56482082295111
 20
-11.46378201334748
  0
LWPOLYLINE
  5
24B
330
1E
100
AcDbEntity
  8
CONSTR
100
AcDbPolyline
 90
        2
 70
     0
 43
0.0
 10
40.66541222939004
 20
-10.17901304911834
 10
40.20185786974224
 20
-10.14048036879621
  0
MTEXT
  5
24C
330
1E
100
AcDbEntity
  8
CONSTR
100
AcDbMText
 10
36.76136436139441
 20
-7.621320780461537
 30
0.0
 40
0.6
 41
1.6775
 71
     1
 72
     5
  1
1uF
 73
     1
 44
1.0
  0
MTEXT
  5
24D
330
1E
100
AcDbEntity
  8
CONSTR
100
AcDbMText
 10
38.28318506132577
 20
-5.996346535169081
 30
0.0
 40
0.6
 41
2.423099999999999
 71
     1
 72
     5
  1
10uH
 11
0.0000000000000001
 21
1.0
 31
0.0
 73
     1
 44
1.0
  0
MTEXT
  5
24E
330
1E
100
AcDbEntity
  8
CONSTR
100
AcDbMText
 10
37.09167006803402
 20
-10.13253531398034
 30
0.0
 40
0.6
 41
1.6775
 71
     1
 72
     5
  1
1uF
 73
     1
 44
1.0
  0
MTEXT
  5
24F
330
1E
100
AcDbEntity
  8
CONSTR
100
AcDbMText
 10
42.11238779135592
 20
-11.72496021256141
 30
0.0
 40
0.5999999999999999
 41
3.075399999999999
 71
     1
 72
     5
  1
78L10
 11
-0.0031168054897748
 21
0.999995142749973
 31
0.0
 73
     1
 44
1.0
  0
INSERT
  5
250
330
1E
100
AcDbEntity
  8
CONSTR
100
AcDbBlockReference
  2
tri
 10
40.90936442937189
 20
-21.18479755332389
 30
0.0
 50
44.99999999999991
  0
LWPOLYLINE
  5
251
330
1E
100
AcDbEntity
  8
CONSTR
100
AcDbPolyline
 90
        2
 70
     0
 43
0.0
 10
40.58096668204618
 20
-11.48273914333367
 10
40.77425588366532
 20
-10.82598498630146
  0
LWPOLYLINE
  5
252
330
1E
100
AcDbEntity
  8
CONSTR
100
AcDbPolyline
 90
        2
 70
     0
 43
0.0
 10
40.60770092318191
 20
-8.744193144087475
 10
40.72346152406456
 20
-9.362252060881267
  0
SOLID
  5
253
330
1E
100
AcDbEntity
  8
CONSTR
100
AcDbTrace
 10
39.03667012214578
 20
-12.00871020009916
 30
0.0
 11
35.83667012214579
 21
-12.00871020009916
 31
0.0
 12
39.03667012214578
 22
-11.95871020009916
 32
0.0
 13
35.83667012214579
 23
-11.95871020009916
 33
0.0
  0
SOLID
  5
255
330
1E
100
AcDbEntity
  8
CONSTR
100
AcDbTrace
 10
11.6414573416411
 20
-4.60292429676722
 30
0.0
 11
11.6414573416411
 21
-1.402924296767217
 31
0.0
 12
11.6914573416411
 22
-4.60292429676722
 32
0.0
 13
11.6914573416411
 23
-1.402924296767217
 33
0.0
  0
SOLID
  5
256
330
1E
100
AcDbEntity
  8
CONSTR
100
AcDbTrace
 10
13.2414573416411
 20
-4.60292429676722
 30
0.0
 11
13.2414573416411
 21
-1.402924296767217
 31
0.0
 12
13.2914573416411
 22
-4.60292429676722
 32
0.0
 13
13.2914573416411
 23
-1.402924296767217
 33
0.0
  0
SOLID
  5
257
330
1E
100
AcDbEntity
  8
CONSTR
100
AcDbTrace
 10
11.6664573416411
 20
-1.377924296767218
 30
0.0
 11
13.2664573416411
 21
-1.377924296767218
 31
0.0
 12
11.6664573416411
 22
-1.427924296767219
 32
0.0
 13
13.2664573416411
 23
-1.427924296767219
 33
0.0
  0
SOLID
  5
258
330
1E
100
AcDbEntity
  8
CONSTR
100
AcDbTrace
 10
11.6664573416411
 20
-4.577924296767218
 30
0.0
 11
13.2664573416411
 21
-4.577924296767218
 31
0.0
 12
11.6664573416411
 22
-4.627924296767218
 32
0.0
 13
13.2664573416411
 23
-4.627924296767218
 33
0.0
  0
SOLID
  5
259
330
1E
100
AcDbEntity
  8
CONSTR
100
AcDbTrace
 10
40.46167012214579
 20
-13.38371020009916
 30
0.0
 11
40.46167012214579
 21
-16.58371020009916
 31
0.0
 12
40.41167012214578
 22
-13.38371020009916
 32
0.0
 13
40.41167012214578
 23
-16.58371020009916
 33
0.0
  0
SOLID
  5
25A
330
1E
100
AcDbEntity
  8
CONSTR
100
AcDbTrace
 10
38.86167012214579
 20
-13.38371020009916
 30
0.0
 11
38.86167012214579
 21
-16.58371020009916
 31
0.0
 12
38.81167012214578
 22
-13.38371020009916
 32
0.0
 13
38.81167012214578
 23
-16.58371020009916
 33
0.0
  0
SOLID
  5
25B
330
1E
100
AcDbEntity
  8
CONSTR
100
AcDbTrace
 10
36.06167012214578
 20
-13.38371020009916
 30
0.0
 11
36.06167012214578
 21
-16.58371020009916
 31
0.0
 12
36.01167012214578
 22
-13.38371020009916
 32
0.0
 13
36.01167012214578
 23
-16.58371020009916
 33
0.0
  0
SOLID
  5
25C
330
1E
100
AcDbEntity
  8
CONSTR
100
AcDbTrace
 10
34.46167012214579
 20
-13.38371020009916
 30
0.0
 11
34.46167012214579
 21
-16.58371020009916
 31
0.0
 12
34.41167012214578
 22
-13.38371020009916
 32
0.0
 13
34.41167012214578
 23
-16.58371020009916
 33
0.0
  0
LWPOLYLINE
  5
25D
330
1E
100
AcDbEntity
  8
CONSTR
100
AcDbPolyline
 90
        2
 70
     0
 43
0.0
 10
13.35917046476583
 20
2.225395039701083
 10
12.99955280125709
 20
-0.0689584946723017
  0
SOLID
  5
271
330
1E
100
AcDbEntity
  8
METAL1
100
AcDbTrace
 10
39.62766422918802
 20
-9.268750925982498
 30
0.0
 11
40.42766422918802
 21
-9.268750925982498
 31
0.0
 12
39.62766422918802
 22
-10.86875092598249
 32
0.0
 13
40.42766422918802
 23
-10.86875092598249
 33
0.0
  0
SOLID
  5
272
330
1E
100
AcDbEntity
  8
METAL1
100
AcDbTrace
 10
39.62766422918802
 20
-10.86875092598249
 30
0.0
 11
38.82766422918802
 21
-10.86875092598249
 31
0.0
 12
39.62766422918802
 22
-9.268750925982498
 32
0.0
 13
38.82766422918802
 23
-9.268750925982498
 33
0.0
  0
SOLID
  5
279
330
1E
100
AcDbEntity
  8
METAL1
100
AcDbTrace
 10
39.62766422918802
 20
-6.727602065507209
 30
0.0
 11
40.42766422918802
 21
-6.727602065507209
 31
0.0
 12
39.62766422918802
 22
-8.32760206550721
 32
0.0
 13
40.42766422918802
 23
-8.32760206550721
 33
0.0
  0
SOLID
  5
27A
330
1E
100
AcDbEntity
  8
METAL1
100
AcDbTrace
 10
39.62766422918802
 20
-8.32760206550721
 30
0.0
 11
38.82766422918802
 21
-8.32760206550721
 31
0.0
 12
39.62766422918802
 22
-6.727602065507209
 32
0.0
 13
38.82766422918802
 23
-6.727602065507209
 33
0.0
  0
LWPOLYLINE
  5
28A
330
1E
100
AcDbEntity
  8
GND
100
AcDbPolyline
 90
        2
 70
     0
 43
0.2
 10
39.63119834035352
 20
-9.62740260317264
 42
1.0
 10
39.63119834035352
 20
-10.42740260317264
  0
LWPOLYLINE
  5
28B
330
1E
100
AcDbEntity
  8
GND
100
AcDbPolyline
 90
        2
 70
     0
 43
0.2
 10
39.63119834035352
 20
-10.42740260317264
 42
1.0
 10
39.63119834035352
 20
-9.62740260317264
  0
SOLID
  5
295
330
1E
100
AcDbEntity
  8
METAL1
100
AcDbTrace
 10
29.29016465024093
 20
0.6854828326029315
 30
0.0
 11
29.29016465024093
 21
-0.5145171673970684
 31
0.0
 12
28.09016465024093
 22
0.6854828326029315
 32
0.0
 13
28.09016465024093
 23
-0.5145171673970684
 33
0.0
  0
LWPOLYLINE
  5
296
330
1E
100
AcDbEntity
  8
GND
100
AcDbPolyline
 90
        2
 70
     0
 43
0.2
 10
28.69016465024093
 20
0.4854828326029315
 42
1.0
 10
28.69016465024093
 20
-0.3145171673970686
  0
LWPOLYLINE
  5
297
330
1E
100
AcDbEntity
  8
GND
100
AcDbPolyline
 90
        2
 70
     0
 43
0.2
 10
28.69016465024093
 20
-0.3145171673970686
 42
1.0
 10
28.69016465024093
 20
0.4854828326029315
  0
MTEXT
  5
2A2
330
1E
100
AcDbEntity
  8
METAL1
370
    30
100
AcDbMText
 10
26.14608561157901
 20
13.87211363115304
 30
0.0
 40
1.6
 41
57.7028
 71
     5
 72
     5
  1
BFG540X HI-DYNAMIC 1296 MHz LNA \PYU1AW
 73
     1
 44
1.0
  0
LWPOLYLINE
  5
2A5
330
1E
100
AcDbEntity
  8
0
100
AcDbPolyline
 90
        4
 70
     1
 43
0.0
 10
1.166625879154651
 20
17.31362224340836
 10
51.16662587915465
 20
17.31362224340836
 10
51.16662587915465
 20
-22.68637775659164
 10
1.166625879154651
 20
-22.68637775659164
  0
DIMENSION
  5
2A8
330
1E
100
AcDbEntity
  8
METAL1
100
AcDbDimension
  2
*D8
 10
51.1794196978247
 20
18.98262466072566
 30
0.0
 11
26.17302278848967
 21
18.98262466072566
 31
0.0
 70
    32
 71
     5
 42
50.01279381867004
  3
Standard
100
AcDbAlignedDimension
 13
1.166625879154651
 23
19.05848847915939
 33
0.0
 14
51.1794196978247
 24
19.05848847915939
 34
0.0
100
AcDbRotatedDimension
1001
ACAD
1000
DSTYLE
1002
{
1070
    41
1040
1.8
1070
   140
1040
1.8
1070
   147
1040
0.9
1070
   271
1070
     0
1002
}
  0
DIMENSION
  5
2B7
330
1E
100
AcDbEntity
  8
METAL1
100
AcDbDimension
  2
*D9
 10
54.51866571509839
 20
-22.66657227141814
 30
0.0
 11
54.5186657150984
 21
-2.676475014004886
 31
0.0
 70
    32
 71
     5
 42
39.98019451482651
  3
Standard
100
AcDbAlignedDimension
 13
52.54547511673485
 23
17.31362224340836
 33
0.0
 14
52.54547511673485
 24
-22.66657227141814
 34
0.0
 50
90.0
100
AcDbRotatedDimension
1001
ACAD
1000
DSTYLE
1002
{
1070
    41
1040
1.8
1070
   140
1040
1.8
1070
   147
1040
0.9
1070
   271
1070
     0
1002
}
  0
ENDSEC
  0
SECTION
  2
OBJECTS
  0
DICTIONARY
  5
C
330
0
100
AcDbDictionary
281
     1
  3
ACAD_GROUP
350
D
  3
ACAD_LAYOUT
350
19
  3
ACAD_MLINESTYLE
350
16
  3
ACAD_PLOTSETTINGS
350
18
  3
ACAD_PLOTSTYLENAME
350
E
  3
AcDbVariableDictionary
350
298
  0
DICTIONARY
  5
29A
330
1E
100
AcDbDictionary
280
     1
281
     1
  3
ACAD_SORTENTS
360
29B
  0
DICTIONARY
  5
D
102
{ACAD_REACTORS
330
C
102
}
330
C
100
AcDbDictionary
281
     1
  0
DICTIONARY
  5
19
102
{ACAD_REACTORS
330
C
102
}
330
C
100
AcDbDictionary
281
     1
  3
Layout1
350
1D
  3
Model
350
21
  0
DICTIONARY
  5
16
102
{ACAD_REACTORS
330
C
102
}
330
C
100
AcDbDictionary
281
     1
  3
Standard
350
17
  0
DICTIONARY
  5
18
102
{ACAD_REACTORS
330
C
102
}
330
C
100
AcDbDictionary
281
     1
  0
ACDBDICTIONARYWDFLT
  5
E
102
{ACAD_REACTORS
330
C
102
}
330
C
100
AcDbDictionary
281
     1
  3
Normal
350
F
100
AcDbDictionaryWithDefault
340
F
  0
DICTIONARY
  5
298
102
{ACAD_REACTORS
330
C
102
}
330
C
100
AcDbDictionary
281
     1
  3
DIMASSOC
350
33E
  3
SORTENTS
350
299
  0
SORTENTSTABLE
  5
29B
102
{ACAD_REACTORS
330
29A
102
}
330
29A
100
AcDbSortentsTable
330
1E
331
25A
  5
25C
331
C6
  5
DE
331
67
  5
93
331
DE
  5
E3
331
7F
  5
95
331
12D
  5
1E2
331
23B
  5
23D
331
272
  5
53
331
97
  5
A0
331
1E4
  5
296
331
243
  5
245
331
27A
  5
25
331
9F
  5
C6
331
1EC
  5
1F0
331
24B
  5
24D
331
28A
  5
279
331
1F4
  5
1F7
331
253
  5
256
331
1FC
  5
1FE
331
25B
  5
25D
331
C7
  5
DF
331
106
  5
123
331
20C
  5
231
331
DF
  5
E8
331
11E
  5
12D
331
234
  5
236
331
98
  5
A1
331
1E5
  5
1E8
331
23C
  5
23E
331
A0
  5
C7
331
1ED
  5
1F1
331
244
  5
246
331
24C
  5
24E
331
28B
  5
27A
331
1F5
  5
1F8
331
F7
  5
106
331
1FD
  5
1FF
331
25C
  5
271
331
1DE
  5
28B
331
22D
  5
232
331
235
  5
237
331
81
  5
96
331
E0
  5
E9
331
1E6
  5
1E9
331
99
  5
B1
331
E8
  5
F1
331
23D
  5
23F
331
A1
  5
DB
331
245
  5
247
331
1F6
  5
1F9
331
24D
  5
24F
331
1FE
  5
202
331
255
  5
257
331
B1
  5
DC
331
206
  5
20C
331
25D
  5
272
331
1DF
  5
1E3
331
128
  5
1E0
331
236
  5
238
331
E1
  5
EA
331
1E7
  5
1EA
331
E9
  5
F3
331
23E
  5
240
331
1EF
  5
1F2
331
F1
  5
101
331
246
  5
248
331
1F7
  5
1FA
331
24E
  5
250
331
295
  5
23
331
1FF
  5
206
331
256
  5
258
331
B2
  5
DD
331
23
  5
54
331
101
  5
11E
331
53
  5
67
331
119
  5
128
331
129
  5
1E1
331
237
  5
239
331
83
  5
97
331
1E0
  5
1E4
331
E2
  5
EB
331
93
  5
98
331
1E8
  5
1EB
331
EA
  5
F7
331
23F
  5
241
331
1F0
  5
1F3
331
247
  5
249
331
1F8
  5
1FB
331
24F
  5
251
331
296
  5
295
331
257
  5
259
331
24
  5
64
331
102
  5
122
331
54
  5
7D
331
11A
  5
129
331
64
  5
7F
331
DB
  5
E0
331
122
  5
1DE
331
238
  5
23A
331
E3
  5
EC
331
94
  5
99
331
1E1
  5
1E5
331
1E9
  5
1EC
331
EB
  5
FB
331
240
  5
242
331
1F1
  5
1F4
331
F3
  5
102
331
248
  5
24A
331
1F9
  5
1FC
331
FB
  5
119
331
250
  5
252
331
297
  5
28A
331
25
  5
65
331
258
  5
25A
331
65
  5
81
331
DC
  5
E1
331
123
  5
1DF
331
7D
  5
94
331
231
  5
234
331
239
  5
23B
331
95
  5
9E
331
1E2
  5
1E6
331
241
  5
243
331
EC
  5
FC
331
1EA
  5
1ED
331
249
  5
24B
331
1F2
  5
1F5
331
251
  5
253
331
FC
  5
11A
331
1FA
  5
297
331
26
  5
66
331
202
  5
20A
331
259
  5
25B
331
20A
  5
22D
331
66
  5
83
331
DD
  5
E2
331
232
  5
235
331
23A
  5
23C
331
271
  5
26
331
96
  5
9F
331
1E3
  5
1E7
331
242
  5
244
331
279
  5
24
331
9E
  5
B2
331
1EB
  5
1EF
331
24A
  5
24C
331
1F3
  5
1F6
331
252
  5
255
331
1FB
  5
1FD
  0
LAYOUT
  5
1D
102
{ACAD_REACTORS
330
19
102
}
330
19
100
AcDbPlotSettings
  1

  2
C:\PROGRAM FILES\ACAD2000\plotters\HP LaserJet 5L PCL.pc3
  4

  6

 40
0.0
 41
0.0
 42
0.0
 43
0.0
 44
0.0
 45
0.0
 46
0.0
 47
0.0
 48
0.0
 49
0.0
140
0.0
141
0.0
142
1.0
143
1.0
 70
   688
 72
     0
 73
     0
 74
     5
  7

 75
    16
147
1.0
148
0.0
149
0.0
100
AcDbLayout
  1
Layout1
 70
     1
 71
     1
 10
0.0
 20
0.0
 11
12.0
 21
9.0
 12
0.0
 22
0.0
 32
0.0
 14
1.000000000000000E+20
 24
1.000000000000000E+20
 34
1.000000000000000E+20
 15
-1.000000000000000E+20
 25
-1.000000000000000E+20
 35
-1.000000000000000E+20
146
0.0
 13
0.0
 23
0.0
 33
0.0
 16
1.0
 26
0.0
 36
0.0
 17
0.0
 27
1.0
 37
0.0
 76
     0
330
1A
  0
LAYOUT
  5
21
102
{ACAD_REACTORS
330
19
102
}
330
19
100
AcDbPlotSettings
  1

  2
C:\PROGRAM FILES\ACAD2000\plotters\HP LaserJet 5L PCL.pc3
  4

  6

 40
0.0
 41
0.0
 42
0.0
 43
0.0
 44
0.0
 45
0.0
 46
0.0
 47
0.0
 48
0.0
 49
0.0
140
0.0
141
0.0
142
1.0
143
1.0
 70
  1712
 72
     0
 73
     0
 74
     0
  7

 75
     0
147
1.0
148
0.0
149
0.0
100
AcDbLayout
  1
Model
 70
     1
 71
     0
 10
0.0
 20
0.0
 11
12.0
 21
9.0
 12
0.0
 22
0.0
 32
0.0
 14
0.0
 24
0.0
 34
0.0
 15
0.0
 25
0.0
 35
0.0
146
0.0
 13
0.0
 23
0.0
 33
0.0
 16
1.0
 26
0.0
 36
0.0
 17
0.0
 27
1.0
 37
0.0
 76
     0
330
1E
  0
MLINESTYLE
  5
17
102
{ACAD_REACTORS
330
16
102
}
330
16
100
AcDbMlineStyle
  2
STANDARD
 70
     0
  3

 62
   256
 51
90.0
 52
90.0
 71
     2
 49
0.5
 62
   256
  6
BYLAYER
 49
-0.5
 62
   256
  6
BYLAYER
  0
ACDBPLACEHOLDER
  5
F
102
{ACAD_REACTORS
330
E
102
}
330
E
  0
DICTIONARYVAR
  5
33E
102
{ACAD_REACTORS
330
298
102
}
330
298
100
DictionaryVariables
280
     0
  1
1
  0
DICTIONARYVAR
  5
299
102
{ACAD_REACTORS
330
298
102
}
330
298
100
DictionaryVariables
280
     0
  1
127
  0
ENDSEC
  0
EOF
