  0
SECTION
  2
HEADER
  9
$ACADVER
  1
AC1015
  9
$ACADMAINTVER
 70
    13
  9
$DWGCODEPAGE
  3
ANSI_1252
  9
$INSBASE
 10
0.0
 20
0.0
 30
0.0
  9
$EXTMIN
 10
-8.609788396584473
 20
-21.09930409974245
 30
0.0
  9
$EXTMAX
 10
37.07751653383613
 20
18.19336496124959
 30
0.0
  9
$LIMMIN
 10
0.0
 20
0.0
  9
$LIMMAX
 10
12.0
 20
9.0
  9
$ORTHOMODE
 70
     0
  9
$REGENMODE
 70
     1
  9
$FILLMODE
 70
     1
  9
$QTEXTMODE
 70
     0
  9
$MIRRTEXT
 70
     1
  9
$LTSCALE
 40
1.0
  9
$ATTMODE
 70
     1
  9
$TEXTSIZE
 40
0.5481747989425606
  9
$TRACEWID
 40
0.05
  9
$TEXTSTYLE
  7
Standard
  9
$CLAYER
  8
CONSTR
  9
$CELTYPE
  6
ByLayer
  9
$CECOLOR
 62
   256
  9
$CELTSCALE
 40
1.0
  9
$DISPSILH
 70
     0
  9
$DIMSCALE
 40
1.0
  9
$DIMASZ
 40
1.8
  9
$DIMEXO
 40
0.0625
  9
$DIMDLI
 40
0.38
  9
$DIMRND
 40
0.0
  9
$DIMDLE
 40
0.0
  9
$DIMEXE
 40
0.18
  9
$DIMTP
 40
0.0
  9
$DIMTM
 40
0.0
  9
$DIMTXT
 40
1.8
  9
$DIMCEN
 40
0.09
  9
$DIMTSZ
 40
0.0
  9
$DIMTOL
 70
     0
  9
$DIMLIM
 70
     0
  9
$DIMTIH
 70
     1
  9
$DIMTOH
 70
     1
  9
$DIMSE1
 70
     0
  9
$DIMSE2
 70
     0
  9
$DIMTAD
 70
     0
  9
$DIMZIN
 70
     0
  9
$DIMBLK
  1

  9
$DIMASO
 70
     1
  9
$DIMSHO
 70
     1
  9
$DIMPOST
  1

  9
$DIMAPOST
  1

  9
$DIMALT
 70
     0
  9
$DIMALTD
 70
     2
  9
$DIMALTF
 40
25.4
  9
$DIMLFAC
 40
1.0
  9
$DIMTOFL
 70
     0
  9
$DIMTVP
 40
0.0
  9
$DIMTIX
 70
     0
  9
$DIMSOXD
 70
     0
  9
$DIMSAH
 70
     0
  9
$DIMBLK1
  1

  9
$DIMBLK2
  1

  9
$DIMSTYLE
  2
Standard
  9
$DIMCLRD
 70
     0
  9
$DIMCLRE
 70
     0
  9
$DIMCLRT
 70
     0
  9
$DIMTFAC
 40
1.0
  9
$DIMGAP
 40
0.09
  9
$DIMJUST
 70
     0
  9
$DIMSD1
 70
     0
  9
$DIMSD2
 70
     0
  9
$DIMTOLJ
 70
     1
  9
$DIMTZIN
 70
     0
  9
$DIMALTZ
 70
     0
  9
$DIMALTTZ
 70
     0
  9
$DIMUPT
 70
     0
  9
$DIMDEC
 70
     4
  9
$DIMTDEC
 70
     4
  9
$DIMALTU
 70
     2
  9
$DIMALTTD
 70
     2
  9
$DIMTXSTY
  7
Standard
  9
$DIMAUNIT
 70
     0
  9
$DIMADEC
 70
     0
  9
$DIMALTRND
 40
0.0
  9
$DIMAZIN
 70
     0
  9
$DIMDSEP
 70
    46
  9
$DIMATFIT
 70
     3
  9
$DIMFRAC
 70
     0
  9
$DIMLDRBLK
  1

  9
$DIMLUNIT
 70
     2
  9
$DIMLWD
 70
    -2
  9
$DIMLWE
 70
    -2
  9
$DIMTMOVE
 70
     0
  9
$LUNITS
 70
     2
  9
$LUPREC
 70
     4
  9
$SKETCHINC
 40
0.1
  9
$FILLETRAD
 40
0.0
  9
$AUNITS
 70
     0
  9
$AUPREC
 70
     0
  9
$MENU
  1
.
  9
$ELEVATION
 40
0.0
  9
$PELEVATION
 40
0.0
  9
$THICKNESS
 40
0.0
  9
$LIMCHECK
 70
     0
  9
$CHAMFERA
 40
0.0
  9
$CHAMFERB
 40
0.0
  9
$CHAMFERC
 40
0.0
  9
$CHAMFERD
 40
0.0
  9
$SKPOLY
 70
     0
  9
$TDCREATE
 40
2452362.799734977
  9
$TDUCREATE
 40
2452362.758068310
  9
$TDUPDATE
 40
2452713.528895937
  9
$TDUUPDATE
 40
2452713.487229270
  9
$TDINDWG
 40
0.8374863194
  9
$TDUSRTIMER
 40
0.8374863194
  9
$USRTIMER
 70
     1
  9
$ANGBASE
 50
0.0
  9
$ANGDIR
 70
     0
  9
$PDMODE
 70
     0
  9
$PDSIZE
 40
0.0
  9
$PLINEWID
 40
0.0
  9
$SPLFRAME
 70
     0
  9
$SPLINETYPE
 70
     6
  9
$SPLINESEGS
 70
     8
  9
$HANDSEED
  5
8A1
  9
$SURFTAB1
 70
     6
  9
$SURFTAB2
 70
     6
  9
$SURFTYPE
 70
     6
  9
$SURFU
 70
     6
  9
$SURFV
 70
     6
  9
$UCSBASE
  2

  9
$UCSNAME
  2

  9
$UCSORG
 10
0.0
 20
0.0
 30
0.0
  9
$UCSXDIR
 10
1.0
 20
0.0
 30
0.0
  9
$UCSYDIR
 10
0.0
 20
1.0
 30
0.0
  9
$UCSORTHOREF
  2

  9
$UCSORTHOVIEW
 70
     0
  9
$UCSORGTOP
 10
0.0
 20
0.0
 30
0.0
  9
$UCSORGBOTTOM
 10
0.0
 20
0.0
 30
0.0
  9
$UCSORGLEFT
 10
0.0
 20
0.0
 30
0.0
  9
$UCSORGRIGHT
 10
0.0
 20
0.0
 30
0.0
  9
$UCSORGFRONT
 10
0.0
 20
0.0
 30
0.0
  9
$UCSORGBACK
 10
0.0
 20
0.0
 30
0.0
  9
$PUCSBASE
  2

  9
$PUCSNAME
  2

  9
$PUCSORG
 10
0.0
 20
0.0
 30
0.0
  9
$PUCSXDIR
 10
1.0
 20
0.0
 30
0.0
  9
$PUCSYDIR
 10
0.0
 20
1.0
 30
0.0
  9
$PUCSORTHOREF
  2

  9
$PUCSORTHOVIEW
 70
     0
  9
$PUCSORGTOP
 10
0.0
 20
0.0
 30
0.0
  9
$PUCSORGBOTTOM
 10
0.0
 20
0.0
 30
0.0
  9
$PUCSORGLEFT
 10
0.0
 20
0.0
 30
0.0
  9
$PUCSORGRIGHT
 10
0.0
 20
0.0
 30
0.0
  9
$PUCSORGFRONT
 10
0.0
 20
0.0
 30
0.0
  9
$PUCSORGBACK
 10
0.0
 20
0.0
 30
0.0
  9
$USERI1
 70
     0
  9
$USERI2
 70
     0
  9
$USERI3
 70
     0
  9
$USERI4
 70
     0
  9
$USERI5
 70
     0
  9
$USERR1
 40
0.0
  9
$USERR2
 40
0.0
  9
$USERR3
 40
0.0
  9
$USERR4
 40
0.0
  9
$USERR5
 40
0.0
  9
$WORLDVIEW
 70
     1
  9
$SHADEDGE
 70
     3
  9
$SHADEDIF
 70
    70
  9
$TILEMODE
 70
     1
  9
$MAXACTVP
 70
    64
  9
$PINSBASE
 10
0.0
 20
0.0
 30
0.0
  9
$PLIMCHECK
 70
     0
  9
$PEXTMIN
 10
1.000000000000000E+20
 20
1.000000000000000E+20
 30
1.000000000000000E+20
  9
$PEXTMAX
 10
-1.000000000000000E+20
 20
-1.000000000000000E+20
 30
-1.000000000000000E+20
  9
$PLIMMIN
 10
0.0
 20
0.0
  9
$PLIMMAX
 10
12.0
 20
9.0
  9
$UNITMODE
 70
     0
  9
$VISRETAIN
 70
     1
  9
$PLINEGEN
 70
     0
  9
$PSLTSCALE
 70
     1
  9
$TREEDEPTH
 70
  3020
  9
$CMLSTYLE
  2
Standard
  9
$CMLJUST
 70
     0
  9
$CMLSCALE
 40
1.0
  9
$PROXYGRAPHICS
 70
     1
  9
$MEASUREMENT
 70
     0
  9
$CELWEIGHT
370
    -1
  9
$ENDCAPS
280
     0
  9
$JOINSTYLE
280
     0
  9
$LWDISPLAY
290
     1
  9
$INSUNITS
 70
     0
  9
$HYPERLINKBASE
  1

  9
$STYLESHEET
  1
acad.stb
  9
$XEDIT
290
     1
  9
$CEPSNTYPE
380
     0
  9
$PSTYLEMODE
290
     0
  9
$FINGERPRINTGUID
  2
{8C2596C1-33CC-409B-9319-FA1A1B241147}
  9
$VERSIONGUID
  2
{2E1299F6-39B4-4575-A31E-38B0DFE5742B}
  9
$EXTNAMES
290
     1
  9
$PSVPSCALE
 40
0.0
  9
$OLESTARTUP
290
     0
  0
ENDSEC
  0
SECTION
  2
CLASSES
  0
CLASS
  1
ACDBDICTIONARYWDFLT
  2
AcDbDictionaryWithDefault
  3
AutoCAD 2000
 90
        0
280
     0
281
     0
  0
CLASS
  1
ACDBPLACEHOLDER
  2
AcDbPlaceHolder
  3
AutoCAD 2000
 90
        0
280
     0
281
     0
  0
CLASS
  1
LAYOUT
  2
AcDbLayout
  3
AutoCAD 2000
 90
        0
280
     0
281
     0
  0
CLASS
  1
DICTIONARYVAR
  2
AcDbDictionaryVar
  3
AutoCAD 2000
 90
        0
280
     0
281
     0
  0
CLASS
  1
SORTENTSTABLE
  2
AcDbSortentsTable
  3
AutoCAD 2000
 90
        0
280
     0
281
     0
  0
ENDSEC
  0
SECTION
  2
TABLES
  0
TABLE
  2
VPORT
  5
8
330
0
100
AcDbSymbolTable
 70
     3
  0
VPORT
  5
8A0
330
8
100
AcDbSymbolTableRecord
100
AcDbViewportTableRecord
  2
*Active
 70
     0
 10
0.0
 20
0.0
 11
1.0
 21
1.0
 12
14.23386428138045
 22
-1.452969386270112
 13
0.0
 23
0.0
 14
1.0
 24
1.0
 15
0.0
 25
0.0
 16
0.0
 26
0.0
 36
1.0
 17
0.0
 27
0.0
 37
0.0
 40
39.58052065062092
 41
1.448317307692307
 42
50.0
 43
0.0
 44
0.0
 50
0.0
 51
0.0
 71
     0
 72
   100
 73
     1
 74
     2
 75
     0
 76
     0
 77
     0
 78
     0
281
     0
 65
     1
110
0.0
120
0.0
130
0.0
111
1.0
121
0.0
131
0.0
112
0.0
122
1.0
132
0.0
 79
     0
146
0.0
  0
ENDTAB
  0
TABLE
  2
LTYPE
  5
5
330
0
100
AcDbSymbolTable
 70
     2
  0
LTYPE
  5
13
330
5
100
AcDbSymbolTableRecord
100
AcDbLinetypeTableRecord
  2
ByBlock
 70
     0
  3

 72
    65
 73
     0
 40
0.0
  0
LTYPE
  5
14
330
5
100
AcDbSymbolTableRecord
100
AcDbLinetypeTableRecord
  2
ByLayer
 70
     0
  3

 72
    65
 73
     0
 40
0.0
  0
LTYPE
  5
15
330
5
100
AcDbSymbolTableRecord
100
AcDbLinetypeTableRecord
  2
Continuous
 70
     0
  3
Solid line
 72
    65
 73
     0
 40
0.0
  0
LTYPE
  5
76D
330
5
100
AcDbSymbolTableRecord
100
AcDbLinetypeTableRecord
  2
DASHED
 70
     0
  3
Dashed __ __ __ __ __ __ __ __ __ __ __ __ __ _
 72
    65
 73
     2
 40
0.75
 49
0.5
 74
     0
 49
-0.25
 74
     0
  0
ENDTAB
  0
TABLE
  2
LAYER
  5
2
330
0
100
AcDbSymbolTable
 70
     5
  0
LAYER
  5
10
330
2
100
AcDbSymbolTableRecord
100
AcDbLayerTableRecord
  2
0
 70
     0
 62
     7
  6
Continuous
370
    -3
390
F
  0
LAYER
  5
22
330
2
100
AcDbSymbolTableRecord
100
AcDbLayerTableRecord
  2
METAL1
 70
     0
 62
     7
  6
Continuous
370
    -3
390
F
  0
LAYER
  5
24
330
2
100
AcDbSymbolTableRecord
100
AcDbLayerTableRecord
  2
CONSTR
 70
     0
 62
  -112
  6
Continuous
370
    -3
390
F
  0
LAYER
  5
44
330
2
100
AcDbSymbolTableRecord
100
AcDbLayerTableRecord
  2
GND
 70
     0
 62
     8
  6
Continuous
370
    -3
390
F
  0
LAYER
  5
34E
330
2
100
AcDbSymbolTableRecord
100
AcDbLayerTableRecord
  2
Defpoints
 70
     0
 62
     4
  6
Continuous
290
     0
370
    -3
390
F
  0
ENDTAB
  0
TABLE
  2
STYLE
  5
3
330
0
100
AcDbSymbolTable
 70
     1
  0
STYLE
  5
11
330
3
100
AcDbSymbolTableRecord
100
AcDbTextStyleTableRecord
  2
Standard
 70
     0
 40
0.0
 41
1.0
 50
0.0
 71
     0
 42
0.5481747989425606
  3
txt
  4

  0
ENDTAB
  0
TABLE
  2
VIEW
  5
6
330
0
100
AcDbSymbolTable
 70
     0
  0
ENDTAB
  0
TABLE
  2
UCS
  5
7
330
0
100
AcDbSymbolTable
 70
     0
  0
ENDTAB
  0
TABLE
  2
APPID
  5
9
330
0
100
AcDbSymbolTable
 70
     1
  0
APPID
  5
12
330
9
100
AcDbSymbolTableRecord
100
AcDbRegAppTableRecord
  2
ACAD
 70
     0
  0
ENDTAB
  0
TABLE
  2
DIMSTYLE
  5
A
330
0
100
AcDbSymbolTable
 70
     1
100
AcDbDimStyleTable
 71
     1
340
1F0
  0
DIMSTYLE
105
1F0
102
{ACAD_REACTORS
330
48D
330
5EC
102
}
330
A
100
AcDbSymbolTableRecord
100
AcDbDimStyleTableRecord
  2
Standard
 70
     0
 41
1.8
140
1.8
340
11
  0
ENDTAB
  0
TABLE
  2
BLOCK_RECORD
  5
1
330
0
100
AcDbSymbolTable
 70
     7
  0
BLOCK_RECORD
  5
1E
102
{ACAD_XDICTIONARY
360
23A
102
}
330
1
100
AcDbSymbolTableRecord
100
AcDbBlockTableRecord
  2
*Model_Space
340
21
  0
BLOCK_RECORD
  5
1A
330
1
100
AcDbSymbolTableRecord
100
AcDbBlockTableRecord
  2
*Paper_Space
340
1D
  0
BLOCK_RECORD
  5
1F6
330
1
100
AcDbSymbolTableRecord
100
AcDbBlockTableRecord
  2
A$C667F5126
340
0
  0
BLOCK_RECORD
  5
3E6
330
1
100
AcDbSymbolTableRecord
100
AcDbBlockTableRecord
  2
A$C35BA321B
340
0
  0
BLOCK_RECORD
  5
48E
330
1
100
AcDbSymbolTableRecord
100
AcDbBlockTableRecord
  2
*D2
340
0
  0
BLOCK_RECORD
  5
5ED
330
1
100
AcDbSymbolTableRecord
100
AcDbBlockTableRecord
  2
*D3
340
0
  0
BLOCK_RECORD
  5
7BE
330
1
100
AcDbSymbolTableRecord
100
AcDbBlockTableRecord
  2
A$C7F5B3850
340
0
102
{BLKREFS
331
7CA
331
7CB
331
7CC
331
7CD
331
7CE
331
7D3
331
7D4
331
7D5
331
7D6
331
828
331
829
331
82A
331
82B
331
82C
331
831
331
832
331
833
331
834
331
83D
331
83E
331
83F
331
840
331
841
331
867
331
868
331
869
331
86A
331
86B
331
870
331
871
331
872
331
873
331
87C
331
87D
331
87E
331
87F
102
}
  0
BLOCK_RECORD
  5
7C5
330
1
100
AcDbSymbolTableRecord
100
AcDbBlockTableRecord
  2
A$C06BE52D8
340
0
  0
BLOCK_RECORD
  5
823
330
1
100
AcDbSymbolTableRecord
100
AcDbBlockTableRecord
  2
A$C06086B6F
340
0
  0
ENDTAB
  0
ENDSEC
  0
SECTION
  2
BLOCKS
  0
BLOCK
  5
1F
330
1E
100
AcDbEntity
  8
0
100
AcDbBlockBegin
  2
*Model_Space
 70
     0
 10
0.0
 20
0.0
 30
0.0
  3
*Model_Space
  1

  0
ENDBLK
  5
20
330
1E
100
AcDbEntity
  8
0
100
AcDbBlockEnd
  0
BLOCK
  5
1B
330
1A
100
AcDbEntity
 67
     1
  8
0
100
AcDbBlockBegin
  2
*Paper_Space
 70
     0
 10
0.0
 20
0.0
 30
0.0
  3
*Paper_Space
  1

  0
ENDBLK
  5
1C
330
1A
100
AcDbEntity
 67
     1
  8
0
100
AcDbBlockEnd
  0
BLOCK
  5
1FA
330
1F6
100
AcDbEntity
  8
0
100
AcDbBlockBegin
  2
A$C667F5126
 70
     0
 10
0.0
 20
0.0
 30
0.0
  3
A$C667F5126
  1

  0
LWPOLYLINE
  5
1F7
330
1F6
100
AcDbEntity
  8
METAL1
100
AcDbPolyline
 90
        4
 70
     1
 43
0.0
 10
-0.0000000000000142
 20
-0.0000000000000071
 10
29.99999999999998
 20
-0.0000000000000071
 10
29.99999999999998
 20
36.99999999999999
 10
-0.0000000000000142
 20
36.99999999999999
  0
LWPOLYLINE
  5
1F8
330
1F6
100
AcDbEntity
  8
METAL1
100
AcDbPolyline
 90
        4
 70
     1
 43
0.0
 10
0.029532603879531
 20
0.0226652060472574
 10
15.02953260387953
 20
0.0226652060472574
 10
15.02953260387953
 20
37.02266520604725
 10
0.029532603879531
 20
37.02266520604725
  0
LWPOLYLINE
  5
1F9
330
1F6
100
AcDbEntity
  8
METAL1
100
AcDbPolyline
 90
        4
 70
     1
 43
0.0
 10
0.0162045678873
 20
25.01745667079179
 10
15.0162045678873
 20
25.01745667079179
 10
15.0162045678873
 20
20.61745667079179
 10
0.0162045678873
 20
20.61745667079179
  0
ENDBLK
  5
1FB
330
1F6
100
AcDbEntity
  8
0
100
AcDbBlockEnd
  0
BLOCK
  5
3E8
330
3E6
100
AcDbEntity
  8
0
100
AcDbBlockBegin
  2
A$C35BA321B
 70
     0
 10
0.0
 20
0.0
 30
0.0
  3
A$C35BA321B
  1

  0
SOLID
  5
3E7
330
3E6
100
AcDbEntity
  8
METAL1
100
AcDbTrace
 10
3.000000022854344
 20
-0.0000000426724327
 30
0.0
 11
3.000000022854344
 21
2.999999957327567
 31
0.0
 12
0.000000022854346
 22
-0.0000000426724327
 32
0.0
 13
0.000000022854346
 23
2.999999957327567
 33
0.0
  0
ENDBLK
  5
3E9
330
3E6
100
AcDbEntity
  8
0
100
AcDbBlockEnd
  0
BLOCK
  5
499
330
48E
100
AcDbEntity
  8
0
100
AcDbBlockBegin
  2
*D2
 70
     1
 10
0.0
 20
0.0
 30
0.0
  3
*D2
  1

  0
LINE
  5
619
330
48E
100
AcDbEntity
  8
0
 62
     0
370
    -2
100
AcDbLine
 10
-8.609788396584473
 20
15.26275532389274
 30
0.0
 11
-8.609788396584473
 21
17.47336496124959
 31
0.0
  0
LINE
  5
61A
330
48E
100
AcDbEntity
  8
0
 62
     0
370
    -2
100
AcDbLine
 10
20.89021160341553
 20
15.26275532389274
 30
0.0
 11
20.89021160341553
 21
17.47336496124959
 31
0.0
  0
LINE
  5
61B
330
48E
100
AcDbEntity
  8
0
 62
     0
370
    -2
100
AcDbLine
 10
-6.809788396584473
 20
17.29336496124959
 30
0.0
 11
3.350211603415528
 21
17.29336496124959
 31
0.0
  0
LINE
  5
61C
330
48E
100
AcDbEntity
  8
0
 62
     0
370
    -2
100
AcDbLine
 10
19.09021160341552
 20
17.29336496124959
 30
0.0
 11
8.930211603415528
 21
17.29336496124959
 31
0.0
  0
SOLID
  5
61D
330
48E
100
AcDbEntity
  8
0
 62
     0
100
AcDbTrace
 10
-6.809788396584473
 20
17.59336496124959
 30
0.0
 11
-6.809788396584473
 21
16.99336496124959
 31
0.0
 12
-8.609788396584473
 22
17.29336496124959
 32
0.0
 13
-8.609788396584473
 23
17.29336496124959
 33
0.0
  0
SOLID
  5
61E
330
48E
100
AcDbEntity
  8
0
 62
     0
100
AcDbTrace
 10
19.09021160341552
 20
17.59336496124959
 30
0.0
 11
19.09021160341552
 21
16.99336496124959
 31
0.0
 12
20.89021160341553
 22
17.29336496124959
 32
0.0
 13
20.89021160341553
 23
17.29336496124959
 33
0.0
  0
MTEXT
  5
61F
330
48E
100
AcDbEntity
  8
0
 62
     0
100
AcDbMText
 10
6.140211603415528
 20
17.29336496124959
 30
0.0
 40
1.8
 41
0.0
 71
     5
 72
     1
  1
\A1;29.5
 73
     1
 44
1.0
  0
POINT
  5
620
330
48E
100
AcDbEntity
  8
Defpoints
 62
     0
100
AcDbPoint
 10
-8.609788396584473
 20
15.20025532389274
 30
0.0
  0
POINT
  5
621
330
48E
100
AcDbEntity
  8
Defpoints
 62
     0
100
AcDbPoint
 10
20.89021160341553
 20
15.20025532389274
 30
0.0
  0
POINT
  5
622
330
48E
100
AcDbEntity
  8
Defpoints
 62
     0
100
AcDbPoint
 10
20.89021160341553
 20
17.29336496124959
 30
0.0
  0
ENDBLK
  5
49A
330
48E
100
AcDbEntity
  8
0
100
AcDbBlockEnd
  0
BLOCK
  5
5F8
330
5ED
100
AcDbEntity
  8
0
100
AcDbBlockBegin
  2
*D3
 70
     1
 10
0.0
 20
0.0
 30
0.0
  3
*D3
  1

  0
LINE
  5
60F
330
5ED
100
AcDbEntity
  8
0
 62
     0
370
    -2
100
AcDbLine
 10
21.68021924242444
 20
-21.09930409974245
 30
0.0
 11
24.70349650452541
 21
-21.09930409974245
 31
0.0
  0
LINE
  5
610
330
5ED
100
AcDbEntity
  8
0
 62
     0
370
    -2
100
AcDbLine
 10
21.68021924242444
 20
13.90069590025754
 30
0.0
 11
24.70349650452542
 21
13.90069590025754
 31
0.0
  0
LINE
  5
611
330
5ED
100
AcDbEntity
  8
0
 62
     0
370
    -2
100
AcDbLine
 10
24.52349650452541
 20
-19.29930409974245
 30
0.0
 11
24.52349650452541
 21
-4.589304099742455
 31
0.0
  0
LINE
  5
612
330
5ED
100
AcDbEntity
  8
0
 62
     0
370
    -2
100
AcDbLine
 10
24.52349650452541
 20
12.10069590025754
 30
0.0
 11
24.52349650452541
 21
-2.609304099742455
 31
0.0
  0
SOLID
  5
613
330
5ED
100
AcDbEntity
  8
0
 62
     0
100
AcDbTrace
 10
24.22349650452541
 20
-19.29930409974245
 30
0.0
 11
24.82349650452541
 21
-19.29930409974245
 31
0.0
 12
24.52349650452541
 22
-21.09930409974245
 32
0.0
 13
24.52349650452541
 23
-21.09930409974245
 33
0.0
  0
SOLID
  5
614
330
5ED
100
AcDbEntity
  8
0
 62
     0
100
AcDbTrace
 10
24.22349650452542
 20
12.10069590025754
 30
0.0
 11
24.82349650452542
 21
12.10069590025754
 31
0.0
 12
24.52349650452541
 22
13.90069590025754
 32
0.0
 13
24.52349650452541
 23
13.90069590025754
 33
0.0
  0
MTEXT
  5
615
330
5ED
100
AcDbEntity
  8
0
 62
     0
100
AcDbMText
 10
24.52349650452541
 20
-3.599304099742451
 30
0.0
 40
1.8
 41
0.0
 71
     5
 72
     1
  1
\A1;35
 73
     1
 44
1.0
  0
POINT
  5
616
330
5ED
100
AcDbEntity
  8
Defpoints
 62
     0
100
AcDbPoint
 10
21.61771924242444
 20
-21.09930409974245
 30
0.0
  0
POINT
  5
617
330
5ED
100
AcDbEntity
  8
Defpoints
 62
     0
100
AcDbPoint
 10
21.61771924242444
 20
13.90069590025754
 30
0.0
  0
POINT
  5
618
330
5ED
100
AcDbEntity
  8
Defpoints
 62
     0
100
AcDbPoint
 10
24.52349650452541
 20
13.90069590025754
 30
0.0
  0
ENDBLK
  5
5F9
330
5ED
100
AcDbEntity
  8
0
100
AcDbBlockEnd
  0
BLOCK
  5
7C3
330
7BE
100
AcDbEntity
  8
0
100
AcDbBlockBegin
  2
A$C7F5B3850
 70
     0
 10
0.0
 20
0.0
 30
0.0
  3
A$C7F5B3850
  1

  0
ARC
  5
7BF
330
7BE
100
AcDbEntity
  8
CONSTR
  6
DASHED
100
AcDbCircle
 10
0.2989705366022122
 20
0.1443359241437809
 30
0.0
 40
0.1444277739574447
100
AcDbArc
 50
179.9551739112651
 51
4.134120587586902
  0
ARC
  5
7C0
330
7BE
100
AcDbEntity
  8
CONSTR
  6
DASHED
100
AcDbCircle
 10
0.1444277297558756
 20
4.851212641492161
 30
0.0
 40
0.1444277739574447
100
AcDbArc
 50
355.8658794124129
 51
180.0448260887349
  0
LWPOLYLINE
  5
7C1
330
7BE
100
AcDbEntity
  8
CONSTR
100
AcDbPolyline
 90
        2
 70
     0
 43
0.0
 10
0.0026085461590242
 20
4.832665928043525
 10
0.1545813162707645
 20
0.1628932215950272
  0
LWPOLYLINE
  5
7C2
330
7BE
100
AcDbEntity
  8
CONSTR
100
AcDbPolyline
 90
        2
 70
     0
 43
0.0
 10
0.2867314536172216
 20
4.83927086197923
 10
0.4453113941061702
 20
0.1562880295128366
  0
ENDBLK
  5
7C4
330
7BE
100
AcDbEntity
  8
0
100
AcDbBlockEnd
  0
BLOCK
  5
7DB
330
7C5
100
AcDbEntity
  8
0
100
AcDbBlockBegin
  2
A$C06BE52D8
 70
     0
 10
0.0
 20
0.0
 30
0.0
  3
A$C06BE52D8
  1

  0
ARC
  5
7C6
330
7C5
100
AcDbEntity
  8
CONSTR
  6
DASHED
100
AcDbCircle
 10
0.9571130510532839
 20
0.1597792747172724
 30
0.0
 40
0.1444277739574447
100
AcDbArc
 50
179.9551739112651
 51
4.134120587586902
  0
ARC
  5
7C7
330
7C5
100
AcDbEntity
  8
CONSTR
  6
DASHED
100
AcDbCircle
 10
0.8025702442069473
 20
4.866655992065653
 30
0.0
 40
0.1444277739574447
100
AcDbArc
 50
355.8658794124129
 51
180.0448260887349
  0
LWPOLYLINE
  5
7C8
330
7C5
100
AcDbEntity
  8
CONSTR
100
AcDbPolyline
 90
        2
 70
     0
 43
0.0
 10
0.660751060610096
 20
4.848109278617016
 10
0.8127238307218362
 20
0.1783365721685186
  0
LWPOLYLINE
  5
7C9
330
7C5
100
AcDbEntity
  8
CONSTR
100
AcDbPolyline
 90
        2
 70
     0
 43
0.0
 10
0.9448739680682933
 20
4.854714212552721
 10
1.103453908557241
 20
0.171731380086328
  0
INSERT
  5
7CA
330
7C5
100
AcDbEntity
  8
CONSTR
100
AcDbBlockReference
  2
A$C7F5B3850
 10
0.9514815123233688
 20
0.0198153181000862
 30
0.0
  0
INSERT
  5
7CB
330
7C5
100
AcDbEntity
  8
CONSTR
100
AcDbBlockReference
  2
A$C7F5B3850
 10
1.242211590158774
 20
0.0066051920821906
 30
0.0
  0
INSERT
  5
7CC
330
7C5
100
AcDbEntity
  8
CONSTR
100
AcDbBlockReference
  2
A$C7F5B3850
 10
1.532942041872104
 20
0.0066051920821906
 30
0.0
  0
INSERT
  5
7CD
330
7C5
100
AcDbEntity
  8
CONSTR
100
AcDbBlockReference
  2
A$C7F5B3850
 10
1.830280037840509
 20
0.0
 30
0.0
  0
INSERT
  5
7CE
330
7C5
100
AcDbEntity
  8
CONSTR
100
AcDbBlockReference
  2
A$C7F5B3850
 10
2.127618033808914
 20
0.0066051920821906
 30
0.0
  0
ARC
  5
7CF
330
7C5
100
AcDbEntity
  8
CONSTR
  6
DASHED
100
AcDbCircle
 10
2.717318648246532
 20
0.1597792747172724
 30
0.0
 40
0.1444277739574447
100
AcDbArc
 50
179.9551739112651
 51
4.134120587586947
  0
ARC
  5
7D0
330
7C5
100
AcDbEntity
  8
CONSTR
  6
DASHED
100
AcDbCircle
 10
2.562775841400195
 20
4.866655992065653
 30
0.0
 40
0.1444277739574447
100
AcDbArc
 50
355.8658794124128
 51
180.0448260887349
  0
LWPOLYLINE
  5
7D1
330
7C5
100
AcDbEntity
  8
CONSTR
100
AcDbPolyline
 90
        2
 70
     0
 43
0.0
 10
2.420956657803344
 20
4.848109278617016
 10
2.572929427915084
 20
0.1783365721685186
  0
LWPOLYLINE
  5
7D2
330
7C5
100
AcDbEntity
  8
CONSTR
100
AcDbPolyline
 90
        2
 70
     0
 43
0.0
 10
2.705079565261542
 20
4.854714212552721
 10
2.86365950575049
 20
0.171731380086328
  0
INSERT
  5
7D3
330
7C5
100
AcDbEntity
  8
CONSTR
100
AcDbBlockReference
  2
A$C7F5B3850
 10
2.711687109516617
 20
0.0198153181000862
 30
0.0
  0
INSERT
  5
7D4
330
7C5
100
AcDbEntity
  8
CONSTR
100
AcDbBlockReference
  2
A$C7F5B3850
 10
3.002417187352023
 20
0.0066051920821906
 30
0.0
  0
INSERT
  5
7D5
330
7C5
100
AcDbEntity
  8
CONSTR
100
AcDbBlockReference
  2
A$C7F5B3850
 10
3.293147639065352
 20
0.0066051920821906
 30
0.0
  0
INSERT
  5
7D6
330
7C5
100
AcDbEntity
  8
CONSTR
100
AcDbBlockReference
  2
A$C7F5B3850
 10
3.590485635033758
 20
0.0
 30
0.0
  0
LWPOLYLINE
  5
7D7
330
7C5
100
AcDbEntity
  8
CONSTR
100
AcDbPolyline
 90
        2
 70
     0
 43
0.0
 10
0.660751060610096
 20
4.854714212552721
 10
0.0
 20
1.994726189092716
  0
LWPOLYLINE
  5
7D8
330
7C5
100
AcDbEntity
  8
CONSTR
100
AcDbPolyline
 90
        3
 70
     0
 43
0.0
 10
0.6937884080077197
 20
3.771485427963227
 10
0.2709078189479896
 20
1.928675559003238
 10
0.0
 20
2.001331123028478
  0
LWPOLYLINE
  5
7D9
330
7C5
100
AcDbEntity
  8
CONSTR
100
AcDbPolyline
 90
        3
 70
     0
 43
0.0
 10
3.988835720719862
 20
1.289476404286631
 10
4.428817859135847
 20
3.205296014140515
 10
4.727110739279453
 20
3.108386820862278
  0
LWPOLYLINE
  5
7DA
330
7C5
100
AcDbEntity
  8
CONSTR
100
AcDbPolyline
 90
        2
 70
     0
 43
0.0
 10
4.033579559271913
 20
0.1712938219287139
 10
4.712196001802794
 20
3.123295808375985
  0
ENDBLK
  5
7DC
330
7C5
100
AcDbEntity
  8
0
100
AcDbBlockEnd
  0
BLOCK
  5
843
330
823
100
AcDbEntity
  8
0
100
AcDbBlockBegin
  2
A$C06086B6F
 70
     0
 10
0.0
 20
0.0
 30
0.0
  3
A$C06086B6F
  1

  0
ARC
  5
824
330
823
100
AcDbEntity
  8
CONSTR
  6
DASHED
100
AcDbCircle
 10
1.152250169867023
 20
0.1959844018822254
 30
0.0
 40
0.1738738392857908
100
AcDbArc
 50
179.9551739112651
 51
4.134120587586913
  0
ARC
  5
825
330
823
100
AcDbEntity
  8
CONSTR
  6
DASHED
100
AcDbCircle
 10
0.9661990356281719
 20
5.862503406262943
 30
0.0
 40
0.1738738392857908
100
AcDbArc
 50
355.8658794124129
 51
180.0448260887349
  0
LWPOLYLINE
  5
826
330
823
100
AcDbEntity
  8
CONSTR
100
AcDbPolyline
 90
        2
 70
     0
 43
0.0
 10
0.7954656284676745
 20
5.840175372083049
 10
0.9784227445554058
 20
0.2183251779407649
  0
LWPOLYLINE
  5
827
330
823
100
AcDbEntity
  8
CONSTR
100
AcDbPolyline
 90
        2
 70
     0
 43
0.0
 10
1.137515771561023
 20
5.848126925930084
 10
1.328427133905016
 20
0.210373313316105
  0
INSERT
  5
828
330
823
100
AcDbEntity
  8
CONSTR
100
AcDbBlockReference
  2
A$C7F5B3850
 10
1.145470467921704
 20
0.0274844670578434
 30
0.0
 41
1.203880905462284
 42
1.203880905462285
 43
1.203880905462285
  0
INSERT
  5
829
330
823
100
AcDbEntity
  8
CONSTR
100
AcDbBlockReference
  2
A$C7F5B3850
 10
1.495474857271315
 20
0.0115810485861483
 30
0.0
 41
1.203880905462284
 42
1.203880905462285
 43
1.203880905462285
  0
INSERT
  5
82A
330
823
100
AcDbEntity
  8
CONSTR
100
AcDbBlockReference
  2
A$C7F5B3850
 10
1.845479696725419
 20
0.0115810485861483
 30
0.0
 41
1.203880905462284
 42
1.203880905462285
 43
1.203880905462285
  0
INSERT
  5
82B
330
823
100
AcDbEntity
  8
CONSTR
100
AcDbBlockReference
  2
A$C7F5B3850
 10
2.203439232540201
 20
0.0036291839614884
 30
0.0
 41
1.203880905462284
 42
1.203880905462285
 43
1.203880905462285
  0
INSERT
  5
82C
330
823
100
AcDbEntity
  8
CONSTR
100
AcDbBlockReference
  2
A$C7F5B3850
 10
2.561398768354987
 20
0.0115810485861483
 30
0.0
 41
1.203880905462284
 42
1.203880905462285
 43
1.203880905462285
  0
ARC
  5
82D
330
823
100
AcDbEntity
  8
CONSTR
  6
DASHED
100
AcDbCircle
 10
3.271328078015812
 20
0.1959844018822254
 30
0.0
 40
0.1738738392857908
100
AcDbArc
 50
179.9551739112651
 51
4.134120587586951
  0
ARC
  5
82E
330
823
100
AcDbEntity
  8
CONSTR
  6
DASHED
100
AcDbCircle
 10
3.085276943776962
 20
5.862503406262943
 30
0.0
 40
0.1738738392857908
100
AcDbArc
 50
355.8658794124128
 51
180.0448260887349
  0
LWPOLYLINE
  5
82F
330
823
100
AcDbEntity
  8
CONSTR
100
AcDbPolyline
 90
        2
 70
     0
 43
0.0
 10
2.914543536616463
 20
5.840175372083049
 10
3.097500652704196
 20
0.2183251779407649
  0
LWPOLYLINE
  5
830
330
823
100
AcDbEntity
  8
CONSTR
100
AcDbPolyline
 90
        2
 70
     0
 43
0.0
 10
3.256593679709814
 20
5.848126925930084
 10
3.447505042053805
 20
0.210373313316105
  0
INSERT
  5
831
330
823
100
AcDbEntity
  8
CONSTR
100
AcDbBlockReference
  2
A$C7F5B3850
 10
3.264548376070496
 20
0.0274844670578434
 30
0.0
 41
1.203880905462284
 42
1.203880905462285
 43
1.203880905462285
  0
INSERT
  5
832
330
823
100
AcDbEntity
  8
CONSTR
100
AcDbBlockReference
  2
A$C7F5B3850
 10
3.614552765420105
 20
0.0115810485861483
 30
0.0
 41
1.203880905462284
 42
1.203880905462285
 43
1.203880905462285
  0
INSERT
  5
833
330
823
100
AcDbEntity
  8
CONSTR
100
AcDbBlockReference
  2
A$C7F5B3850
 10
3.964557604874208
 20
0.0115810485861483
 30
0.0
 41
1.203880905462284
 42
1.203880905462285
 43
1.203880905462285
  0
INSERT
  5
834
330
823
100
AcDbEntity
  8
CONSTR
100
AcDbBlockReference
  2
A$C7F5B3850
 10
4.322517140688994
 20
0.0036291839614884
 30
0.0
 41
1.203880905462284
 42
1.203880905462285
 43
1.203880905462285
  0
LWPOLYLINE
  5
835
330
823
100
AcDbEntity
  8
CONSTR
100
AcDbPolyline
 90
        2
 70
     0
 43
0.0
 10
0.7954656284676745
 20
5.848126925930084
 10
0.0000000433352234
 20
2.405041954635761
  0
LWPOLYLINE
  5
836
330
823
100
AcDbEntity
  8
CONSTR
100
AcDbPolyline
 90
        3
 70
     0
 43
0.0
 10
0.8352386601667944
 20
4.544048475915673
 10
0.3261407937071432
 20
2.325524862277286
 10
0.0000000433352234
 20
2.412993508482865
  0
LWPOLYLINE
  5
837
330
823
100
AcDbEntity
  8
CONSTR
100
AcDbPolyline
 90
        3
 70
     0
 43
0.0
 10
6.930798923020674
 20
1.495207371566564
 10
7.460485018204142
 20
3.80162601817986
 10
7.81959412084438
 20
3.684958890828438
  0
LWPOLYLINE
  5
838
330
823
100
AcDbEntity
  8
CONSTR
100
AcDbPolyline
 90
        2
 70
     0
 43
0.0
 10
6.984665175890576
 20
0.1490487118453592
 10
7.801638553186247
 20
3.702907536215965
  0
ARC
  5
839
330
823
100
AcDbEntity
  8
CONSTR
  6
DASHED
100
AcDbCircle
 10
5.042914224394728
 20
0.1923550795441387
 30
0.0
 40
0.1738738392857908
100
AcDbArc
 50
179.9551739112651
 51
4.134120587586913
  0
ARC
  5
83A
330
823
100
AcDbEntity
  8
CONSTR
  6
DASHED
100
AcDbCircle
 10
4.856863090155876
 20
5.858874083924856
 30
0.0
 40
0.1738738392857908
100
AcDbArc
 50
355.8658794124129
 51
180.0448260887349
  0
LWPOLYLINE
  5
83B
330
823
100
AcDbEntity
  8
CONSTR
100
AcDbPolyline
 90
        2
 70
     0
 43
0.0
 10
4.686129682995378
 20
5.836546049744962
 10
4.86908679908311
 20
0.2146958556026781
  0
LWPOLYLINE
  5
83C
330
823
100
AcDbEntity
  8
CONSTR
100
AcDbPolyline
 90
        2
 70
     0
 43
0.0
 10
5.028179826088729
 20
5.844497603591997
 10
5.21909118843272
 20
0.2067439909780182
  0
INSERT
  5
83D
330
823
100
AcDbEntity
  8
CONSTR
100
AcDbBlockReference
  2
A$C7F5B3850
 10
5.036134522449412
 20
0.0238551447197566
 30
0.0
 41
1.203880905462284
 42
1.203880905462285
 43
1.203880905462285
  0
INSERT
  5
83E
330
823
100
AcDbEntity
  8
CONSTR
100
AcDbBlockReference
  2
A$C7F5B3850
 10
5.386138911799019
 20
0.0079517262480615
 30
0.0
 41
1.203880905462284
 42
1.203880905462285
 43
1.203880905462285
  0
INSERT
  5
83F
330
823
100
AcDbEntity
  8
CONSTR
100
AcDbBlockReference
  2
A$C7F5B3850
 10
5.736143751253123
 20
0.0079517262480615
 30
0.0
 41
1.203880905462284
 42
1.203880905462285
 43
1.203880905462285
  0
INSERT
  5
840
330
823
100
AcDbEntity
  8
CONSTR
100
AcDbBlockReference
  2
A$C7F5B3850
 10
6.094103287067909
 20
-0.0000001383765984
 30
0.0
 41
1.203880905462284
 42
1.203880905462285
 43
1.203880905462285
  0
INSERT
  5
841
330
823
100
AcDbEntity
  8
CONSTR
100
AcDbBlockReference
  2
A$C7F5B3850
 10
6.452062822882693
 20
0.0079517262480615
 30
0.0
 41
1.203880905462284
 42
1.203880905462285
 43
1.203880905462285
  0
LWPOLYLINE
  5
842
330
823
100
AcDbEntity
  8
CONSTR
100
AcDbPolyline
 90
        2
 70
     0
 43
0.0
 10
6.805207591144167
 20
5.836546049744962
 10
6.988164707231902
 20
0.2146958556026781
  0
ENDBLK
  5
844
330
823
100
AcDbEntity
  8
0
100
AcDbBlockEnd
  0
ENDSEC
  0
SECTION
  2
ENTITIES
  0
SOLID
  5
7D
330
1E
100
AcDbEntity
  8
METAL1
100
AcDbTrace
 10
11.4100226690148
 20
-6.763358732535898
 30
0.0
 11
13.11002266901479
 21
-6.763358732535895
 31
0.0
 12
11.4100226690148
 22
-8.463358732535894
 32
0.0
 13
13.11002266901479
 23
-8.46335873253589
 33
0.0
  0
SOLID
  5
93
330
1E
100
AcDbEntity
  8
METAL1
100
AcDbTrace
 10
7.54301551276911
 20
5.944508147847514
 30
0.0
 11
7.54301551276911
 21
6.794508147847512
 31
0.0
 12
7.29301551276911
 22
5.944508147847514
 32
0.0
 13
7.29301551276911
 23
6.794508147847512
 33
0.0
  0
SOLID
  5
94
330
1E
100
AcDbEntity
  8
METAL1
100
AcDbTrace
 10
3.843015512769111
 20
6.774252342305753
 30
0.0
 11
4.96061551276911
 21
6.774252342305751
 31
0.0
 12
3.843015512769111
 22
5.097852342305753
 32
0.0
 13
4.96061551276911
 23
5.097852342305753
 33
0.0
  0
SOLID
  5
95
330
1E
100
AcDbEntity
  8
METAL1
100
AcDbTrace
 10
6.79301551276911
 20
6.774252342305751
 30
0.0
 11
7.910615512769109
 21
6.77425234230575
 31
0.0
 12
6.79301551276911
 22
5.097852342305753
 32
0.0
 13
7.910615512769109
 23
5.097852342305751
 33
0.0
  0
SOLID
  5
96
330
1E
100
AcDbEntity
  8
CONSTR
100
AcDbTrace
 10
4.318015512769108
 20
6.736052342305753
 30
0.0
 11
4.318015512769108
 21
5.136052342305752
 31
0.0
 12
4.268015512769109
 22
6.736052342305753
 32
0.0
 13
4.268015512769109
 23
5.136052342305752
 33
0.0
  0
SOLID
  5
97
330
1E
100
AcDbEntity
  8
CONSTR
100
AcDbTrace
 10
4.29301551276911
 20
6.761052342305753
 30
0.0
 11
7.493015512769109
 21
6.761052342305751
 31
0.0
 12
4.29301551276911
 22
6.711052342305754
 32
0.0
 13
7.493015512769109
 23
6.711052342305752
 33
0.0
  0
SOLID
  5
98
330
1E
100
AcDbEntity
  8
CONSTR
100
AcDbTrace
 10
4.29301551276911
 20
5.161052342305755
 30
0.0
 11
7.493015512769109
 21
5.161052342305751
 31
0.0
 12
4.29301551276911
 22
5.111052342305754
 32
0.0
 13
7.493015512769109
 23
5.11105234230575
 33
0.0
  0
SOLID
  5
99
330
1E
100
AcDbEntity
  8
CONSTR
100
AcDbTrace
 10
7.518015512769108
 20
6.73605234230575
 30
0.0
 11
7.518015512769108
 21
5.136052342305751
 31
0.0
 12
7.468015512769111
 22
6.73605234230575
 32
0.0
 13
7.468015512769111
 23
5.136052342305751
 33
0.0
  0
SOLID
  5
A9
330
1E
100
AcDbEntity
  8
CONSTR
100
AcDbTrace
 10
2.544491114741832
 20
6.112790367389073
 30
0.0
 11
2.544491114741832
 21
6.462790367389071
 31
0.0
 12
2.594491114741831
 22
6.112790367389073
 32
0.0
 13
2.594491114741831
 23
6.462790367389071
 33
0.0
  0
SOLID
  5
AA
330
1E
100
AcDbEntity
  8
CONSTR
100
AcDbTrace
 10
2.53449111474183
 20
6.462790367389071
 30
0.0
 11
2.53449111474183
 21
8.112790367389074
 31
0.0
 12
2.584491114741831
 22
6.462790367389071
 32
0.0
 13
2.584491114741831
 23
8.112790367389074
 33
0.0
  0
SOLID
  5
AB
330
1E
100
AcDbEntity
  8
CONSTR
100
AcDbTrace
 10
2.559491114741832
 20
8.137790367389072
 30
0.0
 11
3.809491114741832
 21
8.137790367389072
 31
0.0
 12
2.559491114741832
 22
8.087790367389072
 32
0.0
 13
3.809491114741832
 23
8.087790367389072
 33
0.0
  0
SOLID
  5
AC
330
1E
100
AcDbEntity
  8
CONSTR
100
AcDbTrace
 10
3.809491114741832
 20
6.087790367389071
 30
0.0
 11
2.559491114741832
 21
6.087790367389071
 31
0.0
 12
3.809491114741832
 22
6.137790367389071
 32
0.0
 13
2.559491114741832
 23
6.137790367389071
 33
0.0
  0
SOLID
  5
AD
330
1E
100
AcDbEntity
  8
CONSTR
100
AcDbTrace
 10
3.834491114741831
 20
8.112790367389074
 30
0.0
 11
3.834491114741831
 21
6.112790367389073
 31
0.0
 12
3.78449111474183
 22
8.112790367389074
 32
0.0
 13
3.78449111474183
 23
6.112790367389073
 33
0.0
  0
SOLID
  5
AE
330
1E
100
AcDbEntity
  8
CONSTR
100
AcDbTrace
 10
2.559491114741832
 20
6.312790367389072
 30
0.0
 11
2.129491114741831
 21
6.312790367389073
 31
0.0
 12
2.559491114741832
 22
6.612790367389073
 32
0.0
 13
2.129491114741831
 23
6.612790367389074
 33
0.0
  0
SOLID
  5
AF
330
1E
100
AcDbEntity
  8
CONSTR
100
AcDbTrace
 10
2.559491114741832
 20
7.612790367389073
 30
0.0
 11
2.129491114741831
 21
7.612790367389074
 31
0.0
 12
2.559491114741832
 22
7.912790367389072
 32
0.0
 13
2.129491114741831
 23
7.912790367389073
 33
0.0
  0
SOLID
  5
B0
330
1E
100
AcDbEntity
  8
CONSTR
100
AcDbTrace
 10
3.809491114741832
 20
6.612790367389073
 30
0.0
 11
4.239491114741832
 21
6.612790367389073
 31
0.0
 12
3.809491114741832
 22
6.312790367389072
 32
0.0
 13
4.239491114741832
 23
6.312790367389072
 33
0.0
  0
SOLID
  5
B1
330
1E
100
AcDbEntity
  8
CONSTR
100
AcDbTrace
 10
3.809491114741832
 20
7.912790367389072
 30
0.0
 11
4.239491114741833
 21
7.912790367389072
 31
0.0
 12
3.809491114741832
 22
7.312790367389072
 32
0.0
 13
4.239491114741833
 23
7.312790367389072
 33
0.0
  0
SOLID
  5
B2
330
1E
100
AcDbEntity
  8
METAL1
100
AcDbTrace
 10
3.579491114741832
 20
8.062790367389073
 30
0.0
 11
4.379491114741831
 21
8.062790367389073
 31
0.0
 12
3.579491114741832
 22
7.162790367389072
 32
0.0
 13
4.37949111474183
 23
7.162790367389072
 33
0.0
  0
SOLID
  5
B3
330
1E
100
AcDbEntity
  8
METAL1
100
AcDbTrace
 10
3.579491114741832
 20
6.762790367389071
 30
0.0
 11
4.37949111474183
 21
6.762790367389071
 31
0.0
 12
3.579491114741832
 22
6.162790367389072
 32
0.0
 13
4.37949111474183
 23
6.162790367389072
 33
0.0
  0
SOLID
  5
B4
330
1E
100
AcDbEntity
  8
METAL1
100
AcDbTrace
 10
2.779491114741831
 20
6.162790367389072
 30
0.0
 11
1.97949111474183
 21
6.162790367389073
 31
0.0
 12
2.779491114741831
 22
6.762790367389071
 32
0.0
 13
1.979491114741831
 23
6.762790367389072
 33
0.0
  0
SOLID
  5
B5
330
1E
100
AcDbEntity
  8
METAL1
100
AcDbTrace
 10
2.779491114741831
 20
7.462790367389071
 30
0.0
 11
1.979491114741831
 21
7.462790367389072
 31
0.0
 12
2.779491114741831
 22
8.062790367389073
 32
0.0
 13
1.979491114741831
 23
8.062790367389073
 33
0.0
  0
SOLID
  5
DE
330
1E
100
AcDbEntity
  8
METAL1
100
AcDbTrace
 10
2.559491114741832
 20
6.337790367389071
 30
0.0
 11
2.309491114741832
 21
6.337790367389072
 31
0.0
 12
2.559491114741832
 22
6.337790367389071
 32
0.0
 13
2.559491114741832
 23
6.587790367389071
 33
0.0
  0
SOLID
  5
DF
330
1E
100
AcDbEntity
  8
METAL1
100
AcDbTrace
 10
2.559491114741832
 20
6.337790367389071
 30
0.0
 11
2.309491114741832
 21
6.337790367389072
 31
0.0
 12
2.559491114741832
 22
6.337790367389071
 32
0.0
 13
2.559491114741832
 23
6.587790367389071
 33
0.0
  0
SOLID
  5
11C
330
1E
100
AcDbEntity
  8
METAL1
100
AcDbTrace
 10
13.11022338569906
 20
-8.039678555052809
 30
0.0
 11
13.11022338569906
 21
-9.157278555052805
 31
0.0
 12
11.43382338569906
 22
-8.039678555052809
 32
0.0
 13
11.43382338569906
 23
-9.157278555052805
 33
0.0
  0
SOLID
  5
11D
330
1E
100
AcDbEntity
  8
METAL1
100
AcDbTrace
 10
13.11022338569906
 20
-10.9896785550528
 30
0.0
 11
13.11022338569906
 21
-12.1072785550528
 31
0.0
 12
11.43382338569906
 22
-10.9896785550528
 32
0.0
 13
11.43382338569906
 23
-12.1072785550528
 33
0.0
  0
SOLID
  5
11E
330
1E
100
AcDbEntity
  8
CONSTR
100
AcDbTrace
 10
13.07202338569906
 20
-8.514678555052803
 30
0.0
 11
11.47202338569906
 21
-8.514678555052803
 31
0.0
 12
13.07202338569906
 22
-8.464678555052806
 32
0.0
 13
11.47202338569906
 23
-8.464678555052806
 33
0.0
  0
SOLID
  5
11F
330
1E
100
AcDbEntity
  8
CONSTR
100
AcDbTrace
 10
13.09702338569906
 20
-8.489678555052805
 30
0.0
 11
13.09702338569906
 21
-11.6896785550528
 31
0.0
 12
13.04702338569906
 22
-8.489678555052805
 32
0.0
 13
13.04702338569906
 23
-11.6896785550528
 33
0.0
  0
SOLID
  5
120
330
1E
100
AcDbEntity
  8
CONSTR
100
AcDbTrace
 10
11.49702338569906
 20
-8.489678555052805
 30
0.0
 11
11.49702338569906
 21
-11.6896785550528
 31
0.0
 12
11.44702338569906
 22
-8.489678555052805
 32
0.0
 13
11.44702338569906
 23
-11.6896785550528
 33
0.0
  0
SOLID
  5
121
330
1E
100
AcDbEntity
  8
CONSTR
100
AcDbTrace
 10
13.07202338569906
 20
-11.7146785550528
 30
0.0
 11
11.47202338569906
 21
-11.7146785550528
 31
0.0
 12
13.07202338569906
 22
-11.6646785550528
 32
0.0
 13
11.47202338569906
 23
-11.6646785550528
 33
0.0
  0
SOLID
  5
157
330
1E
100
AcDbEntity
  8
METAL1
100
AcDbTrace
 10
6.893015512769108
 20
6.774252342305751
 30
0.0
 11
8.010615512769112
 21
6.77425234230575
 31
0.0
 12
6.893015512769108
 22
5.097852342305753
 32
0.0
 13
8.010615512769112
 23
5.097852342305751
 33
0.0
  0
SOLID
  5
158
330
1E
100
AcDbEntity
  8
METAL1
100
AcDbTrace
 10
9.843015512769111
 20
6.77425234230575
 30
0.0
 11
10.96061551276911
 21
6.77425234230575
 31
0.0
 12
9.843015512769111
 22
5.097852342305751
 32
0.0
 13
10.96061551276911
 23
5.097852342305751
 33
0.0
  0
SOLID
  5
159
330
1E
100
AcDbEntity
  8
CONSTR
100
AcDbTrace
 10
7.368015512769109
 20
6.73605234230575
 30
0.0
 11
7.368015512769109
 21
5.136052342305751
 31
0.0
 12
7.318015512769112
 22
6.73605234230575
 32
0.0
 13
7.318015512769112
 23
5.136052342305751
 33
0.0
  0
SOLID
  5
15A
330
1E
100
AcDbEntity
  8
CONSTR
100
AcDbTrace
 10
7.343015512769111
 20
6.761052342305751
 30
0.0
 11
10.54301551276911
 21
6.761052342305751
 31
0.0
 12
7.343015512769111
 22
6.711052342305752
 32
0.0
 13
10.54301551276911
 23
6.711052342305752
 33
0.0
  0
SOLID
  5
15B
330
1E
100
AcDbEntity
  8
CONSTR
100
AcDbTrace
 10
7.343015512769111
 20
5.161052342305751
 30
0.0
 11
10.54301551276911
 21
5.161052342305751
 31
0.0
 12
7.343015512769111
 22
5.11105234230575
 32
0.0
 13
10.54301551276911
 23
5.11105234230575
 33
0.0
  0
SOLID
  5
15C
330
1E
100
AcDbEntity
  8
CONSTR
100
AcDbTrace
 10
10.56801551276911
 20
6.73605234230575
 30
0.0
 11
10.56801551276911
 21
5.136052342305751
 31
0.0
 12
10.5180155127691
 22
6.73605234230575
 32
0.0
 13
10.5180155127691
 23
5.136052342305751
 33
0.0
  0
SOLID
  5
176
330
1E
100
AcDbEntity
  8
METAL1
100
AcDbTrace
 10
8.14969056477145
 20
-6.777454698199413
 30
0.0
 11
9.26729056477145
 21
-6.777454698199413
 31
0.0
 12
8.14969056477145
 22
-8.453854698199414
 32
0.0
 13
9.26729056477145
 23
-8.453854698199414
 33
0.0
  0
SOLID
  5
177
330
1E
100
AcDbEntity
  8
METAL1
100
AcDbTrace
 10
10.74588472416125
 20
-6.777454698199413
 30
0.0
 11
11.86348472416125
 21
-6.777454698199413
 31
0.0
 12
10.74588472416125
 22
-8.453854698199414
 32
0.0
 13
11.86348472416125
 23
-8.453854698199414
 33
0.0
  0
SOLID
  5
178
330
1E
100
AcDbEntity
  8
CONSTR
100
AcDbTrace
 10
8.624690564771452
 20
-6.815654698199416
 30
0.0
 11
8.624690564771452
 21
-8.415654698199414
 31
0.0
 12
8.574690564771451
 22
-6.815654698199416
 32
0.0
 13
8.574690564771451
 23
-8.415654698199414
 33
0.0
  0
SOLID
  5
179
330
1E
100
AcDbEntity
  8
CONSTR
100
AcDbTrace
 10
8.599690564771449
 20
-6.790654698199414
 30
0.0
 11
11.79969056477144
 21
-6.790654698199414
 31
0.0
 12
8.599690564771449
 22
-6.840654698199415
 32
0.0
 13
11.79969056477144
 23
-6.840654698199415
 33
0.0
  0
SOLID
  5
17A
330
1E
100
AcDbEntity
  8
CONSTR
100
AcDbTrace
 10
8.599690564771449
 20
-8.390654698199416
 30
0.0
 11
11.79969056477145
 21
-8.390654698199412
 31
0.0
 12
8.599690564771449
 22
-8.440654698199416
 32
0.0
 13
11.79969056477145
 23
-8.440654698199416
 33
0.0
  0
SOLID
  5
17B
330
1E
100
AcDbEntity
  8
CONSTR
100
AcDbTrace
 10
11.82469056477145
 20
-6.815654698199416
 30
0.0
 11
11.82469056477145
 21
-8.415654698199411
 31
0.0
 12
11.77469056477144
 22
-6.815654698199416
 32
0.0
 13
11.77469056477145
 23
-8.415654698199411
 33
0.0
  0
SOLID
  5
182
330
1E
100
AcDbEntity
  8
METAL1
100
AcDbTrace
 10
19.2851499170871
 20
-15.28720075044102
 30
0.0
 11
19.2851499170871
 21
-18.28720075044102
 31
0.0
 12
16.28514991708711
 22
-15.28720075044102
 32
0.0
 13
16.28514991708711
 23
-18.28720075044102
 33
0.0
  0
SOLID
  5
183
330
1E
100
AcDbEntity
  8
METAL1
100
AcDbTrace
 10
11.69462790349323
 20
-18.21750893230677
 30
0.0
 11
11.69462790349323
 21
-15.21750893230677
 31
0.0
 12
14.69462790349323
 22
-18.21750893230676
 32
0.0
 13
14.69462790349323
 23
-15.21750893230676
 33
0.0
  0
LWPOLYLINE
  5
188
330
1E
100
AcDbEntity
  8
GND
100
AcDbPolyline
 90
        2
 70
     0
 43
0.2
 10
13.23879310937256
 20
-17.30680843667412
 42
1.0
 10
13.23879310937256
 20
-16.10680843667412
  0
LWPOLYLINE
  5
190
330
1E
100
AcDbEntity
  8
GND
100
AcDbPolyline
 90
        2
 70
     0
 43
0.2
 10
13.23879310937256
 20
-16.10680843667412
 42
1.0
 10
13.23879310937256
 20
-17.30680843667412
  0
SOLID
  5
194
330
1E
100
AcDbEntity
  8
METAL1
100
AcDbTrace
 10
8.56426425886303
 20
-6.765932246378206
 30
0.0
 11
7.44666425886303
 21
-6.765932246378206
 31
0.0
 12
8.56426425886303
 22
-8.442332246378207
 32
0.0
 13
7.44666425886303
 23
-8.442332246378207
 33
0.0
  0
SOLID
  5
195
330
1E
100
AcDbEntity
  8
METAL1
100
AcDbTrace
 10
5.61426425886303
 20
-6.765932246378206
 30
0.0
 11
4.496664258863029
 21
-6.765932246378206
 31
0.0
 12
5.61426425886303
 22
-8.442332246378207
 32
0.0
 13
4.496664258863031
 23
-8.442332246378207
 33
0.0
  0
SOLID
  5
196
330
1E
100
AcDbEntity
  8
CONSTR
100
AcDbTrace
 10
8.089264258863032
 20
-6.804132246378209
 30
0.0
 11
8.089264258863032
 21
-8.404132246378207
 31
0.0
 12
8.139264258863029
 22
-6.804132246378209
 32
0.0
 13
8.139264258863029
 23
-8.404132246378207
 33
0.0
  0
SOLID
  5
197
330
1E
100
AcDbEntity
  8
CONSTR
100
AcDbTrace
 10
8.11426425886303
 20
-6.779132246378207
 30
0.0
 11
4.914264258863029
 21
-6.779132246378207
 31
0.0
 12
8.11426425886303
 22
-6.829132246378208
 32
0.0
 13
4.914264258863029
 23
-6.829132246378208
 33
0.0
  0
SOLID
  5
198
330
1E
100
AcDbEntity
  8
CONSTR
100
AcDbTrace
 10
8.11426425886303
 20
-8.379132246378208
 30
0.0
 11
4.914264258863031
 21
-8.379132246378208
 31
0.0
 12
8.11426425886303
 22
-8.429132246378209
 32
0.0
 13
4.914264258863031
 23
-8.429132246378209
 33
0.0
  0
SOLID
  5
199
330
1E
100
AcDbEntity
  8
CONSTR
100
AcDbTrace
 10
4.889264258863027
 20
-6.804132246378209
 30
0.0
 11
4.889264258863029
 21
-8.404132246378207
 31
0.0
 12
4.93926425886303
 22
-6.804132246378209
 32
0.0
 13
4.93926425886303
 23
-8.404132246378207
 33
0.0
  0
SOLID
  5
19A
330
1E
100
AcDbEntity
  8
METAL1
100
AcDbTrace
 10
5.11426425886303
 20
-7.004132246378208
 30
0.0
 11
3.914264258863029
 21
-7.004132246378208
 31
0.0
 12
5.11426425886303
 22
-8.204132246378208
 32
0.0
 13
3.914264258863031
 23
-8.204132246378208
 33
0.0
  0
LWPOLYLINE
  5
19B
330
1E
100
AcDbEntity
  8
METAL1
100
AcDbPolyline
 90
        2
 70
     0
 43
0.2
 10
4.514264258863033
 20
-7.204132246378208
 42
-1.0
 10
4.514264258863033
 20
-8.004132246378208
  0
LWPOLYLINE
  5
19F
330
1E
100
AcDbEntity
  8
GND
100
AcDbPolyline
 90
        2
 70
     0
 43
0.2
 10
4.514264258863033
 20
-7.204132246378208
 42
-1.0
 10
4.514264258863033
 20
-8.004132246378208
  0
LWPOLYLINE
  5
1A3
330
1E
100
AcDbEntity
  8
METAL1
100
AcDbPolyline
 90
        2
 70
     0
 43
0.2
 10
4.514264258863033
 20
-8.004132246378208
 42
-1.0
 10
4.514264258863033
 20
-7.204132246378208
  0
LWPOLYLINE
  5
1A7
330
1E
100
AcDbEntity
  8
GND
100
AcDbPolyline
 90
        2
 70
     0
 43
0.2
 10
4.514264258863033
 20
-8.004132246378208
 42
-1.0
 10
4.514264258863033
 20
-7.204132246378208
  0
SOLID
  5
231
330
1E
100
AcDbEntity
  8
METAL1
100
AcDbTrace
 10
-3.617832328659665
 20
-0.4558236189243275
 30
0.0
 11
-2.500232328659666
 21
-0.4558236189243275
 31
0.0
 12
-3.617832328659665
 22
1.220576381075673
 32
0.0
 13
-2.500232328659667
 23
1.220576381075673
 33
0.0
  0
LWPOLYLINE
  5
259
330
1E
100
AcDbEntity
  8
GND
100
AcDbPolyline
 90
        2
 70
     0
 43
0.2
 10
1.835891379083703
 20
5.780108100533011
 42
1.0
 10
1.835891379083703
 20
6.580108100533012
  0
LWPOLYLINE
  5
25B
330
1E
100
AcDbEntity
  8
GND
100
AcDbPolyline
 90
        2
 70
     0
 43
0.2
 10
1.835891379083703
 20
6.580108100533012
 42
1.0
 10
1.835891379083703
 20
5.780108100533011
  0
LWPOLYLINE
  5
268
330
1E
100
AcDbEntity
  8
METAL1
100
AcDbPolyline
 90
        2
 70
     0
 43
0.2
 10
4.714645157584753
 20
7.35970618758024
 42
1.0
 10
4.714645157584753
 20
8.159706187580241
  0
LWPOLYLINE
  5
269
330
1E
100
AcDbEntity
  8
GND
100
AcDbPolyline
 90
        2
 70
     0
 43
0.2
 10
4.714645157584753
 20
7.35970618758024
 42
1.0
 10
4.714645157584753
 20
8.159706187580241
  0
LWPOLYLINE
  5
26A
330
1E
100
AcDbEntity
  8
METAL1
100
AcDbPolyline
 90
        2
 70
     0
 43
0.2
 10
4.714645157584753
 20
8.159706187580241
 42
1.0
 10
4.714645157584753
 20
7.35970618758024
  0
LWPOLYLINE
  5
26B
330
1E
100
AcDbEntity
  8
GND
100
AcDbPolyline
 90
        2
 70
     0
 43
0.2
 10
4.714645157584753
 20
8.159706187580241
 42
1.0
 10
4.714645157584753
 20
7.35970618758024
  0
SOLID
  5
296
330
1E
100
AcDbEntity
  8
METAL1
100
AcDbTrace
 10
6.933054043688382
 20
-18.20502974380875
 30
0.0
 11
6.933054043688382
 21
-15.20502974380875
 31
0.0
 12
9.933054043688384
 22
-18.20502974380875
 32
0.0
 13
9.933054043688382
 23
-15.20502974380875
 33
0.0
  0
SOLID
  5
2FD
330
1E
100
AcDbEntity
  8
METAL1
100
AcDbTrace
 10
-1.946624172021451
 20
-4.342780799742975
 30
0.0
 11
-1.946624172021451
 21
-5.192780799742973
 31
0.0
 12
-3.646624172021454
 22
-4.342780799742975
 32
0.0
 13
-3.646624172021454
 23
-5.192780799742973
 33
0.0
  0
SOLID
  5
2FF
330
1E
100
AcDbEntity
  8
METAL1
100
AcDbTrace
 10
-3.595969022313965
 20
-8.620276137740823
 30
0.0
 11
-3.595969022313965
 21
-7.502676137740827
 31
0.0
 12
-1.919569022313964
 22
-8.620276137740823
 32
0.0
 13
-1.919569022313964
 23
-7.502676137740827
 33
0.0
  0
SOLID
  5
300
330
1E
100
AcDbEntity
  8
METAL1
100
AcDbTrace
 10
-3.595969022313965
 20
-5.207272288659719
 30
0.0
 11
-3.595969022313965
 21
-4.08967228865972
 31
0.0
 12
-1.919569022313964
 22
-5.207272288659719
 32
0.0
 13
-1.919569022313964
 23
-4.08967228865972
 33
0.0
  0
SOLID
  5
302
330
1E
100
AcDbEntity
  8
CONSTR
100
AcDbTrace
 10
-3.582769022313963
 20
-8.170276137740824
 30
0.0
 11
-3.582769022313964
 21
-4.970276137740825
 31
0.0
 12
-3.532769022313963
 22
-8.170276137740824
 32
0.0
 13
-3.532769022313964
 23
-4.970276137740825
 33
0.0
  0
SOLID
  5
303
330
1E
100
AcDbEntity
  8
CONSTR
100
AcDbTrace
 10
-1.982769022313966
 20
-8.170276137740824
 30
0.0
 11
-1.982769022313966
 21
-4.970276137740825
 31
0.0
 12
-1.932769022313966
 22
-8.170276137740824
 32
0.0
 13
-1.932769022313966
 23
-4.970276137740825
 33
0.0
  0
SOLID
  5
304
330
1E
100
AcDbEntity
  8
CONSTR
100
AcDbTrace
 10
-3.547115397391724
 20
-4.913884016623789
 30
0.0
 11
-1.947115397391723
 21
-4.913884016623789
 31
0.0
 12
-3.547115397391724
 22
-4.963884016623786
 32
0.0
 13
-1.947115397391723
 23
-4.963884016623786
 33
0.0
  0
SOLID
  5
31E
330
1E
100
AcDbEntity
  8
METAL1
100
AcDbTrace
 10
-7.334098139446854
 20
-3.518544663762433
 30
0.0
 11
-6.216498139446857
 21
-3.518544663762433
 31
0.0
 12
-7.334098139446854
 22
-5.194944663762434
 32
0.0
 13
-6.216498139446855
 23
-5.194944663762434
 33
0.0
  0
SOLID
  5
31F
330
1E
100
AcDbEntity
  8
METAL1
100
AcDbTrace
 10
-4.384098139446855
 20
-3.518544663762433
 30
0.0
 11
-3.266498139446852
 21
-3.518544663762433
 31
0.0
 12
-4.384098139446855
 22
-5.194944663762434
 32
0.0
 13
-3.266498139446852
 23
-5.194944663762434
 33
0.0
  0
SOLID
  5
320
330
1E
100
AcDbEntity
  8
CONSTR
100
AcDbTrace
 10
-6.859098139446853
 20
-3.556744663762433
 30
0.0
 11
-6.859098139446853
 21
-5.156744663762431
 31
0.0
 12
-6.909098139446854
 22
-3.556744663762433
 32
0.0
 13
-6.909098139446854
 23
-5.156744663762431
 33
0.0
  0
SOLID
  5
321
330
1E
100
AcDbEntity
  8
CONSTR
100
AcDbTrace
 10
-6.884098139446855
 20
-3.531744663762431
 30
0.0
 11
-3.684098139446852
 21
-3.531744663762431
 31
0.0
 12
-6.884098139446855
 22
-3.581744663762432
 32
0.0
 13
-3.684098139446852
 23
-3.581744663762432
 33
0.0
  0
SOLID
  5
322
330
1E
100
AcDbEntity
  8
CONSTR
100
AcDbTrace
 10
-6.884098139446855
 20
-5.131744663762432
 30
0.0
 11
-3.684098139446852
 21
-5.131744663762432
 31
0.0
 12
-6.884098139446855
 22
-5.181744663762433
 32
0.0
 13
-3.684098139446852
 23
-5.181744663762433
 33
0.0
  0
SOLID
  5
323
330
1E
100
AcDbEntity
  8
CONSTR
100
AcDbTrace
 10
-3.659098139446854
 20
-3.556744663762433
 30
0.0
 11
-3.659098139446854
 21
-5.156744663762431
 31
0.0
 12
-3.709098139446854
 22
-3.556744663762433
 32
0.0
 13
-3.709098139446854
 23
-5.156744663762431
 33
0.0
  0
SOLID
  5
324
330
1E
100
AcDbEntity
  8
METAL1
100
AcDbTrace
 10
-6.684098139446852
 20
-3.756744663762432
 30
0.0
 11
-6.684098139446852
 21
-4.956744663762432
 31
0.0
 12
-7.884098139446857
 22
-3.756744663762434
 32
0.0
 13
-7.884098139446857
 23
-4.956744663762433
 33
0.0
  0
LWPOLYLINE
  5
325
330
1E
100
AcDbEntity
  8
GND
100
AcDbPolyline
 90
        2
 70
     0
 43
0.2
 10
-7.284098139446855
 20
-4.756744663762436
 42
1.0
 10
-7.284098139446856
 20
-3.956744663762433
  0
LWPOLYLINE
  5
327
330
1E
100
AcDbEntity
  8
GND
100
AcDbPolyline
 90
        2
 70
     0
 43
0.2
 10
-7.284098139446856
 20
-3.956744663762433
 42
1.0
 10
-7.284098139446855
 20
-4.756744663762436
  0
SOLID
  5
376
330
1E
100
AcDbEntity
  8
METAL1
100
AcDbTrace
 10
4.236782242609943
 20
-15.21132316784164
 30
0.0
 11
4.236782242609944
 21
-18.21132316784164
 31
0.0
 12
1.236782242609944
 22
-15.21132316784164
 32
0.0
 13
1.236782242609944
 23
-18.21132316784164
 33
0.0
  0
SOLID
  5
377
330
1E
100
AcDbEntity
  8
METAL1
100
AcDbTrace
 10
-2.640708641661108
 20
-18.2871310113573
 30
0.0
 11
-2.64070864166111
 21
-15.2871310113573
 31
0.0
 12
0.3592913583388899
 22
-18.2871310113573
 32
0.0
 13
0.3592913583388899
 23
-15.2871310113573
 33
0.0
  0
SOLID
  5
378
330
1E
100
AcDbEntity
  8
METAL1
100
AcDbTrace
 10
-6.536458644405644
 20
-18.27465182285928
 30
0.0
 11
-6.536458644405644
 21
-15.27465182285928
 31
0.0
 12
-3.536458644405644
 22
-18.27465182285928
 32
0.0
 13
-3.536458644405644
 23
-15.27465182285928
 33
0.0
  0
SOLID
  5
3C8
330
1E
100
AcDbEntity
  8
METAL1
100
AcDbTrace
 10
5.307260132551381
 20
7.156679309613118
 30
0.0
 11
3.807260132551382
 21
7.15667930961312
 31
0.0
 12
5.307260132551382
 22
8.656679309613117
 32
0.0
 13
3.807260132551382
 23
8.656679309613121
 33
0.0
  0
SOLID
  5
3CE
330
1E
100
AcDbEntity
  8
METAL1
100
AcDbTrace
 10
2.534271662960681
 20
5.386962106601668
 30
0.0
 11
1.034271662960681
 21
5.386962106601668
 31
0.0
 12
2.534271662960681
 22
6.886962106601667
 32
0.0
 13
1.034271662960681
 23
6.886962106601668
 33
0.0
  0
SOLID
  5
3D4
330
1E
100
AcDbEntity
  8
METAL1
100
AcDbTrace
 10
2.534271662960681
 20
7.231106162934263
 30
0.0
 11
1.034271662960681
 21
7.231106162934263
 31
0.0
 12
2.534271662960682
 22
8.731106162934263
 32
0.0
 13
1.034271662960682
 23
8.731106162934263
 33
0.0
  0
SOLID
  5
3F1
330
1E
100
AcDbEntity
  8
METAL1
100
AcDbTrace
 10
-2.638754896302987
 20
-15.29541634534373
 30
0.0
 11
-2.638754896302989
 21
-12.29541634534373
 31
0.0
 12
0.3612451036970121
 22
-15.29541634534373
 32
0.0
 13
0.3612451036970103
 23
-12.29541634534373
 33
0.0
  0
MTEXT
  5
3F8
330
1E
100
AcDbEntity
  8
METAL1
370
    30
100
AcDbMText
 10
6.166849185667402
 20
11.78213003535138
 30
0.0
 40
1.199999999999999
 41
29.1721161928252
 71
     5
 72
     5
  1
ATF54143 HEMT 2m LNA\PYU1AW
 73
     1
 44
1.0
  0
LWPOLYLINE
  5
403
330
1E
100
AcDbEntity
  8
GND
100
AcDbPolyline
 90
        2
 70
     0
 43
0.2
 10
-5.151551287267084
 20
-17.35097033289643
 42
1.0
 10
-5.151551287267084
 20
-16.15097033289643
  0
LWPOLYLINE
  5
404
330
1E
100
AcDbEntity
  8
GND
100
AcDbPolyline
 90
        2
 70
     0
 43
0.2
 10
-5.151551287267084
 20
-16.15097033289643
 42
1.0
 10
-5.151551287267084
 20
-17.35097033289643
  0
LWPOLYLINE
  5
426
330
1E
100
AcDbEntity
  8
GND
100
AcDbPolyline
 90
        2
 70
     0
 43
0.2
 10
1.746358504124058
 20
8.249582737932714
 42
-1.0
 10
1.746358504124058
 20
7.449582737932713
  0
LWPOLYLINE
  5
427
330
1E
100
AcDbEntity
  8
GND
100
AcDbPolyline
 90
        2
 70
     0
 43
0.2
 10
1.746358504124058
 20
7.449582737932713
 42
-1.0
 10
1.746358504124058
 20
8.249582737932714
  0
SOLID
  5
42E
330
1E
100
AcDbEntity
  8
CONSTR
100
AcDbTrace
 10
-3.598220039592749
 20
-8.25299466011177
 30
0.0
 11
-1.998220039592747
 21
-8.25299466011177
 31
0.0
 12
-3.598220039592749
 22
-8.302994660111771
 32
0.0
 13
-1.998220039592747
 23
-8.302994660111771
 33
0.0
  0
DIMENSION
  5
48D
330
1E
100
AcDbEntity
  8
0
100
AcDbDimension
  2
*D2
 10
20.89021160341553
 20
17.29336496124959
 30
0.0
 11
6.140211603415528
 21
17.29336496124959
 31
0.0
 70
    32
 71
     5
 42
29.5
  3
Standard
100
AcDbAlignedDimension
 13
-8.609788396584473
 23
15.20025532389274
 33
0.0
 14
20.89021160341553
 24
15.20025532389274
 34
0.0
100
AcDbRotatedDimension
1001
ACAD
1000
DSTYLE
1002
{
1070
   271
1070
     1
1002
}
  0
SOLID
  5
594
330
1E
100
AcDbEntity
  8
METAL1
100
AcDbTrace
 10
-3.598371703710682
 20
-4.287600656405441
 30
0.0
 11
-3.598371703710682
 21
-3.170000656405441
 31
0.0
 12
-1.921971703710681
 22
-4.287600656405441
 32
0.0
 13
-1.921971703710681
 23
-3.170000656405441
 33
0.0
  0
SOLID
  5
5D4
330
1E
100
AcDbEntity
  8
METAL1
100
AcDbTrace
 10
15.39179892335896
 20
0.0964716712014724
 30
0.0
 11
15.39179892335896
 21
4.596471671201468
 31
0.0
 12
18.09179892335896
 22
0.0964716712014688
 32
0.0
 13
18.09179892335896
 23
4.596471671201468
 33
0.0
  0
LWPOLYLINE
  5
5EB
330
1E
100
AcDbEntity
  8
0
100
AcDbPolyline
 90
        4
 70
     1
 43
0.0
 10
-8.590049632751799
 20
13.90069590025754
 10
20.9099503672482
 20
13.90069590025754
 10
20.9099503672482
 20
-21.09930409974245
 10
-8.590049632751799
 20
-21.09930409974245
  0
DIMENSION
  5
5EC
330
1E
100
AcDbEntity
  8
0
100
AcDbDimension
  2
*D3
 10
24.52349650452541
 20
13.90069590025754
 30
0.0
 11
24.52349650452541
 21
-3.599304099742451
 31
0.0
 70
    32
 71
     5
 42
35.0
  3
Standard
100
AcDbAlignedDimension
 13
21.61771924242444
 23
-21.09930409974245
 33
0.0
 14
21.61771924242444
 24
13.90069590025754
 34
0.0
 50
270.0
100
AcDbRotatedDimension
1001
ACAD
1000
DSTYLE
1002
{
1070
   271
1070
     0
1002
}
  0
SOLID
  5
62D
330
1E
100
AcDbEntity
  8
METAL1
100
AcDbTrace
 10
15.40983713764437
 20
4.571328386415616
 30
0.0
 11
10.90983713764437
 21
4.571328386415616
 31
0.0
 12
15.40983713764437
 22
7.271328386415614
 32
0.0
 13
10.90983713764437
 23
7.271328386415614
 33
0.0
  0
HATCH
  5
633
330
1E
100
AcDbEntity
  8
METAL1
370
    60
100
AcDbHatch
 10
0.0
 20
0.0
 30
0.0
210
0.0
220
0.0
230
1.0
  2
SOLID
 70
     1
 71
     0
 91
        1
 92
        7
 72
     0
 73
     1
 93
        3
 10
15.39294107331542
 20
7.272868679716522
 10
15.39294107331542
 20
4.565485567801985
 10
18.08567533684089
 20
4.596784830286253
 97
        0
 75
     0
 76
     1
 47
0.0156496134413125
 98
        1
 10
15.94088121648562
 20
5.598360047174878
  0
MTEXT
  5
637
330
1E
100
AcDbEntity
  8
CONSTR
100
AcDbMText
 10
8.07068815962782
 20
6.336678780739887
 30
0.0
 40
0.5
 41
1.687699999999999
 71
     1
 72
     5
  1
39pF
 73
     1
 44
1.0
  0
MTEXT
  5
63A
330
1E
100
AcDbEntity
  8
CONSTR
100
AcDbMText
 10
5.968211712296806
 20
6.358917175005004
 30
0.0
 40
0.5481747989425606
 41
1.7315
 71
     1
 72
     5
  1
22
 73
     1
 44
1.0
  0
MTEXT
  5
656
330
1E
100
AcDbEntity
  8
CONSTR
100
AcDbMText
 10
-6.155511885142175
 20
-4.080586219472948
 30
0.0
 40
0.5481747989425606
 41
1.7534
 71
     1
 72
     5
  1
0.1uF
 73
     1
 44
1.0
  0
MTEXT
  5
657
330
1E
100
AcDbEntity
  8
CONSTR
100
AcDbMText
 10
-3.043211982608255
 20
-7.038363158352112
 30
0.0
 40
0.5481747989425606
 41
1.687699999999999
 71
     1
 72
     5
  1
10k
 11
0.0000000000000001
 21
1.0
 31
0.0
 73
     1
 44
1.0
  0
MTEXT
  5
65B
330
1E
100
AcDbEntity
  8
CONSTR
100
AcDbMText
 10
9.425099828144709
 20
-7.308375247052055
 30
0.0
 40
0.5481747989425606
 41
1.765099999999999
 71
     1
 72
     5
  1
8.2
 73
     1
 44
1.0
  0
MTEXT
  5
663
330
1E
100
AcDbEntity
  8
CONSTR
100
AcDbMText
 10
5.684182290331932
 20
-7.181075643838198
 30
0.0
 40
0.5481747989425606
 41
1.7534
 71
     1
 72
     5
  1
180pF
 73
     1
 44
1.0
  0
MTEXT
  5
664
330
1E
100
AcDbEntity
  8
CONSTR
100
AcDbMText
 10
11.58802609158955
 20
-9.87147258304212
 30
0.0
 40
0.5481747989425606
 41
1.610599999999999
 71
     1
 72
     5
  1
1k2
 73
     1
 44
1.0
  0
LWPOLYLINE
  5
668
330
1E
100
AcDbEntity
  8
CONSTR
100
AcDbPolyline
 90
        4
 70
     1
 43
0.0
 10
-3.795193206203805
 20
-19.13774557945026
 10
1.610308524042096
 20
-19.13774557945026
 10
1.610308524042096
 20
-20.34812803731931
 10
-3.795193206203805
 20
-20.34812803731931
  0
LWPOLYLINE
  5
669
330
1E
100
AcDbEntity
  8
CONSTR
100
AcDbPolyline
 90
        3
 70
     0
 43
0.0
 10
-3.795193206203805
 20
-19.69970889919905
 10
-5.0492696708624
 20
-19.69970889919905
 10
-5.0492696708624
 20
-18.18673084960519
  0
LWPOLYLINE
  5
66A
330
1E
100
AcDbEntity
  8
CONSTR
100
AcDbPolyline
 90
        3
 70
     0
 43
0.0
 10
1.610308524042096
 20
-19.7429368538697
 10
2.821140959048307
 20
-19.7429368538697
 10
2.821140959048307
 20
-17.66799548452707
  0
LWPOLYLINE
  5
66B
330
1E
100
AcDbEntity
  8
CONSTR
100
AcDbPolyline
 90
        5
 70
     0
 43
0.0
 10
-1.114064290030455
 20
-17.71122343919773
 10
-1.114064290030455
 20
-19.09451762477959
 10
-1.373528467944538
 20
-18.7919220330548
 10
-0.94108830317424
 20
-18.7919220330548
 10
-1.070820392131281
 20
-19.13774557945026
  0
MTEXT
  5
66C
330
1E
100
AcDbEntity
  8
CONSTR
100
AcDbMText
 10
-2.065432810628948
 20
-19.48356921681558
 30
0.0
 40
0.5481747989425606
 41
4.064899999999999
 71
     1
 72
     5
  1
560
 73
     1
 44
1.0
  0
LWPOLYLINE
  5
66D
330
1E
100
AcDbEntity
  8
CONSTR
100
AcDbPolyline
 90
        4
 70
     1
 43
0.0
 10
10.25911155594189
 20
-18.7919220330548
 10
15.70785744759334
 20
-18.7919220330548
 10
15.70785744759334
 20
-20.26167221894782
 10
10.25911155594189
 20
-20.26167221894782
  0
LWPOLYLINE
  5
66E
330
1E
100
AcDbEntity
  8
CONSTR
100
AcDbPolyline
 90
        3
 70
     0
 43
0.0
 10
10.25911155594189
 20
-19.5267970805164
 10
9.048279120935688
 20
-19.5267970805164
 10
9.048279120935688
 20
-17.79767925756923
  0
LWPOLYLINE
  5
66F
330
1E
100
AcDbEntity
  8
CONSTR
100
AcDbPolyline
 90
        3
 70
     0
 43
0.0
 10
15.70785744759334
 20
-19.5267970805164
 10
17.13490989910812
 20
-19.5267970805164
 10
17.13490989910812
 20
-18.18673084960519
  0
MTEXT
  5
670
330
1E
100
AcDbEntity
  8
CONSTR
100
AcDbMText
 10
11.12399188548252
 20
-19.31065739813291
 30
0.0
 40
0.5481747989425606
 41
4.713599999999999
 71
     1
 72
     5
  1
78L05
 73
     1
 44
1.0
  0
LWPOLYLINE
  5
672
330
1E
100
AcDbEntity
  8
CONSTR
100
AcDbPolyline
 90
        2
 70
     0
 43
0.0
 10
12.85375241281056
 20
-18.7919220330548
 10
12.85375241281056
 20
-17.84090721223988
  0
SOLID
  5
67E
330
1E
100
AcDbEntity
  8
CONSTR
100
AcDbTrace
 10
16.85720183058559
 20
-9.219205137830503
 30
0.0
 11
18.45720183058559
 21
-9.219205137830503
 31
0.0
 12
16.85720183058559
 22
-9.269205137830503
 32
0.0
 13
18.45720183058559
 23
-9.269205137830503
 33
0.0
  0
SOLID
  5
67F
330
1E
100
AcDbEntity
  8
CONSTR
100
AcDbTrace
 10
16.83220183058559
 20
-9.244205137830501
 30
0.0
 11
16.83220183058559
 21
-6.044205137830502
 31
0.0
 12
16.88220183058559
 22
-9.244205137830501
 32
0.0
 13
16.88220183058559
 23
-6.044205137830502
 33
0.0
  0
SOLID
  5
680
330
1E
100
AcDbEntity
  8
CONSTR
100
AcDbTrace
 10
18.43220183058559
 20
-9.244205137830501
 30
0.0
 11
18.43220183058559
 21
-6.044205137830502
 31
0.0
 12
18.48220183058559
 22
-9.244205137830501
 32
0.0
 13
18.48220183058559
 23
-6.044205137830502
 33
0.0
  0
SOLID
  5
681
330
1E
100
AcDbEntity
  8
CONSTR
100
AcDbTrace
 10
16.85720183058559
 20
-6.019205137830503
 30
0.0
 11
18.45720183058559
 21
-6.019205137830503
 31
0.0
 12
16.85720183058559
 22
-6.0692051378305
 32
0.0
 13
18.45720183058559
 23
-6.0692051378305
 33
0.0
  0
MTEXT
  5
682
330
1E
100
AcDbEntity
  8
CONSTR
100
AcDbMText
 10
17.32925229961594
 20
-8.708446189810885
 30
0.0
 40
0.5481747989425606
 41
1.2493
 71
     1
 72
     5
  1
22uH
 11
0.0000000000000001
 21
1.0
 31
0.0
 73
     1
 44
1.0
  0
SOLID
  5
683
330
1E
100
AcDbEntity
  8
CONSTR
100
AcDbTrace
 10
17.58902599336357
 20
-12.39418614066447
 30
0.0
 11
17.58902599336357
 21
-9.19418614066447
 31
0.0
 12
17.63902599336357
 22
-12.39418614066447
 32
0.0
 13
17.63902599336357
 23
-9.19418614066447
 33
0.0
  0
SOLID
  5
68A
330
1E
100
AcDbEntity
  8
CONSTR
100
AcDbTrace
 10
17.58327391290972
 20
-15.53971489795982
 30
0.0
 11
17.58327391290972
 21
-12.33971489795982
 31
0.0
 12
17.63327391290972
 22
-15.53971489795982
 32
0.0
 13
17.63327391290972
 23
-12.33971489795982
 33
0.0
  0
SOLID
  5
690
330
1E
100
AcDbEntity
  8
CONSTR
100
AcDbTrace
 10
17.52410606183328
 20
-6.039678259594406
 30
0.0
 11
17.52410606183328
 21
-2.839678259594407
 31
0.0
 12
17.57410606183328
 22
-6.039678259594406
 32
0.0
 13
17.57410606183328
 23
-2.839678259594407
 33
0.0
  0
SOLID
  5
696
330
1E
100
AcDbEntity
  8
CONSTR
100
AcDbTrace
 10
17.52410606183328
 20
-3.056950024107518
 30
0.0
 11
17.52410606183328
 21
0.143049975892481
 31
0.0
 12
17.57410606183328
 22
-3.056950024107518
 32
0.0
 13
17.57410606183328
 23
0.143049975892481
 33
0.0
  0
MTEXT
  5
697
330
1E
100
AcDbEntity
  8
CONSTR
100
AcDbMText
 10
1.31704240831965
 20
9.760246187375898
 30
0.0
 40
0.5481747989425606
 41
1.7111
 71
     1
 72
     5
  1
G
 73
     1
 44
1.0
  0
MTEXT
  5
698
330
1E
100
AcDbEntity
  8
CONSTR
100
AcDbMText
 10
4.568350877903867
 20
4.102839677339545
 30
0.0
 40
0.5481747989425606
 41
1.806099999999999
 71
     1
 72
     5
  1
D
 73
     1
 44
1.0
  0
MTEXT
  5
699
330
1E
100
AcDbEntity
  8
CONSTR
100
AcDbMText
 10
5.404583717652883
 20
9.38015112116129
 30
0.0
 40
0.5481747989425606
 41
1.520899999999999
 71
     1
 72
     5
  1
S
 73
     1
 44
1.0
  0
MTEXT
  5
69A
330
1E
100
AcDbEntity
  8
CONSTR
100
AcDbMText
 10
1.508344416374171
 20
3.956146223353186
 30
0.0
 40
0.5481747989425606
 41
1.425899999999999
 71
     1
 72
     5
  1
S
 73
     1
 44
1.0
  0
MTEXT
  5
69B
330
1E
100
AcDbEntity
  8
CONSTR
100
AcDbMText
 10
18.90297581978518
 20
1.255618284838263
 30
0.0
 40
0.5481747989425606
 41
4.2777
 71
     1
 72
     5
  1
OUT
 11
0.0000000000000001
 21
1.0
 31
0.0
 73
     1
 44
1.0
  0
SOLID
  5
6A9
330
1E
100
AcDbEntity
  8
METAL1
100
AcDbTrace
 10
4.680773244248605
 20
6.093504486591932
 30
0.0
 11
3.563173244248609
 21
6.093504486591932
 31
0.0
 12
4.680773244248606
 22
4.417104486591934
 32
0.0
 13
3.56317324424861
 23
4.417104486591934
 33
0.0
  0
SOLID
  5
6AA
330
1E
100
AcDbEntity
  8
METAL1
100
AcDbTrace
 10
1.730773244248608
 20
6.093504486591932
 30
0.0
 11
0.6131732442486087
 21
6.093504486591932
 31
0.0
 12
1.730773244248609
 22
4.417104486591934
 32
0.0
 13
0.6131732442486096
 23
4.417104486591934
 33
0.0
  0
SOLID
  5
6AB
330
1E
100
AcDbEntity
  8
CONSTR
100
AcDbTrace
 10
4.205773244248611
 20
6.055304486591936
 30
0.0
 11
4.205773244248612
 21
4.455304486591934
 31
0.0
 12
4.255773244248608
 22
6.055304486591936
 32
0.0
 13
4.255773244248609
 23
4.455304486591934
 33
0.0
  0
SOLID
  5
6AC
330
1E
100
AcDbEntity
  8
CONSTR
100
AcDbTrace
 10
4.230773244248609
 20
6.080304486591934
 30
0.0
 11
1.030773244248608
 21
6.080304486591934
 31
0.0
 12
4.230773244248609
 22
6.030304486591933
 32
0.0
 13
1.030773244248608
 23
6.030304486591933
 33
0.0
  0
SOLID
  5
6AD
330
1E
100
AcDbEntity
  8
CONSTR
100
AcDbTrace
 10
4.23077324424861
 20
4.480304486591933
 30
0.0
 11
1.030773244248608
 21
4.480304486591933
 31
0.0
 12
4.23077324424861
 22
4.430304486591936
 32
0.0
 13
1.030773244248609
 23
4.430304486591936
 33
0.0
  0
SOLID
  5
6AE
330
1E
100
AcDbEntity
  8
CONSTR
100
AcDbTrace
 10
1.00577324424861
 20
6.055304486591936
 30
0.0
 11
1.005773244248611
 21
4.455304486591934
 31
0.0
 12
1.055773244248607
 22
6.055304486591936
 32
0.0
 13
1.055773244248608
 23
4.455304486591934
 33
0.0
  0
MTEXT
  5
6AF
330
1E
100
AcDbEntity
  8
CONSTR
100
AcDbMText
 10
1.84633736807541
 20
5.283247939303436
 30
0.0
 40
0.5481747989425606
 41
1.621899999999999
 71
     1
 72
     5
  1
8.2pF
 73
     1
 44
1.0
  0
SOLID
  5
6BD
330
1E
100
AcDbEntity
  8
METAL1
100
AcDbTrace
 10
4.253119695421169
 20
8.673775054992297
 30
0.0
 11
4.253119695421169
 21
7.556175054992301
 31
0.0
 12
5.929519695421166
 22
8.673775054992297
 32
0.0
 13
5.929519695421166
 23
7.556175054992301
 33
0.0
  0
SOLID
  5
6BE
330
1E
100
AcDbEntity
  8
METAL1
100
AcDbTrace
 10
4.243079048867805
 20
5.543109786522123
 30
0.0
 11
4.243079048867805
 21
4.42550978652212
 31
0.0
 12
5.919479048867803
 22
5.543109786522123
 32
0.0
 13
5.919479048867803
 23
4.425509786522123
 33
0.0
  0
SOLID
  5
6BF
330
1E
100
AcDbEntity
  8
CONSTR
100
AcDbTrace
 10
4.281279048867801
 20
8.018109786522124
 30
0.0
 11
5.881279048867803
 21
8.018109786522124
 31
0.0
 12
4.281279048867801
 22
8.068109786522121
 32
0.0
 13
5.881279048867803
 23
8.068109786522121
 33
0.0
  0
SOLID
  5
6C0
330
1E
100
AcDbEntity
  8
CONSTR
100
AcDbTrace
 10
4.256279048867803
 20
8.043109786522123
 30
0.0
 11
4.256279048867803
 21
4.84310978652212
 31
0.0
 12
4.306279048867803
 22
8.043109786522123
 32
0.0
 13
4.306279048867803
 23
4.84310978652212
 33
0.0
  0
SOLID
  5
6C1
330
1E
100
AcDbEntity
  8
CONSTR
100
AcDbTrace
 10
5.856279048867804
 20
8.043109786522123
 30
0.0
 11
5.856279048867804
 21
4.84310978652212
 31
0.0
 12
5.906279048867801
 22
8.043109786522123
 32
0.0
 13
5.906279048867801
 23
4.843109786522123
 33
0.0
  0
SOLID
  5
6C2
330
1E
100
AcDbEntity
  8
CONSTR
100
AcDbTrace
 10
4.281279048867801
 20
4.818109786522121
 30
0.0
 11
5.881279048867803
 21
4.818109786522125
 31
0.0
 12
4.281279048867801
 22
4.868109786522119
 32
0.0
 13
5.881279048867803
 23
4.868109786522122
 33
0.0
  0
MTEXT
  5
6C3
330
1E
100
AcDbEntity
  8
CONSTR
100
AcDbMText
 10
4.723635094391951
 20
5.600993257346644
 30
0.0
 40
0.5481747989425606
 41
1.610599999999999
 71
     1
 72
     5
  1
8.2pF
 11
0.0000000000000001
 21
1.0
 31
0.0
 73
     1
 44
1.0
  0
MTEXT
  5
6C7
330
1E
100
AcDbEntity
  8
CONSTR
100
AcDbMText
 10
7.305765807786684
 20
-18.60435069878614
 30
0.0
 40
0.5481747989425606
 41
1.996199999999999
 71
     1
 72
     5
  1
+5V
 73
     1
 44
1.0
  0
MTEXT
  5
6D2
330
1E
100
AcDbEntity
  8
CONSTR
100
AcDbMText
 10
14.67309377365592
 20
-14.11389899207968
 30
0.0
 40
0.5
 41
2.0447
 71
     1
 72
     5
  1
1uF
 73
     1
 44
1.0
  0
MTEXT
  5
6D8
330
1E
100
AcDbEntity
  8
CONSTR
100
AcDbMText
 10
10.49031955101725
 20
-14.01887117736849
 30
0.0
 40
0.5
 41
2.0447
 71
     1
 72
     5
  1
1uF
 73
     1
 44
1.0
  0
SOLID
  5
6E1
330
1E
100
AcDbEntity
  8
CONSTR
100
AcDbTrace
 10
15.58731738776779
 20
-14.96196738386522
 30
0.0
 11
15.58731738776779
 21
-16.56196738386523
 31
0.0
 12
15.6373173877678
 22
-14.96196738386522
 32
0.0
 13
15.6373173877678
 23
-16.56196738386523
 33
0.0
  0
SOLID
  5
6E2
330
1E
100
AcDbEntity
  8
CONSTR
100
AcDbTrace
 10
15.2418086305831
 20
-14.96196738386522
 30
0.0
 11
15.2418086305831
 21
-16.56196738386523
 31
0.0
 12
15.29180863058312
 22
-14.96196738386522
 32
0.0
 13
15.29180863058312
 23
-16.56196738386523
 33
0.0
  0
SOLID
  5
6E3
330
1E
100
AcDbEntity
  8
CONSTR
100
AcDbTrace
 10
15.60092991565432
 20
-15.79073073069753
 30
0.0
 11
17.20092991565431
 21
-15.79073073069753
 31
0.0
 12
15.60092991565432
 22
-15.84073073069753
 32
0.0
 13
17.20092991565431
 23
-15.84073073069753
 33
0.0
  0
SOLID
  5
6E4
330
1E
100
AcDbEntity
  8
CONSTR
100
AcDbTrace
 10
13.6749318862775
 20
-15.79073073069753
 30
0.0
 11
15.2749318862775
 21
-15.79073073069753
 31
0.0
 12
13.6749318862775
 22
-15.84073073069753
 32
0.0
 13
15.2749318862775
 23
-15.84073073069753
 33
0.0
  0
SOLID
  5
6ED
330
1E
100
AcDbEntity
  8
CONSTR
100
AcDbTrace
 10
10.88169633789183
 20
-14.96196738386522
 30
0.0
 11
10.88169633789183
 21
-16.56196738386523
 31
0.0
 12
10.93169633789184
 22
-14.96196738386522
 32
0.0
 13
10.93169633789184
 23
-16.56196738386523
 33
0.0
  0
SOLID
  5
6EE
330
1E
100
AcDbEntity
  8
CONSTR
100
AcDbTrace
 10
10.53618758070715
 20
-14.96196738386522
 30
0.0
 11
10.53618758070715
 21
-16.56196738386523
 31
0.0
 12
10.58618758070716
 22
-14.96196738386522
 32
0.0
 13
10.58618758070716
 23
-16.56196738386523
 33
0.0
  0
SOLID
  5
6EF
330
1E
100
AcDbEntity
  8
CONSTR
100
AcDbTrace
 10
10.89530886577836
 20
-15.79073073069753
 30
0.0
 11
12.49530886577835
 21
-15.79073073069753
 31
0.0
 12
10.89530886577836
 22
-15.84073073069753
 32
0.0
 13
12.49530886577835
 23
-15.84073073069753
 33
0.0
  0
SOLID
  5
6F0
330
1E
100
AcDbEntity
  8
CONSTR
100
AcDbTrace
 10
8.969310836401547
 20
-15.79073073069753
 30
0.0
 11
10.56931083640154
 21
-15.79073073069753
 31
0.0
 12
8.969310836401547
 22
-15.84073073069753
 32
0.0
 13
10.56931083640154
 23
-15.84073073069753
 33
0.0
  0
SOLID
  5
712
330
1E
100
AcDbEntity
  8
METAL1
100
AcDbTrace
 10
8.278729436540352
 20
-3.110087799972914
 30
0.0
 11
13.03525943654035
 21
-3.110087799972914
 31
0.0
 12
8.278729436540352
 22
-3.360087799972914
 32
0.0
 13
13.03525943654035
 23
-3.360087799972914
 33
0.0
  0
SOLID
  5
713
330
1E
100
AcDbEntity
  8
METAL1
100
AcDbTrace
 10
13.53525943654035
 20
1.396442200027081
 30
0.0
 11
8.278729436540352
 21
1.396442200027081
 31
0.0
 12
13.53525943654035
 22
1.646442200027081
 32
0.0
 13
8.278729436540352
 23
1.646442200027081
 33
0.0
  0
SOLID
  5
714
330
1E
100
AcDbEntity
  8
METAL1
100
AcDbTrace
 10
7.778729436540352
 20
-3.610087799972914
 30
0.0
 11
13.53525943654035
 21
-3.610087799972914
 31
0.0
 12
7.778729436540352
 22
-3.860087799972914
 32
0.0
 13
13.53525943654035
 23
-3.860087799972914
 33
0.0
  0
SOLID
  5
715
330
1E
100
AcDbEntity
  8
METAL1
100
AcDbTrace
 10
7.778729436540352
 20
-4.110087799972914
 30
0.0
 11
14.03525943654035
 21
-4.110087799972914
 31
0.0
 12
7.778729436540352
 22
-4.360087799972914
 32
0.0
 13
14.03525943654035
 23
-4.360087799972914
 33
0.0
  0
SOLID
  5
716
330
1E
100
AcDbEntity
  8
METAL1
100
AcDbTrace
 10
13.53525943654035
 20
1.896442200027081
 30
0.0
 11
7.778729436540352
 21
1.896442200027081
 31
0.0
 12
13.53525943654035
 22
2.146442200027081
 32
0.0
 13
7.778729436540352
 23
2.146442200027081
 33
0.0
  0
SOLID
  5
717
330
1E
100
AcDbEntity
  8
METAL1
100
AcDbTrace
 10
13.28525943654035
 20
-3.860087799972914
 30
0.0
 11
13.28525943654035
 21
1.646442200027081
 31
0.0
 12
13.53525943654035
 22
-3.860087799972914
 32
0.0
 13
13.53525943654035
 23
1.646442200027081
 33
0.0
  0
SOLID
  5
718
330
1E
100
AcDbEntity
  8
METAL1
100
AcDbTrace
 10
13.78525943654035
 20
-3.860087799972914
 30
0.0
 11
13.78525943654035
 21
2.146442200027081
 31
0.0
 12
14.03525943654035
 22
-3.860087799972914
 32
0.0
 13
14.03525943654035
 23
2.146442200027081
 33
0.0
  0
SOLID
  5
719
330
1E
100
AcDbEntity
  8
METAL1
100
AcDbTrace
 10
13.78525943654035
 20
-4.360087799972914
 30
0.0
 11
13.78525943654035
 21
-3.610087799972914
 31
0.0
 12
14.03525943654035
 22
-4.360087799972914
 32
0.0
 13
14.03525943654035
 23
-3.610087799972916
 33
0.0
  0
SOLID
  5
71A
330
1E
100
AcDbEntity
  8
METAL1
100
AcDbTrace
 10
13.0323625439545
 20
-2.109229075067373
 30
0.0
 11
13.0323625439545
 21
-3.309229075067369
 31
0.0
 12
11.8323625439545
 22
-2.109229075067373
 32
0.0
 13
11.8323625439545
 23
-3.309229075067369
 33
0.0
  0
SOLID
  5
71B
330
1E
100
AcDbEntity
  8
METAL1
100
AcDbTrace
 10
13.03525943654035
 20
-2.860087799972914
 30
0.0
 11
12.78525943654035
 21
-2.860087799972914
 31
0.0
 12
13.03525943654035
 22
-2.610087799972914
 32
0.0
 13
12.78525943654035
 23
-2.610087799972914
 33
0.0
  0
SOLID
  5
71C
330
1E
100
AcDbEntity
  8
METAL1
100
AcDbTrace
 10
12.78525943654035
 20
-3.360087799972914
 30
0.0
 11
12.78525943654035
 21
-2.860087799972914
 31
0.0
 12
13.03525943654035
 22
-3.360087799972914
 32
0.0
 13
13.03525943654035
 23
-2.860087799972914
 33
0.0
  0
SOLID
  5
71D
330
1E
100
AcDbEntity
  8
METAL1
100
AcDbTrace
 10
14.03525943654035
 20
1.896442200027081
 30
0.0
 11
13.28525943654035
 21
1.896442200027081
 31
0.0
 12
14.03525943654035
 22
2.146442200027081
 32
0.0
 13
13.28525943654035
 23
2.146442200027081
 33
0.0
  0
SOLID
  5
71E
330
1E
100
AcDbEntity
  8
METAL1
100
AcDbTrace
 10
8.528729436540352
 20
1.646442200027081
 30
0.0
 11
8.528729436540352
 21
-3.360087799972914
 31
0.0
 12
8.278729436540352
 22
1.646442200027081
 32
0.0
 13
8.278729436540352
 23
-3.360087799972914
 33
0.0
  0
SOLID
  5
71F
330
1E
100
AcDbEntity
  8
METAL1
100
AcDbTrace
 10
8.028729436540352
 20
2.146442200027081
 30
0.0
 11
8.028729436540352
 21
-3.860087799972914
 31
0.0
 12
7.778729436540352
 22
2.146442200027081
 32
0.0
 13
7.778729436540352
 23
-3.860087799972914
 33
0.0
  0
SOLID
  5
720
330
1E
100
AcDbEntity
  8
METAL1
100
AcDbTrace
 10
7.528729436540352
 20
2.146442200027081
 30
0.0
 11
7.528729436540352
 21
-4.360087799972914
 31
0.0
 12
7.278729436540352
 22
2.146442200027081
 32
0.0
 13
7.278729436540352
 23
-4.360087799972914
 33
0.0
  0
SOLID
  5
721
330
1E
100
AcDbEntity
  8
METAL1
100
AcDbTrace
 10
7.278729436540352
 20
-4.110087799972914
 30
0.0
 11
8.028729436540352
 21
-4.110087799972914
 31
0.0
 12
7.278729436540352
 22
-4.360087799972914
 32
0.0
 13
8.028729436540352
 23
-4.360087799972914
 33
0.0
  0
SOLID
  5
722
330
1E
100
AcDbEntity
  8
METAL1
100
AcDbTrace
 10
7.278729436540352
 20
2.146442200027081
 30
0.0
 11
7.278729436540352
 21
5.146442200027081
 31
0.0
 12
7.528729436540352
 22
2.146442200027081
 32
0.0
 13
7.528729436540352
 23
5.146442200027081
 33
0.0
  0
SOLID
  5
723
330
1E
100
AcDbEntity
  8
CONSTR
100
AcDbTrace
 10
12.32824571586796
 20
-6.934002648569894
 30
0.0
 11
12.32824571586796
 21
-2.934002648569894
 31
0.0
 12
12.72824571586797
 22
-6.934002648569894
 32
0.0
 13
12.72824571586797
 23
-2.934002648569894
 33
0.0
  0
SOLID
  5
74F
330
1E
100
AcDbEntity
  8
CONSTR
100
AcDbTrace
 10
9.124954863441008
 20
-12.58234424548674
 30
0.0
 11
7.524954863441006
 21
-12.58234424548674
 31
0.0
 12
9.124954863441008
 22
-12.63234424548674
 32
0.0
 13
7.524954863441006
 23
-12.63234424548674
 33
0.0
  0
SOLID
  5
750
330
1E
100
AcDbEntity
  8
CONSTR
100
AcDbTrace
 10
9.149954863441006
 20
-12.60734424548674
 30
0.0
 11
9.149954863441006
 21
-9.40734424548674
 31
0.0
 12
9.099954863441006
 22
-12.60734424548674
 32
0.0
 13
9.099954863441006
 23
-9.40734424548674
 33
0.0
  0
SOLID
  5
751
330
1E
100
AcDbEntity
  8
CONSTR
100
AcDbTrace
 10
7.549954863441008
 20
-12.60734424548674
 30
0.0
 11
7.549954863441009
 21
-9.40734424548674
 31
0.0
 12
7.499954863441008
 22
-12.60734424548674
 32
0.0
 13
7.499954863441009
 23
-9.40734424548674
 33
0.0
  0
SOLID
  5
752
330
1E
100
AcDbEntity
  8
CONSTR
100
AcDbTrace
 10
9.124954863441008
 20
-9.382344245486741
 30
0.0
 11
7.524954863441007
 21
-9.382344245486741
 31
0.0
 12
9.124954863441008
 22
-9.432344245486738
 32
0.0
 13
7.524954863441007
 23
-9.432344245486738
 33
0.0
  0
MTEXT
  5
753
330
1E
100
AcDbEntity
  8
CONSTR
100
AcDbMText
 10
8.087087851423092
 20
-12.51480692591143
 30
0.0
 40
0.5481747989425606
 41
1.2493
 71
     1
 72
     5
  1
0.33uH
 11
0.0000000000000001
 21
1.0
 31
0.0
 73
     1
 44
1.0
  0
SOLID
  5
754
330
1E
100
AcDbEntity
  8
CONSTR
100
AcDbTrace
 10
8.393130700663029
 20
-15.7573252483207
 30
0.0
 11
8.393130700663029
 21
-12.5573252483207
 31
0.0
 12
8.343130700663028
 22
-15.7573252483207
 32
0.0
 13
8.343130700663028
 23
-12.5573252483207
 33
0.0
  0
SOLID
  5
755
330
1E
100
AcDbEntity
  8
CONSTR
100
AcDbTrace
 10
8.415048427185586
 20
-7.847401000773075
 30
0.0
 11
8.415048427185585
 21
-9.447401000773076
 31
0.0
 12
8.365048427185589
 22
-7.847401000773075
 32
0.0
 13
8.365048427185588
 23
-9.447401000773076
 33
0.0
  0
MTEXT
  5
773
330
1E
100
AcDbEntity
  8
0
  6
DASHED
100
AcDbMText
 10
27.07751653383613
 20
16.7182891338368
 30
0.0
 40
1.0
 41
11.68169999999999
 71
     1
 72
     5
  1
Double side FR-4 (G-10) PCB 1.6mm thick. Back side ground plane.
 73
     1
 44
1.0
  0
SOLID
  5
791
330
1E
100
AcDbEntity
  8
METAL1
100
AcDbTrace
 10
-2.173357569594635
 20
-8.42427211370807
 30
0.0
 11
-2.173357569594635
 21
-14.93080211370806
 31
0.0
 12
-1.923357569594635
 22
-8.42427211370807
 32
0.0
 13
-1.923357569594635
 23
-14.93080211370806
 33
0.0
  0
SOLID
  5
799
330
1E
100
AcDbEntity
  8
METAL1
100
AcDbTrace
 10
2.803455425044951
 20
-11.43022777353728
 30
0.0
 11
2.803455425044951
 21
-16.43675777353728
 31
0.0
 12
2.553455425044951
 22
-11.43022777353728
 32
0.0
 13
2.553455425044951
 23
-16.43675777353728
 33
0.0
  0
SOLID
  5
7A4
330
1E
100
AcDbEntity
  8
METAL1
100
AcDbTrace
 10
5.056113722829778
 20
-11.67379608307093
 30
0.0
 11
11.56264372282977
 21
-11.67379608307093
 31
0.0
 12
5.056113722829778
 22
-11.42379608307093
 32
0.0
 13
11.56264372282977
 23
-11.42379608307093
 33
0.0
  0
SOLID
  5
7AB
330
1E
100
AcDbEntity
  8
METAL1
100
AcDbTrace
 10
2.545010780142334
 20
-11.67371507831516
 30
0.0
 11
9.05154078014233
 21
-11.67371507831516
 31
0.0
 12
2.545010780142334
 22
-11.42371507831516
 32
0.0
 13
9.05154078014233
 23
-11.42371507831516
 33
0.0
  0
SOLID
  5
7B8
330
1E
100
AcDbEntity
  8
METAL1
100
AcDbTrace
 10
-3.628922093638293
 20
-4.237315876738243
 30
0.0
 11
-3.628922093638294
 21
-3.119715876738247
 31
0.0
 12
-1.952522093638292
 22
-4.237315876738243
 32
0.0
 13
-1.952522093638293
 23
-3.119715876738247
 33
0.0
  0
SOLID
  5
7B9
330
1E
100
AcDbEntity
  8
METAL1
100
AcDbTrace
 10
-3.628922093638294
 20
-0.8243120276571396
 30
0.0
 11
-3.628922093638294
 21
0.2932879723428598
 31
0.0
 12
-1.952522093638293
 22
-0.8243120276571396
 32
0.0
 13
-1.952522093638293
 23
0.2932879723428598
 33
0.0
  0
SOLID
  5
7BA
330
1E
100
AcDbEntity
  8
CONSTR
100
AcDbTrace
 10
-3.615722093638292
 20
-3.787315876738244
 30
0.0
 11
-3.615722093638293
 21
-0.587315876738245
 31
0.0
 12
-3.565722093638291
 22
-3.787315876738244
 32
0.0
 13
-3.565722093638292
 23
-0.587315876738245
 33
0.0
  0
SOLID
  5
7BB
330
1E
100
AcDbEntity
  8
CONSTR
100
AcDbTrace
 10
-2.015722093638295
 20
-3.787315876738244
 30
0.0
 11
-2.015722093638295
 21
-0.587315876738245
 31
0.0
 12
-1.965722093638294
 22
-3.787315876738244
 32
0.0
 13
-1.965722093638294
 23
-0.587315876738245
 33
0.0
  0
SOLID
  5
7BC
330
1E
100
AcDbEntity
  8
CONSTR
100
AcDbTrace
 10
-3.631173110917077
 20
-3.733239760423646
 30
0.0
 11
-2.031173110917076
 21
-3.733239760423646
 31
0.0
 12
-3.631173110917077
 22
-3.783239760423647
 32
0.0
 13
-2.031173110917076
 23
-3.783239760423647
 33
0.0
  0
MTEXT
  5
7BD
330
1E
100
AcDbEntity
  8
CONSTR
100
AcDbMText
 10
-3.076165053932584
 20
-2.655402897349532
 30
0.0
 40
0.5481747989425606
 41
1.687699999999999
 71
     1
 72
     5
  1
56
 11
0.0000000000000001
 21
1.0
 31
0.0
 73
     1
 44
1.0
  0
MTEXT
  5
7E4
330
1E
100
AcDbEntity
  8
CONSTR
100
AcDbMText
 10
-7.927653650501355
 20
4.839961390485854
 30
0.0
 40
0.5
 41
2.9127
 71
     1
 72
     5
  1
RFC
 73
     1
 44
1.0
  0
SOLID
  5
84D
330
1E
100
AcDbEntity
  8
CONSTR
100
AcDbTrace
 10
-3.607638120112556
 20
-0.494642531087937
 30
0.0
 11
-2.007638120112555
 21
-0.494642531087937
 31
0.0
 12
-3.607638120112556
 22
-0.5446425310879377
 32
0.0
 13
-2.007638120112555
 23
-0.5446425310879377
 33
0.0
  0
SOLID
  5
862
330
1E
100
AcDbEntity
  8
METAL1
100
AcDbTrace
 10
-3.049622404035637
 20
-0.4635564295370927
 30
0.0
 11
-1.932022404035637
 21
-0.4635564295370927
 31
0.0
 12
-3.049622404035637
 22
1.212843570462908
 32
0.0
 13
-1.932022404035638
 23
1.212843570462908
 33
0.0
  0
ARC
  5
863
330
1E
100
AcDbEntity
  8
CONSTR
  6
DASHED
100
AcDbCircle
 10
-5.478602073050954
 20
1.960907065190871
 30
0.0
 40
0.1738738392857908
100
AcDbArc
 50
85.86587941241312
 51
270.0448260887349
  0
ARC
  5
864
330
1E
100
AcDbEntity
  8
CONSTR
  6
DASHED
100
AcDbCircle
 10
0.1879169313297648
 20
1.774855930952019
 30
0.0
 40
0.1738738392857908
100
AcDbArc
 50
269.9551739112651
 51
94.13412058758703
  0
LWPOLYLINE
  5
865
330
1E
100
AcDbEntity
  8
CONSTR
100
AcDbPolyline
 90
        2
 70
     0
 43
0.0
 10
0.1655888971498705
 20
1.604122523791522
 10
-5.456261296992412
 20
1.787079639879253
  0
LWPOLYLINE
  5
866
330
1E
100
AcDbEntity
  8
CONSTR
100
AcDbPolyline
 90
        2
 70
     0
 43
0.0
 10
0.1735404509969065
 20
1.946172666884871
 10
-5.464213161617074
 20
2.137084029228864
  0
INSERT
  5
867
330
1E
100
AcDbEntity
  8
CONSTR
100
AcDbBlockReference
  2
A$C7F5B3850
 10
-5.647102007875336
 20
1.954127363245552
 30
0.0
 41
-1.203880905462284
 42
1.203880905462285
 43
1.203880905462285
 50
270.0
  0
INSERT
  5
868
330
1E
100
AcDbEntity
  8
CONSTR
100
AcDbBlockReference
  2
A$C7F5B3850
 10
-5.66300542634703
 20
2.304131752595163
 30
0.0
 41
-1.203880905462284
 42
1.203880905462285
 43
1.203880905462285
 50
270.0
  0
INSERT
  5
869
330
1E
100
AcDbEntity
  8
CONSTR
100
AcDbBlockReference
  2
A$C7F5B3850
 10
-5.66300542634703
 20
2.654136592049267
 30
0.0
 41
-1.203880905462284
 42
1.203880905462285
 43
1.203880905462285
 50
270.0
  0
INSERT
  5
86A
330
1E
100
AcDbEntity
  8
CONSTR
100
AcDbBlockReference
  2
A$C7F5B3850
 10
-5.670957290971688
 20
3.012096127864049
 30
0.0
 41
-1.203880905462284
 42
1.203880905462285
 43
1.203880905462285
 50
270.0
  0
INSERT
  5
86B
330
1E
100
AcDbEntity
  8
CONSTR
100
AcDbBlockReference
  2
A$C7F5B3850
 10
-5.66300542634703
 20
3.370055663678835
 30
0.0
 41
-1.203880905462284
 42
1.203880905462285
 43
1.203880905462285
 50
270.0
  0
ARC
  5
86C
330
1E
100
AcDbEntity
  8
CONSTR
  6
DASHED
100
AcDbCircle
 10
-5.478602073050954
 20
4.07998497333966
 30
0.0
 40
0.1738738392857908
100
AcDbArc
 50
85.86587941241308
 51
270.0448260887349
  0
ARC
  5
86D
330
1E
100
AcDbEntity
  8
CONSTR
  6
DASHED
100
AcDbCircle
 10
0.1879169313297648
 20
3.89393383910081
 30
0.0
 40
0.1738738392857908
100
AcDbArc
 50
269.9551739112651
 51
94.13412058758714
  0
LWPOLYLINE
  5
86E
330
1E
100
AcDbEntity
  8
CONSTR
100
AcDbPolyline
 90
        2
 70
     0
 43
0.0
 10
0.1655888971498705
 20
3.723200431940311
 10
-5.456261296992412
 20
3.906157548028044
  0
LWPOLYLINE
  5
86F
330
1E
100
AcDbEntity
  8
CONSTR
100
AcDbPolyline
 90
        2
 70
     0
 43
0.0
 10
0.1735404509969065
 20
4.065250575033662
 10
-5.464213161617074
 20
4.256161937377653
  0
INSERT
  5
870
330
1E
100
AcDbEntity
  8
CONSTR
100
AcDbBlockReference
  2
A$C7F5B3850
 10
-5.647102007875336
 20
4.073205271394344
 30
0.0
 41
-1.203880905462284
 42
1.203880905462285
 43
1.203880905462285
 50
270.0
  0
INSERT
  5
871
330
1E
100
AcDbEntity
  8
CONSTR
100
AcDbBlockReference
  2
A$C7F5B3850
 10
-5.66300542634703
 20
4.423209660743953
 30
0.0
 41
-1.203880905462284
 42
1.203880905462285
 43
1.203880905462285
 50
270.0
  0
INSERT
  5
872
330
1E
100
AcDbEntity
  8
CONSTR
100
AcDbBlockReference
  2
A$C7F5B3850
 10
-5.66300542634703
 20
4.773214500198056
 30
0.0
 41
-1.203880905462284
 42
1.203880905462285
 43
1.203880905462285
 50
270.0
  0
INSERT
  5
873
330
1E
100
AcDbEntity
  8
CONSTR
100
AcDbBlockReference
  2
A$C7F5B3850
 10
-5.670957290971688
 20
5.131174036012842
 30
0.0
 41
-1.203880905462284
 42
1.203880905462285
 43
1.203880905462285
 50
270.0
  0
LWPOLYLINE
  5
874
330
1E
100
AcDbEntity
  8
CONSTR
100
AcDbPolyline
 90
        2
 70
     0
 43
0.0
 10
0.1735404509969065
 20
1.604122523791522
 10
-3.269544520297415
 20
0.8086569386590715
  0
LWPOLYLINE
  5
875
330
1E
100
AcDbEntity
  8
CONSTR
100
AcDbPolyline
 90
        3
 70
     0
 43
0.0
 10
-1.130537999017505
 20
1.643895555490642
 10
-3.349061612655891
 20
1.134797689030991
 10
-3.261592966450312
 20
0.8086569386590715
  0
ARC
  5
878
330
1E
100
AcDbEntity
  8
CONSTR
  6
DASHED
100
AcDbCircle
 10
-5.482231395389039
 20
5.851571119718576
 30
0.0
 40
0.1738738392857908
100
AcDbArc
 50
85.86587941241312
 51
270.0448260887349
  0
ARC
  5
879
330
1E
100
AcDbEntity
  8
CONSTR
  6
DASHED
100
AcDbCircle
 10
0.1842876089916778
 20
5.665519985479724
 30
0.0
 40
0.1738738392857908
100
AcDbArc
 50
269.9551739112651
 51
94.13412058758703
  0
LWPOLYLINE
  5
87A
330
1E
100
AcDbEntity
  8
CONSTR
100
AcDbPolyline
 90
        2
 70
     0
 43
0.0
 10
0.1619595748117835
 20
5.494786578319226
 10
-5.459890619330501
 20
5.677743694406958
  0
LWPOLYLINE
  5
87B
330
1E
100
AcDbEntity
  8
CONSTR
100
AcDbPolyline
 90
        2
 70
     0
 43
0.0
 10
0.1699111286588177
 20
5.836836721412577
 10
-5.467842483955159
 20
6.027748083756568
  0
INSERT
  5
87C
330
1E
100
AcDbEntity
  8
CONSTR
100
AcDbBlockReference
  2
A$C7F5B3850
 10
-5.650731330213421
 20
5.84479141777326
 30
0.0
 41
-1.203880905462284
 42
1.203880905462285
 43
1.203880905462285
 50
270.0
  0
INSERT
  5
87D
330
1E
100
AcDbEntity
  8
CONSTR
100
AcDbBlockReference
  2
A$C7F5B3850
 10
-5.666634748685115
 20
6.194795807122867
 30
0.0
 41
-1.203880905462284
 42
1.203880905462285
 43
1.203880905462285
 50
270.0
  0
INSERT
  5
87E
330
1E
100
AcDbEntity
  8
CONSTR
100
AcDbBlockReference
  2
A$C7F5B3850
 10
-5.666634748685115
 20
6.544800646576971
 30
0.0
 41
-1.203880905462284
 42
1.203880905462285
 43
1.203880905462285
 50
270.0
  0
INSERT
  5
87F
330
1E
100
AcDbEntity
  8
CONSTR
100
AcDbBlockReference
  2
A$C7F5B3850
 10
-5.674586613309777
 20
6.902760182391757
 30
0.0
 41
-1.203880905462284
 42
1.203880905462285
 43
1.203880905462285
 50
270.0
  0
LWPOLYLINE
  5
881
330
1E
100
AcDbEntity
  8
CONSTR
100
AcDbPolyline
 90
        2
 70
     0
 43
0.0
 10
0.1619595748117835
 20
7.613864486468015
 10
-5.459890619330501
 20
7.79682160255575
  0
LWPOLYLINE
  5
882
330
1E
100
AcDbEntity
  8
CONSTR
100
AcDbPolyline
 90
        4
 70
     0
 43
0.0
 10
0.1071859202122312
 20
7.986594763787962
 10
1.059637784011727
 20
8.157484125617571
 10
1.084059565058282
 20
7.791292688654294
 10
0.1071859202122312
 20
7.620403326824686
  0
ARC
  5
88A
330
1E
100
AcDbEntity
  8
CONSTR
  6
DASHED
100
AcDbCircle
 10
-5.492871485636165
 20
7.620644638517757
 30
0.0
 40
0.1738738392857907
100
AcDbArc
 50
85.86587941241308
 51
270.0448260887349
  0
ARC
  5
88B
330
1E
100
AcDbEntity
  8
CONSTR
  6
DASHED
100
AcDbCircle
 10
0.1736475187445521
 20
7.434593504278905
 30
0.0
 40
0.1738738392857907
100
AcDbArc
 50
269.9551739112651
 51
94.13412058758702
  0
LWPOLYLINE
  5
88C
330
1E
100
AcDbEntity
  8
CONSTR
100
AcDbPolyline
 90
        2
 70
     0
 43
0.0
 10
0.1513194845646577
 20
7.263860097118405
 10
-5.470530709577626
 20
7.44681721320614
  0
LWPOLYLINE
  5
88D
330
1E
100
AcDbEntity
  8
CONSTR
100
AcDbPolyline
 90
        2
 70
     0
 43
0.0
 10
0.1592710384116929
 20
7.605910240211757
 10
-5.478482574202285
 20
7.796821602555749
  0
LWPOLYLINE
  5
88E
330
1E
100
AcDbEntity
  8
CONSTR
100
AcDbPolyline
 90
        2
 70
     0
 43
0.0
 10
0.1272936796637225
 20
7.982750962716821
 10
-5.516390404959068
 20
7.793496415087915
  0
ENDSEC
  0
SECTION
  2
OBJECTS
  0
DICTIONARY
  5
C
330
0
100
AcDbDictionary
281
     1
  3
ACAD_GROUP
350
D
  3
ACAD_LAYOUT
350
19
  3
ACAD_MLINESTYLE
350
16
  3
ACAD_PLOTSETTINGS
350
18
  3
ACAD_PLOTSTYLENAME
350
E
  3
AcDbVariableDictionary
350
1F4
  0
DICTIONARY
  5
23A
330
1E
100
AcDbDictionary
280
     1
281
     1
  3
ACAD_SORTENTS
360
23B
  0
DICTIONARY
  5
D
102
{ACAD_REACTORS
330
C
102
}
330
C
100
AcDbDictionary
281
     1
  0
DICTIONARY
  5
19
102
{ACAD_REACTORS
330
C
102
}
330
C
100
AcDbDictionary
281
     1
  3
Layout1
350
1D
  3
Model
350
21
  0
DICTIONARY
  5
16
102
{ACAD_REACTORS
330
C
102
}
330
C
100
AcDbDictionary
281
     1
  3
Standard
350
17
  0
DICTIONARY
  5
18
102
{ACAD_REACTORS
330
C
102
}
330
C
100
AcDbDictionary
281
     1
  0
ACDBDICTIONARYWDFLT
  5
E
102
{ACAD_REACTORS
330
C
102
}
330
C
100
AcDbDictionary
281
     1
  3
Normal
350
F
100
AcDbDictionaryWithDefault
340
F
  0
DICTIONARY
  5
1F4
102
{ACAD_REACTORS
330
C
102
}
330
C
100
AcDbDictionary
281
     1
  3
DIMASSOC
350
1F5
  3
SORTENTS
350
39D
  0
SORTENTSTABLE
  5
23B
102
{ACAD_REACTORS
330
23A
102
}
330
23A
100
AcDbSortentsTable
330
1E
331
11E
  5
773
331
71D
  5
49B
331
7A4
  5
570
331
86A
  5
86A
331
195
  5
160
331
872
  5
872
331
67F
  5
5C8
331
97
  5
683
331
7BC
  5
845
331
87A
  5
87A
331
755
  5
66D
331
AF
  5
69B
331
882
  5
882
331
304
  5
6C0
331
697
  5
71C
331
176
  5
158
331
6EE
  5
63C
331
88A
  5
88A
331
DF
  5
11A
331
668
  5
58B
331
324
  5
94
331
6AF
  5
750
331
716
  5
426
331
863
  5
863
331
6BF
  5
753
331
11F
  5
65A
331
670
  5
5C4
331
7E4
  5
67E
331
71E
  5
554
331
86B
  5
86B
331
6C7
  5
60E
331
196
  5
7B8
331
157
  5
156
331
873
  5
873
331
403
  5
588
331
680
  5
5CA
331
7BD
  5
84D
331
87B
  5
87B
331
98
  5
752
331
690
  5
5E3
331
2FD
  5
8D
331
B0
  5
6A9
331
3D4
  5
1CD
331
698
  5
71D
331
177
  5
159
331
6EF
  5
63E
331
88B
  5
88B
331
325
  5
682
331
669
  5
58C
331
717
  5
427
331
864
  5
864
331
120
  5
65B
331
6C0
  5
754
331
71F
  5
555
331
86C
  5
86C
331
197
  5
7B9
331
6D8
  5
624
331
874
  5
874
331
63A
  5
717
331
681
  5
5D4
331
296
  5
177
331
404
  5
589
331
5EB
  5
574
331
19F
  5
6ED
331
87C
  5
87C
331
74F
  5
668
331
1A7
  5
6EE
331
99
  5
68A
331
A9
  5
690
331
158
  5
157
331
B1
  5
6AA
331
699
  5
71F
331
178
  5
791
331
6F0
  5
656
331
6A9
  5
3B6
331
31E
  5
92
331
88C
  5
88C
331
84D
  5
862
331
66A
  5
58D
331
865
  5
865
331
121
  5
663
331
188
  5
57A
331
718
  5
42E
331
672
  5
5C5
331
594
  5
95
331
6C1
  5
755
331
190
  5
587
331
633
  5
322
331
720
  5
556
331
86D
  5
86D
331
376
  5
181
331
5D4
  5
2FE
331
198
  5
7BA
331
875
  5
875
331
682
  5
5DB
331
5EC
  5
575
331
87D
  5
87D
331
750
  5
669
331
68A
  5
5E2
331
159
  5
6AB
331
AA
  5
696
331
6E1
  5
626
331
3CE
  5
198
331
2FF
  5
8E
331
B2
  5
B3
331
65B
  5
7BB
331
69A
  5
720
331
179
  5
799
331
48D
  5
573
331
31F
  5
93
331
663
  5
71B
331
6AA
  5
98
331
88D
  5
88D
331
327
  5
681
331
66B
  5
594
331
866
  5
866
331
719
  5
430
331
268
  5
172
331
6C2
  5
75C
331
6D2
  5
623
331
721
  5
56B
331
86E
  5
86E
331
377
  5
183
331
199
  5
6E4
331
93
  5
A9
331
7B8
  5
96
331
683
  5
5E1
331
87E
  5
87E
331
751
  5
66A
331
15A
  5
6AC
331
AB
  5
697
331
6E2
  5
62D
331
426
  5
6E1
331
300
  5
8F
331
B3
  5
B4
331
231
  5
59
331
42E
  5
6E3
331
69B
  5
5EC
331
17A
  5
7A4
331
791
  5
56D
331
6AB
  5
721
331
320
  5
6C1
331
664
  5
664
331
88E
  5
88E
331
182
  5
15A
331
712
  5
3C8
331
799
  5
56E
331
66C
  5
596
331
867
  5
867
331
259
  5
6D2
331
71A
  5
432
331
6C3
  5
75E
331
269
  5
6AF
331
62D
  5
320
331
378
  5
188
331
722
  5
56C
331
86F
  5
86F
331
94
  5
AA
331
19A
  5
162
331
7B9
  5
97
331
87F
  5
87F
331
752
  5
66B
331
3C8
  5
18C
331
15B
  5
6AD
331
AC
  5
698
331
6E3
  5
633
331
427
  5
6E2
331
B4
  5
DB
331
17B
  5
7AB
331
321
  5
6C2
331
6AC
  5
722
331
183
  5
15B
331
713
  5
3CE
331
66D
  5
59D
331
11C
  5
11B
331
26A
  5
176
331
3F8
  5
572
331
71B
  5
48C
331
868
  5
868
331
7D
  5
A8
331
870
  5
870
331
723
  5
7BC
331
95
  5
AD
331
19B
  5
164
331
7BA
  5
7BD
331
878
  5
878
331
1A3
  5
165
331
753
  5
66C
331
15C
  5
6AE
331
AD
  5
699
331
6E4
  5
637
331
302
  5
6BE
331
656
  5
719
331
B5
  5
DC
331
773
  5
66E
331
322
  5
6C3
331
6AD
  5
723
331
714
  5
41B
331
66E
  5
5C2
331
6BD
  5
3B9
331
11D
  5
11C
331
25B
  5
6D8
331
3F1
  5
26F
331
26B
  5
6BD
331
71C
  5
48D
331
869
  5
869
331
194
  5
15D
331
7AB
  5
571
331
871
  5
871
331
637
  5
716
331
67E
  5
5C7
331
96
  5
751
331
7BB
  5
7E4
331
879
  5
879
331
754
  5
657
331
AE
  5
69A
331
881
  5
881
331
303
  5
6BF
331
657
  5
71A
331
696
  5
5EB
331
6ED
  5
63A
331
DE
  5
119
331
323
  5
6C7
331
6AE
  5
74F
331
715
  5
41C
331
862
  5
680
331
66F
  5
5C3
331
6BE
  5
3C1
  0
LAYOUT
  5
1D
102
{ACAD_REACTORS
330
19
102
}
330
19
100
AcDbPlotSettings
  1

  2
E:\ACAD2000\plotters\HP LaserJet 5L.pc3
  4

  6

 40
0.0
 41
0.0
 42
0.0
 43
0.0
 44
0.0
 45
0.0
 46
0.0
 47
0.0
 48
0.0
 49
0.0
140
0.0
141
0.0
142
1.0
143
1.0
 70
   688
 72
     0
 73
     0
 74
     5
  7
acad.stb
 75
    16
147
1.0
148
0.0
149
0.0
100
AcDbLayout
  1
Layout1
 70
     1
 71
     1
 10
0.0
 20
0.0
 11
12.0
 21
9.0
 12
0.0
 22
0.0
 32
0.0
 14
1.000000000000000E+20
 24
1.000000000000000E+20
 34
1.000000000000000E+20
 15
-1.000000000000000E+20
 25
-1.000000000000000E+20
 35
-1.000000000000000E+20
146
0.0
 13
0.0
 23
0.0
 33
0.0
 16
1.0
 26
0.0
 36
0.0
 17
0.0
 27
1.0
 37
0.0
 76
     0
330
1A
  0
LAYOUT
  5
21
102
{ACAD_REACTORS
330
19
102
}
330
19
100
AcDbPlotSettings
  1

  2
Lexmark E210
  4
A4
  6

 40
5.111750125885009
 41
5.11176061630249
 42
5.111740112304687
 43
5.11175537109375
 44
209.9733276367187
 45
296.9259948730469
 46
0.0
 47
0.0
 48
0.0
 49
0.0
140
0.0
141
0.0
142
1.0
143
0.1999892111704684
 70
 11952
 72
     1
 73
     1
 74
     0
  7
acad.stb
 75
     0
147
5.00026973528893
148
14.43483701509911
149
21.24745858018795
100
AcDbLayout
  1
Model
 70
     1
 71
     0
 10
0.0
 20
0.0
 11
12.0
 21
9.0
 12
0.0
 22
0.0
 32
0.0
 14
0.0
 24
0.0
 34
0.0
 15
0.0
 25
0.0
 35
0.0
146
0.0
 13
0.0
 23
0.0
 33
0.0
 16
1.0
 26
0.0
 36
0.0
 17
0.0
 27
1.0
 37
0.0
 76
     0
330
1E
  0
MLINESTYLE
  5
17
102
{ACAD_REACTORS
330
16
102
}
330
16
100
AcDbMlineStyle
  2
STANDARD
 70
     0
  3

 62
   256
 51
90.0
 52
90.0
 71
     2
 49
0.5
 62
   256
  6
BYLAYER
 49
-0.5
 62
   256
  6
BYLAYER
  0
ACDBPLACEHOLDER
  5
F
102
{ACAD_REACTORS
330
E
102
}
330
E
  0
DICTIONARYVAR
  5
1F5
102
{ACAD_REACTORS
330
1F4
102
}
330
1F4
100
DictionaryVariables
280
     0
  1
1
  0
DICTIONARYVAR
  5
39D
102
{ACAD_REACTORS
330
1F4
102
}
330
1F4
100
DictionaryVariables
280
     0
  1
127
  0
ENDSEC
  0
EOF
