  0
SECTION
  2
HEADER
  9
$ACADVER
  1
AC1015
  9
$ACADMAINTVER
 70
    13
  9
$DWGCODEPAGE
  3
ANSI_1252
  9
$INSBASE
 10
0.0
 20
0.0
 30
0.0
  9
$EXTMIN
 10
-18.89522248444682
 20
43.68052998554829
 30
0.0
  9
$EXTMAX
 10
18.01964379365036
 20
68.81163354471894
 30
0.0
  9
$LIMMIN
 10
0.0
 20
0.0
  9
$LIMMAX
 10
12.0
 20
9.0
  9
$ORTHOMODE
 70
     0
  9
$REGENMODE
 70
     1
  9
$FILLMODE
 70
     1
  9
$QTEXTMODE
 70
     0
  9
$MIRRTEXT
 70
     1
  9
$LTSCALE
 40
1.0
  9
$ATTMODE
 70
     1
  9
$TEXTSIZE
 40
0.5
  9
$TRACEWID
 40
0.05
  9
$TEXTSTYLE
  7
Standard
  9
$CLAYER
  8
CONSTR
  9
$CELTYPE
  6
ByLayer
  9
$CECOLOR
 62
   256
  9
$CELTSCALE
 40
1.0
  9
$DISPSILH
 70
     0
  9
$DIMSCALE
 40
1.0
  9
$DIMASZ
 40
1.8
  9
$DIMEXO
 40
0.0625
  9
$DIMDLI
 40
0.38
  9
$DIMRND
 40
0.0
  9
$DIMDLE
 40
0.0
  9
$DIMEXE
 40
0.18
  9
$DIMTP
 40
0.0
  9
$DIMTM
 40
0.0
  9
$DIMTXT
 40
1.8
  9
$DIMCEN
 40
0.09
  9
$DIMTSZ
 40
0.0
  9
$DIMTOL
 70
     0
  9
$DIMLIM
 70
     0
  9
$DIMTIH
 70
     1
  9
$DIMTOH
 70
     1
  9
$DIMSE1
 70
     0
  9
$DIMSE2
 70
     0
  9
$DIMTAD
 70
     0
  9
$DIMZIN
 70
     0
  9
$DIMBLK
  1

  9
$DIMASO
 70
     1
  9
$DIMSHO
 70
     1
  9
$DIMPOST
  1

  9
$DIMAPOST
  1

  9
$DIMALT
 70
     0
  9
$DIMALTD
 70
     2
  9
$DIMALTF
 40
25.4
  9
$DIMLFAC
 40
1.0
  9
$DIMTOFL
 70
     0
  9
$DIMTVP
 40
0.0
  9
$DIMTIX
 70
     0
  9
$DIMSOXD
 70
     0
  9
$DIMSAH
 70
     0
  9
$DIMBLK1
  1

  9
$DIMBLK2
  1

  9
$DIMSTYLE
  2
Standard
  9
$DIMCLRD
 70
     0
  9
$DIMCLRE
 70
     0
  9
$DIMCLRT
 70
     0
  9
$DIMTFAC
 40
1.0
  9
$DIMGAP
 40
0.09
  9
$DIMJUST
 70
     0
  9
$DIMSD1
 70
     0
  9
$DIMSD2
 70
     0
  9
$DIMTOLJ
 70
     1
  9
$DIMTZIN
 70
     0
  9
$DIMALTZ
 70
     0
  9
$DIMALTTZ
 70
     0
  9
$DIMUPT
 70
     0
  9
$DIMDEC
 70
     1
  9
$DIMTDEC
 70
     1
  9
$DIMALTU
 70
     2
  9
$DIMALTTD
 70
     2
  9
$DIMTXSTY
  7
Standard
  9
$DIMAUNIT
 70
     0
  9
$DIMADEC
 70
     0
  9
$DIMALTRND
 40
0.0
  9
$DIMAZIN
 70
     0
  9
$DIMDSEP
 70
    46
  9
$DIMATFIT
 70
     3
  9
$DIMFRAC
 70
     0
  9
$DIMLDRBLK
  1

  9
$DIMLUNIT
 70
     2
  9
$DIMLWD
 70
    -2
  9
$DIMLWE
 70
    -2
  9
$DIMTMOVE
 70
     0
  9
$LUNITS
 70
     2
  9
$LUPREC
 70
     4
  9
$SKETCHINC
 40
0.1
  9
$FILLETRAD
 40
0.0
  9
$AUNITS
 70
     0
  9
$AUPREC
 70
     0
  9
$MENU
  1
.
  9
$ELEVATION
 40
0.0
  9
$PELEVATION
 40
0.0
  9
$THICKNESS
 40
0.0
  9
$LIMCHECK
 70
     0
  9
$CHAMFERA
 40
0.0
  9
$CHAMFERB
 40
0.0
  9
$CHAMFERC
 40
0.0
  9
$CHAMFERD
 40
0.0
  9
$SKPOLY
 70
     0
  9
$TDCREATE
 40
2452362.799734977
  9
$TDUCREATE
 40
2452362.758068310
  9
$TDUPDATE
 40
2452713.529063402
  9
$TDUUPDATE
 40
2452713.487396736
  9
$TDINDWG
 40
0.5913642824
  9
$TDUSRTIMER
 40
0.5913642824
  9
$USRTIMER
 70
     1
  9
$ANGBASE
 50
0.0
  9
$ANGDIR
 70
     0
  9
$PDMODE
 70
     0
  9
$PDSIZE
 40
0.0
  9
$PLINEWID
 40
0.0
  9
$SPLFRAME
 70
     0
  9
$SPLINETYPE
 70
     6
  9
$SPLINESEGS
 70
     8
  9
$HANDSEED
  5
88B
  9
$SURFTAB1
 70
     6
  9
$SURFTAB2
 70
     6
  9
$SURFTYPE
 70
     6
  9
$SURFU
 70
     6
  9
$SURFV
 70
     6
  9
$UCSBASE
  2

  9
$UCSNAME
  2

  9
$UCSORG
 10
0.0
 20
0.0
 30
0.0
  9
$UCSXDIR
 10
1.0
 20
0.0
 30
0.0
  9
$UCSYDIR
 10
0.0
 20
1.0
 30
0.0
  9
$UCSORTHOREF
  2

  9
$UCSORTHOVIEW
 70
     0
  9
$UCSORGTOP
 10
0.0
 20
0.0
 30
0.0
  9
$UCSORGBOTTOM
 10
0.0
 20
0.0
 30
0.0
  9
$UCSORGLEFT
 10
0.0
 20
0.0
 30
0.0
  9
$UCSORGRIGHT
 10
0.0
 20
0.0
 30
0.0
  9
$UCSORGFRONT
 10
0.0
 20
0.0
 30
0.0
  9
$UCSORGBACK
 10
0.0
 20
0.0
 30
0.0
  9
$PUCSBASE
  2

  9
$PUCSNAME
  2

  9
$PUCSORG
 10
0.0
 20
0.0
 30
0.0
  9
$PUCSXDIR
 10
1.0
 20
0.0
 30
0.0
  9
$PUCSYDIR
 10
0.0
 20
1.0
 30
0.0
  9
$PUCSORTHOREF
  2

  9
$PUCSORTHOVIEW
 70
     0
  9
$PUCSORGTOP
 10
0.0
 20
0.0
 30
0.0
  9
$PUCSORGBOTTOM
 10
0.0
 20
0.0
 30
0.0
  9
$PUCSORGLEFT
 10
0.0
 20
0.0
 30
0.0
  9
$PUCSORGRIGHT
 10
0.0
 20
0.0
 30
0.0
  9
$PUCSORGFRONT
 10
0.0
 20
0.0
 30
0.0
  9
$PUCSORGBACK
 10
0.0
 20
0.0
 30
0.0
  9
$USERI1
 70
     0
  9
$USERI2
 70
     0
  9
$USERI3
 70
     0
  9
$USERI4
 70
     0
  9
$USERI5
 70
     0
  9
$USERR1
 40
0.0
  9
$USERR2
 40
0.0
  9
$USERR3
 40
0.0
  9
$USERR4
 40
0.0
  9
$USERR5
 40
0.0
  9
$WORLDVIEW
 70
     1
  9
$SHADEDGE
 70
     3
  9
$SHADEDIF
 70
    70
  9
$TILEMODE
 70
     1
  9
$MAXACTVP
 70
    64
  9
$PINSBASE
 10
0.0
 20
0.0
 30
0.0
  9
$PLIMCHECK
 70
     0
  9
$PEXTMIN
 10
1.000000000000000E+20
 20
1.000000000000000E+20
 30
1.000000000000000E+20
  9
$PEXTMAX
 10
-1.000000000000000E+20
 20
-1.000000000000000E+20
 30
-1.000000000000000E+20
  9
$PLIMMIN
 10
0.0
 20
0.0
  9
$PLIMMAX
 10
12.0
 20
9.0
  9
$UNITMODE
 70
     0
  9
$VISRETAIN
 70
     1
  9
$PLINEGEN
 70
     0
  9
$PSLTSCALE
 70
     1
  9
$TREEDEPTH
 70
  3020
  9
$CMLSTYLE
  2
Standard
  9
$CMLJUST
 70
     0
  9
$CMLSCALE
 40
1.0
  9
$PROXYGRAPHICS
 70
     1
  9
$MEASUREMENT
 70
     0
  9
$CELWEIGHT
370
    -1
  9
$ENDCAPS
280
     0
  9
$JOINSTYLE
280
     0
  9
$LWDISPLAY
290
     1
  9
$INSUNITS
 70
     0
  9
$HYPERLINKBASE
  1

  9
$STYLESHEET
  1
acad.stb
  9
$XEDIT
290
     1
  9
$CEPSNTYPE
380
     0
  9
$PSTYLEMODE
290
     0
  9
$FINGERPRINTGUID
  2
{8C2596C1-33CC-409B-9319-FA1A1B241147}
  9
$VERSIONGUID
  2
{EB9EE77F-3455-45BC-9B3F-651E34CE8536}
  9
$EXTNAMES
290
     1
  9
$PSVPSCALE
 40
0.0
  9
$OLESTARTUP
290
     0
  0
ENDSEC
  0
SECTION
  2
CLASSES
  0
CLASS
  1
ACDBDICTIONARYWDFLT
  2
AcDbDictionaryWithDefault
  3
AutoCAD 2000
 90
        0
280
     0
281
     0
  0
CLASS
  1
ACDBPLACEHOLDER
  2
AcDbPlaceHolder
  3
AutoCAD 2000
 90
        0
280
     0
281
     0
  0
CLASS
  1
LAYOUT
  2
AcDbLayout
  3
AutoCAD 2000
 90
        0
280
     0
281
     0
  0
CLASS
  1
DICTIONARYVAR
  2
AcDbDictionaryVar
  3
AutoCAD 2000
 90
        0
280
     0
281
     0
  0
CLASS
  1
SORTENTSTABLE
  2
AcDbSortentsTable
  3
AutoCAD 2000
 90
        0
280
     0
281
     0
  0
ENDSEC
  0
SECTION
  2
TABLES
  0
TABLE
  2
VPORT
  5
8
330
0
100
AcDbSymbolTable
 70
     4
  0
VPORT
  5
88A
330
8
100
AcDbSymbolTableRecord
100
AcDbViewportTableRecord
  2
*Active
 70
     0
 10
0.0
 20
0.0
 11
1.0
 21
1.0
 12
-0.4377890875351369
 22
56.24625489334376
 13
0.0
 23
0.0
 14
1.0
 24
1.0
 15
0.0
 25
0.0
 16
0.0
 26
0.0
 36
1.0
 17
0.0
 27
0.0
 37
0.0
 40
25.61770980492671
 41
1.448317307692307
 42
50.0
 43
0.0
 44
0.0
 50
0.0
 51
0.0
 71
     0
 72
   100
 73
     1
 74
     2
 75
     0
 76
     0
 77
     0
 78
     0
281
     0
 65
     1
110
0.0
120
0.0
130
0.0
111
1.0
121
0.0
131
0.0
112
0.0
122
1.0
132
0.0
 79
     0
146
0.0
  0
ENDTAB
  0
TABLE
  2
LTYPE
  5
5
330
0
100
AcDbSymbolTable
 70
     2
  0
LTYPE
  5
13
330
5
100
AcDbSymbolTableRecord
100
AcDbLinetypeTableRecord
  2
ByBlock
 70
     0
  3

 72
    65
 73
     0
 40
0.0
  0
LTYPE
  5
14
330
5
100
AcDbSymbolTableRecord
100
AcDbLinetypeTableRecord
  2
ByLayer
 70
     0
  3

 72
    65
 73
     0
 40
0.0
  0
LTYPE
  5
15
330
5
100
AcDbSymbolTableRecord
100
AcDbLinetypeTableRecord
  2
Continuous
 70
     0
  3
Solid line
 72
    65
 73
     0
 40
0.0
  0
LTYPE
  5
77D
330
5
100
AcDbSymbolTableRecord
100
AcDbLinetypeTableRecord
  2
DASHED
 70
     0
  3
Dashed __ __ __ __ __ __ __ __ __ __ __ __ __ _
 72
    65
 73
     2
 40
0.75
 49
0.5
 74
     0
 49
-0.25
 74
     0
  0
ENDTAB
  0
TABLE
  2
LAYER
  5
2
330
0
100
AcDbSymbolTable
 70
     7
  0
LAYER
  5
10
330
2
100
AcDbSymbolTableRecord
100
AcDbLayerTableRecord
  2
0
 70
     0
 62
     7
  6
Continuous
370
    -3
390
F
  0
LAYER
  5
22
330
2
100
AcDbSymbolTableRecord
100
AcDbLayerTableRecord
  2
METAL1
 70
     0
 62
     7
  6
Continuous
370
    -3
390
F
  0
LAYER
  5
24
330
2
100
AcDbSymbolTableRecord
100
AcDbLayerTableRecord
  2
CONSTR
 70
     0
 62
  -122
  6
Continuous
370
    -3
390
F
  0
LAYER
  5
44
330
2
100
AcDbSymbolTableRecord
100
AcDbLayerTableRecord
  2
GND
 70
     0
 62
   253
  6
Continuous
370
    -3
390
F
  0
LAYER
  5
5D
330
2
100
AcDbSymbolTableRecord
100
AcDbLayerTableRecord
  2
DRILL
 70
     0
 62
     2
  6
Continuous
370
    -3
390
F
  0
LAYER
  5
17F
330
2
100
AcDbSymbolTableRecord
100
AcDbLayerTableRecord
  2
NODRAW
 70
     0
 62
     7
  6
Continuous
370
    -3
390
F
  0
LAYER
  5
34E
330
2
100
AcDbSymbolTableRecord
100
AcDbLayerTableRecord
  2
Defpoints
 70
     0
 62
     4
  6
Continuous
290
     0
370
    -3
390
F
  0
ENDTAB
  0
TABLE
  2
STYLE
  5
3
330
0
100
AcDbSymbolTable
 70
     1
  0
STYLE
  5
11
330
3
100
AcDbSymbolTableRecord
100
AcDbTextStyleTableRecord
  2
Standard
 70
     0
 40
0.5
 41
1.0
 50
0.0
 71
     0
 42
0.5
  3
txt.shx
  4

  0
ENDTAB
  0
TABLE
  2
VIEW
  5
6
330
0
100
AcDbSymbolTable
 70
     0
  0
ENDTAB
  0
TABLE
  2
UCS
  5
7
330
0
100
AcDbSymbolTable
 70
     0
  0
ENDTAB
  0
TABLE
  2
APPID
  5
9
330
0
100
AcDbSymbolTable
 70
     1
  0
APPID
  5
12
330
9
100
AcDbSymbolTableRecord
100
AcDbRegAppTableRecord
  2
ACAD
 70
     0
  0
ENDTAB
  0
TABLE
  2
DIMSTYLE
  5
A
330
0
100
AcDbSymbolTable
 70
     1
100
AcDbDimStyleTable
 71
     1
340
1F0
  0
DIMSTYLE
105
1F0
102
{ACAD_REACTORS
330
7AE
330
7BC
102
}
330
A
100
AcDbSymbolTableRecord
100
AcDbDimStyleTableRecord
  2
Standard
 70
     0
 41
1.8
140
1.8
271
     1
272
     1
340
11
  0
ENDTAB
  0
TABLE
  2
BLOCK_RECORD
  5
1
330
0
100
AcDbSymbolTable
 70
     8
  0
BLOCK_RECORD
  5
1E
102
{ACAD_XDICTIONARY
360
23A
102
}
330
1
100
AcDbSymbolTableRecord
100
AcDbBlockTableRecord
  2
*Model_Space
340
21
  0
BLOCK_RECORD
  5
1A
330
1
100
AcDbSymbolTableRecord
100
AcDbBlockTableRecord
  2
*Paper_Space
340
1D
  0
BLOCK_RECORD
  5
1F6
330
1
100
AcDbSymbolTableRecord
100
AcDbBlockTableRecord
  2
A$C667F5126
340
0
  0
BLOCK_RECORD
  5
3E6
330
1
100
AcDbSymbolTableRecord
100
AcDbBlockTableRecord
  2
A$C35BA321B
340
0
  0
BLOCK_RECORD
  5
654
330
1
100
AcDbSymbolTableRecord
100
AcDbBlockTableRecord
  2
A$C437C4603
340
0
  0
BLOCK_RECORD
  5
6F1
330
1
100
AcDbSymbolTableRecord
100
AcDbBlockTableRecord
  2
A$C73050C66
340
0
  0
BLOCK_RECORD
  5
708
330
1
100
AcDbSymbolTableRecord
100
AcDbBlockTableRecord
  2
A$C4CD55B8B
340
0
  0
BLOCK_RECORD
  5
7AF
330
1
100
AcDbSymbolTableRecord
100
AcDbBlockTableRecord
  2
*D5
340
0
  0
BLOCK_RECORD
  5
7BD
330
1
100
AcDbSymbolTableRecord
100
AcDbBlockTableRecord
  2
*D6
340
0
  0
BLOCK_RECORD
  5
809
330
1
100
AcDbSymbolTableRecord
100
AcDbBlockTableRecord
  2
A$C47793DAE
340
0
102
{BLKREFS
331
851
102
}
  0
ENDTAB
  0
ENDSEC
  0
SECTION
  2
BLOCKS
  0
BLOCK
  5
1F
330
1E
100
AcDbEntity
  8
0
100
AcDbBlockBegin
  2
*Model_Space
 70
     0
 10
0.0
 20
0.0
 30
0.0
  3
*Model_Space
  1

  0
ENDBLK
  5
20
330
1E
100
AcDbEntity
  8
0
100
AcDbBlockEnd
  0
BLOCK
  5
1B
330
1A
100
AcDbEntity
 67
     1
  8
0
100
AcDbBlockBegin
  2
*Paper_Space
 70
     0
 10
0.0
 20
0.0
 30
0.0
  3
*Paper_Space
  1

  0
ENDBLK
  5
1C
330
1A
100
AcDbEntity
 67
     1
  8
0
100
AcDbBlockEnd
  0
BLOCK
  5
1FA
330
1F6
100
AcDbEntity
  8
0
100
AcDbBlockBegin
  2
A$C667F5126
 70
     0
 10
0.0
 20
0.0
 30
0.0
  3
A$C667F5126
  1

  0
LWPOLYLINE
  5
1F7
330
1F6
100
AcDbEntity
  8
METAL1
100
AcDbPolyline
 90
        4
 70
     1
 43
0.0
 10
-0.0000000000000142
 20
-0.0000000000000071
 10
29.99999999999998
 20
-0.0000000000000071
 10
29.99999999999998
 20
36.99999999999999
 10
-0.0000000000000142
 20
36.99999999999999
  0
LWPOLYLINE
  5
1F8
330
1F6
100
AcDbEntity
  8
METAL1
100
AcDbPolyline
 90
        4
 70
     1
 43
0.0
 10
0.029532603879531
 20
0.0226652060472574
 10
15.02953260387953
 20
0.0226652060472574
 10
15.02953260387953
 20
37.02266520604725
 10
0.029532603879531
 20
37.02266520604725
  0
LWPOLYLINE
  5
1F9
330
1F6
100
AcDbEntity
  8
METAL1
100
AcDbPolyline
 90
        4
 70
     1
 43
0.0
 10
0.0162045678873
 20
25.01745667079179
 10
15.0162045678873
 20
25.01745667079179
 10
15.0162045678873
 20
20.61745667079179
 10
0.0162045678873
 20
20.61745667079179
  0
ENDBLK
  5
1FB
330
1F6
100
AcDbEntity
  8
0
100
AcDbBlockEnd
  0
BLOCK
  5
3E8
330
3E6
100
AcDbEntity
  8
0
100
AcDbBlockBegin
  2
A$C35BA321B
 70
     0
 10
0.0
 20
0.0
 30
0.0
  3
A$C35BA321B
  1

  0
SOLID
  5
3E7
330
3E6
100
AcDbEntity
  8
METAL1
100
AcDbTrace
 10
3.000000022854344
 20
-0.0000000426724327
 30
0.0
 11
3.000000022854344
 21
2.999999957327567
 31
0.0
 12
0.000000022854346
 22
-0.0000000426724327
 32
0.0
 13
0.000000022854346
 23
2.999999957327567
 33
0.0
  0
ENDBLK
  5
3E9
330
3E6
100
AcDbEntity
  8
0
100
AcDbBlockEnd
  0
BLOCK
  5
661
330
654
100
AcDbEntity
  8
0
370
    60
100
AcDbBlockBegin
  2
A$C437C4603
 70
     0
 10
0.0
 20
0.0
 30
0.0
  3
A$C437C4603
  1

  0
SOLID
  5
655
330
654
100
AcDbEntity
  8
METAL1
100
AcDbTrace
 10
0.559106344921073
 20
2.49608627082447
 30
0.0
 11
1.676706344921083
 21
2.49608627082447
 31
0.0
 12
0.559106344921073
 22
0.8196862708244694
 32
0.0
 13
1.676706344921083
 23
0.8196862708244694
 33
0.0
  0
SOLID
  5
656
330
654
100
AcDbEntity
  8
METAL1
100
AcDbTrace
 10
3.356173838904009
 20
2.49608627082447
 30
0.0
 11
4.473773838904005
 21
2.49608627082447
 31
0.0
 12
3.356173838904009
 22
0.8196862708244694
 32
0.0
 13
4.473773838904005
 23
0.8196862708244623
 33
0.0
  0
SOLID
  5
657
330
654
100
AcDbEntity
  8
METAL1
100
AcDbTrace
 10
3.856173838904009
 20
2.257886270824464
 30
0.0
 11
5.056173838904012
 21
2.257886270824464
 31
0.0
 12
3.856173838904009
 22
1.057886270824468
 32
0.0
 13
5.056173838904012
 23
1.057886270824468
 33
0.0
  0
LWPOLYLINE
  5
658
330
654
100
AcDbEntity
  8
METAL1
100
AcDbPolyline
 90
        2
 70
     0
 43
0.2
 10
4.456173838904014
 20
1.257886270824478
 42
1.0
 10
4.456173838904014
 20
2.057886270824489
  0
LWPOLYLINE
  5
659
330
654
100
AcDbEntity
  8
METAL1
100
AcDbPolyline
 90
        2
 70
     0
 43
0.2
 10
4.456173838904014
 20
2.057886270824489
 42
1.0
 10
4.456173838904014
 20
1.257886270824478
  0
SOLID
  5
65A
330
654
100
AcDbEntity
  8
METAL1
100
AcDbTrace
 10
0.0000000252846029
 20
0.0000000029039384
 30
0.0
 11
0.0000000252846029
 21
1.117600002903934
 31
0.0
 12
1.676400025284603
 22
0.0000000029039526
 32
0.0
 13
1.676400025284603
 23
1.117600002903934
 33
0.0
  0
SOLID
  5
65B
330
654
100
AcDbEntity
  8
CONSTR
100
AcDbTrace
 10
0.8811738389040151
 20
2.457886270824467
 30
0.0
 11
0.8811738389040151
 21
0.8578862708244727
 31
0.0
 12
0.8311738389040179
 22
2.457886270824467
 32
0.0
 13
0.8311738389040179
 23
0.8578862708244727
 33
0.0
  0
SOLID
  5
65C
330
654
100
AcDbEntity
  8
CONSTR
100
AcDbTrace
 10
0.8561738389040236
 20
2.482886270824472
 30
0.0
 11
4.056173838904012
 21
2.482886270824472
 31
0.0
 12
0.8561738389040236
 22
2.432886270824475
 32
0.0
 13
4.056173838904012
 23
2.432886270824475
 33
0.0
  0
SOLID
  5
65D
330
654
100
AcDbEntity
  8
CONSTR
100
AcDbTrace
 10
0.8561738389040236
 20
0.8828862708244642
 30
0.0
 11
4.056173838904012
 21
0.8828862708244571
 31
0.0
 12
0.8561738389040236
 22
0.832886270824467
 32
0.0
 13
4.056173838904012
 23
0.8328862708244599
 33
0.0
  0
SOLID
  5
65E
330
654
100
AcDbEntity
  8
CONSTR
100
AcDbTrace
 10
4.081173838904017
 20
2.457886270824467
 30
0.0
 11
4.081173838904017
 21
0.8578862708244656
 31
0.0
 12
4.031173838904006
 22
2.457886270824467
 32
0.0
 13
4.031173838904006
 23
0.8578862708244656
 33
0.0
  0
LWPOLYLINE
  5
65F
330
654
100
AcDbEntity
  8
GND
100
AcDbPolyline
 90
        2
 70
     0
 43
0.2
 10
4.456173838904014
 20
1.257886270824478
 42
1.0
 10
4.456173838904014
 20
2.057886270824489
  0
LWPOLYLINE
  5
660
330
654
100
AcDbEntity
  8
GND
100
AcDbPolyline
 90
        2
 70
     0
 43
0.2
 10
4.456173838904014
 20
2.057886270824489
 42
1.0
 10
4.456173838904014
 20
1.257886270824478
  0
ENDBLK
  5
662
330
654
100
AcDbEntity
  8
0
370
    60
100
AcDbBlockEnd
  0
BLOCK
  5
6F3
330
6F1
100
AcDbEntity
  8
0
100
AcDbBlockBegin
  2
A$C73050C66
 70
     0
 10
0.0
 20
0.0
 30
0.0
  3
A$C73050C66
  1

  0
SOLID
  5
6F2
330
6F1
100
AcDbEntity
  8
CONSTR
100
AcDbTrace
 10
0.0499999692041335
 20
1.60000003612523
 30
0.0
 11
0.0499999692041335
 21
0.0000000361252361
 31
0.0
 12
-0.0000000307958636
 22
1.60000003612523
 32
0.0
 13
-0.0000000307958636
 23
0.0000000361252361
 33
0.0
  0
ENDBLK
  5
6F4
330
6F1
100
AcDbEntity
  8
0
100
AcDbBlockEnd
  0
BLOCK
  5
710
330
708
100
AcDbEntity
  8
0
100
AcDbBlockBegin
  2
A$C4CD55B8B
 70
     0
 10
0.0
 20
0.0
 30
0.0
  3
A$C4CD55B8B
  1

  0
SOLID
  5
709
330
708
100
AcDbEntity
  8
METAL1
100
AcDbTrace
 10
-0.0000000492727885
 20
0.0000000003650911
 30
0.0
 11
-0.0000000492727885
 21
1.117600000365101
 31
0.0
 12
1.676399950727212
 22
0.0000000003650911
 32
0.0
 13
1.676399950727212
 23
1.117600000365101
 33
0.0
  0
SOLID
  5
70A
330
708
100
AcDbEntity
  8
METAL1
100
AcDbTrace
 10
-0.0000000492727885
 20
2.950000000365093
 30
0.0
 11
-0.0000000492727885
 21
4.067600000365089
 31
0.0
 12
1.676399950727212
 22
2.950000000365108
 32
0.0
 13
1.676399950727212
 23
4.067600000365089
 33
0.0
  0
SOLID
  5
70B
330
708
100
AcDbEntity
  8
CONSTR
100
AcDbTrace
 10
0.0381999507272148
 20
0.4750000003650996
 30
0.0
 11
1.638199950727209
 21
0.4750000003650996
 31
0.0
 12
0.0381999507272148
 22
0.4250000003651025
 32
0.0
 13
1.638199950727209
 23
0.4250000003651025
 33
0.0
  0
SOLID
  5
70C
330
708
100
AcDbEntity
  8
CONSTR
100
AcDbTrace
 10
0.0131999507272092
 20
0.4500000003651082
 30
0.0
 11
0.0131999507272092
 21
3.650000000365096
 31
0.0
 12
0.0631999507272063
 22
0.4500000003651082
 32
0.0
 13
0.0631999507272063
 23
3.650000000365096
 33
0.0
  0
SOLID
  5
70D
330
708
100
AcDbEntity
  8
CONSTR
100
AcDbTrace
 10
1.613199950727203
 20
0.4500000003651082
 30
0.0
 11
1.613199950727203
 21
3.650000000365096
 31
0.0
 12
1.663199950727214
 22
0.4500000003651082
 32
0.0
 13
1.663199950727214
 23
3.650000000365096
 33
0.0
  0
SOLID
  5
70E
330
708
100
AcDbEntity
  8
CONSTR
100
AcDbTrace
 10
0.0381999507272148
 20
3.675000000365102
 30
0.0
 11
1.638199950727209
 21
3.675000000365102
 31
0.0
 12
0.0381999507272148
 22
3.625000000365091
 32
0.0
 13
1.638199950727209
 23
3.625000000365091
 33
0.0
  0
MTEXT
  5
70F
330
708
100
AcDbEntity
  8
CONSTR
100
AcDbMText
 10
0.4168097553478845
 20
2.403402745862365
 30
0.0
 40
0.5
 41
1.2296
 71
     1
 72
     5
  1
18
 73
     1
 44
1.0
  0
ENDBLK
  5
711
330
708
100
AcDbEntity
  8
0
100
AcDbBlockEnd
  0
BLOCK
  5
7BA
330
7AF
100
AcDbEntity
  8
0
100
AcDbBlockBegin
  2
*D5
 70
     1
 10
0.0
 20
0.0
 30
0.0
  3
*D5
  1

  0
LINE
  5
7B0
330
7AF
100
AcDbEntity
  8
0
 62
     0
370
    -2
100
AcDbLine
 10
-16.48035620634964
 20
64.89657531547895
 30
0.0
 11
-16.48035620634964
 21
67.28433632968846
 31
0.0
  0
LINE
  5
7B1
330
7AF
100
AcDbEntity
  8
0
 62
     0
370
    -2
100
AcDbLine
 10
18.01964379365036
 20
64.89657531547895
 30
0.0
 11
18.01964379365036
 21
67.28433632968846
 31
0.0
  0
LINE
  5
7B2
330
7AF
100
AcDbEntity
  8
0
 62
     0
370
    -2
100
AcDbLine
 10
-14.68035620634964
 20
67.10433632968845
 30
0.0
 11
-0.07035620634964
 21
67.10433632968845
 31
0.0
  0
LINE
  5
7B3
330
7AF
100
AcDbEntity
  8
0
 62
     0
370
    -2
100
AcDbLine
 10
16.21964379365036
 20
67.10433632968845
 30
0.0
 11
1.609643793650359
 21
67.10433632968845
 31
0.0
  0
SOLID
  5
7B4
330
7AF
100
AcDbEntity
  8
0
 62
     0
100
AcDbTrace
 10
-14.68035620634964
 20
67.40433632968844
 30
0.0
 11
-14.68035620634964
 21
66.80433632968846
 31
0.0
 12
-16.48035620634964
 22
67.10433632968845
 32
0.0
 13
-16.48035620634964
 23
67.10433632968845
 33
0.0
  0
SOLID
  5
7B5
330
7AF
100
AcDbEntity
  8
0
 62
     0
100
AcDbTrace
 10
16.21964379365036
 20
67.40433632968844
 30
0.0
 11
16.21964379365036
 21
66.80433632968846
 31
0.0
 12
18.01964379365036
 22
67.10433632968845
 32
0.0
 13
18.01964379365036
 23
67.10433632968845
 33
0.0
  0
MTEXT
  5
7B6
330
7AF
100
AcDbEntity
  8
0
 62
     0
100
AcDbMText
 10
0.76964379365036
 20
67.10433632968845
 30
0.0
 40
0.5
 41
0.0
 71
     5
 72
     1
  1
\A1;34.5
 73
     1
 44
1.0
  0
POINT
  5
7B7
330
7AF
100
AcDbEntity
  8
Defpoints
 62
     0
100
AcDbPoint
 10
-16.48035620634964
 20
64.83407531547896
 30
0.0
  0
POINT
  5
7B8
330
7AF
100
AcDbEntity
  8
Defpoints
 62
     0
100
AcDbPoint
 10
18.01964379365036
 20
64.83407531547896
 30
0.0
  0
POINT
  5
7B9
330
7AF
100
AcDbEntity
  8
Defpoints
 62
     0
100
AcDbPoint
 10
18.01964379365036
 20
67.10433632968845
 30
0.0
  0
ENDBLK
  5
7BB
330
7AF
100
AcDbEntity
  8
0
100
AcDbBlockEnd
  0
BLOCK
  5
7C8
330
7BD
100
AcDbEntity
  8
0
100
AcDbBlockBegin
  2
*D6
 70
     1
 10
0.0
 20
0.0
 30
0.0
  3
*D6
  1

  0
LINE
  5
7CA
330
7BD
100
AcDbEntity
  8
0
 62
     0
370
    -2
100
AcDbLine
 10
-16.54285620634964
 20
44.83407531547896
 30
0.0
 11
-18.70022248444682
 21
44.83407531547896
 31
0.0
  0
LINE
  5
7CB
330
7BD
100
AcDbEntity
  8
0
 62
     0
370
    -2
100
AcDbLine
 10
-16.54285620634964
 20
64.83407531547896
 30
0.0
 11
-18.70022248444681
 21
64.83407531547896
 31
0.0
  0
LINE
  5
7CC
330
7BD
100
AcDbEntity
  8
0
 62
     0
370
    -2
100
AcDbLine
 10
-18.52022248444681
 20
46.63407531547895
 30
0.0
 11
-18.52022248444681
 21
54.49407531547896
 31
0.0
  0
LINE
  5
7CD
330
7BD
100
AcDbEntity
  8
0
 62
     0
370
    -2
100
AcDbLine
 10
-18.52022248444681
 20
63.03407531547897
 30
0.0
 11
-18.52022248444681
 21
55.17407531547896
 31
0.0
  0
SOLID
  5
7CE
330
7BD
100
AcDbEntity
  8
0
 62
     0
100
AcDbTrace
 10
-18.82022248444681
 20
46.63407531547895
 30
0.0
 11
-18.22022248444682
 21
46.63407531547895
 31
0.0
 12
-18.52022248444681
 22
44.83407531547896
 32
0.0
 13
-18.52022248444681
 23
44.83407531547896
 33
0.0
  0
SOLID
  5
7CF
330
7BD
100
AcDbEntity
  8
0
 62
     0
100
AcDbTrace
 10
-18.82022248444681
 20
63.03407531547897
 30
0.0
 11
-18.22022248444681
 21
63.03407531547897
 31
0.0
 12
-18.52022248444681
 22
64.83407531547896
 32
0.0
 13
-18.52022248444681
 23
64.83407531547896
 33
0.0
  0
MTEXT
  5
7D0
330
7BD
100
AcDbEntity
  8
0
 62
     0
100
AcDbMText
 10
-18.52022248444682
 20
54.83407531547896
 30
0.0
 40
0.5
 41
0.0
 71
     5
 72
     1
  1
\A1;20
 73
     1
 44
1.0
  0
POINT
  5
7D1
330
7BD
100
AcDbEntity
  8
Defpoints
 62
     0
100
AcDbPoint
 10
-16.48035620634964
 20
44.83407531547896
 30
0.0
  0
POINT
  5
7D2
330
7BD
100
AcDbEntity
  8
Defpoints
 62
     0
100
AcDbPoint
 10
-16.48035620634964
 20
64.83407531547896
 30
0.0
  0
POINT
  5
7D3
330
7BD
100
AcDbEntity
  8
Defpoints
 62
     0
100
AcDbPoint
 10
-18.52022248444681
 20
64.83407531547896
 30
0.0
  0
ENDBLK
  5
7C9
330
7BD
100
AcDbEntity
  8
0
100
AcDbBlockEnd
  0
BLOCK
  5
80E
330
809
100
AcDbEntity
  8
0
100
AcDbBlockBegin
  2
A$C47793DAE
 70
     0
 10
0.0
 20
0.0
 30
0.0
  3
A$C47793DAE
  1

  0
LWPOLYLINE
  5
80A
330
809
100
AcDbEntity
  8
CONSTR
100
AcDbPolyline
 90
        2
 70
     0
 43
0.0
 10
0.0010804043268955
 20
2.820695553161939
 10
0.3798008777064297
 20
0.1883043456346769
  0
LWPOLYLINE
  5
80B
330
809
100
AcDbEntity
  8
CONSTR
100
AcDbPolyline
 90
        2
 70
     0
 43
0.0
 10
0.3863872775441237
 20
2.817400967903211
 10
0.7618144918926113
 20
0.181715175117219
  0
ARC
  5
80C
330
809
100
AcDbEntity
  8
CONSTR
100
AcDbCircle
 10
0.1934332212580898
 20
2.818763065020682
 30
0.0
 40
0.1937935869710154
100
AcDbArc
 50
356.5051155470028
 51
183.4948844529971
  0
ARC
  5
80D
330
809
100
AcDbEntity
  8
CONSTR
100
AcDbCircle
 10
0.5697535298219716
 20
0.193793558730384
 30
0.0
 40
0.1937935869710154
100
AcDbArc
 50
180.6813662363378
 51
359.3186337636621
  0
ENDBLK
  5
80F
330
809
100
AcDbEntity
  8
0
100
AcDbBlockEnd
  0
ENDSEC
  0
SECTION
  2
ENTITIES
  0
SOLID
  5
91
330
1E
100
AcDbEntity
  8
METAL1
100
AcDbTrace
 10
-1.41915173999553
 20
61.90342015135993
 30
0.0
 11
-1.54415173999553
 21
61.90342015135993
 31
0.0
 12
-1.41915173999553
 22
63.60342015135993
 32
0.0
 13
-1.54415173999553
 23
63.60342015135993
 33
0.0
  0
SOLID
  5
92
330
1E
100
AcDbEntity
  8
METAL1
100
AcDbTrace
 10
-1.41915173999553
 20
63.60342015135993
 30
0.0
 11
-1.29415173999553
 21
63.60342015135993
 31
0.0
 12
-1.41915173999553
 22
61.90342015135993
 32
0.0
 13
-1.29415173999553
 23
61.90342015135993
 33
0.0
  0
SOLID
  5
93
330
1E
100
AcDbEntity
  8
METAL1
100
AcDbTrace
 10
-1.29415173999553
 20
62.76187595690169
 30
0.0
 11
-1.29415173999553
 21
63.6118759569017
 31
0.0
 12
-1.54415173999553
 22
62.76187595690169
 32
0.0
 13
-1.54415173999553
 23
63.6118759569017
 33
0.0
  0
SOLID
  5
94
330
1E
100
AcDbEntity
  8
METAL1
100
AcDbTrace
 10
-4.994151739995533
 20
63.59162015135993
 30
0.0
 11
-3.876551739995537
 21
63.59162015135993
 31
0.0
 12
-4.994151739995533
 22
61.91522015135993
 32
0.0
 13
-3.876551739995537
 23
61.91522015135993
 33
0.0
  0
SOLID
  5
95
330
1E
100
AcDbEntity
  8
METAL1
100
AcDbTrace
 10
-2.04415173999553
 20
63.59162015135993
 30
0.0
 11
-0.9265517399955349
 21
63.59162015135993
 31
0.0
 12
-2.04415173999553
 22
61.91522015135993
 32
0.0
 13
-0.9265517399955349
 23
61.91522015135993
 33
0.0
  0
SOLID
  5
96
330
1E
100
AcDbEntity
  8
CONSTR
100
AcDbTrace
 10
-4.543144737639739
 20
63.53579243851145
 30
0.0
 11
-4.543144737639739
 21
61.93579243851146
 31
0.0
 12
-4.593144737639736
 22
63.53579243851145
 32
0.0
 13
-4.593144737639736
 23
61.93579243851146
 33
0.0
  0
SOLID
  5
97
330
1E
100
AcDbEntity
  8
CONSTR
100
AcDbTrace
 10
-4.54415173999553
 20
63.57842015135993
 30
0.0
 11
-1.344151739995542
 21
63.57842015135993
 31
0.0
 12
-4.54415173999553
 22
63.52842015135992
 32
0.0
 13
-1.344151739995542
 23
63.52842015135992
 33
0.0
  0
SOLID
  5
98
330
1E
100
AcDbEntity
  8
CONSTR
100
AcDbTrace
 10
-4.54415173999553
 20
61.97842015135993
 30
0.0
 11
-1.344151739995542
 21
61.97842015135993
 31
0.0
 12
-4.54415173999553
 22
61.92842015135993
 32
0.0
 13
-1.344151739995542
 23
61.92842015135993
 33
0.0
  0
SOLID
  5
99
330
1E
100
AcDbEntity
  8
CONSTR
100
AcDbTrace
 10
-1.319151739995536
 20
63.55342015135993
 30
0.0
 11
-1.319151739995536
 21
61.95342015135993
 31
0.0
 12
-1.369151739995547
 22
63.55342015135993
 32
0.0
 13
-1.369151739995547
 23
61.95342015135993
 33
0.0
  0
SOLID
  5
A9
330
1E
100
AcDbEntity
  8
CONSTR
100
AcDbTrace
 10
-4.633921992880932
 20
60.88247840279288
 30
0.0
 11
-4.98392199288094
 21
60.88247840279288
 31
0.0
 12
-4.633921992880932
 22
60.93247840279288
 32
0.0
 13
-4.98392199288094
 23
60.93247840279288
 33
0.0
  0
SOLID
  5
AA
330
1E
100
AcDbEntity
  8
CONSTR
100
AcDbTrace
 10
-4.98392199288094
 20
60.87247840279288
 30
0.0
 11
-6.633921992880946
 21
60.87247840279288
 31
0.0
 12
-4.98392199288094
 22
60.92247840279288
 32
0.0
 13
-6.633921992880946
 23
60.92247840279288
 33
0.0
  0
SOLID
  5
AB
330
1E
100
AcDbEntity
  8
CONSTR
100
AcDbTrace
 10
-6.658921992880937
 20
60.89747840279288
 30
0.0
 11
-6.658921992880937
 21
62.14747840279288
 31
0.0
 12
-6.60892199288094
 22
60.89747840279288
 32
0.0
 13
-6.60892199288094
 23
62.14747840279288
 33
0.0
  0
SOLID
  5
AC
330
1E
100
AcDbEntity
  8
CONSTR
100
AcDbTrace
 10
-4.60892199288094
 20
62.14747840279288
 30
0.0
 11
-4.60892199288094
 21
60.89747840279288
 31
0.0
 12
-4.658921992880937
 22
62.14747840279288
 32
0.0
 13
-4.658921992880937
 23
60.89747840279288
 33
0.0
  0
SOLID
  5
AD
330
1E
100
AcDbEntity
  8
CONSTR
100
AcDbTrace
 10
-6.633921992880946
 20
62.17247840279288
 30
0.0
 11
-4.633921992880932
 21
62.17247840279288
 31
0.0
 12
-6.633921992880946
 22
62.12247840279288
 32
0.0
 13
-4.633921992880932
 23
62.12247840279288
 33
0.0
  0
SOLID
  5
AE
330
1E
100
AcDbEntity
  8
CONSTR
100
AcDbTrace
 10
-4.833921992880934
 20
60.89747840279288
 30
0.0
 11
-4.833921992880934
 21
60.46747840279287
 31
0.0
 12
-5.133921992880932
 22
60.89747840279288
 32
0.0
 13
-5.133921992880932
 23
60.46747840279287
 33
0.0
  0
SOLID
  5
AF
330
1E
100
AcDbEntity
  8
CONSTR
100
AcDbTrace
 10
-6.133921992880946
 20
60.89747840279288
 30
0.0
 11
-6.133921992880946
 21
60.46747840279287
 31
0.0
 12
-6.433921992880943
 22
60.89747840279288
 32
0.0
 13
-6.433921992880943
 23
60.46747840279287
 33
0.0
  0
SOLID
  5
B0
330
1E
100
AcDbEntity
  8
CONSTR
100
AcDbTrace
 10
-5.133921992880932
 20
62.14747840279288
 30
0.0
 11
-5.133921992880932
 21
62.57747840279288
 31
0.0
 12
-4.833921992880934
 22
62.14747840279288
 32
0.0
 13
-4.833921992880934
 23
62.57747840279288
 33
0.0
  0
SOLID
  5
B1
330
1E
100
AcDbEntity
  8
CONSTR
100
AcDbTrace
 10
-6.433921992880943
 20
62.14747840279288
 30
0.0
 11
-6.433921992880943
 21
62.57747840279288
 31
0.0
 12
-5.833921992880934
 22
62.14747840279288
 32
0.0
 13
-5.833921992880934
 23
62.57747840279288
 33
0.0
  0
SOLID
  5
B2
330
1E
100
AcDbEntity
  8
METAL1
100
AcDbTrace
 10
-6.583921992880934
 20
61.91747840279288
 30
0.0
 11
-6.583921992880934
 21
62.71747840279289
 31
0.0
 12
-5.683921992880943
 22
61.91747840279288
 32
0.0
 13
-5.683921992880943
 23
62.71747840279289
 33
0.0
  0
SOLID
  5
B3
330
1E
100
AcDbEntity
  8
METAL1
100
AcDbTrace
 10
-5.283921992880937
 20
61.91747840279288
 30
0.0
 11
-5.283921992880937
 21
62.71747840279289
 31
0.0
 12
-4.683921992880943
 22
61.91747840279288
 32
0.0
 13
-4.683921992880943
 23
62.71747840279289
 33
0.0
  0
SOLID
  5
B4
330
1E
100
AcDbEntity
  8
METAL1
100
AcDbTrace
 10
-4.683921992880943
 20
61.11747840279289
 30
0.0
 11
-4.683921992880943
 21
60.31747840279289
 31
0.0
 12
-5.283921992880937
 22
61.11747840279289
 32
0.0
 13
-5.283921992880937
 23
60.31747840279289
 33
0.0
  0
SOLID
  5
B5
330
1E
100
AcDbEntity
  8
METAL1
100
AcDbTrace
 10
-5.98392199288094
 20
61.11747840279289
 30
0.0
 11
-5.98392199288094
 21
60.31747840279289
 31
0.0
 12
-6.583921992880934
 22
61.11747840279289
 32
0.0
 13
-6.583921992880934
 23
60.31747840279289
 33
0.0
  0
SOLID
  5
DE
330
1E
100
AcDbEntity
  8
METAL1
100
AcDbTrace
 10
-4.85892199288094
 20
60.89747840279288
 30
0.0
 11
-4.85892199288094
 21
60.64747840279288
 31
0.0
 12
-4.85892199288094
 22
60.89747840279288
 32
0.0
 13
-5.10892199288094
 23
60.89747840279288
 33
0.0
  0
SOLID
  5
DF
330
1E
100
AcDbEntity
  8
METAL1
100
AcDbTrace
 10
-4.85892199288094
 20
60.89747840279288
 30
0.0
 11
-4.85892199288094
 21
60.64747840279288
 31
0.0
 12
-4.85892199288094
 22
60.89747840279288
 32
0.0
 13
-5.10892199288094
 23
60.89747840279288
 33
0.0
  0
SOLID
  5
157
330
1E
100
AcDbEntity
  8
METAL1
100
AcDbTrace
 10
-1.944151739995536
 20
63.59162015135993
 30
0.0
 11
-0.8265517399955406
 21
63.59162015135993
 31
0.0
 12
-1.944151739995536
 22
61.91522015135993
 32
0.0
 13
-0.8265517399955406
 23
61.91522015135993
 33
0.0
  0
SOLID
  5
158
330
1E
100
AcDbEntity
  8
METAL1
100
AcDbTrace
 10
1.005848260004452
 20
63.59162015135993
 30
0.0
 11
2.123448260004462
 21
63.59162015135993
 31
0.0
 12
1.005848260004452
 22
61.91522015135992
 32
0.0
 13
2.123448260004462
 23
61.91522015135992
 33
0.0
  0
SOLID
  5
159
330
1E
100
AcDbEntity
  8
CONSTR
100
AcDbTrace
 10
-1.469151739995542
 20
63.55342015135993
 30
0.0
 11
-1.469151739995542
 21
61.95342015135993
 31
0.0
 12
-1.519151739995539
 22
63.55342015135993
 32
0.0
 13
-1.519151739995539
 23
61.95342015135993
 33
0.0
  0
SOLID
  5
15A
330
1E
100
AcDbEntity
  8
CONSTR
100
AcDbTrace
 10
-1.494151739995547
 20
63.57842015135993
 30
0.0
 11
1.705848260004469
 21
63.57842015135993
 31
0.0
 12
-1.494151739995547
 22
63.52842015135992
 32
0.0
 13
1.705848260004469
 23
63.52842015135992
 33
0.0
  0
SOLID
  5
15B
330
1E
100
AcDbEntity
  8
CONSTR
100
AcDbTrace
 10
-1.494151739995547
 20
61.97842015135993
 30
0.0
 11
1.705848260004469
 21
61.97842015135992
 31
0.0
 12
-1.494151739995547
 22
61.92842015135993
 32
0.0
 13
1.705848260004469
 23
61.92842015135992
 33
0.0
  0
SOLID
  5
15C
330
1E
100
AcDbEntity
  8
CONSTR
100
AcDbTrace
 10
1.73084826000446
 20
63.55342015135993
 30
0.0
 11
1.73084826000446
 21
61.95342015135993
 31
0.0
 12
1.680848260004463
 22
63.55342015135993
 32
0.0
 13
1.680848260004463
 23
61.95342015135993
 33
0.0
  0
SOLID
  5
15F
330
1E
100
AcDbEntity
  8
METAL1
100
AcDbTrace
 10
3.523764342716955
 20
56.79443206707309
 30
0.0
 11
4.641364342716965
 21
56.79443206707309
 31
0.0
 12
3.523764342716955
 22
55.11803206707309
 32
0.0
 13
4.641364342716965
 23
55.11803206707309
 33
0.0
  0
SOLID
  5
160
330
1E
100
AcDbEntity
  8
METAL1
100
AcDbTrace
 10
6.320831836699891
 20
56.79443206707309
 30
0.0
 11
7.438431836699887
 21
56.79443206707309
 31
0.0
 12
6.320831836699891
 22
55.11803206707309
 32
0.0
 13
7.438431836699887
 23
55.11803206707308
 33
0.0
  0
SOLID
  5
161
330
1E
100
AcDbEntity
  8
CONSTR
100
AcDbTrace
 10
3.845831836699897
 20
56.75623206707308
 30
0.0
 11
3.845831836699897
 21
55.15623206707309
 31
0.0
 12
3.7958318366999
 22
56.75623206707308
 32
0.0
 13
3.7958318366999
 23
55.15623206707309
 33
0.0
  0
SOLID
  5
162
330
1E
100
AcDbEntity
  8
CONSTR
100
AcDbTrace
 10
3.820831836699905
 20
56.78123206707309
 30
0.0
 11
7.020831836699894
 21
56.78123206707309
 31
0.0
 12
3.820831836699905
 22
56.73123206707309
 32
0.0
 13
7.020831836699894
 23
56.73123206707309
 33
0.0
  0
SOLID
  5
163
330
1E
100
AcDbEntity
  8
CONSTR
100
AcDbTrace
 10
3.820831836699905
 20
55.18123206707308
 30
0.0
 11
7.020831836699894
 21
55.18123206707308
 31
0.0
 12
3.820831836699905
 22
55.13123206707309
 32
0.0
 13
7.020831836699894
 23
55.13123206707308
 33
0.0
  0
SOLID
  5
164
330
1E
100
AcDbEntity
  8
CONSTR
100
AcDbTrace
 10
7.0458318366999
 20
56.75623206707308
 30
0.0
 11
7.0458318366999
 21
55.15623206707308
 31
0.0
 12
6.995831836699888
 22
56.75623206707308
 32
0.0
 13
6.995831836699888
 23
55.15623206707308
 33
0.0
  0
SOLID
  5
165
330
1E
100
AcDbEntity
  8
METAL1
100
AcDbTrace
 10
6.820831836699891
 20
56.55623206707308
 30
0.0
 11
8.020831836699894
 21
56.55623206707308
 31
0.0
 12
6.820831836699891
 22
55.35623206707309
 32
0.0
 13
8.020831836699894
 23
55.35623206707309
 33
0.0
  0
LWPOLYLINE
  5
166
330
1E
100
AcDbEntity
  8
METAL1
100
AcDbPolyline
 90
        2
 70
     0
 43
0.2
 10
7.420831836699896
 20
55.55623206707309
 42
1.0
 10
7.420831836699896
 20
56.35623206707311
  0
LWPOLYLINE
  5
16A
330
1E
100
AcDbEntity
  8
GND
100
AcDbPolyline
 90
        2
 70
     0
 43
0.2
 10
7.420831836699896
 20
55.55623206707309
 42
1.0
 10
7.420831836699896
 20
56.35623206707311
  0
LWPOLYLINE
  5
16E
330
1E
100
AcDbEntity
  8
METAL1
100
AcDbPolyline
 90
        2
 70
     0
 43
0.2
 10
7.420831836699896
 20
56.35623206707311
 42
1.0
 10
7.420831836699896
 20
55.55623206707309
  0
LWPOLYLINE
  5
172
330
1E
100
AcDbEntity
  8
GND
100
AcDbPolyline
 90
        2
 70
     0
 43
0.2
 10
7.420831836699896
 20
56.35623206707311
 42
1.0
 10
7.420831836699896
 20
55.55623206707309
  0
SOLID
  5
182
330
1E
100
AcDbEntity
  8
METAL1
100
AcDbTrace
 10
17.08667724157276
 20
48.92672189653668
 30
0.0
 11
17.08667724157276
 21
45.92672189653668
 31
0.0
 12
14.08667724157276
 22
48.92672189653667
 32
0.0
 13
14.08667724157276
 23
45.92672189653667
 33
0.0
  0
SOLID
  5
183
330
1E
100
AcDbEntity
  8
METAL1
100
AcDbTrace
 10
9.496155227978899
 20
45.93280365853404
 30
0.0
 11
9.496155227978899
 21
48.93280365853404
 31
0.0
 12
12.4961552279789
 22
45.93280365853404
 32
0.0
 13
12.4961552279789
 23
48.93280365853404
 33
0.0
  0
LWPOLYLINE
  5
188
330
1E
100
AcDbEntity
  8
GND
100
AcDbPolyline
 90
        2
 70
     0
 43
0.2
 10
11.04032043385821
 20
46.90711421030359
 42
1.0
 10
11.04032043385821
 20
48.10711421030359
  0
LWPOLYLINE
  5
190
330
1E
100
AcDbEntity
  8
GND
100
AcDbPolyline
 90
        2
 70
     0
 43
0.2
 10
11.04032043385821
 20
48.10711421030359
 42
1.0
 10
11.04032043385821
 20
46.90711421030359
  0
LWPOLYLINE
  5
259
330
1E
100
AcDbEntity
  8
GND
100
AcDbPolyline
 90
        2
 70
     0
 43
0.2
 10
-4.301239726024874
 20
60.17387866713477
 42
1.0
 10
-5.101239726024871
 20
60.17387866713477
  0
LWPOLYLINE
  5
25B
330
1E
100
AcDbEntity
  8
GND
100
AcDbPolyline
 90
        2
 70
     0
 43
0.2
 10
-5.101239726024871
 20
60.17387866713477
 42
1.0
 10
-4.301239726024874
 20
60.17387866713477
  0
LWPOLYLINE
  5
268
330
1E
100
AcDbEntity
  8
METAL1
100
AcDbPolyline
 90
        2
 70
     0
 43
0.2
 10
-5.880837813072098
 20
63.05263244563581
 42
1.0
 10
-6.680837813072102
 20
63.05263244563581
  0
LWPOLYLINE
  5
26A
330
1E
100
AcDbEntity
  8
METAL1
100
AcDbPolyline
 90
        2
 70
     0
 43
0.2
 10
-6.680837813072102
 20
63.05263244563581
 42
1.0
 10
-5.880837813072098
 20
63.05263244563581
  0
LWPOLYLINE
  5
26C
330
1E
100
AcDbEntity
  8
METAL1
100
AcDbPolyline
 90
        2
 70
     0
 43
0.2
 10
-5.880837813072098
 20
63.05263244563581
 42
1.0
 10
-6.680837813072102
 20
63.05263244563581
  0
LWPOLYLINE
  5
26E
330
1E
100
AcDbEntity
  8
METAL1
100
AcDbPolyline
 90
        2
 70
     0
 43
0.2
 10
-6.680837813072102
 20
63.05263244563581
 42
1.0
 10
-5.880837813072098
 20
63.05263244563581
  0
SOLID
  5
296
330
1E
100
AcDbEntity
  8
METAL1
100
AcDbTrace
 10
4.734581368174043
 20
45.97023048425121
 30
0.0
 11
4.734581368174044
 21
48.97023048425122
 31
0.0
 12
7.734581368174043
 22
45.97023048425121
 32
0.0
 13
7.734581368174044
 23
48.97023048425122
 33
0.0
  0
SOLID
  5
2FE
330
1E
100
AcDbEntity
  8
METAL1
100
AcDbTrace
 10
-5.226720632167324
 20
51.35449567237321
 30
0.0
 11
-6.076720632167326
 21
51.35449567237321
 31
0.0
 12
-5.226720632167324
 22
53.05449567237321
 32
0.0
 13
-6.076720632167326
 23
53.05449567237321
 33
0.0
  0
SOLID
  5
31E
330
1E
100
AcDbEntity
  8
METAL1
100
AcDbTrace
 10
-9.022302594786768
 20
53.02226491483895
 30
0.0
 11
-7.904702594786773
 21
53.02226491483895
 31
0.0
 12
-9.022302594786768
 22
51.34586491483895
 32
0.0
 13
-7.904702594786773
 23
51.34586491483895
 33
0.0
  0
SOLID
  5
31F
330
1E
100
AcDbEntity
  8
METAL1
100
AcDbTrace
 10
-6.072302594786766
 20
53.02226491483895
 30
0.0
 11
-4.954702594786763
 21
53.02226491483895
 31
0.0
 12
-6.072302594786766
 22
51.34586491483895
 32
0.0
 13
-4.954702594786763
 23
51.34586491483895
 33
0.0
  0
SOLID
  5
320
330
1E
100
AcDbEntity
  8
CONSTR
100
AcDbTrace
 10
-8.60975345179786
 20
52.97886262117984
 30
0.0
 11
-8.60975345179786
 21
51.37886262117983
 31
0.0
 12
-8.659753451797858
 22
52.97886262117984
 32
0.0
 13
-8.659753451797858
 23
51.37886262117983
 33
0.0
  0
SOLID
  5
321
330
1E
100
AcDbEntity
  8
CONSTR
100
AcDbTrace
 10
-8.634753451797852
 20
53.00386262117982
 30
0.0
 11
-5.434753451797849
 21
53.00386262117982
 31
0.0
 12
-8.634753451797852
 22
52.95386262117983
 32
0.0
 13
-5.434753451797849
 23
52.95386262117983
 33
0.0
  0
SOLID
  5
322
330
1E
100
AcDbEntity
  8
CONSTR
100
AcDbTrace
 10
-8.634753451797852
 20
51.40386262117983
 30
0.0
 11
-5.434753451797849
 21
51.40386262117983
 31
0.0
 12
-8.634753451797852
 22
51.35386262117983
 32
0.0
 13
-5.434753451797849
 23
51.35386262117983
 33
0.0
  0
SOLID
  5
323
330
1E
100
AcDbEntity
  8
CONSTR
100
AcDbTrace
 10
-5.409753451797858
 20
52.97886262117984
 30
0.0
 11
-5.409753451797858
 21
51.37886262117983
 31
0.0
 12
-5.459753451797855
 22
52.97886262117984
 32
0.0
 13
-5.459753451797855
 23
51.37886262117983
 33
0.0
  0
SOLID
  5
324
330
1E
100
AcDbEntity
  8
METAL1
100
AcDbTrace
 10
-14.48090053394917
 20
51.58415857365669
 30
0.0
 11
-14.48090053394917
 21
52.78415857365669
 31
0.0
 12
-13.28090053394917
 22
51.58415857365669
 32
0.0
 13
-13.28090053394917
 23
52.78415857365669
 33
0.0
  0
LWPOLYLINE
  5
325
330
1E
100
AcDbEntity
  8
METAL1
100
AcDbPolyline
 90
        2
 70
     0
 43
0.2
 10
-13.88090053394917
 20
52.58415857365669
 42
1.0
 10
-13.88090053394917
 20
51.7841585736567
  0
LWPOLYLINE
  5
326
330
1E
100
AcDbEntity
  8
GND
100
AcDbPolyline
 90
        2
 70
     0
 43
0.2
 10
-13.88090053394917
 20
52.58415857365669
 42
1.0
 10
-13.88090053394917
 20
51.7841585736567
  0
LWPOLYLINE
  5
327
330
1E
100
AcDbEntity
  8
METAL1
100
AcDbPolyline
 90
        2
 70
     0
 43
0.2
 10
-13.88090053394917
 20
51.7841585736567
 42
1.0
 10
-13.88090053394917
 20
52.58415857365669
  0
LWPOLYLINE
  5
328
330
1E
100
AcDbEntity
  8
GND
100
AcDbPolyline
 90
        2
 70
     0
 43
0.2
 10
-13.88090053394917
 20
51.7841585736567
 42
1.0
 10
-13.88090053394917
 20
52.58415857365669
  0
SOLID
  5
376
330
1E
100
AcDbEntity
  8
METAL1
100
AcDbTrace
 10
1.682943927988358
 20
48.90841875232296
 30
0.0
 11
1.682943927988357
 21
45.90841875232295
 31
0.0
 12
-1.317056072011642
 22
48.90841875232296
 32
0.0
 13
-1.317056072011642
 23
45.90841875232295
 33
0.0
  0
SOLID
  5
377
330
1E
100
AcDbEntity
  8
METAL1
100
AcDbTrace
 10
-5.440318575132895
 20
45.91024365824317
 30
0.0
 11
-5.440318575132895
 21
48.91024365824318
 31
0.0
 12
-2.440318575132895
 22
45.91024365824317
 32
0.0
 13
-2.440318575132895
 23
48.91024365824318
 33
0.0
  0
SOLID
  5
378
330
1E
100
AcDbEntity
  8
METAL1
100
AcDbTrace
 10
-9.33606857787743
 20
45.92272284674119
 30
0.0
 11
-9.33606857787743
 21
48.9227228467412
 31
0.0
 12
-6.33606857787743
 22
45.92272284674119
 32
0.0
 13
-6.33606857787743
 23
48.9227228467412
 33
0.0
  0
SOLID
  5
3C8
330
1E
100
AcDbEntity
  8
METAL1
100
AcDbTrace
 10
-5.677810935104989
 20
63.64524742060243
 30
0.0
 11
-5.677810935104989
 21
62.14524742060243
 31
0.0
 12
-7.177810935104989
 22
63.64524742060243
 32
0.0
 13
-7.177810935104989
 23
62.14524742060243
 33
0.0
  0
SOLID
  5
3CE
330
1E
100
AcDbEntity
  8
METAL1
100
AcDbTrace
 10
-3.908093732093536
 20
60.87225895101173
 30
0.0
 11
-3.908093732093536
 21
59.37225895101173
 31
0.0
 12
-5.408093732093536
 22
60.87225895101173
 32
0.0
 13
-5.408093732093536
 23
59.37225895101173
 33
0.0
  0
SOLID
  5
3D4
330
1E
100
AcDbEntity
  8
METAL1
100
AcDbTrace
 10
-5.752237788426132
 20
60.87225895101173
 30
0.0
 11
-5.752237788426132
 21
59.37225895101173
 31
0.0
 12
-7.252237788426132
 22
60.87225895101173
 32
0.0
 13
-7.252237788426132
 23
59.37225895101173
 33
0.0
  0
MTEXT
  5
3F8
330
1E
100
AcDbEntity
  8
METAL1
370
    30
100
AcDbMText
 10
15.61496863090729
 20
57.04471541679029
 30
0.0
 40
1.0
 41
14.1609
 71
     5
 72
     5
  1
ATF54143 HEMT \P23cm LNA YU1AW
 11
0.0000000000000001
 21
1.0
 31
0.0
 73
     1
 44
1.0
  0
LWPOLYLINE
  5
403
330
1E
100
AcDbEntity
  8
GND
100
AcDbPolyline
 90
        2
 70
     0
 43
0.2
 10
-7.951161220738867
 20
46.84640433670405
 42
1.0
 10
-7.951161220738867
 20
48.04640433670406
  0
LWPOLYLINE
  5
404
330
1E
100
AcDbEntity
  8
GND
100
AcDbPolyline
 90
        2
 70
     0
 43
0.2
 10
-7.951161220738867
 20
48.04640433670406
 42
1.0
 10
-7.951161220738867
 20
46.84640433670405
  0
SOLID
  5
4BD
330
1E
100
AcDbEntity
  8
METAL1
100
AcDbTrace
 10
4.087390480915441
 20
56.79272065045704
 30
0.0
 11
2.969790480915445
 21
56.79272065045704
 31
0.0
 12
4.087390480915441
 22
55.11632065045704
 32
0.0
 13
2.969790480915445
 23
55.11632065045704
 33
0.0
  0
SOLID
  5
4BE
330
1E
100
AcDbEntity
  8
METAL1
100
AcDbTrace
 10
1.007986100224368
 20
56.80448905107386
 30
0.0
 11
-0.1096138997756277
 21
56.80448905107386
 31
0.0
 12
1.007986100224368
 22
55.12808905107386
 32
0.0
 13
-0.1096138997756277
 23
55.12808905107386
 33
0.0
  0
SOLID
  5
4BF
330
1E
100
AcDbEntity
  8
CONSTR
100
AcDbTrace
 10
3.507986100224368
 20
56.79128905107386
 30
0.0
 11
0.3079861002243795
 21
56.79128905107386
 31
0.0
 12
3.507986100224368
 22
56.74128905107386
 32
0.0
 13
0.3079861002243795
 23
56.74128905107386
 33
0.0
  0
SOLID
  5
4C0
330
1E
100
AcDbEntity
  8
CONSTR
100
AcDbTrace
 10
3.507986100224368
 20
55.19128905107385
 30
0.0
 11
0.3079861002243795
 21
55.19128905107385
 31
0.0
 12
3.507986100224368
 22
55.14128905107385
 32
0.0
 13
0.3079861002243795
 23
55.14128905107385
 33
0.0
  0
SOLID
  5
4C1
330
1E
100
AcDbEntity
  8
CONSTR
100
AcDbTrace
 10
0.2829861002243739
 20
56.76628905107385
 30
0.0
 11
0.2829861002243739
 21
55.16628905107386
 31
0.0
 12
0.332986100224371
 22
56.76628905107385
 32
0.0
 13
0.332986100224371
 23
55.16628905107386
 33
0.0
  0
SOLID
  5
4C8
330
1E
100
AcDbEntity
  8
CONSTR
100
AcDbTrace
 10
3.541619293796966
 20
56.72809048712132
 30
0.0
 11
3.541619293796966
 21
55.12809048712132
 31
0.0
 12
3.591619293796977
 22
56.72809048712132
 32
0.0
 13
3.591619293796977
 23
55.12809048712132
 33
0.0
  0
SOLID
  5
4D9
330
1E
100
AcDbEntity
  8
METAL1
100
AcDbTrace
 10
3.566095712280851
 20
51.68669219116326
 30
0.0
 11
4.683695712280862
 21
51.68669219116326
 31
0.0
 12
3.566095712280851
 22
50.01029219116325
 32
0.0
 13
4.683695712280862
 23
50.01029219116325
 33
0.0
  0
SOLID
  5
4DA
330
1E
100
AcDbEntity
  8
METAL1
100
AcDbTrace
 10
6.516095712280854
 20
51.68669219116326
 30
0.0
 11
7.63369571228085
 21
51.68669219116326
 31
0.0
 12
6.516095712280854
 22
50.01029219116325
 32
0.0
 13
7.63369571228085
 23
50.01029219116325
 33
0.0
  0
SOLID
  5
4DB
330
1E
100
AcDbEntity
  8
CONSTR
100
AcDbTrace
 10
4.04109571228086
 20
51.64849219116326
 30
0.0
 11
4.04109571228086
 21
50.04849219116326
 31
0.0
 12
3.991095712280863
 22
51.64849219116326
 32
0.0
 13
3.991095712280863
 23
50.04849219116326
 33
0.0
  0
SOLID
  5
4DC
330
1E
100
AcDbEntity
  8
CONSTR
100
AcDbTrace
 10
4.016095712280868
 20
51.67349219116326
 30
0.0
 11
7.216095712280857
 21
51.67349219116326
 31
0.0
 12
4.016095712280868
 22
51.62349219116326
 32
0.0
 13
7.216095712280857
 23
51.62349219116326
 33
0.0
  0
SOLID
  5
4DD
330
1E
100
AcDbEntity
  8
CONSTR
100
AcDbTrace
 10
4.016095712280868
 20
50.07349219116325
 30
0.0
 11
7.216095712280857
 21
50.07349219116324
 31
0.0
 12
4.016095712280868
 22
50.02349219116325
 32
0.0
 13
7.216095712280857
 23
50.02349219116325
 33
0.0
  0
SOLID
  5
4DE
330
1E
100
AcDbEntity
  8
CONSTR
100
AcDbTrace
 10
7.241095712280863
 20
51.64849219116326
 30
0.0
 11
7.241095712280863
 21
50.04849219116326
 31
0.0
 12
7.191095712280851
 22
51.64849219116326
 32
0.0
 13
7.191095712280851
 23
50.04849219116326
 33
0.0
  0
SOLID
  5
4DF
330
1E
100
AcDbEntity
  8
METAL1
100
AcDbTrace
 10
7.016095712280854
 20
51.44849219116325
 30
0.0
 11
8.216095712280857
 21
51.44849219116325
 31
0.0
 12
7.016095712280854
 22
50.24849219116326
 32
0.0
 13
8.216095712280857
 23
50.24849219116326
 33
0.0
  0
LWPOLYLINE
  5
4E0
330
1E
100
AcDbEntity
  8
METAL1
100
AcDbPolyline
 90
        2
 70
     0
 43
0.2
 10
7.616095712280859
 20
50.44849219116326
 42
1.0
 10
7.616095712280859
 20
51.24849219116327
  0
LWPOLYLINE
  5
4E1
330
1E
100
AcDbEntity
  8
GND
100
AcDbPolyline
 90
        2
 70
     0
 43
0.2
 10
7.616095712280859
 20
50.44849219116326
 42
1.0
 10
7.616095712280859
 20
51.24849219116327
  0
LWPOLYLINE
  5
4E2
330
1E
100
AcDbEntity
  8
METAL1
100
AcDbPolyline
 90
        2
 70
     0
 43
0.2
 10
7.616095712280859
 20
51.24849219116327
 42
1.0
 10
7.616095712280859
 20
50.44849219116326
  0
LWPOLYLINE
  5
4E3
330
1E
100
AcDbEntity
  8
GND
100
AcDbPolyline
 90
        2
 70
     0
 43
0.2
 10
7.616095712280859
 20
51.24849219116327
 42
1.0
 10
7.616095712280859
 20
50.44849219116326
  0
SOLID
  5
4F8
330
1E
100
AcDbEntity
  8
METAL1
100
AcDbTrace
 10
2.964658023080485
 20
51.34834579915255
 30
0.0
 11
2.964658023080485
 21
52.46594579915257
 31
0.0
 12
4.641058023080486
 22
51.34834579915255
 32
0.0
 13
4.641058023080486
 23
52.46594579915257
 33
0.0
  0
SOLID
  5
4F9
330
1E
100
AcDbEntity
  8
METAL1
100
AcDbTrace
 10
2.964658023080485
 20
54.29834579915255
 30
0.0
 11
2.964658023080485
 21
55.41594579915255
 31
0.0
 12
4.641058023080486
 22
54.29834579915257
 32
0.0
 13
4.641058023080486
 23
55.41594579915255
 33
0.0
  0
SOLID
  5
4FA
330
1E
100
AcDbEntity
  8
CONSTR
100
AcDbTrace
 10
3.002858023080488
 20
51.82334579915256
 30
0.0
 11
4.602858023080482
 21
51.82334579915256
 31
0.0
 12
3.002858023080488
 22
51.77334579915257
 32
0.0
 13
4.602858023080482
 23
51.77334579915257
 33
0.0
  0
SOLID
  5
4FB
330
1E
100
AcDbEntity
  8
CONSTR
100
AcDbTrace
 10
2.977858023080482
 20
51.79834579915257
 30
0.0
 11
2.977858023080482
 21
54.99834579915256
 31
0.0
 12
3.027858023080479
 22
51.79834579915257
 32
0.0
 13
3.027858023080479
 23
54.99834579915256
 33
0.0
  0
SOLID
  5
4FC
330
1E
100
AcDbEntity
  8
CONSTR
100
AcDbTrace
 10
4.577858023080477
 20
51.79834579915257
 30
0.0
 11
4.577858023080477
 21
54.99834579915256
 31
0.0
 12
4.627858023080488
 22
51.79834579915257
 32
0.0
 13
4.627858023080488
 23
54.99834579915256
 33
0.0
  0
SOLID
  5
4FD
330
1E
100
AcDbEntity
  8
CONSTR
100
AcDbTrace
 10
3.002858023080488
 20
55.02334579915256
 30
0.0
 11
4.602858023080482
 21
55.02334579915256
 31
0.0
 12
3.002858023080488
 22
54.97334579915255
 32
0.0
 13
4.602858023080482
 23
54.97334579915255
 33
0.0
  0
SOLID
  5
573
330
1E
100
AcDbEntity
  8
METAL1
100
AcDbTrace
 10
-13.90668255788228
 20
53.0020338907839
 30
0.0
 11
-12.78908255788229
 21
53.0020338907839
 31
0.0
 12
-13.90668255788228
 22
51.32563389078391
 32
0.0
 13
-12.78908255788229
 23
51.32563389078391
 33
0.0
  0
SOLID
  5
574
330
1E
100
AcDbEntity
  8
METAL1
100
AcDbTrace
 10
-10.95668255788228
 20
53.0020338907839
 30
0.0
 11
-9.839082557882274
 21
53.0020338907839
 31
0.0
 12
-10.95668255788228
 22
51.32563389078391
 32
0.0
 13
-9.839082557882289
 23
51.32563389078391
 33
0.0
  0
SOLID
  5
575
330
1E
100
AcDbEntity
  8
CONSTR
100
AcDbTrace
 10
-13.45668255788227
 20
52.9888338907839
 30
0.0
 11
-10.25668255788228
 21
52.9888338907839
 31
0.0
 12
-13.45668255788227
 22
52.9388338907839
 32
0.0
 13
-10.25668255788228
 23
52.9388338907839
 33
0.0
  0
SOLID
  5
576
330
1E
100
AcDbEntity
  8
CONSTR
100
AcDbTrace
 10
-13.45668255788228
 20
51.3888338907839
 30
0.0
 11
-10.25668255788228
 21
51.3888338907839
 31
0.0
 12
-13.45668255788228
 22
51.3388338907839
 32
0.0
 13
-10.25668255788228
 23
51.3388338907839
 33
0.0
  0
SOLID
  5
577
330
1E
100
AcDbEntity
  8
CONSTR
100
AcDbTrace
 10
-10.23168255788229
 20
52.9638338907839
 30
0.0
 11
-10.23168255788229
 21
51.36383389078389
 31
0.0
 12
-10.28168255788228
 22
52.9638338907839
 32
0.0
 13
-10.28168255788228
 23
51.36383389078389
 33
0.0
  0
HATCH
  5
592
330
1E
100
AcDbEntity
  8
METAL1
100
AcDbHatch
 10
0.0
 20
0.0
 30
0.0
210
0.0
220
0.0
230
1.0
  2
SOLID
 70
     1
 71
     0
 91
        1
 92
        7
 72
     0
 73
     1
 93
        4
 10
1.756128612787961
 20
64.12627917627403
 10
1.756128612787954
 20
61.42627917627402
 10
4.456128612787964
 20
61.42627917627402
 10
4.456128612787964
 20
64.12627917627403
 97
        0
 75
     0
 76
     1
 47
0.0464238932963427
 98
        1
 10
3.195269307472472
 20
62.68019034224199
  0
SOLID
  5
5FE
330
1E
100
AcDbEntity
  8
CONSTR
100
AcDbTrace
 10
-13.48240390840626
 20
52.97639497110809
 30
0.0
 11
-13.48240390840626
 21
51.37639497110808
 31
0.0
 12
-13.53240390840626
 22
52.97639497110809
 32
0.0
 13
-13.53240390840626
 23
51.37639497110808
 33
0.0
  0
LWPOLYLINE
  5
613
330
1E
100
AcDbEntity
  8
GND
100
AcDbPolyline
 90
        2
 70
     0
 43
0.2
 10
-6.103577943825122
 20
60.1645295407235
 42
1.0
 10
-6.903577943825126
 20
60.1645295407235
  0
LWPOLYLINE
  5
614
330
1E
100
AcDbEntity
  8
GND
100
AcDbPolyline
 90
        2
 70
     0
 43
0.2
 10
-6.903577943825126
 20
60.1645295407235
 42
1.0
 10
-6.103577943825122
 20
60.1645295407235
  0
LWPOLYLINE
  5
61B
330
1E
100
AcDbEntity
  8
GND
100
AcDbPolyline
 90
        2
 70
     0
 43
0.2
 10
-6.043095345819857
 20
62.87909454482615
 42
1.0
 10
-6.843095345819861
 20
62.87909454482615
  0
LWPOLYLINE
  5
61C
330
1E
100
AcDbEntity
  8
GND
100
AcDbPolyline
 90
        2
 70
     0
 43
0.2
 10
-6.843095345819861
 20
62.87909454482615
 42
1.0
 10
-6.043095345819857
 20
62.87909454482615
  0
SOLID
  5
64C
330
1E
100
AcDbEntity
  8
METAL1
100
AcDbTrace
 10
-1.555304211511952
 20
59.47630789391364
 30
0.0
 11
-1.555304211511952
 21
61.97630789391364
 31
0.0
 12
-1.305304211511952
 22
59.47630789391364
 32
0.0
 13
-1.305304211511952
 23
61.97630789391364
 33
0.0
  0
SOLID
  5
64D
330
1E
100
AcDbEntity
  8
METAL1
100
AcDbTrace
 10
3.694695788488047
 20
59.22630789391364
 30
0.0
 11
-1.305304211511952
 21
59.22630789391364
 31
0.0
 12
3.694695788488047
 22
59.47630789391364
 32
0.0
 13
-1.305304211511952
 23
59.47630789391364
 33
0.0
  0
SOLID
  5
64E
330
1E
100
AcDbEntity
  8
METAL1
100
AcDbTrace
 10
-1.305304211511952
 20
59.47630789391364
 30
0.0
 11
-1.305304211511952
 21
59.22630789391364
 31
0.0
 12
-1.305304211511952
 22
59.47630789391364
 32
0.0
 13
-1.555304211511952
 23
59.47630789391364
 33
0.0
  0
SOLID
  5
64F
330
1E
100
AcDbEntity
  8
METAL1
100
AcDbTrace
 10
3.694695788488047
 20
59.22630789391364
 30
0.0
 11
3.694695788488047
 21
59.47630789391364
 31
0.0
 12
3.694695788488047
 22
59.22630789391364
 32
0.0
 13
3.944695788488047
 23
59.22630789391364
 33
0.0
  0
SOLID
  5
650
330
1E
100
AcDbEntity
  8
METAL1
100
AcDbTrace
 10
3.694695788488047
 20
56.72630789391364
 30
0.0
 11
3.694695788488047
 21
59.22630789391364
 31
0.0
 12
3.944695788488047
 22
56.72630789391364
 32
0.0
 13
3.944695788488047
 23
59.22630789391364
 33
0.0
  0
MTEXT
  5
6DE
330
1E
100
AcDbEntity
  8
CONSTR
100
AcDbMText
 10
-0.699713314919876
 20
63.11405570150923
 30
0.0
 40
0.5
 41
1.622
 71
     1
 72
     5
  1
2p2
 73
     1
 44
1.0
  0
MTEXT
  5
6DF
330
1E
100
AcDbEntity
  8
CONSTR
100
AcDbMText
 10
-3.455362075326803
 20
63.06735025399579
 30
0.0
 40
0.5
 41
1.1773
 71
     1
 72
     5
  1
15
 73
     1
 44
1.0
  0
MTEXT
  5
6E0
330
1E
100
AcDbEntity
  8
CONSTR
100
AcDbMText
 10
4.689538605744388
 20
56.28846301596233
 30
0.0
 40
0.5
 41
1.5958
 71
     1
 72
     5
  1
120pF
 73
     1
 44
1.0
  0
MTEXT
  5
6E1
330
1E
100
AcDbEntity
  8
CONSTR
100
AcDbMText
 10
1.288554484355103
 20
56.28846301596233
 30
0.0
 40
0.5
 41
1.726699999999999
 71
     1
 72
     5
  1
1k2
 73
     1
 44
1.0
  0
MTEXT
  5
6E3
330
1E
100
AcDbEntity
  8
CONSTR
100
AcDbMText
 10
3.381467827701158
 20
53.75174854464983
 30
0.0
 40
0.5
 41
1.2296
 71
     1
 72
     5
  1
15
 73
     1
 44
1.0
  0
MTEXT
  5
6E5
330
1E
100
AcDbEntity
  8
CONSTR
100
AcDbMText
 10
4.768022927925954
 20
51.16273056301143
 30
0.0
 40
0.5
 41
1.726699999999999
 71
     1
 72
     5
  1
0.1uF
 73
     1
 44
1.0
  0
MTEXT
  5
703
330
1E
100
AcDbEntity
  8
CONSTR
100
AcDbMText
 10
-12.71900409861721
 20
52.47041787670844
 30
0.0
 40
0.5
 41
1.726699999999999
 71
     1
 72
     5
  1
0.1uF
 73
     1
 44
1.0
  0
MTEXT
  5
704
330
1E
100
AcDbEntity
  8
CONSTR
100
AcDbMText
 10
-7.73666119427385
 20
52.30821394994315
 30
0.0
 40
0.5
 41
1.6028
 71
     1
 72
     5
  1
10k
 73
     1
 44
1.0
  0
MTEXT
  5
71B
330
1E
100
AcDbEntity
  8
CONSTR
100
AcDbMText
 10
-8.047448517794464
 20
60.63998368792302
 30
0.0
 40
0.5
 41
1.264699999999999
 71
     1
 72
     5
  1
G
 73
     1
 44
1.0
  0
MTEXT
  5
71C
330
1E
100
AcDbEntity
  8
CONSTR
100
AcDbMText
 10
-7.75761165669158
 20
63.4582566148144
 30
0.0
 40
0.5
 41
1.5414
 71
     1
 72
     5
  1
S
 73
     1
 44
1.0
  0
MTEXT
  5
71D
330
1E
100
AcDbEntity
  8
CONSTR
100
AcDbMText
 10
-4.714326502585805
 20
64.2747655629196
 30
0.0
 40
0.5
 41
1.238399999999999
 71
     1
 72
     5
  1
D
 73
     1
 44
1.0
  0
MTEXT
  5
724
330
1E
100
AcDbEntity
  8
CONSTR
100
AcDbMText
 10
-3.673549242698953
 20
60.38932217838435
 30
0.0
 40
0.5
 41
1.5414
 71
     1
 72
     5
  1
S
 73
     1
 44
1.0
  0
MTEXT
  5
72B
330
1E
100
AcDbEntity
  8
CONSTR
100
AcDbMText
 10
4.915629204710199
 20
63.45105377928412
 30
0.0
 40
0.5
 41
2.323999999999999
 71
     1
 72
     5
  1
OUT
 73
     1
 44
1.0
  0
LWPOLYLINE
  5
74F
330
1E
100
AcDbEntity
  8
CONSTR
100
AcDbPolyline
 90
        4
 70
     1
 43
0.0
 10
-6.799293800278348
 20
44.96668689655686
 10
-1.393792070032446
 20
44.96668689655686
 10
-1.393792070032446
 20
43.75630443868781
 10
-6.799293800278348
 20
43.75630443868781
  0
LWPOLYLINE
  5
750
330
1E
100
AcDbEntity
  8
CONSTR
100
AcDbPolyline
 90
        3
 70
     0
 43
0.0
 10
-6.799293800278348
 20
44.40472357680808
 10
-8.053370264936944
 20
44.40472357680808
 10
-8.053370264936944
 20
45.91770162640194
  0
LWPOLYLINE
  5
751
330
1E
100
AcDbEntity
  8
CONSTR
100
AcDbPolyline
 90
        3
 70
     0
 43
0.0
 10
-1.393792070032446
 20
44.36149562213742
 10
-0.1829596350262363
 20
44.36149562213742
 10
-0.1829596350262363
 20
46.43643699148007
  0
LWPOLYLINE
  5
752
330
1E
100
AcDbEntity
  8
CONSTR
100
AcDbPolyline
 90
        5
 70
     0
 43
0.0
 10
-4.118164884104999
 20
46.39320903680939
 10
-4.118164884104999
 20
45.00991485122753
 10
-4.377629062019082
 20
45.31251044295233
 10
-3.945188897248783
 20
45.31251044295233
 10
-4.074920986205825
 20
44.96668689655686
  0
MTEXT
  5
753
330
1E
100
AcDbEntity
  8
CONSTR
100
AcDbMText
 10
-5.069533404703491
 20
44.62086325919154
 30
0.0
 40
0.5481747989425606
 41
4.064899999999999
 71
     1
 72
     5
  1
560
 73
     1
 44
1.0
  0
LWPOLYLINE
  5
754
330
1E
100
AcDbEntity
  8
CONSTR
100
AcDbPolyline
 90
        4
 70
     1
 43
0.0
 10
8.001547635663001
 20
45.15028017144131
 10
13.45029352731444
 20
45.15028017144131
 10
13.45029352731444
 20
43.68052998554829
 10
8.001547635663001
 20
43.68052998554829
  0
LWPOLYLINE
  5
755
330
1E
100
AcDbEntity
  8
CONSTR
100
AcDbPolyline
 90
        3
 70
     0
 43
0.0
 10
8.001547635663001
 20
44.4154051239797
 10
6.790715200656791
 20
44.4154051239797
 10
6.790715200656791
 20
46.14452294692688
  0
LWPOLYLINE
  5
756
330
1E
100
AcDbEntity
  8
CONSTR
100
AcDbPolyline
 90
        3
 70
     0
 43
0.0
 10
13.45029352731444
 20
44.4154051239797
 10
14.87734597882922
 20
44.4154051239797
 10
14.87734597882922
 20
45.75547135489091
  0
MTEXT
  5
757
330
1E
100
AcDbEntity
  8
CONSTR
100
AcDbMText
 10
8.866427965203627
 20
44.63154480636319
 30
0.0
 40
0.5481747989425606
 41
4.713599999999999
 71
     1
 72
     5
  1
78L05
 73
     1
 44
1.0
  0
LWPOLYLINE
  5
758
330
1E
100
AcDbEntity
  8
CONSTR
100
AcDbPolyline
 90
        2
 70
     0
 43
0.0
 10
10.59618849253166
 20
45.15028017144131
 10
10.59618849253166
 20
46.10129499225623
  0
SOLID
  5
759
330
1E
100
AcDbEntity
  8
CONSTR
100
AcDbTrace
 10
9.930417932884928
 20
53.62578653161667
 30
0.0
 11
11.21638611071216
 21
54.57777699670322
 31
0.0
 12
9.960167634918885
 22
53.58560002605956
 32
0.0
 13
11.24613581274611
 23
54.53759049114612
 33
0.0
  0
SOLID
  5
75A
330
1E
100
AcDbEntity
  8
CONSTR
100
AcDbTrace
 10
9.925199531123361
 20
53.59081842782114
 30
0.0
 11
8.021218600950248
 21
56.16275478347559
 31
0.0
 12
9.965386036680463
 22
53.62056812985509
 32
0.0
 13
8.061405106507351
 23
56.19250448550955
 33
0.0
  0
SOLID
  5
75B
330
1E
100
AcDbEntity
  8
CONSTR
100
AcDbTrace
 10
11.21116770895059
 20
54.54280889290768
 30
0.0
 11
9.307186778777477
 21
57.11474524856214
 31
0.0
 12
11.25135421450768
 22
54.57255859494164
 32
0.0
 13
9.347373284334576
 23
57.1444949505961
 33
0.0
  0
SOLID
  5
75C
330
1E
100
AcDbEntity
  8
CONSTR
100
AcDbTrace
 10
8.026437002711819
 20
56.19772288727112
 30
0.0
 11
9.312405180539052
 21
57.14971335235768
 31
0.0
 12
8.056186704745773
 22
56.15753638171401
 32
0.0
 13
9.342154882573005
 23
57.10952684680058
 33
0.0
  0
MTEXT
  5
75D
330
1E
100
AcDbEntity
  8
CONSTR
100
AcDbMText
 10
10.00592057852814
 20
54.31716609364808
 30
0.0
 40
0.5481747989425606
 41
1.2493
 71
     1
 72
     5
  1
22uH
 11
-0.5949940406790971
 21
0.8037301111420182
 31
0.0
 73
     1
 44
1.0
  0
SOLID
  5
75E
330
1E
100
AcDbEntity
  8
CONSTR
100
AcDbTrace
 10
12.40770182452644
 20
51.50938971301299
 30
0.0
 11
10.50372089435333
 21
54.08132606866745
 31
0.0
 12
12.44788833008354
 22
51.53913941504694
 32
0.0
 13
10.54390739991043
 23
54.1110757707014
 33
0.0
  0
SOLID
  5
75F
330
1E
100
AcDbEntity
  8
CONSTR
100
AcDbTrace
 10
14.27464956963944
 20
48.97781108172003
 30
0.0
 11
12.37066863946632
 21
51.5497474373745
 31
0.0
 12
14.31483607519654
 22
49.00756078375398
 32
0.0
 13
12.41085514502342
 23
51.57949713940844
 33
0.0
  0
SOLID
  5
760
330
1E
100
AcDbEntity
  8
CONSTR
100
AcDbTrace
 10
8.574629400057236
 20
56.57807206613645
 30
0.0
 11
6.670648469884124
 21
59.1500084217909
 31
0.0
 12
8.614815905614335
 22
56.6078217681704
 32
0.0
 13
6.710834975441223
 23
59.17975812382486
 33
0.0
  0
SOLID
  5
761
330
1E
100
AcDbEntity
  8
CONSTR
100
AcDbTrace
 10
6.79992387497726
 20
58.97538056235076
 30
0.0
 11
4.895942944804147
 21
61.54731691800522
 31
0.0
 12
6.840110380534358
 22
59.00513026438471
 32
0.0
 13
4.936129450361246
 23
61.57706662003917
 33
0.0
  0
MTEXT
  5
762
330
1E
100
AcDbEntity
  8
CONSTR
100
AcDbMText
 10
4.139374546820107
 20
45.79209624327613
 30
0.0
 40
0.5481747989425606
 41
1.996199999999999
 71
     1
 72
     5
  1
+5V
 73
     1
 44
1.0
  0
MTEXT
  5
763
330
1E
100
AcDbEntity
  8
CONSTR
100
AcDbMText
 10
11.8637420126775
 20
50.12031779179499
 30
0.0
 40
0.5
 41
2.0447
 71
     1
 72
     5
  1
1uF
 73
     1
 44
1.0
  0
MTEXT
  5
764
330
1E
100
AcDbEntity
  8
CONSTR
100
AcDbMText
 10
8.395046297630386
 20
50.15045345257241
 30
0.0
 40
0.5
 41
2.0447
 71
     1
 72
     5
  1
1uF
 73
     1
 44
1.0
  0
SOLID
  5
765
330
1E
100
AcDbEntity
  8
CONSTR
100
AcDbTrace
 10
13.29729546541307
 20
49.40203359455358
 30
0.0
 11
13.29729546541307
 21
47.80203359455357
 31
0.0
 12
13.34729546541308
 22
49.40203359455358
 32
0.0
 13
13.34729546541308
 23
47.80203359455357
 33
0.0
  0
SOLID
  5
766
330
1E
100
AcDbEntity
  8
CONSTR
100
AcDbTrace
 10
12.95178670822838
 20
49.40203359455358
 30
0.0
 11
12.95178670822838
 21
47.80203359455357
 31
0.0
 12
13.00178670822839
 22
49.40203359455358
 32
0.0
 13
13.00178670822839
 23
47.80203359455357
 33
0.0
  0
SOLID
  5
767
330
1E
100
AcDbEntity
  8
CONSTR
100
AcDbTrace
 10
13.31090799329959
 20
48.57327024772126
 30
0.0
 11
14.91090799329958
 21
48.57327024772126
 31
0.0
 12
13.31090799329959
 22
48.52327024772126
 32
0.0
 13
14.91090799329958
 23
48.52327024772126
 33
0.0
  0
SOLID
  5
768
330
1E
100
AcDbEntity
  8
CONSTR
100
AcDbTrace
 10
11.38490996392278
 20
48.57327024772126
 30
0.0
 11
12.98490996392277
 21
48.57327024772126
 31
0.0
 12
11.38490996392278
 22
48.52327024772126
 32
0.0
 13
12.98490996392277
 23
48.52327024772126
 33
0.0
  0
SOLID
  5
769
330
1E
100
AcDbEntity
  8
CONSTR
100
AcDbTrace
 10
8.591674415537113
 20
49.40203359455358
 30
0.0
 11
8.591674415537113
 21
47.80203359455357
 31
0.0
 12
8.641674415537124
 22
49.40203359455358
 32
0.0
 13
8.641674415537124
 23
47.80203359455357
 33
0.0
  0
SOLID
  5
76A
330
1E
100
AcDbEntity
  8
CONSTR
100
AcDbTrace
 10
8.246165658352424
 20
49.40203359455358
 30
0.0
 11
8.246165658352424
 21
47.80203359455357
 31
0.0
 12
8.296165658352435
 22
49.40203359455358
 32
0.0
 13
8.296165658352435
 23
47.80203359455357
 33
0.0
  0
SOLID
  5
76B
330
1E
100
AcDbEntity
  8
CONSTR
100
AcDbTrace
 10
8.605286943423635
 20
48.57327024772126
 30
0.0
 11
10.20528694342363
 21
48.57327024772126
 31
0.0
 12
8.605286943423635
 22
48.52327024772126
 32
0.0
 13
10.20528694342363
 23
48.52327024772126
 33
0.0
  0
SOLID
  5
76C
330
1E
100
AcDbEntity
  8
CONSTR
100
AcDbTrace
 10
6.679288914046821
 20
48.57327024772126
 30
0.0
 11
8.279288914046816
 21
48.57327024772126
 31
0.0
 12
6.679288914046821
 22
48.52327024772126
 32
0.0
 13
8.279288914046816
 23
48.52327024772126
 33
0.0
  0
MTEXT
  5
783
330
1E
100
AcDbEntity
  8
0
  6
DASHED
100
AcDbMText
 10
-13.27805952515004
 20
68.81163354471893
 30
0.0
 40
0.4
 41
28.439
 71
     1
 72
     5
  1
Double side FR-4 (G-10) PCB 1.6mm thick. Back side ground plane.
 73
     1
 44
1.0
  0
SOLID
  5
790
330
1E
100
AcDbEntity
  8
METAL1
100
AcDbTrace
 10
0.3041889985171124
 20
55.21682304049466
 30
0.0
 11
0.3041889985171124
 21
48.71029304049466
 31
0.0
 12
0.5541889985171125
 22
55.21682304049466
 32
0.0
 13
0.5541889985171125
 23
48.71029304049466
 33
0.0
  0
SOLID
  5
791
330
1E
100
AcDbEntity
  8
METAL1
100
AcDbTrace
 10
-5.090313149286636
 20
48.73547452478111
 30
0.0
 11
-5.090313149286636
 21
51.73547452478111
 31
0.0
 12
-5.340313149286636
 22
48.73547452478111
 32
0.0
 13
-5.340313149286636
 23
51.73547452478111
 33
0.0
  0
SOLID
  5
799
330
1E
100
AcDbEntity
  8
METAL1
100
AcDbTrace
 10
4.272344648013323
 20
48.61950665964461
 30
0.0
 11
4.272344648013323
 21
51.61950665964461
 31
0.0
 12
4.022344648013323
 22
48.61950665964461
 32
0.0
 13
4.022344648013323
 23
51.61950665964461
 33
0.0
  0
SOLID
  5
7A1
330
1E
100
AcDbEntity
  8
METAL1
100
AcDbTrace
 10
7.01615873652037
 20
48.83482298165265
 30
0.0
 11
4.01615873652037
 21
48.83482298165265
 31
0.0
 12
7.01615873652037
 22
48.58482298165265
 32
0.0
 13
4.01615873652037
 23
48.58482298165265
 33
0.0
  0
LWPOLYLINE
  5
7A7
330
1E
100
AcDbEntity
  8
CONSTR
100
AcDbPolyline
 90
        4
 70
     1
 43
0.0
 10
-16.48393720611972
 20
44.83007330352418
 10
-16.48393720611972
 20
44.83007330352418
 10
-16.48393720611972
 20
44.83007330352418
 10
-16.48393720611972
 20
44.83007330352418
  0
LWPOLYLINE
  5
7AB
330
1E
100
AcDbEntity
  8
CONSTR
100
AcDbPolyline
 90
        4
 70
     1
 43
0.0
 10
-16.48035620634964
 20
64.82533290757615
 10
-16.48035620634964
 20
64.82533290757615
 10
-16.48035620634964
 20
64.82533290757615
 10
-16.48035620634964
 20
64.82533290757615
  0
LWPOLYLINE
  5
7AD
330
1E
100
AcDbEntity
  8
0
100
AcDbPolyline
 90
        4
 70
     1
 43
0.0
 10
-16.48035620634964
 20
44.83407531547896
 10
18.01964379365036
 20
44.83407531547896
 10
18.01964379365036
 20
64.83407531547896
 10
-16.48035620634964
 20
64.83407531547896
  0
DIMENSION
  5
7AE
330
1E
100
AcDbEntity
  8
0
100
AcDbDimension
  2
*D5
 10
18.01964379365036
 20
67.10433632968845
 30
0.0
 11
0.76964379365036
 21
67.10433632968845
 31
0.0
 70
    32
 71
     5
 42
34.5
  3
Standard
100
AcDbAlignedDimension
 13
-16.48035620634964
 23
64.83407531547896
 33
0.0
 14
18.01964379365036
 24
64.83407531547896
 34
0.0
100
AcDbRotatedDimension
  0
DIMENSION
  5
7BC
330
1E
100
AcDbEntity
  8
0
100
AcDbDimension
  2
*D6
 10
-18.52022248444681
 20
64.83407531547896
 30
0.0
 11
-18.52022248444682
 21
54.83407531547896
 31
0.0
 70
    32
 71
     5
 42
20.0
  3
Standard
100
AcDbAlignedDimension
 13
-16.48035620634964
 23
44.83407531547896
 33
0.0
 14
-16.48035620634964
 24
64.83407531547896
 34
0.0
 50
270.0
100
AcDbRotatedDimension
1001
ACAD
1000
DSTYLE
1002
{
1070
   271
1070
     0
1002
}
  0
SOLID
  5
7EB
330
1E
100
AcDbEntity
  8
METAL1
100
AcDbTrace
 10
-8.587618885303076
 20
55.95447247767154
 30
0.0
 11
-8.587618885303077
 21
54.83687247767154
 31
0.0
 12
-10.26401888530307
 22
55.95447247767154
 32
0.0
 13
-10.26401888530307
 23
54.83687247767154
 33
0.0
  0
SOLID
  5
7EC
330
1E
100
AcDbEntity
  8
METAL1
100
AcDbTrace
 10
-8.587618885303077
 20
53.00447247767153
 30
0.0
 11
-8.587618885303077
 21
51.88687247767154
 31
0.0
 12
-10.26401888530307
 22
53.00447247767153
 32
0.0
 13
-10.26401888530307
 23
51.88687247767154
 33
0.0
  0
SOLID
  5
7ED
330
1E
100
AcDbEntity
  8
CONSTR
100
AcDbTrace
 10
-8.672657071253302
 20
55.49507935864891
 30
0.0
 11
-10.27265707125331
 21
55.49507935864891
 31
0.0
 12
-8.672657071253302
 22
55.5450793586489
 32
0.0
 13
-10.27265707125331
 23
55.5450793586489
 33
0.0
  0
SOLID
  5
7EE
330
1E
100
AcDbEntity
  8
CONSTR
100
AcDbTrace
 10
-8.668473937206504
 20
55.51487706498978
 30
0.0
 11
-8.668473937206504
 21
52.31487706498977
 31
0.0
 12
-8.718473937206502
 22
55.51487706498978
 32
0.0
 13
-8.718473937206502
 23
52.31487706498977
 33
0.0
  0
SOLID
  5
7EF
330
1E
100
AcDbEntity
  8
CONSTR
100
AcDbTrace
 10
-10.22684003253244
 20
55.50447247767153
 30
0.0
 11
-10.22684003253244
 21
52.30447247767153
 31
0.0
 12
-10.27684003253243
 22
55.50447247767153
 32
0.0
 13
-10.27684003253243
 23
52.30447247767153
 33
0.0
  0
SOLID
  5
7F0
330
1E
100
AcDbEntity
  8
CONSTR
100
AcDbTrace
 10
-8.667452789977124
 20
52.27947247767154
 30
0.0
 11
-10.26745278997713
 21
52.27947247767154
 31
0.0
 12
-8.667452789977124
 22
52.32947247767153
 32
0.0
 13
-10.26745278997713
 23
52.32947247767153
 33
0.0
  0
MTEXT
  5
7F1
330
1E
100
AcDbEntity
  8
CONSTR
100
AcDbMText
 10
-9.96204144485933
 20
54.18355177910147
 30
0.0
 40
0.5
 41
1.726699999999999
 71
     1
 72
     5
  1
56
 73
     1
 44
1.0
  0
MTEXT
  5
835
330
1E
100
AcDbEntity
  8
CONSTR
100
AcDbMText
 10
-12.19660106652457
 20
58.70956931006553
 30
0.0
 40
0.5
 41
2.3418
 71
     1
 72
     5
  1
RFC
 73
     1
 44
1.0
  0
LWPOLYLINE
  5
84D
330
1E
100
AcDbEntity
  8
CONSTR
100
AcDbPolyline
 90
        2
 70
     0
 43
0.0
 10
-10.26142545530942
 20
58.29074604380529
 10
-7.629034247782158
 20
58.66946651718482
  0
LWPOLYLINE
  5
84E
330
1E
100
AcDbEntity
  8
CONSTR
100
AcDbPolyline
 90
        2
 70
     0
 43
0.0
 10
-10.25813087005069
 20
58.67605291702252
 10
-7.6224450772647
 20
59.051480131371
  0
ARC
  5
84F
330
1E
100
AcDbEntity
  8
CONSTR
100
AcDbCircle
 10
-10.25949296716816
 20
58.48309886073648
 30
0.0
 40
0.1937935869710154
100
AcDbArc
 50
86.5051155470028
 51
273.4948844529972
  0
ARC
  5
850
330
1E
100
AcDbEntity
  8
CONSTR
100
AcDbCircle
 10
-7.595077643720241
 20
58.85941916930036
 30
0.0
 40
0.1937935869710154
100
AcDbArc
 50
270.6813662363379
 51
89.3186337636621
  0
INSERT
  5
851
330
1E
100
AcDbEntity
  8
0
100
AcDbBlockReference
  2
A$C47793DAE
 10
-7.424105638459426
 20
57.88086112832955
 30
0.0
 50
90.0
  0
LWPOLYLINE
  5
852
330
1E
100
AcDbEntity
  8
CONSTR
100
AcDbPolyline
 90
        2
 70
     0
 43
0.0
 10
-10.24480119162136
 20
57.47693491688057
 10
-7.612409984094099
 20
57.8556553902601
  0
LWPOLYLINE
  5
853
330
1E
100
AcDbEntity
  8
CONSTR
100
AcDbPolyline
 90
        2
 70
     0
 43
0.0
 10
-10.24150660636263
 20
57.86224179009781
 10
-7.605820813576642
 20
58.23766900444629
  0
ARC
  5
854
330
1E
100
AcDbEntity
  8
CONSTR
100
AcDbCircle
 10
-10.24286870348011
 20
57.66928773381176
 30
0.0
 40
0.1937935869710154
100
AcDbArc
 50
86.5051155470028
 51
273.4948844529972
  0
ARC
  5
855
330
1E
100
AcDbEntity
  8
CONSTR
100
AcDbCircle
 10
-7.61789919718981
 20
58.04560804237564
 30
0.0
 40
0.1937935869710154
100
AcDbArc
 50
270.6813662363379
 51
89.3186337636621
  0
LWPOLYLINE
  5
856
330
1E
100
AcDbEntity
  8
CONSTR
100
AcDbPolyline
 90
        2
 70
     0
 43
0.0
 10
-10.28275645265691
 20
57.04661524724064
 10
-7.650365245129648
 20
57.42533572062018
  0
LWPOLYLINE
  5
857
330
1E
100
AcDbEntity
  8
CONSTR
100
AcDbPolyline
 90
        2
 70
     0
 43
0.0
 10
-10.27946186739818
 20
57.43192212045787
 10
-7.64377607461219
 20
57.80734933480636
  0
ARC
  5
858
330
1E
100
AcDbEntity
  8
CONSTR
100
AcDbCircle
 10
-10.28082396451565
 20
57.23896806417183
 30
0.0
 40
0.1937935869710154
100
AcDbArc
 50
86.5051155470028
 51
273.4948844529972
  0
LWPOLYLINE
  5
859
330
1E
100
AcDbEntity
  8
CONSTR
100
AcDbPolyline
 90
        2
 70
     0
 43
0.0
 10
-10.27010473874246
 20
58.67929845324241
 10
-7.637713531215197
 20
59.05801892662195
  0
LWPOLYLINE
  5
85A
330
1E
100
AcDbEntity
  8
CONSTR
100
AcDbPolyline
 90
        2
 70
     0
 43
0.0
 10
-10.26681015348373
 20
59.06460532645965
 10
-7.631124360697739
 20
59.44003254080813
  0
ARC
  5
85B
330
1E
100
AcDbEntity
  8
CONSTR
100
AcDbCircle
 10
-10.2681722506012
 20
58.87165127017361
 30
0.0
 40
0.1937935869710154
100
AcDbArc
 50
86.5051155470028
 51
273.4948844529972
  0
ARC
  5
85C
330
1E
100
AcDbEntity
  8
CONSTR
100
AcDbCircle
 10
-7.60375692715328
 20
59.24797157873749
 30
0.0
 40
0.1937935869710154
100
AcDbArc
 50
270.6813662363379
 51
89.3186337636621
  0
LWPOLYLINE
  5
85D
330
1E
100
AcDbEntity
  8
CONSTR
100
AcDbPolyline
 90
        2
 70
     0
 43
0.0
 10
-10.27010473874246
 20
59.07164867166602
 10
-7.637713531215197
 20
59.45036914504555
  0
LWPOLYLINE
  5
85E
330
1E
100
AcDbEntity
  8
CONSTR
100
AcDbPolyline
 90
        2
 70
     0
 43
0.0
 10
-10.26681015348373
 20
59.45695554488325
 10
-7.631124360697739
 20
59.83238275923174
  0
ARC
  5
85F
330
1E
100
AcDbEntity
  8
CONSTR
100
AcDbCircle
 10
-10.2681722506012
 20
59.26400148859721
 30
0.0
 40
0.1937935869710154
100
AcDbArc
 50
86.5051155470028
 51
273.4948844529972
  0
ARC
  5
860
330
1E
100
AcDbEntity
  8
CONSTR
100
AcDbCircle
 10
-7.640530121713158
 20
57.61239321611828
 30
0.0
 40
0.1937935869710154
100
AcDbArc
 50
270.6813662363379
 51
89.3186337636621
  0
LWPOLYLINE
  5
861
330
1E
100
AcDbEntity
  8
CONSTR
100
AcDbPolyline
 90
        4
 70
     0
 43
0.0
 10
-7.638704683519378
 20
59.8298788527382
 10
-6.97015208926188
 20
59.8298788527382
 10
-6.97015208926188
 20
59.44481153321625
 10
-7.618445526648628
 20
59.44481153321625
  0
LWPOLYLINE
  5
862
330
1E
100
AcDbEntity
  8
CONSTR
100
AcDbPolyline
 90
        4
 70
     0
 43
0.0
 10
-10.26240137210498
 20
57.04370992844387
 10
-9.233486764421684
 20
56.41469503989405
 10
-9.029337060557033
 20
56.74145597496089
 10
-9.723446101413721
 20
57.13356923525948
  0
SOLID
  5
869
330
1E
100
AcDbEntity
  8
METAL1
100
AcDbTrace
 10
-10.2634345013243
 20
56.86837477936855
 30
0.0
 11
-9.145834501324291
 21
56.86837477936855
 31
0.0
 12
-10.2634345013243
 22
55.19197477936854
 32
0.0
 13
-9.145834501324291
 23
55.19197477936854
 33
0.0
  0
SOLID
  5
870
330
1E
100
AcDbEntity
  8
METAL1
100
AcDbTrace
 10
-8.594767148683294
 20
52.46460445617824
 30
0.0
 11
-8.594767148683294
 21
51.34700445617824
 31
0.0
 12
-10.27116714868329
 22
52.46460445617824
 32
0.0
 13
-10.27116714868329
 23
51.34700445617824
 33
0.0
  0
SOLID
  5
87F
330
1E
100
AcDbEntity
  8
METAL1
100
AcDbTrace
 10
-9.712193271560213
 20
56.88346592364537
 30
0.0
 11
-8.594593271560203
 21
56.88346592364537
 31
0.0
 12
-9.712193271560213
 22
55.20706592364537
 32
0.0
 13
-8.594593271560203
 23
55.20706592364537
 33
0.0
  0
ENDSEC
  0
SECTION
  2
OBJECTS
  0
DICTIONARY
  5
C
330
0
100
AcDbDictionary
281
     1
  3
ACAD_GROUP
350
D
  3
ACAD_LAYOUT
350
19
  3
ACAD_MLINESTYLE
350
16
  3
ACAD_PLOTSETTINGS
350
18
  3
ACAD_PLOTSTYLENAME
350
E
  3
AcDbVariableDictionary
350
1F4
  0
DICTIONARY
  5
23A
330
1E
100
AcDbDictionary
280
     1
281
     1
  3
ACAD_SORTENTS
360
23B
  0
DICTIONARY
  5
D
102
{ACAD_REACTORS
330
C
102
}
330
C
100
AcDbDictionary
281
     1
  0
DICTIONARY
  5
19
102
{ACAD_REACTORS
330
C
102
}
330
C
100
AcDbDictionary
281
     1
  3
Layout1
350
1D
  3
Model
350
21
  0
DICTIONARY
  5
16
102
{ACAD_REACTORS
330
C
102
}
330
C
100
AcDbDictionary
281
     1
  3
Standard
350
17
  0
DICTIONARY
  5
18
102
{ACAD_REACTORS
330
C
102
}
330
C
100
AcDbDictionary
281
     1
  0
ACDBDICTIONARYWDFLT
  5
E
102
{ACAD_REACTORS
330
C
102
}
330
C
100
AcDbDictionary
281
     1
  3
Normal
350
F
100
AcDbDictionaryWithDefault
340
F
  0
DICTIONARY
  5
1F4
102
{ACAD_REACTORS
330
C
102
}
330
C
100
AcDbDictionary
281
     1
  3
DIMASSOC
350
1F5
  3
SORTENTS
350
39D
  0
SORTENTSTABLE
  5
23B
102
{ACAD_REACTORS
330
23A
102
}
330
23A
100
AcDbSortentsTable
330
1E
331
15A
  5
677
331
162
  5
67E
331
72B
  5
751
331
860
  5
835
331
93
  5
94
331
320
  5
854
331
870
  5
84D
331
704
  5
85B
331
753
  5
756
331
7F1
  5
85D
331
4DE
  5
6E5
331
75B
  5
75E
331
64D
  5
394
331
AB
  5
64E
331
16A
  5
7AB
331
328
  5
85F
331
763
  5
766
331
259
  5
7A1
331
B3
  5
98
331
172
  5
7AD
331
76B
  5
790
331
71C
  5
72B
331
851
  5
817
331
182
  5
B3
331
378
  5
163
331
576
  5
858
331
783
  5
4C0
331
724
  5
750
331
859
  5
822
331
4BF
  5
6A3
331
15B
  5
678
331
6E5
  5
71D
331
861
  5
83B
331
163
  5
67F
331
3C8
  5
178
331
5FE
  5
859
331
869
  5
5C8
331
94
  5
95
331
321
  5
855
331
754
  5
757
331
4DF
  5
26F
331
75C
  5
75F
331
64E
  5
39B
331
AC
  5
64F
331
7AB
  5
4DC
331
764
  5
767
331
B4
  5
A8
331
3F8
  5
239
331
76C
  5
791
331
26A
  5
DC
331
71D
  5
74F
331
852
  5
818
331
183
  5
B4
331
577
  5
87F
331
6DE
  5
6FC
331
85A
  5
823
331
4C0
  5
6B1
331
15C
  5
67C
331
862
  5
83C
331
4C8
  5
6DF
331
164
  5
6A1
331
7EB
  5
4E0
331
322
  5
856
331
95
  5
96
331
755
  5
758
331
75D
  5
760
331
64F
  5
3B6
331
4E0
  5
27C
331
AD
  5
650
331
765
  5
768
331
4F8
  5
296
331
25B
  5
7A7
331
B5
  5
A9
331
7BC
  5
4DF
331
853
  5
819
331
6DF
  5
703
331
85B
  5
824
331
4C1
  5
6DE
331
165
  5
B0
331
7EC
  5
5C7
331
4D9
  5
26D
331
323
  5
857
331
96
  5
613
331
756
  5
759
331
75E
  5
761
331
650
  5
42F
331
4E1
  5
7AE
331
AE
  5
651
331
7AD
  5
4DD
331
766
  5
769
331
4F9
  5
2A2
331
26C
  5
13E
331
DE
  5
AA
331
854
  5
81A
331
85C
  5
826
331
6E0
  5
704
331
166
  5
B1
331
74F
  5
752
331
7ED
  5
85C
331
324
  5
15E
331
4DA
  5
26E
331
97
  5
614
331
757
  5
75A
331
75F
  5
762
331
16E
  5
B2
331
4E2
  5
28B
331
AF
  5
652
331
7AE
  5
4DE
331
767
  5
76A
331
835
  5
799
331
4FA
  5
6E6
331
84D
  5
803
331
403
  5
7ED
331
DF
  5
AB
331
855
  5
81C
331
592
  5
325
331
85D
  5
827
331
157
  5
AC
331
6E1
  5
71B
331
15F
  5
AE
331
750
  5
753
331
7EE
  5
860
331
325
  5
15F
331
3D4
  5
22E
331
4DB
  5
6E0
331
7A7
  5
4DB
331
758
  5
75B
331
98
  5
61B
331
760
  5
763
331
4E3
  5
7BC
331
B0
  5
674
331
768
  5
76B
331
4FB
  5
6E7
331
84E
  5
804
331
573
  5
2A9
331
26E
  5
142
331
404
  5
7EE
331
856
  5
81D
331
296
  5
158
331
85E
  5
828
331
158
  5
AD
331
790
  5
4C1
331
2FE
  5
15B
331
160
  5
AF
331
31E
  5
15C
331
613
  5
7EF
331
91
  5
92
331
751
  5
754
331
7EF
  5
862
331
4DC
  5
6E1
331
326
  5
85E
331
61B
  5
7F1
331
759
  5
75C
331
99
  5
61C
331
A9
  5
64C
331
761
  5
764
331
B1
  5
675
331
769
  5
76C
331
4FC
  5
6E8
331
84F
  5
806
331
376
  5
161
331
574
  5
303
331
857
  5
81E
331
4BD
  5
259
331
85F
  5
832
331
188
  5
7EB
331
159
  5
676
331
791
  5
4C8
331
6E3
  5
71C
331
190
  5
7EC
331
161
  5
67D
331
799
  5
4D9
331
31F
  5
15D
331
3CE
  5
179
331
614
  5
7F0
331
92
  5
93
331
7A1
  5
4DA
331
703
  5
85A
331
752
  5
755
331
7F0
  5
869
331
4DD
  5
6E3
331
327
  5
160
331
61C
  5
802
331
75A
  5
75D
331
64C
  5
38F
331
AA
  5
64D
331
762
  5
765
331
B2
  5
97
331
87F
  5
91
331
76A
  5
783
331
268
  5
DB
331
4FD
  5
6F0
331
377
  5
162
331
575
  5
870
331
71B
  5
724
331
850
  5
810
331
4BE
  5
269
331
858
  5
821
  0
LAYOUT
  5
1D
102
{ACAD_REACTORS
330
19
102
}
330
19
100
AcDbPlotSettings
  1

  2
E:\ACAD2000\plotters\HP LaserJet 5L.pc3
  4

  6

 40
0.0
 41
0.0
 42
0.0
 43
0.0
 44
0.0
 45
0.0
 46
0.0
 47
0.0
 48
0.0
 49
0.0
140
0.0
141
0.0
142
1.0
143
1.0
 70
   688
 72
     0
 73
     0
 74
     5
  7
acad.stb
 75
    16
147
1.0
148
0.0
149
0.0
100
AcDbLayout
  1
Layout1
 70
     1
 71
     1
 10
0.0
 20
0.0
 11
12.0
 21
9.0
 12
0.0
 22
0.0
 32
0.0
 14
1.000000000000000E+20
 24
1.000000000000000E+20
 34
1.000000000000000E+20
 15
-1.000000000000000E+20
 25
-1.000000000000000E+20
 35
-1.000000000000000E+20
146
0.0
 13
0.0
 23
0.0
 33
0.0
 16
1.0
 26
0.0
 36
0.0
 17
0.0
 27
1.0
 37
0.0
 76
     0
330
1A
  0
LAYOUT
  5
21
102
{ACAD_REACTORS
330
19
102
}
330
19
100
AcDbPlotSettings
  1

  2
E:\ACAD2000\plotters\HP LaserJet 5L.pc3
  4
Letter
  6

 40
7.143749713897705
 41
5.027085304260253
 42
7.14373779296875
 43
5.027069091796875
 44
215.8999938964843
 45
279.3999938964843
 46
0.0
 47
0.0
 48
0.0
 49
0.0
140
0.0
141
0.0
142
1.0
143
1.0
 70
 11952
 72
     0
 73
     1
 74
     0
  7
acad.stb
 75
     0
147
1.0
148
320.9271183563369
149
-1041.740968197516
100
AcDbLayout
  1
Model
 70
     1
 71
     0
 10
0.0
 20
0.0
 11
12.0
 21
9.0
 12
0.0
 22
0.0
 32
0.0
 14
0.0
 24
0.0
 34
0.0
 15
0.0
 25
0.0
 35
0.0
146
0.0
 13
0.0
 23
0.0
 33
0.0
 16
1.0
 26
0.0
 36
0.0
 17
0.0
 27
1.0
 37
0.0
 76
     0
330
1E
  0
MLINESTYLE
  5
17
102
{ACAD_REACTORS
330
16
102
}
330
16
100
AcDbMlineStyle
  2
STANDARD
 70
     0
  3

 62
   256
 51
90.0
 52
90.0
 71
     2
 49
0.5
 62
   256
  6
BYLAYER
 49
-0.5
 62
   256
  6
BYLAYER
  0
ACDBPLACEHOLDER
  5
F
102
{ACAD_REACTORS
330
E
102
}
330
E
  0
DICTIONARYVAR
  5
1F5
102
{ACAD_REACTORS
330
1F4
102
}
330
1F4
100
DictionaryVariables
280
     0
  1
1
  0
DICTIONARYVAR
  5
39D
102
{ACAD_REACTORS
330
1F4
102
}
330
1F4
100
DictionaryVariables
280
     0
  1
127
  0
ENDSEC
  0
EOF
