  0
SECTION
  2
HEADER
  9
$ACADVER
  1
AC1009
  9
$ANGBASE
  50
0.0
  9
$ANGDIR
  70
0
  9
$ATTDIA
  70
0
  9
$ATTMODE
  70
0
  9
$ATTREQ
  70
1
  9
$AUNITS
  70
0
  9
$AUPREC
  70
2
  9
$AXISMODE
  70
0
  9
$CECOLOR
  62
256
  9
$CELTYPE
  6
BYLAYER
  9
$CLAYER
  8
0
  9
$DIMALT
  70
0
  9
$DIMALTD
  70
2
  9
$DIMALTF
  40
0.394
  9
$DIMAPOST
  1

  9
$DIMASO
  70
1
  9
$DIMASZ
  40
80.0
  9
$DIMBLK
  1

  9
$DIMBLK1
  1

  9
$DIMBLK2
  1

  9
$DIMCEN
  40
0.09
  9
$DIMCLRD
  70
256
  9
$DIMCLRE
  70
256
  9
$DIMCLRT
  70
256
  9
$DIMDLE
  40
0.0
  9
$DIMDLI
  40
200.0
  9
$DIMEXE
  40
60.0
  9
$DIMEXO
  40
30.0
  9
$DIMGAP
  40
30.0
  9
$DIMLFAC
  40
1.0
  9
$DIMLIM
  70
0
  9
$DIMPOST
  1

  9
$DIMRND
  40
0.1
  9
$DIMSAH
  70
0
  9
$DIMSCALE
  40
1.0
  9
$DIMSE1
  70
0
  9
$DIMSE2
  70
0
  9
$DIMSHO
  70
1
  9
$DIMSOXD
  70
0
  9
$DIMSTYLE
  2
*UNNAMED
  9
$DIMTAD
  70
0
  9
$DIMTFAC
  40
1.0
  9
$DIMTIH
  70
1
  9
$DIMTIX
  70
0
  9
$DIMTM
  40
0.0
  9
$DIMTOFL
  70
1
  9
$DIMTOH
  70
1
  9
$DIMTOL
  70
0
  9
$DIMTP
  40
0.0
  9
$DIMTSZ
  40
0.0
  9
$DIMTVP
  40
0.0
  9
$DIMTXT
  40
84.0
  9
$DIMZIN
  70
0
  9
$DRAGMODE
  70
0
  9
$ELEVATION
  40
0.0
  9
$EXTMAX
  10
0.0
  20
0.0
  30
0.0
  9
$EXTMIN
  10
0.0
  20
0.0
  30
0.0
  9
$FILLETRAD
  40
1.0
  9
$FILLMODE
  70
1
  9
$INSBASE
  10
0.0
  20
0.0
  30
0.0
  9
$LIMMAX
  10
4047.532103
  20
5780.91998
  9
$LIMMIN
  10
-120.547897
  20
-113.93602
  9
$LTSCALE
  40
1.0
  9
$LUNITS
  70
2
  9
$LUPREC
  70
1
  9
$MENU
  1
acad
  9
$MIRRTEXT
  70
0
  9
$ORTHOMODE
  70
0
  9
$OSMODE
  70
0
  9
$PDMODE
  70
0
  9
$PDSIZE
  40
0.0
  9
$PEXTMAX
  10
0.0
  20
0.0
  30
0.0
  9
$PEXTMIN
  10
0.0
  20
0.0
  30
0.0
  9
$PLIMCHECK
  70
0
  9
$PLIMMAX
  10
0.0
  20
0.0
  9
$PLIMMIN
  10
0.0
  20
0.0
  9
$PLINEWID
  40
0.0
  9
$PUCSXDIR
  10
1.0
  20
0.0
  30
0.0
  9
$PUCSYDIR
  10
0.0
  20
1.0
  30
0.0
  9
$QTEXTMODE
  70
0
  9
$SHADEDGE
  70
3
  9
$SHADEDIF
  70
70
  9
$SKETCHINC
  40
1.0
  9
$SPLFRAME
  70
0
  9
$SPLINESEGS
  70
20
  9
$SPLINETYPE
  70
0
  9
$SURFTAB1
  70
6
  9
$SURFTAB2
  70
6
  9
$TDINDWG
  40
0.0
  9
$TDUPDATE
  40
2449702.667959
  9
$TDUSRTIMER
  40
0.0
  9
$TEXTSIZE
  40
5.044092
  9
$TEXTSTYLE
  7
STANDARD
  9
$TILEMODE
  70
1
  9
$TRACEWID
  40
1.0
  9
$UCSORG
  10
0.0
  20
0.0
  30
0.0
  9
$UCSXDIR
  10
1.0
  20
0.0
  30
0.0
  9
$UCSYDIR
  10
0.0
  20
1.0
  30
0.0
  9
$UNITMODE
  70
0
  9
$WORLDVIEW
  70
1
  9
$GRIDMODE
  70
1
  9
$PINSBASE
  10
0.0
  20
0.0
  30
0.0
  9
$PSLTSCALE
  70
1
  9
$TREEDEPTH
  70
3020
  0
ENDSEC
  0
SECTION
  2
TABLES
  0
TABLE
  2
VPORT
  70
1
  0
VPORT
  2
*ACTIVE
  70
0
  10
0.0
  20
0.0
  11
1.0
  21
1.0
  12
1962.500229
  22
4649.46875
  13
0.0
  23
0.0
  14
5.0
  24
5.0
  15
5.0
  25
5.0
  16
0.0
  26
0.0
  36
1.0
  17
0.0
  27
0.0
  37
0.0
  40
3326.498047
  41
1.318584
  42
50.0
  43
0.0
  44
0.0
  50
0.0
  51
0.0
  71
0
  72
100
  73
1
  74
1
  75
0
  76
1
  77
0
  78
0
  0
ENDTAB
  0
TABLE
  2
LTYPE
  70
12
  0
LTYPE
  2
CONTINUOUS
  70
0
  3
CONTINUOUS
  72
65
  73
0
  40
0.0
  0
LTYPE
  2
BORDER
  70
0
  3
BORDER
  72
65
  73
6
  40
1.75
  49
0.5
  49
-0.25
  49
0.5
  49
-0.25
  49
0.0
  49
-0.25
  0
LTYPE
  2
CENTER
  70
0
  3
CENTER
  72
65
  73
4
  40
2.0
  49
1.25
  49
-0.25
  49
0.25
  49
-0.25
  0
LTYPE
  2
DASHDOT
  70
0
  3
DASHDOT
  72
65
  73
4
  40
1.0
  49
0.5
  49
-0.25
  49
0.0
  49
-0.25
  0
LTYPE
  2
DASHED
  70
0
  3
DASHED
  72
65
  73
2
  40
0.75
  49
0.5
  49
-0.25
  0
LTYPE
  2
DIVIDE
  70
0
  3
DIVIDE
  72
65
  73
6
  40
1.25
  49
0.5
  49
-0.25
  49
0.0
  49
-0.25
  49
0.0
  49
-0.25
  0
LTYPE
  2
DOT
  70
0
  3
DOT
  72
65
  73
2
  40
0.25
  49
0.0
  49
-0.25
  0
LTYPE
  2
HIDDEN
  70
0
  3
HIDDEN
  72
65
  73
2
  40
0.375
  49
0.25
  49
-0.125
  0
LTYPE
  2
PHANTOM
  70
0
  3
PHANTOM
  72
65
  73
6
  40
2.5
  49
1.25
  49
-0.25
  49
0.25
  49
-0.25
  49
0.25
  49
-0.25
  0
LTYPE
  2
$INVISIBLE
  70
0
  3
$INVISIBLE
  72
65
  73
2
  40
200.0
  49
-100.0
  49
-100.0
  0
LTYPE
  2
$AUXILIARY
  70
0
  3
$AUXILIARY
  72
65
  73
2
  40
0.1
  49
0.05
  49
-0.05
  0
LTYPE
  2
$CONSTRUCTION
  70
0
  3
$CONSTRUCTION
  72
65
  73
4
  40
0.3
  49
0.2
  49
-0.05
  49
0.0
  49
-0.05
  0
ENDTAB
  0
TABLE
  2
LAYER
  70
1
  0
LAYER
  2
0
  70
64
  6
CONTINUOUS
  62
7
  0
ENDTAB
  0
TABLE
  2
STYLE
  70
1
  0
STYLE
  2
STANDARD
  70
0
  3
txt
  4

  40
0.0
  41
1.0
  42
0.2
  50
0.0
  71
0
  0
ENDTAB
  0
ENDSEC
  0
SECTION
  2
BLOCKS
  0
BLOCK
  8
0
  67
0
  70
65
  2
*D0
  10
0.0
  20
0.0
  30
0.0
  3
*D
  0
LINE
  8
0
  6
CONTINUOUS
  62
7
  67
0
  10
2639.820208
  20
2603.859857
  11
2639.820208
  21
2603.859857
  0
LINE
  8
0
  6
CONTINUOUS
  62
7
  67
0
  10
3239.820208
  20
2603.859857
  11
3239.820208
  21
2603.859857
  0
POLYLINE
  8
0
  6
CONTINUOUS
  62
7
  67
0
  66
1
  0
VERTEX
  8
0
  67
0
  10
2719.820208
  20
2603.859857
  30
0.0
  0
VERTEX
  8
0
  67
0
  10
2719.820208
  20
2603.859857
  30
0.0
  0
VERTEX
  8
0
  67
0
  10
2719.820208
  20
2603.859857
  30
0.0
  0
VERTEX
  8
0
  67
0
  10
2773.047743
  20
2603.859857
  30
0.0
  0
SEQEND
  0
POLYLINE
  8
0
  6
CONTINUOUS
  62
7
  67
0
  66
1
  0
VERTEX
  8
0
  67
0
  10
3159.820208
  20
2603.859857
  30
0.0
  0
VERTEX
  8
0
  67
0
  10
3159.820208
  20
2603.859857
  30
0.0
  0
VERTEX
  8
0
  67
0
  10
3159.820208
  20
2603.859857
  30
0.0
  0
VERTEX
  8
0
  67
0
  10
3106.592673
  20
2603.859857
  30
0.0
  0
SEQEND
  0
SOLID
  8
0
  6
CONTINUOUS
  62
7
  67
0
  10
2639.820208
  20
2603.859857
  11
2719.820208
  21
2590.526523
  12
2639.820208
  22
2603.859857
  13
2719.820208
  23
2617.19319
  0
SOLID
  8
0
  6
CONTINUOUS
  62
7
  67
0
  10
3239.820208
  20
2603.859857
  11
3159.820208
  21
2617.19319
  12
3239.820208
  22
2603.859857
  13
3159.820208
  23
2590.526523
  0
TEXT
  8
0
  62
7
  67
0
  10
2803.047743
  20
2582.709858
  1
600 mm
  40
63.449999
  7
STANDARD
  72
5
  11
3076.592673
  21
2582.709858
  31
0.0
  1001
ACAD
  1000
TCW40_TEXT
  1002
{
  1000
Arial
  1070
-307757056
  1070
0
  1002
}
  0
ENDBLK
  0
BLOCK
  8
0
  67
0
  70
65
  2
*D1
  10
0.0
  20
0.0
  30
0.0
  3
*D
  0
LINE
  8
0
  6
CONTINUOUS
  62
7
  67
0
  10
3419.999939
  20
2540.0
  11
3474.999939
  21
2540.0
  0
LINE
  8
0
  6
CONTINUOUS
  62
7
  67
0
  10
3419.999939
  20
1940.0
  11
3474.999939
  21
1940.0
  0
POLYLINE
  8
0
  6
CONTINUOUS
  62
7
  67
0
  66
1
  0
VERTEX
  8
0
  67
0
  10
3414.999939
  20
2460.0
  30
0.0
  0
VERTEX
  8
0
  67
0
  10
3414.999939
  20
2460.0
  30
0.0
  0
VERTEX
  8
0
  67
0
  10
3414.999939
  20
2460.0
  30
0.0
  0
VERTEX
  8
0
  67
0
  10
3414.999939
  20
2290.76
  30
0.0
  0
SEQEND
  0
POLYLINE
  8
0
  6
CONTINUOUS
  62
7
  67
0
  66
1
  0
VERTEX
  8
0
  67
0
  10
3414.999939
  20
2020.0
  30
0.0
  0
VERTEX
  8
0
  67
0
  10
3414.999939
  20
2020.0
  30
0.0
  0
VERTEX
  8
0
  67
0
  10
3414.999939
  20
2020.0
  30
0.0
  0
VERTEX
  8
0
  67
0
  10
3414.999939
  20
2189.24
  30
0.0
  0
SEQEND
  0
SOLID
  8
0
  6
CONTINUOUS
  62
7
  67
0
  10
3414.999939
  20
2540.0
  11
3401.666606
  21
2460.0
  12
3414.999939
  22
2540.0
  13
3428.333272
  23
2460.0
  0
SOLID
  8
0
  6
CONTINUOUS
  62
7
  67
0
  10
3414.999939
  20
1940.0
  11
3428.333272
  21
2020.0
  12
3414.999939
  22
1940.0
  13
3401.666606
  23
2020.0
  0
TEXT
  8
0
  62
7
  67
0
  10
3278.227474
  20
2218.850001
  1
600 mm
  40
63.449999
  7
STANDARD
  72
5
  11
3551.772404
  21
2218.850001
  31
0.0
  1001
ACAD
  1000
TCW40_TEXT
  1002
{
  1000
Arial
  1070
-307757056
  1070
0
  1002
}
  0
ENDBLK
  0
BLOCK
  8
0
  67
0
  70
65
  2
*A2
  10
0.0
  20
0.0
  30
0.0
  3
*A
  0
POLYLINE
  8
0
  6
CONTINUOUS
  62
7
  67
0
  66
1
  0
VERTEX
  8
0
  67
0
  10
2670.273925
  20
2436.17626
  30
0.0
  0
VERTEX
  8
0
  67
0
  10
2607.662322
  20
2460.702978
  30
0.0
  0
VERTEX
  8
0
  67
0
  10
2527.662322
  20
2460.702978
  30
0.0
  0
SEQEND
  0
SOLID
  8
0
  6
CONTINUOUS
  62
7
  67
0
  10
2744.762634
  20
2406.996948
  11
2675.137144
  21
2448.591045
  12
2744.762634
  22
2406.996948
  13
2665.410707
  23
2423.761476
  0
TEXT
  8
0
  62
7
  67
0
  10
2085.237322
  20
2439.552979
  1
6mm gusset
  40
63.449999
  7
STANDARD
  72
5
  11
2497.662322
  21
2439.552979
  31
0.0
  1001
ACAD
  1000
TCW40_TEXT
  1002
{
  1000
Arial
  1070
-307757056
  1070
0
  1002
}
  0
ENDBLK
  0
BLOCK
  8
0
  67
0
  70
65
  2
*A3
  10
0.0
  20
0.0
  30
0.0
  3
*A
  0
POLYLINE
  8
0
  6
CONTINUOUS
  62
7
  67
0
  66
1
  0
VERTEX
  8
0
  67
0
  10
2773.681213
  20
2218.988387
  30
0.0
  0
VERTEX
  8
0
  67
0
  10
2540.073486
  20
2292.415557
  30
0.0
  0
VERTEX
  8
0
  67
0
  10
2460.073486
  20
2292.415557
  30
0.0
  0
SEQEND
  0
SOLID
  8
0
  6
CONTINUOUS
  62
7
  67
0
  10
2850.0
  20
2195.0
  11
2777.679277
  21
2231.708185
  12
2850.0
  22
2195.0
  13
2769.683148
  23
2206.268589
  0
TEXT
  8
0
  62
7
  67
0
  10
1878.509587
  20
2271.265558
  1
102x51 channell
  40
63.449999
  7
STANDARD
  72
5
  11
2430.073486
  21
2271.265558
  31
0.0
  1001
ACAD
  1000
TCW40_TEXT
  1002
{
  1000
Arial
  1070
-307757056
  1070
0
  1002
}
  0
ENDBLK
  0
BLOCK
  8
0
  67
0
  70
65
  2
*D4
  10
0.0
  20
0.0
  30
0.0
  3
*D
  0
TEXT
  8
0
  62
7
  67
0
  10
3335.018823
  20
1773.534968
  1
%%c20 mm
  40
63.449999
  7
STANDARD
  72
5
  11
3623.243036
  21
1773.534968
  31
0.0
  1001
ACAD
  1000
TCW40_TEXT
  1002
{
  1000
Arial
  1070
-307757056
  1070
0
  1002
}
  0
POLYLINE
  8
0
  6
CONTINUOUS
  62
7
  67
0
  66
1
  0
VERTEX
  8
0
  67
0
  10
3220.247356
  20
1874.542547
  30
0.0
  0
VERTEX
  8
0
  67
0
  10
3225.018823
  20
1794.684966
  30
0.0
  0
VERTEX
  8
0
  67
0
  10
3305.018823
  20
1794.684966
  30
0.0
  0
SEQEND
  0
SOLID
  8
0
  6
CONTINUOUS
  62
7
  67
0
  10
3215.475889
  20
1954.400127
  11
3206.937759
  21
1873.747302
  12
3215.475889
  22
1954.400127
  13
3233.556953
  23
1875.337791
  0
LINE
  8
0
  6
CONTINUOUS
  62
7
  67
0
  10
3174.879456
  20
1964.382324
  11
3254.879456
  21
1964.382324
  0
LINE
  8
0
  6
CONTINUOUS
  62
7
  67
0
  10
3214.879456
  20
1924.382324
  11
3214.879456
  21
2004.382324
  0
ENDBLK
  0
BLOCK
  8
0
  67
0
  70
65
  2
*A5
  10
0.0
  20
0.0
  30
0.0
  3
*A
  0
POLYLINE
  8
0
  6
CONTINUOUS
  62
7
  67
0
  66
1
  0
VERTEX
  8
0
  67
0
  10
2758.41656
  20
1862.313457
  30
0.0
  0
VERTEX
  8
0
  67
0
  10
2907.479724
  20
1538.076433
  30
0.0
  0
VERTEX
  8
0
  67
0
  10
2987.479724
  20
1538.076433
  30
0.0
  0
SEQEND
  0
SOLID
  8
0
  6
CONTINUOUS
  62
7
  67
0
  10
2725.0
  20
1935.0
  11
2746.302136
  21
1856.74403
  12
2725.0
  22
1935.0
  13
2770.530984
  23
1867.882884
  0
TEXT
  8
0
  62
7
  67
0
  10
3017.479724
  20
1516.926434
  1
plate 20mm thick
  40
63.449999
  7
STANDARD
  72
5
  11
3589.860843
  21
1516.926434
  31
0.0
  1001
ACAD
  1000
TCW40_TEXT
  1002
{
  1000
Arial
  1070
-307757056
  1070
0
  1002
}
  0
ENDBLK
  0
BLOCK
  8
0
  67
0
  70
65
  2
*A6
  10
0.0
  20
0.0
  30
0.0
  3
*A
  0
POLYLINE
  8
0
  6
CONTINUOUS
  62
7
  67
0
  66
1
  0
VERTEX
  8
0
  67
0
  10
1353.554602
  20
2503.588193
  30
0.0
  0
VERTEX
  8
0
  67
0
  10
1813.996095
  20
2855.600783
  30
0.0
  0
VERTEX
  8
0
  67
0
  10
1893.996095
  20
2855.600783
  30
0.0
  0
SEQEND
  0
SOLID
  8
0
  6
CONTINUOUS
  62
7
  67
0
  10
1290.0
  20
2455.0
  11
1361.652635
  21
2492.995759
  12
1290.0
  22
2455.0
  13
1345.45657
  23
2514.180627
  0
TEXT
  8
0
  62
7
  67
0
  10
1923.996095
  20
2834.450784
  1
hinge point
  40
63.449999
  7
STANDARD
  72
5
  11
2294.527826
  21
2834.450784
  31
0.0
  1001
ACAD
  1000
TCW40_TEXT
  1002
{
  1000
Arial
  1070
-307757056
  1070
0
  1002
}
  0
ENDBLK
  0
BLOCK
  8
0
  67
0
  70
65
  2
*A7
  10
0.0
  20
0.0
  30
0.0
  3
*A
  0
POLYLINE
  8
0
  6
CONTINUOUS
  62
7
  67
0
  66
1
  0
VERTEX
  8
0
  67
0
  10
1492.192369
  20
653.99195
  30
0.0
  0
VERTEX
  8
0
  67
0
  10
2205.0
  20
460.0
  30
0.0
  0
VERTEX
  8
0
  67
0
  10
2285.0
  20
460.0
  30
0.0
  0
SEQEND
  0
SOLID
  8
0
  6
CONTINUOUS
  62
7
  67
0
  10
1415.0
  20
675.0
  11
1488.691027
  21
641.126555
  12
1415.0
  22
675.0
  13
1495.693711
  23
666.857345
  0
TEXT
  8
0
  62
7
  67
0
  10
2315.0
  20
438.850001
  1
Pulley attached
  40
63.449999
  7
STANDARD
  72
5
  11
2832.805245
  21
438.850001
  31
0.0
  1001
ACAD
  1000
TCW40_TEXT
  1002
{
  1000
Arial
  1070
-307757056
  1070
0
  1002
}
  0
ENDBLK
  0
BLOCK
  8
0
  67
0
  70
65
  2
*A8
  10
0.0
  20
0.0
  30
0.0
  3
*A
  0
POLYLINE
  8
0
  6
CONTINUOUS
  62
7
  67
0
  66
1
  0
VERTEX
  8
0
  67
0
  10
2205.0
  20
460.0
  30
0.0
  0
VERTEX
  8
0
  67
0
  10
2241.523529
  20
397.318039
  30
0.0
  0
VERTEX
  8
0
  67
0
  10
2321.523529
  20
397.318039
  30
0.0
  0
SEQEND
  0
TEXT
  8
0
  62
7
  67
0
  10
2351.523529
  20
376.16804
  1
to base
  40
63.449999
  7
STANDARD
  72
5
  11
2599.925102
  21
376.16804
  31
0.0
  1001
ACAD
  1000
TCW40_TEXT
  1002
{
  1000
Arial
  1070
-307757056
  1070
0
  1002
}
  0
ENDBLK
  0
BLOCK
  8
0
  67
0
  70
65
  2
*A9
  10
0.0
  20
0.0
  30
0.0
  3
*A
  0
POLYLINE
  8
0
  6
CONTINUOUS
  62
7
  67
0
  66
1
  0
VERTEX
  8
0
  67
0
  10
1334.100721
  20
753.917574
  30
0.0
  0
VERTEX
  8
0
  67
0
  10
1497.461361
  20
902.951446
  30
0.0
  0
VERTEX
  8
0
  67
0
  10
1577.461361
  20
902.951446
  30
0.0
  0
SEQEND
  0
SOLID
  8
0
  6
CONTINUOUS
  62
7
  67
0
  10
1275.0
  20
700.0
  11
1343.086983
  21
744.067454
  12
1275.0
  22
700.0
  13
1325.114459
  23
763.767694
  0
TEXT
  8
0
  62
7
  67
0
  10
1607.461361
  20
881.801447
  1
pulley attached 
  40
63.449999
  7
STANDARD
  72
5
  11
2137.912235
  21
881.801447
  31
0.0
  1001
ACAD
  1000
TCW40_TEXT
  1002
{
  1000
Arial
  1070
-307757056
  1070
0
  1002
}
  0
ENDBLK
  0
BLOCK
  8
0
  67
0
  70
65
  2
*A10
  10
0.0
  20
0.0
  30
0.0
  3
*A
  0
POLYLINE
  8
0
  6
CONTINUOUS
  62
7
  67
0
  66
1
  0
VERTEX
  8
0
  67
0
  10
1520.0
  20
885.0
  30
0.0
  0
VERTEX
  8
0
  67
0
  10
1546.791449
  20
828.956314
  30
0.0
  0
VERTEX
  8
0
  67
0
  10
1626.791449
  20
828.956314
  30
0.0
  0
SEQEND
  0
TEXT
  8
0
  62
7
  67
0
  10
1656.791449
  20
807.806315
  1
to mast
  40
63.449999
  7
STANDARD
  72
5
  11
1905.082096
  21
807.806315
  31
0.0
  1001
ACAD
  1000
TCW40_TEXT
  1002
{
  1000
Arial
  1070
-307757056
  1070
0
  1002
}
  0
ENDBLK
  0
BLOCK
  8
0
  67
0
  70
65
  2
*A11
  10
0.0
  20
0.0
  30
0.0
  3
*A
  0
POLYLINE
  8
0
  6
CONTINUOUS
  62
7
  67
0
  66
1
  0
VERTEX
  8
0
  67
0
  10
1512.907297
  20
1186.821631
  30
0.0
  0
VERTEX
  8
0
  67
0
  10
1735.0
  20
1135.0
  30
0.0
  0
VERTEX
  8
0
  67
0
  10
1815.0
  20
1135.0
  30
0.0
  0
SEQEND
  0
SOLID
  8
0
  6
CONTINUOUS
  62
7
  67
0
  10
1435.0
  20
1205.0
  11
1509.877569
  21
1173.837081
  12
1435.0
  22
1205.0
  13
1515.937025
  23
1199.80618
  0
TEXT
  8
0
  62
7
  67
0
  10
1845.0
  20
1113.850001
  1
6mm steel rope
  40
63.449999
  7
STANDARD
  72
5
  11
2366.872552
  21
1113.850001
  31
0.0
  1001
ACAD
  1000
TCW40_TEXT
  1002
{
  1000
Arial
  1070
-307757056
  1070
0
  1002
}
  0
ENDBLK
  0
BLOCK
  8
0
  67
0
  70
65
  2
*A12
  10
0.0
  20
0.0
  30
0.0
  3
*A
  0
POLYLINE
  8
0
  6
CONTINUOUS
  62
7
  67
0
  66
1
  0
VERTEX
  8
0
  67
0
  10
1624.698887
  20
1482.946264
  30
0.0
  0
VERTEX
  8
0
  67
0
  10
1670.0
  20
1450.0
  30
0.0
  0
VERTEX
  8
0
  67
0
  10
1750.0
  20
1450.0
  30
0.0
  0
SEQEND
  0
SOLID
  8
0
  6
CONTINUOUS
  62
7
  67
0
  10
1560.0
  20
1530.0
  11
1616.856597
  21
1472.163116
  12
1560.0
  22
1530.0
  13
1632.541176
  23
1493.729412
  0
TEXT
  8
0
  62
7
  67
0
  10
1780.0
  20
1428.850001
  1
winch
  40
63.449999
  7
STANDARD
  72
5
  11
1973.603846
  21
1428.850001
  31
0.0
  1001
ACAD
  1000
TCW40_TEXT
  1002
{
  1000
Arial
  1070
-307757056
  1070
0
  1002
}
  0
ENDBLK
  0
BLOCK
  8
0
  67
0
  70
65
  2
*A13
  10
0.0
  20
0.0
  30
0.0
  3
*A
  0
POLYLINE
  8
0
  6
CONTINUOUS
  62
7
  67
0
  66
1
  0
VERTEX
  8
0
  67
0
  10
1251.004828
  20
3270.034702
  30
0.0
  0
VERTEX
  8
0
  67
0
  10
1464.574635
  20
3199.883448
  30
0.0
  0
VERTEX
  8
0
  67
0
  10
1544.574635
  20
3199.883448
  30
0.0
  0
SEQEND
  0
SOLID
  8
0
  6
CONTINUOUS
  62
7
  67
0
  10
1175.0
  20
3295.0
  11
1246.843945
  21
3257.36723
  12
1175.0
  22
3295.0
  13
1255.165711
  23
3282.702173
  0
TEXT
  8
0
  62
7
  67
0
  10
1574.574635
  20
3178.733449
  1
100x100x5mm RHS
  40
63.449999
  7
STANDARD
  72
5
  11
2252.188097
  21
3178.733449
  31
0.0
  1001
ACAD
  1000
TCW40_TEXT
  1002
{
  1000
Arial
  1070
-307757056
  1070
0
  1002
}
  0
ENDBLK
  0
BLOCK
  8
0
  67
0
  70
65
  2
*A14
  10
0.0
  20
0.0
  30
0.0
  3
*A
  0
POLYLINE
  8
0
  6
CONTINUOUS
  62
7
  67
0
  66
1
  0
VERTEX
  8
0
  67
0
  10
1283.930451
  20
4455.602868
  30
0.0
  0
VERTEX
  8
0
  67
0
  10
1580.0
  20
4630.0
  30
0.0
  0
VERTEX
  8
0
  67
0
  10
1660.0
  20
4630.0
  30
0.0
  0
SEQEND
  0
SOLID
  8
0
  6
CONTINUOUS
  62
7
  67
0
  10
1215.0
  20
4415.0
  11
1290.697596
  21
4444.11446
  12
1215.0
  22
4415.0
  13
1277.163306
  23
4467.091277
  0
TEXT
  8
0
  62
7
  67
0
  10
1690.0
  20
4608.850001
  1
80x80xx4mm RHS
  40
63.449999
  7
STANDARD
  72
5
  11
2321.246154
  21
4608.850001
  31
0.0
  1001
ACAD
  1000
TCW40_TEXT
  1002
{
  1000
Arial
  1070
-307757056
  1070
0
  1002
}
  0
ENDBLK
  0
BLOCK
  8
0
  67
0
  70
65
  2
*A15
  10
0.0
  20
0.0
  30
0.0
  3
*A
  0
POLYLINE
  8
0
  6
CONTINUOUS
  62
7
  67
0
  66
1
  0
VERTEX
  8
0
  67
0
  10
1385.787567
  20
4159.382726
  30
0.0
  0
VERTEX
  8
0
  67
0
  10
1694.781715
  20
4054.938315
  30
0.0
  0
VERTEX
  8
0
  67
0
  10
1774.781715
  20
4054.938315
  30
0.0
  0
SEQEND
  0
SOLID
  8
0
  6
CONTINUOUS
  62
7
  67
0
  10
1310.0
  20
4185.0
  11
1381.518021
  21
4146.751465
  12
1310.0
  22
4185.0
  13
1390.057112
  23
4172.013987
  0
TEXT
  8
0
  62
7
  67
0
  10
1804.781715
  20
4033.788316
  1
Top pulley
  40
63.449999
  7
STANDARD
  72
5
  11
2154.163446
  21
4033.788316
  31
0.0
  1001
ACAD
  1000
TCW40_TEXT
  1002
{
  1000
Arial
  1070
-307757056
  1070
0
  1002
}
  0
ENDBLK
  0
BLOCK
  8
0
  67
0
  70
65
  2
*D16
  10
0.0
  20
0.0
  30
0.0
  3
*D
  0
LINE
  8
0
  6
CONTINUOUS
  62
7
  67
0
  10
850.0
  20
475.0
  11
850.0
  21
475.0
  0
LINE
  8
0
  6
CONTINUOUS
  62
7
  67
0
  10
850.0
  20
2495.0
  11
850.0
  21
2495.0
  0
POLYLINE
  8
0
  6
CONTINUOUS
  62
7
  67
0
  66
1
  0
VERTEX
  8
0
  67
0
  10
850.0
  20
555.0
  30
0.0
  0
VERTEX
  8
0
  67
0
  10
850.0
  20
555.0
  30
0.0
  0
VERTEX
  8
0
  67
0
  10
850.0
  20
555.0
  30
0.0
  0
VERTEX
  8
0
  67
0
  10
850.0
  20
1434.24
  30
0.0
  0
SEQEND
  0
POLYLINE
  8
0
  6
CONTINUOUS
  62
7
  67
0
  66
1
  0
VERTEX
  8
0
  67
0
  10
850.0
  20
2415.0
  30
0.0
  0
VERTEX
  8
0
  67
0
  10
850.0
  20
2415.0
  30
0.0
  0
VERTEX
  8
0
  67
0
  10
850.0
  20
2415.0
  30
0.0
  0
VERTEX
  8
0
  67
0
  10
850.0
  20
1535.76
  30
0.0
  0
SEQEND
  0
SOLID
  8
0
  6
CONTINUOUS
  62
7
  67
0
  10
850.0
  20
475.0
  11
863.333333
  21
555.0
  12
850.0
  22
475.0
  13
836.666667
  23
555.0
  0
SOLID
  8
0
  6
CONTINUOUS
  62
7
  67
0
  10
850.0
  20
2495.0
  11
836.666667
  21
2415.0
  12
850.0
  22
2495.0
  13
863.333333
  23
2415.0
  0
TEXT
  8
0
  62
7
  67
0
  10
692.169974
  20
1463.850001
  1
2020 mm
  40
63.449999
  7
STANDARD
  72
5
  11
1007.830026
  21
1463.850001
  31
0.0
  1001
ACAD
  1000
TCW40_TEXT
  1002
{
  1000
Arial
  1070
-307757056
  1070
0
  1002
}
  0
ENDBLK
  0
BLOCK
  8
0
  67
0
  70
65
  2
*A17
  10
0.0
  20
0.0
  30
0.0
  3
*A
  0
POLYLINE
  8
0
  6
CONTINUOUS
  62
7
  67
0
  66
1
  0
VERTEX
  8
0
  67
0
  10
3052.876121
  20
4269.965711
  30
0.0
  0
VERTEX
  8
0
  67
0
  10
3169.738276
  20
4137.283202
  30
0.0
  0
VERTEX
  8
0
  67
0
  10
3249.738276
  20
4137.283202
  30
0.0
  0
SEQEND
  0
SOLID
  8
0
  6
CONTINUOUS
  62
7
  67
0
  10
3000.0
  20
4330.0
  11
3042.870406
  21
4261.153024
  12
3000.0
  22
4330.0
  13
3062.881836
  23
4278.778398
  0
TEXT
  8
0
  62
7
  67
0
  10
3279.738276
  20
4116.133203
  1
Spigot to fit
  40
63.449999
  7
STANDARD
  72
5
  11
3658.5895
  21
4116.133203
  31
0.0
  1001
ACAD
  1000
TCW40_TEXT
  1002
{
  1000
Arial
  1070
-307757056
  1070
0
  1002
}
  0
ENDBLK
  0
BLOCK
  8
0
  67
0
  70
65
  2
*A18
  10
0.0
  20
0.0
  30
0.0
  3
*A
  0
POLYLINE
  8
0
  6
CONTINUOUS
  62
7
  67
0
  66
1
  0
VERTEX
  8
0
  67
0
  10
3170.0
  20
4135.0
  30
0.0
  0
VERTEX
  8
0
  67
0
  10
3223.179206
  20
4063.28807
  30
0.0
  0
VERTEX
  8
0
  67
0
  10
3303.179206
  20
4063.28807
  30
0.0
  0
SEQEND
  0
TEXT
  8
0
  62
7
  67
0
  10
3333.179206
  20
4042.138071
  1
in top of mast
  40
63.449999
  7
STANDARD
  72
5
  11
3787.756304
  21
4042.138071
  31
0.0
  1001
ACAD
  1000
TCW40_TEXT
  1002
{
  1000
Arial
  1070
-307757056
  1070
0
  1002
}
  0
ENDBLK
  0
BLOCK
  8
0
  67
0
  70
65
  2
*D19
  10
0.0
  20
0.0
  30
0.0
  3
*D
  0
LINE
  8
0
  6
CONTINUOUS
  62
7
  67
0
  10
3255.0
  20
4650.0
  11
3430.0
  21
4650.0
  0
LINE
  8
0
  6
CONTINUOUS
  62
7
  67
0
  10
3255.0
  20
5450.0
  11
3430.0
  21
5450.0
  0
POLYLINE
  8
0
  6
CONTINUOUS
  62
7
  67
0
  66
1
  0
VERTEX
  8
0
  67
0
  10
3370.0
  20
4730.0
  30
0.0
  0
VERTEX
  8
0
  67
0
  10
3370.0
  20
4730.0
  30
0.0
  0
VERTEX
  8
0
  67
0
  10
3370.0
  20
4730.0
  30
0.0
  0
VERTEX
  8
0
  67
0
  10
3370.0
  20
4999.24
  30
0.0
  0
SEQEND
  0
POLYLINE
  8
0
  6
CONTINUOUS
  62
7
  67
0
  66
1
  0
VERTEX
  8
0
  67
0
  10
3370.0
  20
5370.0
  30
0.0
  0
VERTEX
  8
0
  67
0
  10
3370.0
  20
5370.0
  30
0.0
  0
VERTEX
  8
0
  67
0
  10
3370.0
  20
5370.0
  30
0.0
  0
VERTEX
  8
0
  67
0
  10
3370.0
  20
5100.76
  30
0.0
  0
SEQEND
  0
SOLID
  8
0
  6
CONTINUOUS
  62
7
  67
0
  10
3370.0
  20
4650.0
  11
3383.333333
  21
4730.0
  12
3370.0
  22
4650.0
  13
3356.666667
  23
4730.0
  0
SOLID
  8
0
  6
CONTINUOUS
  62
7
  67
0
  10
3370.0
  20
5450.0
  11
3356.666667
  21
5370.0
  12
3370.0
  22
5450.0
  13
3383.333333
  23
5370.0
  0
TEXT
  8
0
  62
7
  67
0
  10
3233.227535
  20
5028.850001
  1
800 mm
  40
63.449999
  7
STANDARD
  72
5
  11
3506.772465
  21
5028.850001
  31
0.0
  1001
ACAD
  1000
TCW40_TEXT
  1002
{
  1000
Arial
  1070
-307757056
  1070
0
  1002
}
  0
ENDBLK
  0
BLOCK
  8
0
  67
0
  70
65
  2
*D20
  10
0.0
  20
0.0
  30
0.0
  3
*D
  0
LINE
  8
0
  6
CONTINUOUS
  62
7
  67
0
  10
2875.0
  20
4545.0
  11
2875.0
  21
4445.0
  0
LINE
  8
0
  6
CONTINUOUS
  62
7
  67
0
  10
3125.0
  20
4545.0
  11
3125.0
  21
4445.0
  0
LINE
  8
0
  6
CONTINUOUS
  62
7
  67
0
  10
2715.0
  20
4505.0
  11
2795.0
  21
4505.0
  0
LINE
  8
0
  6
CONTINUOUS
  62
7
  67
0
  10
2875.0
  20
4505.0
  11
3125.0
  21
4505.0
  0
LINE
  8
0
  6
CONTINUOUS
  62
7
  67
0
  10
3365.0
  20
4505.0
  11
3365.0
  21
4505.0
  0
POLYLINE
  8
0
  6
CONTINUOUS
  62
7
  67
0
  66
1
  0
VERTEX
  8
0
  67
0
  10
3365.0
  20
4505.0
  30
0.0
  0
VERTEX
  8
0
  67
0
  10
3285.0
  20
4505.0
  30
0.0
  0
VERTEX
  8
0
  67
0
  10
3205.0
  20
4505.0
  30
0.0
  0
SEQEND
  0
SOLID
  8
0
  6
CONTINUOUS
  62
7
  67
0
  10
3125.0
  20
4505.0
  11
3205.0
  21
4491.666667
  12
3125.0
  22
4505.0
  13
3205.0
  23
4518.333333
  0
SOLID
  8
0
  6
CONTINUOUS
  62
7
  67
0
  10
2875.0
  20
4505.0
  11
2795.0
  21
4518.333333
  12
2875.0
  22
4505.0
  13
2795.0
  23
4491.666667
  0
TEXT
  8
0
  62
7
  67
0
  10
3395.0
  20
4483.850001
  1
250 mm
  40
63.449999
  7
STANDARD
  72
5
  11
3668.54493
  21
4483.850001
  31
0.0
  1001
ACAD
  1000
TCW40_TEXT
  1002
{
  1000
Arial
  1070
-307757056
  1070
0
  1002
}
  0
ENDBLK
  0
BLOCK
  8
0
  67
0
  70
65
  2
*A21
  10
0.0
  20
0.0
  30
0.0
  3
*A
  0
POLYLINE
  8
0
  6
CONTINUOUS
  62
7
  67
0
  66
1
  0
VERTEX
  8
0
  67
0
  10
2798.891655
  20
4984.647916
  30
0.0
  0
VERTEX
  8
0
  67
0
  10
2624.409764
  20
5041.154401
  30
0.0
  0
VERTEX
  8
0
  67
0
  10
2544.409764
  20
5041.154401
  30
0.0
  0
SEQEND
  0
SOLID
  8
0
  6
CONTINUOUS
  62
7
  67
0
  10
2875.0
  20
4960.0
  11
2802.999641
  21
4997.33264
  12
2875.0
  22
4960.0
  13
2794.783669
  23
4971.963192
  0
TEXT
  8
0
  62
7
  67
0
  10
1921.026547
  20
5020.004402
  1
25x25x3mm RHS
  40
63.449999
  7
STANDARD
  72
5
  11
2514.409764
  21
5020.004402
  31
0.0
  1001
ACAD
  1000
TCW40_TEXT
  1002
{
  1000
Arial
  1070
-307757056
  1070
0
  1002
}
  0
ENDBLK
  0
BLOCK
  8
0
  67
0
  70
65
  2
*A22
  10
0.0
  20
0.0
  30
0.0
  3
*A
  0
POLYLINE
  8
0
  6
CONTINUOUS
  62
7
  67
0
  66
1
  0
VERTEX
  8
0
  67
0
  10
2818.591302
  20
4601.29956
  30
0.0
  0
VERTEX
  8
0
  67
0
  10
2591.201857
  20
4530.767932
  30
0.0
  0
VERTEX
  8
0
  67
0
  10
2591.201857
  20
4530.767932
  30
0.0
  0
VERTEX
  8
0
  67
0
  10
2511.201857
  20
4530.767932
  30
0.0
  0
SEQEND
  0
SOLID
  8
0
  6
CONTINUOUS
  62
7
  67
0
  10
2895.0
  20
4625.0
  11
2814.641229
  21
4614.034343
  12
2895.0
  22
4625.0
  13
2822.541375
  23
4588.564777
  0
TEXT
  8
0
  62
7
  67
0
  10
2241.304654
  20
4509.617933
  1
Gusset
  40
63.449999
  7
STANDARD
  72
5
  11
2481.201857
  21
4509.617933
  31
0.0
  1001
ACAD
  1000
TCW40_TEXT
  1002
{
  1000
Arial
  1070
-307757056
  1070
0
  1002
}
  0
ENDBLK
  0
BLOCK
  8
0
  67
0
  70
65
  2
*A23
  10
0.0
  20
0.0
  30
0.0
  3
*A
  0
POLYLINE
  8
0
  6
CONTINUOUS
  62
7
  67
0
  66
1
  0
VERTEX
  8
0
  67
0
  10
2836.867748
  20
4732.185785
  30
0.0
  0
VERTEX
  8
0
  67
0
  10
2334.531401
  20
4842.678497
  30
0.0
  0
VERTEX
  8
0
  67
0
  10
2254.531401
  20
4842.678497
  30
0.0
  0
SEQEND
  0
SOLID
  8
0
  6
CONTINUOUS
  62
7
  67
0
  10
2915.0
  20
4715.0
  11
2839.732046
  21
4745.207827
  12
2915.0
  22
4715.0
  13
2834.003451
  23
4719.163743
  0
TEXT
  8
0
  62
7
  67
0
  10
1976.936996
  20
4821.678497
  1
Rotator
  40
63.0
  7
STANDARD
  72
5
  11
2224.531401
  21
4821.678497
  31
0.0
  1001
ACAD
  1000
TCW40_TEXT
  1002
{
  1000
Arial
  1070
-307757056
  1070
0
  1002
}
  0
ENDBLK
  0
BLOCK
  8
0
  67
0
  70
65
  2
*A24
  10
0.0
  20
0.0
  30
0.0
  3
*A
  0
POLYLINE
  8
0
  6
CONTINUOUS
  62
7
  67
0
  66
1
  0
VERTEX
  8
0
  67
0
  10
2890.236305
  20
5466.144347
  30
0.0
  0
VERTEX
  8
0
  67
0
  10
2338.642242
  20
5508.634671
  30
0.0
  0
VERTEX
  8
0
  67
0
  10
2258.642242
  20
5508.634671
  30
0.0
  0
SEQEND
  0
SOLID
  8
0
  6
CONTINUOUS
  62
7
  67
0
  10
2970.0
  20
5460.0
  11
2891.260363
  21
5479.438296
  12
2970.0
  22
5460.0
  13
2889.212247
  23
5452.850398
  0
TEXT
  8
0
  62
7
  67
0
  10
1852.477906
  20
5487.634671
  1
Nylon bush
  40
63.0
  7
STANDARD
  72
5
  11
2228.642242
  21
5487.634671
  31
0.0
  1001
ACAD
  1000
TCW40_TEXT
  1002
{
  1000
Arial
  1070
-307757056
  1070
0
  1002
}
  0
ENDBLK
  0
ENDSEC
  0
SECTION
  2
ENTITIES
  0
LINE
  8
0
  6
CONTINUOUS
  62
7
  67
0
  10
3900.0
  20
5640.0
  11
25.0
  21
5640.0
  0
LINE
  8
0
  6
CONTINUOUS
  62
7
  67
0
  10
127.28397
  20
473.512367
  11
727.28397
  21
473.512367
  0
LINE
  8
0
  6
CONTINUOUS
  62
7
  67
0
  10
727.28397
  20
473.512367
  11
727.28397
  21
493.512367
  0
LINE
  8
0
  6
CONTINUOUS
  62
7
  67
0
  10
727.28397
  20
493.512367
  11
127.28397
  21
493.512367
  0
LINE
  8
0
  6
CONTINUOUS
  62
7
  67
0
  10
127.28397
  20
493.512367
  11
127.28397
  21
473.512367
  0
LINE
  8
0
  6
CONTINUOUS
  62
7
  67
0
  10
482.28397
  20
493.512367
  11
482.28397
  21
2493.512367
  0
LINE
  8
0
  6
CONTINUOUS
  62
7
  67
0
  10
482.28397
  20
2493.512367
  11
532.28397
  21
2493.512367
  0
LINE
  8
0
  6
CONTINUOUS
  62
7
  67
0
  10
532.28397
  20
2493.512367
  11
532.28397
  21
493.512367
  0
LINE
  8
0
  6
CONTINUOUS
  62
7
  67
0
  10
372.28397
  20
493.512367
  11
372.28397
  21
2493.512367
  0
LINE
  8
0
  6
CONTINUOUS
  62
7
  67
0
  10
372.28397
  20
2493.512367
  11
322.28397
  21
2493.512367
  0
LINE
  8
0
  6
CONTINUOUS
  62
7
  67
0
  10
322.28397
  20
2493.512367
  11
322.28397
  21
493.512367
  0
LINE
  8
0
  6
CONTINUOUS
  62
7
  67
0
  10
477.28397
  20
593.512367
  11
377.28397
  21
593.512367
  0
LINE
  8
0
  6
CONTINUOUS
  62
7
  67
0
  10
477.28397
  20
593.512367
  11
477.28397
  21
3273.512367
  0
LINE
  8
0
  6
CONTINUOUS
  62
7
  67
0
  10
477.28397
  20
3273.512367
  11
477.28397
  21
3448.512367
  0
LINE
  8
0
  6
CONTINUOUS
  62
7
  67
0
  10
427.28397
  20
3458.512367
  11
427.28397
  21
3438.512367
  0
LINE
  8
0
  6
CONTINUOUS
  62
7
  67
0
  10
427.28397
  20
3438.512367
  11
477.28397
  21
3448.512367
  0
LINE
  8
0
  6
CONTINUOUS
  62
7
  67
0
  10
427.28397
  20
3458.512367
  11
377.28397
  21
3448.512367
  0
LINE
  8
0
  6
CONTINUOUS
  62
7
  67
0
  10
477.28397
  20
3448.512367
  11
477.28397
  21
4173.512367
  0
LINE
  8
0
  6
CONTINUOUS
  62
7
  67
0
  10
477.28397
  20
4173.512367
  11
377.28397
  21
4173.512367
  0
LINE
  8
0
  6
CONTINUOUS
  62
7
  67
0
  10
377.28397
  20
4173.512367
  11
377.28397
  21
593.512367
  0
LINE
  8
0
  6
CONTINUOUS
  62
7
  67
0
  10
467.28397
  20
4173.512367
  11
467.28397
  21
4873.512367
  0
LINE
  8
0
  6
CONTINUOUS
  62
7
  67
0
  10
467.28397
  20
4873.512367
  11
427.28397
  21
4863.512367
  0
LINE
  8
0
  6
CONTINUOUS
  62
7
  67
0
  10
427.28397
  20
4863.512367
  11
427.28397
  21
4883.512367
  0
LINE
  8
0
  6
CONTINUOUS
  62
7
  67
0
  10
427.28397
  20
4883.512367
  11
387.28397
  21
4873.512367
  0
LINE
  8
0
  6
CONTINUOUS
  62
7
  67
0
  10
387.28397
  20
4873.512367
  11
387.28397
  21
4173.512367
  0
LINE
  8
0
  6
CONTINUOUS
  62
7
  67
0
  10
467.28397
  20
4873.512367
  11
467.28397
  21
5448.512367
  0
LINE
  8
0
  6
CONTINUOUS
  62
7
  67
0
  10
467.28397
  20
5448.512367
  11
387.28397
  21
5448.512367
  0
LINE
  8
0
  6
CONTINUOUS
  62
7
  67
0
  10
387.28397
  20
5448.512367
  11
387.28397
  21
4873.512367
  0
LINE
  8
0
  6
$AUXILIARY
  62
7
  67
0
  10
467.28397
  20
4173.512367
  11
467.28397
  21
3458.512367
  0
LINE
  8
0
  6
$AUXILIARY
  62
7
  67
0
  10
467.28397
  20
3458.512367
  11
467.28397
  21
608.512367
  0
LINE
  8
0
  6
$AUXILIARY
  62
7
  67
0
  10
467.28397
  20
608.512367
  11
387.28397
  21
608.512367
  0
LINE
  8
0
  6
$AUXILIARY
  62
7
  67
0
  10
387.28397
  20
608.512367
  11
387.28397
  21
4173.512367
  0
LINE
  8
0
  6
CONTINUOUS
  62
7
  67
0
  10
482.28397
  20
2493.512367
  11
482.28397
  21
2643.512367
  0
LINE
  8
0
  6
CONTINUOUS
  62
7
  67
0
  10
482.28397
  20
2643.512367
  11
477.28397
  21
2643.512367
  0
LINE
  8
0
  6
CONTINUOUS
  62
7
  67
0
  10
482.28397
  20
2643.512367
  11
477.28397
  21
2648.512367
  0
LINE
  8
0
  6
CONTINUOUS
  62
7
  67
0
  10
377.28397
  20
2648.512367
  11
372.28397
  21
2643.512367
  0
LINE
  8
0
  6
CONTINUOUS
  62
7
  67
0
  10
372.28397
  20
2643.512367
  11
377.28397
  21
2643.512367
  0
LINE
  8
0
  6
CONTINUOUS
  62
7
  67
0
  10
372.28397
  20
2643.512367
  11
372.28397
  21
2493.512367
  0
LINE
  8
0
  6
CONTINUOUS
  62
7
  67
0
  10
372.28397
  20
2493.512367
  11
372.28397
  21
2343.512367
  0
LINE
  8
0
  6
CONTINUOUS
  62
7
  67
0
  10
372.28397
  20
2343.512367
  11
377.28397
  21
2343.512367
  0
LINE
  8
0
  6
CONTINUOUS
  62
7
  67
0
  10
372.28397
  20
2343.512367
  11
377.28397
  21
2338.512367
  0
LINE
  8
0
  6
CONTINUOUS
  62
7
  67
0
  10
477.28397
  20
2343.512367
  11
482.28397
  21
2343.512367
  0
LINE
  8
0
  6
CONTINUOUS
  62
7
  67
0
  10
482.28397
  20
2343.512367
  11
477.28397
  21
2338.512367
  0
LINE
  8
0
  6
CONTINUOUS
  62
7
  67
0
  10
482.28397
  20
2473.512367
  11
482.28397
  21
2473.512367
  0
LINE
  8
0
  6
CONTINUOUS
  62
7
  67
0
  10
677.28397
  20
493.512367
  11
532.28397
  21
973.512367
  0
LINE
  8
0
  6
CONTINUOUS
  62
7
  67
0
  10
322.28397
  20
973.512367
  11
177.28397
  21
493.512367
  0
LINE
  8
0
  6
CONTINUOUS
  62
7
  67
0
  10
982.792539
  20
493.901221
  11
982.792539
  21
473.901221
  0
LINE
  8
0
  6
CONTINUOUS
  62
7
  67
0
  10
1332.792539
  20
493.901221
  11
1332.792539
  21
2493.901221
  0
LINE
  8
0
  6
CONTINUOUS
  62
7
  67
0
  10
1332.792539
  20
2493.901221
  11
1232.792539
  21
2493.901221
  0
LINE
  8
0
  6
CONTINUOUS
  62
7
  67
0
  10
1232.792539
  20
2493.901221
  11
1232.792539
  21
493.901221
  0
LINE
  8
0
  6
CONTINUOUS
  62
7
  67
0
  10
1327.792539
  20
493.901221
  11
1327.792539
  21
2493.901221
  0
LINE
  8
0
  6
CONTINUOUS
  62
7
  67
0
  10
1237.792539
  20
2493.901221
  11
1237.792539
  21
493.901221
  0
LINE
  8
0
  6
CONTINUOUS
  62
7
  67
0
  10
1222.792539
  20
593.901221
  11
1122.792539
  21
593.901221
  0
LINE
  8
0
  6
CONTINUOUS
  62
7
  67
0
  10
1222.792539
  20
593.901221
  11
1222.792539
  21
3448.901221
  0
LINE
  8
0
  6
CONTINUOUS
  62
7
  67
0
  10
1222.792539
  20
3448.901221
  11
1172.792539
  21
3438.901221
  0
LINE
  8
0
  6
CONTINUOUS
  62
7
  67
0
  10
1172.792539
  20
3438.901221
  11
1172.792539
  21
3458.901221
  0
LINE
  8
0
  6
CONTINUOUS
  62
7
  67
0
  10
1172.792539
  20
3458.901221
  11
1122.792539
  21
3438.901221
  0
LINE
  8
0
  6
CONTINUOUS
  62
7
  67
0
  10
1122.792539
  20
3438.901221
  11
1122.792539
  21
593.901221
  0
LINE
  8
0
  6
CONTINUOUS
  62
7
  67
0
  10
1222.792539
  20
643.901221
  11
1232.792539
  21
643.901221
  0
LINE
  8
0
  6
$AUXILIARY
  62
7
  67
0
  10
1232.792539
  20
643.901221
  11
1272.792539
  21
643.901221
  0
LINE
  8
0
  6
$AUXILIARY
  62
7
  67
0
  10
1292.792539
  20
663.901221
  11
1292.792539
  21
703.901221
  0
ARC
  8
0
  6
$AUXILIARY
  62
7
  67
0
  10
1272.792539
  20
663.901221
  40
20.0
  50
-90.0
  51
0.0
  0
LINE
  8
0
  6
CONTINUOUS
  62
7
  67
0
  10
1222.792539
  20
723.901221
  11
1232.792539
  21
723.901221
  0
LINE
  8
0
  6
$AUXILIARY
  62
7
  67
0
  10
1232.792539
  20
723.901221
  11
1272.792539
  21
723.901221
  0
ARC
  8
0
  6
$AUXILIARY
  62
7
  67
0
  10
1272.792539
  20
703.901221
  40
20.0
  50
0.0
  51
90.0
  0
CIRCLE
  8
0
  6
$AUXILIARY
  62
7
  67
0
  10
1267.792539
  20
683.901221
  40
5.0
  0
CIRCLE
  8
0
  6
$AUXILIARY
  62
7
  67
0
  10
1267.792539
  20
683.901221
  40
35.0
  0
LINE
  8
0
  6
CONTINUOUS
  62
7
  67
0
  10
1332.792539
  20
643.901221
  11
1407.792539
  21
643.901221
  0
LINE
  8
0
  6
CONTINUOUS
  62
7
  67
0
  10
1332.792539
  20
723.901221
  11
1407.792539
  21
723.901221
  0
LINE
  8
0
  6
CONTINUOUS
  62
7
  67
0
  10
1427.792539
  20
703.901221
  11
1427.792539
  21
663.901221
  0
ARC
  8
0
  6
CONTINUOUS
  62
7
  67
0
  10
1407.792539
  20
703.901221
  40
20.0
  50
0.0
  51
90.0
  0
ARC
  8
0
  6
CONTINUOUS
  62
7
  67
0
  10
1407.792539
  20
663.901221
  40
20.0
  50
-90.0
  51
0.0
  0
CIRCLE
  8
0
  6
CONTINUOUS
  62
7
  67
0
  10
1402.792539
  20
683.901221
  40
35.0
  0
CIRCLE
  8
0
  6
CONTINUOUS
  62
7
  67
0
  10
1402.792539
  20
683.901221
  40
5.0
  0
LINE
  8
0
  6
CONTINUOUS
  62
7
  67
0
  10
1382.792539
  20
493.901221
  11
1382.792539
  21
1498.901221
  0
LINE
  8
0
  6
CONTINUOUS
  62
7
  67
0
  10
1332.792539
  20
1498.901221
  11
1482.792539
  21
1498.901221
  0
LINE
  8
0
  6
CONTINUOUS
  62
7
  67
0
  10
1492.792539
  20
1508.901221
  11
1492.792539
  21
1588.901221
  0
LINE
  8
0
  6
CONTINUOUS
  62
7
  67
0
  10
1482.792539
  20
1598.901221
  11
1332.792539
  21
1598.901221
  0
ARC
  8
0
  6
CONTINUOUS
  62
7
  67
0
  10
1482.792539
  20
1588.901221
  40
10.0
  50
0.0
  51
90.0
  0
ARC
  8
0
  6
CONTINUOUS
  62
7
  67
0
  10
1482.792539
  20
1508.901221
  40
10.0
  50
-90.0
  51
0.0
  0
CIRCLE
  8
0
  6
CONTINUOUS
  62
7
  67
0
  10
1457.792539
  20
1548.901221
  40
75.0
  0
CIRCLE
  8
0
  6
CONTINUOUS
  62
7
  67
0
  10
1457.792539
  20
1548.901221
  40
10.0
  0
CIRCLE
  8
0
  6
$AUXILIARY
  62
7
  67
0
  10
1457.792539
  20
1548.901221
  40
35.0
  0
LINE
  8
0
  6
$AUXILIARY
  62
7
  67
0
  10
1457.792539
  20
1558.901221
  11
1457.792539
  21
1558.901221
  0
LINE
  8
0
  6
$AUXILIARY
  62
7
  67
0
  10
1457.792539
  20
1558.901221
  11
1457.792539
  21
1558.901221
  0
LINE
  8
0
  6
CONTINUOUS
  62
7
  67
0
  10
1452.792539
  20
1558.901221
  11
1607.792539
  21
1698.901221
  0
LINE
  8
0
  6
CONTINUOUS
  62
7
  67
0
  10
1462.792539
  20
1538.901221
  11
1617.792539
  21
1688.901221
  0
CIRCLE
  8
0
  6
CONTINUOUS
  62
7
  67
0
  10
1612.792539
  20
1693.901221
  40
11.18034
  0
LINE
  8
0
  6
$AUXILIARY
  62
1
  67
0
  10
1421.521416
  20
1548.770261
  11
1438.336461
  21
682.459163
  0
LINE
  8
0
  6
$AUXILIARY
  62
1
  67
0
  10
1404.622345
  20
649.501675
  11
1262.030767
  21
647.48387
  0
LINE
  8
0
  6
$AUXILIARY
  62
1
  67
0
  10
1266.066378
  20
718.107057
  11
1405.294947
  21
718.779659
  0
LINE
  8
0
  6
CONTINUOUS
  62
7
  67
0
  10
1232.792539
  20
1498.901221
  11
1092.792539
  21
1498.901221
  0
LINE
  8
0
  6
CONTINUOUS
  62
7
  67
0
  10
1082.792539
  20
1488.901221
  11
1082.792539
  21
1433.901221
  0
ARC
  8
0
  6
CONTINUOUS
  62
7
  67
0
  10
1092.792539
  20
1488.901221
  40
10.0
  50
90.0
  51
180.0
  0
LINE
  8
0
  6
CONTINUOUS
  62
7
  67
0
  10
1232.792539
  20
1418.901221
  11
1092.792539
  21
1418.901221
  0
LINE
  8
0
  6
CONTINUOUS
  62
7
  67
0
  10
1082.792539
  20
1428.901221
  11
1082.792539
  21
1433.901221
  0
ARC
  8
0
  6
CONTINUOUS
  62
7
  67
0
  10
1092.792539
  20
1428.901221
  40
10.0
  50
180.0
  51
270.0
  0
CIRCLE
  8
0
  6
CONTINUOUS
  62
7
  67
0
  10
1107.792539
  20
1458.901221
  40
10.0
  0
CIRCLE
  8
0
  6
CONTINUOUS
  62
7
  67
0
  10
1172.792539
  20
1613.901221
  40
10.0
  0
CIRCLE
  8
0
  6
CONTINUOUS
  62
7
  67
0
  10
1282.792539
  20
2448.901221
  40
10.0
  0
LINE
  8
0
  6
CONTINUOUS
  62
7
  67
0
  10
1122.792539
  20
2598.901221
  11
1232.792539
  21
2598.901221
  0
LINE
  8
0
  6
CONTINUOUS
  62
7
  67
0
  10
1122.792539
  20
2298.901221
  11
1232.792539
  21
2298.901221
  0
LINE
  8
0
  6
CONTINUOUS
  62
7
  67
0
  10
1232.792539
  20
2598.901221
  11
1307.792539
  21
2498.901221
  0
LINE
  8
0
  6
CONTINUOUS
  62
7
  67
0
  10
1307.792539
  20
2398.901221
  11
1307.792539
  21
2398.901221
  0
LINE
  8
0
  6
$AUXILIARY
  62
7
  67
0
  10
1307.792539
  20
2398.901221
  11
1232.792539
  21
2298.901221
  0
LINE
  8
0
  6
$AUXILIARY
  62
7
  67
0
  10
1307.792539
  20
2398.901221
  11
1307.792539
  21
2498.901221
  0
LINE
  8
0
  6
CONTINUOUS
  62
7
  67
0
  10
1122.792539
  20
3438.901221
  11
1122.792539
  21
4173.901221
  0
LINE
  8
0
  6
CONTINUOUS
  62
7
  67
0
  10
1222.792539
  20
3448.901221
  11
1222.792539
  21
4173.901221
  0
LINE
  8
0
  6
CONTINUOUS
  62
7
  67
0
  10
1122.792539
  20
4173.901221
  11
1222.792539
  21
4173.901221
  0
LINE
  8
0
  6
CONTINUOUS
  62
5
  67
0
  10
1132.792539
  20
4173.901221
  11
1132.792539
  21
4873.901221
  0
LINE
  8
0
  6
CONTINUOUS
  62
7
  67
0
  10
1132.792539
  20
4873.901221
  11
1132.792539
  21
4873.901221
  0
LINE
  8
0
  6
CONTINUOUS
  62
5
  67
0
  10
1132.792539
  20
4873.901221
  11
1172.792539
  21
4883.901221
  0
LINE
  8
0
  6
CONTINUOUS
  62
5
  67
0
  10
1172.792539
  20
4883.901221
  11
1172.792539
  21
4863.901221
  0
LINE
  8
0
  6
CONTINUOUS
  62
5
  67
0
  10
1172.792539
  20
4863.901221
  11
1212.792539
  21
4873.901221
  0
LINE
  8
0
  6
CONTINUOUS
  62
5
  67
0
  10
1212.792539
  20
4873.901221
  11
1212.792539
  21
4173.901221
  0
LINE
  8
0
  6
CONTINUOUS
  62
5
  67
0
  10
1212.792539
  20
4873.901221
  11
1212.792539
  21
5448.901221
  0
LINE
  8
0
  6
CONTINUOUS
  62
5
  67
0
  10
1132.792539
  20
4873.901221
  11
1132.792539
  21
5448.901221
  0
LINE
  8
0
  6
CONTINUOUS
  62
5
  67
0
  10
1132.792539
  20
5448.901221
  11
1212.792539
  21
5448.901221
  0
LINE
  8
0
  6
$AUXILIARY
  62
5
  67
0
  10
1212.792539
  20
4173.901221
  11
1212.792539
  21
648.901221
  0
LINE
  8
0
  6
$AUXILIARY
  62
7
  67
0
  10
1212.792539
  20
648.901221
  11
1132.792539
  21
648.901221
  0
LINE
  8
0
  6
$AUXILIARY
  62
5
  67
0
  10
1132.792539
  20
648.901221
  11
1132.792539
  21
4173.901221
  0
LINE
  8
0
  6
CONTINUOUS
  62
7
  67
0
  10
1257.792539
  20
4198.901221
  11
1257.792539
  21
4198.901221
  0
CIRCLE
  8
0
  6
CONTINUOUS
  62
7
  67
0
  10
1257.792539
  20
4198.901221
  40
40.0
  0
CIRCLE
  8
0
  6
CONTINUOUS
  62
7
  67
0
  10
1257.792539
  20
4198.901221
  40
5.0
  0
LINE
  8
0
  6
CONTINUOUS
  62
7
  67
0
  10
1222.792539
  20
4098.901221
  11
1257.792539
  21
4098.901221
  0
LINE
  8
0
  6
CONTINUOUS
  62
7
  67
0
  10
1257.792539
  20
4098.901221
  11
1282.792539
  21
4148.901221
  0
LINE
  8
0
  6
CONTINUOUS
  62
7
  67
0
  10
1282.792539
  20
4148.901221
  11
1282.792539
  21
4208.901221
  0
LINE
  8
0
  6
CONTINUOUS
  62
7
  67
0
  10
1222.792539
  20
4208.901221
  11
1222.792539
  21
4168.901221
  0
LINE
  8
0
  6
CONTINUOUS
  62
7
  67
0
  10
1232.792539
  20
4218.901221
  11
1272.792539
  21
4218.901221
  0
ARC
  8
0
  6
CONTINUOUS
  62
7
  67
0
  10
1232.792539
  20
4208.901221
  40
10.0
  50
90.0
  51
180.0
  0
ARC
  8
0
  6
CONTINUOUS
  62
7
  67
0
  10
1272.792539
  20
4208.901221
  40
10.0
  50
0.0
  51
90.0
  0
LINE
  8
0
  6
$AUXILIARY
  62
1
  67
0
  10
1287.792539
  20
4168.901221
  11
1232.792539
  21
698.901221
  0
LINE
  8
0
  6
CONTINUOUS
  62
7
  67
0
  10
1332.792539
  20
973.901221
  11
1532.792539
  21
493.901221
  0
LINE
  8
0
  6
CONTINUOUS
  62
7
  67
0
  10
1032.792539
  20
493.901221
  11
1232.792539
  21
973.901221
  0
LINE
  8
0
  6
CONTINUOUS
  62
7
  67
0
  10
1137.104313
  20
5448.670577
  11
1136.786412
  21
5448.670577
  0
LINE
  8
0
  6
CONTINUOUS
  62
7
  67
0
  10
983.382749
  20
493.901221
  11
1578.382749
  21
493.901221
  0
LINE
  8
0
  6
CONTINUOUS
  62
7
  67
0
  10
1578.382749
  20
493.901221
  11
1578.382749
  21
473.901221
  0
LINE
  8
0
  6
CONTINUOUS
  62
7
  67
0
  10
1578.382749
  20
473.901221
  11
983.382749
  21
473.901221
  0
LINE
  8
0
  6
CONTINUOUS
  62
7
  67
0
  10
3900.0
  20
175.0
  11
25.0
  21
175.0
  0
LINE
  8
0
  6
CONTINUOUS
  62
7
  67
0
  10
3900.0
  20
175.0
  11
3900.0
  21
5640.0
  0
LINE
  8
0
  6
CONTINUOUS
  62
7
  67
0
  10
25.0
  20
175.0
  11
25.0
  21
5640.0
  0
DIMENSION
  8
0
  67
0
  1
<>
  2
*D0
  10
3239.820208
  20
2603.859857
  11
2939.820208
  21
2603.859857
  13
2639.820208
  23
2603.859857
  14
3239.820208
  24
2603.859857
  70
0
  1001
ACAD
  1000
DSTYLE
  1002
{
  1070
140
  1040
65.07692
  1070
78
  1070
8
  1002
}
  0
LINE
  8
0
  6
CONTINUOUS
  62
7
  67
0
  10
2639.879456
  20
1939.382324
  11
2639.879456
  21
2539.382324
  0
LINE
  8
0
  6
CONTINUOUS
  62
7
  67
0
  10
2639.879456
  20
2539.382324
  11
3239.879456
  21
2539.382324
  0
LINE
  8
0
  6
CONTINUOUS
  62
7
  67
0
  10
3239.879456
  20
2539.382324
  11
3239.879456
  21
1939.382324
  0
LINE
  8
0
  6
CONTINUOUS
  62
7
  67
0
  10
3239.879456
  20
1939.382324
  11
2639.879456
  21
1939.382324
  0
CIRCLE
  8
0
  6
CONTINUOUS
  62
7
  67
0
  10
2664.879456
  20
1964.382324
  40
10.0
  0
CIRCLE
  8
0
  6
CONTINUOUS
  62
7
  67
0
  10
3214.879456
  20
1964.382324
  40
10.0
  0
CIRCLE
  8
0
  6
CONTINUOUS
  62
7
  67
0
  10
3214.879456
  20
2514.382324
  40
10.0
  0
CIRCLE
  8
0
  6
CONTINUOUS
  62
7
  67
0
  10
2664.879456
  20
2514.382324
  40
10.0
  0
LINE
  8
0
  6
CONTINUOUS
  62
7
  67
0
  10
2884.879456
  20
2289.382324
  11
2834.879456
  21
2289.382324
  0
LINE
  8
0
  6
CONTINUOUS
  62
7
  67
0
  10
2884.879456
  20
2289.382324
  11
2884.879456
  21
2189.382324
  0
LINE
  8
0
  6
CONTINUOUS
  62
7
  67
0
  10
2884.879456
  20
2189.382324
  11
2834.879456
  21
2189.382324
  0
LINE
  8
0
  6
CONTINUOUS
  62
7
  67
0
  10
2834.879456
  20
2189.382324
  11
2834.879456
  21
2194.382324
  0
LINE
  8
0
  6
CONTINUOUS
  62
7
  67
0
  10
2834.879456
  20
2194.382324
  11
2879.879456
  21
2194.382324
  0
LINE
  8
0
  6
CONTINUOUS
  62
7
  67
0
  10
2879.879456
  20
2194.382324
  11
2879.879456
  21
2284.382324
  0
LINE
  8
0
  6
CONTINUOUS
  62
7
  67
0
  10
2879.879456
  20
2284.382324
  11
2834.879456
  21
2284.382324
  0
LINE
  8
0
  6
CONTINUOUS
  62
7
  67
0
  10
2834.879456
  20
2284.382324
  11
2834.879456
  21
2289.382324
  0
LINE
  8
0
  6
CONTINUOUS
  62
7
  67
0
  10
2994.879456
  20
2289.382324
  11
2994.879456
  21
2189.382324
  0
LINE
  8
0
  6
CONTINUOUS
  62
7
  67
0
  10
2994.879456
  20
2189.382324
  11
3044.879456
  21
2189.382324
  0
LINE
  8
0
  6
CONTINUOUS
  62
7
  67
0
  10
3044.879456
  20
2189.382324
  11
3044.879456
  21
2194.382324
  0
LINE
  8
0
  6
CONTINUOUS
  62
7
  67
0
  10
3044.879456
  20
2194.382324
  11
2999.879456
  21
2194.382324
  0
LINE
  8
0
  6
CONTINUOUS
  62
7
  67
0
  10
2999.879456
  20
2194.382324
  11
2999.879456
  21
2284.382324
  0
LINE
  8
0
  6
CONTINUOUS
  62
7
  67
0
  10
2999.879456
  20
2284.382324
  11
3044.879456
  21
2284.382324
  0
LINE
  8
0
  6
CONTINUOUS
  62
7
  67
0
  10
3044.879456
  20
2284.382324
  11
3044.879456
  21
2289.382324
  0
LINE
  8
0
  6
CONTINUOUS
  62
7
  67
0
  10
3044.879456
  20
2289.382324
  11
2994.879456
  21
2289.382324
  0
LINE
  8
0
  6
CONTINUOUS
  62
7
  67
0
  10
2989.879456
  20
2294.382324
  11
2889.879456
  21
2294.382324
  0
LINE
  8
0
  6
CONTINUOUS
  62
7
  67
0
  10
2889.879456
  20
2294.382324
  11
2889.879456
  21
2394.382324
  0
LINE
  8
0
  6
CONTINUOUS
  62
7
  67
0
  10
2889.879456
  20
2394.382324
  11
2989.879456
  21
2394.382324
  0
LINE
  8
0
  6
CONTINUOUS
  62
7
  67
0
  10
2989.879456
  20
2394.382324
  11
2989.879456
  21
2294.382324
  0
LINE
  8
0
  6
CONTINUOUS
  62
7
  67
0
  10
2989.879456
  20
2394.382324
  11
2994.879456
  21
2394.382324
  0
LINE
  8
0
  6
CONTINUOUS
  62
7
  67
0
  10
2994.879456
  20
2394.382324
  11
2994.879456
  21
2189.382324
  0
LINE
  8
0
  6
CONTINUOUS
  62
7
  67
0
  10
2994.879456
  20
2189.382324
  11
2989.879456
  21
2189.382324
  0
LINE
  8
0
  6
CONTINUOUS
  62
7
  67
0
  10
2989.879456
  20
2189.382324
  11
2989.879456
  21
2294.382324
  0
LINE
  8
0
  6
CONTINUOUS
  62
7
  67
0
  10
2889.879456
  20
2294.382324
  11
2889.879456
  21
2189.382324
  0
LINE
  8
0
  6
CONTINUOUS
  62
7
  67
0
  10
2889.879456
  20
2189.382324
  11
2884.879456
  21
2189.382324
  0
LINE
  8
0
  6
CONTINUOUS
  62
7
  67
0
  10
2884.879456
  20
2289.382324
  11
2884.879456
  21
2394.382324
  0
LINE
  8
0
  6
CONTINUOUS
  62
7
  67
0
  10
2884.879456
  20
2394.382324
  11
2889.879456
  21
2394.382324
  0
LINE
  8
0
  6
CONTINUOUS
  62
7
  67
0
  10
2999.879456
  20
2249.382324
  11
2989.879456
  21
2249.382324
  0
LINE
  8
0
  6
CONTINUOUS
  62
7
  67
0
  10
2999.879456
  20
2229.382324
  11
2989.879456
  21
2229.382324
  0
LINE
  8
0
  6
CONTINUOUS
  62
7
  67
0
  10
2889.879456
  20
2249.382324
  11
2879.879456
  21
2249.382324
  0
LINE
  8
0
  6
CONTINUOUS
  62
7
  67
0
  10
2889.879456
  20
2229.382324
  11
2879.879456
  21
2229.382324
  0
LINE
  8
0
  6
CONTINUOUS
  62
7
  67
0
  10
2989.879456
  20
2254.382324
  11
2979.879456
  21
2254.382324
  0
LINE
  8
0
  6
CONTINUOUS
  62
7
  67
0
  10
2979.879456
  20
2254.382324
  11
2979.879456
  21
2224.382324
  0
LINE
  8
0
  6
CONTINUOUS
  62
7
  67
0
  10
2979.879456
  20
2224.382324
  11
2989.879456
  21
2224.382324
  0
LINE
  8
0
  6
CONTINUOUS
  62
7
  67
0
  10
2889.879456
  20
2254.382324
  11
2899.879456
  21
2254.382324
  0
LINE
  8
0
  6
CONTINUOUS
  62
7
  67
0
  10
2899.879456
  20
2254.382324
  11
2899.879456
  21
2224.382324
  0
LINE
  8
0
  6
CONTINUOUS
  62
7
  67
0
  10
2899.879456
  20
2224.382324
  11
2889.879456
  21
2224.382324
  0
LINE
  8
0
  6
CONTINUOUS
  62
7
  67
0
  10
2999.879456
  20
2249.382324
  11
3019.879456
  21
2249.382324
  0
LINE
  8
0
  6
CONTINUOUS
  62
7
  67
0
  10
3019.879456
  20
2249.382324
  11
3019.879456
  21
2229.382324
  0
LINE
  8
0
  6
CONTINUOUS
  62
7
  67
0
  10
3019.879456
  20
2229.382324
  11
2999.879456
  21
2229.382324
  0
LINE
  8
0
  6
CONTINUOUS
  62
7
  67
0
  10
2879.879456
  20
2249.382324
  11
2859.879456
  21
2249.382324
  0
LINE
  8
0
  6
CONTINUOUS
  62
7
  67
0
  10
2859.879456
  20
2249.382324
  11
2859.879456
  21
2229.382324
  0
LINE
  8
0
  6
CONTINUOUS
  62
7
  67
0
  10
2859.879456
  20
2229.382324
  11
2879.879456
  21
2229.382324
  0
LINE
  8
0
  6
CONTINUOUS
  62
7
  67
0
  10
3014.879456
  20
2249.382324
  11
3014.879456
  21
2254.382324
  0
LINE
  8
0
  6
CONTINUOUS
  62
7
  67
0
  10
3014.879456
  20
2254.382324
  11
2999.879456
  21
2254.382324
  0
LINE
  8
0
  6
CONTINUOUS
  62
7
  67
0
  10
3014.879456
  20
2229.382324
  11
3014.879456
  21
2224.382324
  0
LINE
  8
0
  6
CONTINUOUS
  62
7
  67
0
  10
3014.879456
  20
2224.382324
  11
2999.879456
  21
2224.382324
  0
LINE
  8
0
  6
CONTINUOUS
  62
7
  67
0
  10
2864.879456
  20
2249.382324
  11
2864.879456
  21
2254.382324
  0
LINE
  8
0
  6
CONTINUOUS
  62
7
  67
0
  10
2864.879456
  20
2254.382324
  11
2879.879456
  21
2254.382324
  0
LINE
  8
0
  6
CONTINUOUS
  62
7
  67
0
  10
2864.879456
  20
2229.382324
  11
2864.879456
  21
2224.382324
  0
LINE
  8
0
  6
CONTINUOUS
  62
7
  67
0
  10
2864.879456
  20
2224.382324
  11
2879.879456
  21
2224.382324
  0
LINE
  8
0
  6
CONTINUOUS
  62
7
  67
0
  10
3044.879456
  20
2189.382324
  11
3189.879456
  21
1989.382324
  0
LINE
  8
0
  6
CONTINUOUS
  62
7
  67
0
  10
3044.879456
  20
2289.382324
  11
3189.879456
  21
2489.382324
  0
LINE
  8
0
  6
CONTINUOUS
  62
7
  67
0
  10
2834.879456
  20
2289.382324
  11
2689.879456
  21
2489.382324
  0
LINE
  8
0
  6
CONTINUOUS
  62
7
  67
0
  10
2834.879456
  20
2189.382324
  11
2689.879456
  21
1989.382324
  0
LINE
  8
0
  6
CONTINUOUS
  62
7
  67
0
  10
3004.879456
  20
2189.382324
  11
3004.879456
  21
2139.382324
  0
LINE
  8
0
  6
CONTINUOUS
  62
7
  67
0
  10
3004.879456
  20
2139.382324
  11
2874.879456
  21
2139.382324
  0
LINE
  8
0
  6
CONTINUOUS
  62
7
  67
0
  10
2874.879456
  20
2139.382324
  11
2874.879456
  21
2189.382324
  0
LINE
  8
0
  6
CONTINUOUS
  62
7
  67
0
  10
2994.879456
  20
2139.382324
  11
2994.879456
  21
2014.382324
  0
LINE
  8
0
  6
CONTINUOUS
  62
7
  67
0
  10
2884.879456
  20
2139.382324
  11
2884.879456
  21
2014.382324
  0
LINE
  8
0
  6
CONTINUOUS
  62
7
  67
0
  10
2889.879456
  20
2014.382324
  11
2889.879456
  21
2114.382324
  0
LINE
  8
0
  6
CONTINUOUS
  62
7
  67
0
  10
2989.879456
  20
2114.382324
  11
2989.879456
  21
2014.382324
  0
LINE
  8
0
  6
CONTINUOUS
  62
7
  67
0
  10
2879.879456
  20
2069.382324
  11
2999.879456
  21
2069.382324
  0
LINE
  8
0
  6
CONTINUOUS
  62
7
  67
0
  10
2999.879456
  20
2059.382324
  11
2879.879456
  21
2059.382324
  0
LINE
  8
0
  6
CONTINUOUS
  62
7
  67
0
  10
2999.879456
  20
2069.382324
  11
2999.879456
  21
2059.382324
  0
LINE
  8
0
  6
CONTINUOUS
  62
7
  67
0
  10
2994.879456
  20
2074.382324
  11
2999.879456
  21
2074.382324
  0
LINE
  8
0
  6
CONTINUOUS
  62
7
  67
0
  10
2999.879456
  20
2074.382324
  11
2999.879456
  21
2069.382324
  0
LINE
  8
0
  6
CONTINUOUS
  62
7
  67
0
  10
2999.879456
  20
2059.382324
  11
2999.879456
  21
2054.382324
  0
LINE
  8
0
  6
CONTINUOUS
  62
7
  67
0
  10
2999.879456
  20
2054.382324
  11
2994.879456
  21
2054.382324
  0
LINE
  8
0
  6
CONTINUOUS
  62
7
  67
0
  10
2889.879456
  20
2114.382324
  11
2894.879456
  21
2114.382324
  0
LINE
  8
0
  6
CONTINUOUS
  62
7
  67
0
  10
2894.879456
  20
2114.382324
  11
2894.879456
  21
2069.382324
  0
LINE
  8
0
  6
CONTINUOUS
  62
7
  67
0
  10
2894.879456
  20
2059.382324
  11
2894.879456
  21
2014.382324
  0
LINE
  8
0
  6
CONTINUOUS
  62
7
  67
0
  10
2894.879456
  20
2014.382324
  11
2889.879456
  21
2014.382324
  0
LINE
  8
0
  6
CONTINUOUS
  62
7
  67
0
  10
2989.879456
  20
2014.382324
  11
2984.879456
  21
2014.382324
  0
LINE
  8
0
  6
CONTINUOUS
  62
7
  67
0
  10
2984.879456
  20
2014.382324
  11
2984.879456
  21
2059.382324
  0
LINE
  8
0
  6
CONTINUOUS
  62
7
  67
0
  10
2984.879456
  20
2069.382324
  11
2984.879456
  21
2114.382324
  0
LINE
  8
0
  6
CONTINUOUS
  62
7
  67
0
  10
2984.879456
  20
2114.382324
  11
2989.879456
  21
2114.382324
  0
LINE
  8
0
  6
CONTINUOUS
  62
7
  67
0
  10
2879.879456
  20
2069.382324
  11
2869.879456
  21
2069.382324
  0
LINE
  8
0
  6
CONTINUOUS
  62
7
  67
0
  10
2879.879456
  20
2059.382324
  11
2869.879456
  21
2059.382324
  0
LINE
  8
0
  6
CONTINUOUS
  62
7
  67
0
  10
2869.879456
  20
2069.382324
  11
2869.879456
  21
2059.382324
  0
LINE
  8
0
  6
CONTINUOUS
  62
7
  67
0
  10
2879.879456
  20
2069.382324
  11
2879.879456
  21
2074.382324
  0
LINE
  8
0
  6
CONTINUOUS
  62
7
  67
0
  10
2879.879456
  20
2074.382324
  11
2884.879456
  21
2074.382324
  0
LINE
  8
0
  6
CONTINUOUS
  62
7
  67
0
  10
2879.879456
  20
2059.382324
  11
2879.879456
  21
2054.382324
  0
LINE
  8
0
  6
CONTINUOUS
  62
7
  67
0
  10
2879.879456
  20
2054.382324
  11
2884.879456
  21
2054.382324
  0
LINE
  8
0
  6
CONTINUOUS
  62
7
  67
0
  10
2869.879456
  20
2069.382324
  11
2869.879456
  21
1949.382324
  0
LINE
  8
0
  6
CONTINUOUS
  62
7
  67
0
  10
2869.879456
  20
1949.382324
  11
2864.879456
  21
1949.382324
  0
LINE
  8
0
  6
CONTINUOUS
  62
7
  67
0
  10
2864.879456
  20
1949.382324
  11
2864.879456
  21
2069.382324
  0
LINE
  8
0
  6
CONTINUOUS
  62
7
  67
0
  10
2864.879456
  20
2069.382324
  11
2869.879456
  21
2069.382324
  0
LINE
  8
0
  6
CONTINUOUS
  62
7
  67
0
  10
2864.879456
  20
1954.382324
  11
2789.879456
  21
1954.382324
  0
LINE
  8
0
  6
CONTINUOUS
  62
7
  67
0
  10
2789.879456
  20
1954.382324
  11
2789.879456
  21
1969.382324
  0
LINE
  8
0
  6
CONTINUOUS
  62
7
  67
0
  10
2789.879456
  20
1969.382324
  11
2864.879456
  21
1969.382324
  0
LINE
  8
0
  6
CONTINUOUS
  62
7
  67
0
  10
2984.879456
  20
2389.382324
  11
2894.879456
  21
2389.382324
  0
LINE
  8
0
  6
CONTINUOUS
  62
7
  67
0
  10
2984.879456
  20
2389.382324
  11
2984.879456
  21
2299.382324
  0
LINE
  8
0
  6
CONTINUOUS
  62
7
  67
0
  10
2984.879456
  20
2299.382324
  11
2894.879456
  21
2299.382324
  0
LINE
  8
0
  6
CONTINUOUS
  62
7
  67
0
  10
2894.879456
  20
2299.382324
  11
2894.879456
  21
2389.382324
  0
LINE
  8
0
  6
CONTINUOUS
  62
7
  67
0
  10
2979.879456
  20
2384.382324
  11
2979.879456
  21
2304.382324
  0
LINE
  8
0
  6
CONTINUOUS
  62
7
  67
0
  10
2979.879456
  20
2304.382324
  11
2899.879456
  21
2304.382324
  0
LINE
  8
0
  6
CONTINUOUS
  62
7
  67
0
  10
2899.879456
  20
2304.382324
  11
2899.879456
  21
2384.382324
  0
LINE
  8
0
  6
CONTINUOUS
  62
7
  67
0
  10
2899.879456
  20
2384.382324
  11
2979.879456
  21
2384.382324
  0
LINE
  8
0
  6
CONTINUOUS
  62
7
  67
0
  10
2974.879456
  20
2379.382324
  11
2974.879456
  21
2309.382324
  0
LINE
  8
0
  6
CONTINUOUS
  62
7
  67
0
  10
2974.879456
  20
2309.382324
  11
2904.879456
  21
2309.382324
  0
LINE
  8
0
  6
CONTINUOUS
  62
7
  67
0
  10
2904.879456
  20
2309.382324
  11
2904.879456
  21
2379.382324
  0
LINE
  8
0
  6
CONTINUOUS
  62
7
  67
0
  10
2904.879456
  20
2379.382324
  11
2969.879456
  21
2379.382324
  0
LINE
  8
0
  6
CONTINUOUS
  62
7
  67
0
  10
2969.879456
  20
2379.382324
  11
2974.879456
  21
2379.382324
  0
DIMENSION
  8
0
  67
0
  1
<>
  2
*D1
  10
3414.999939
  20
1940.0
  11
3414.999939
  21
2240.0
  13
3389.999939
  23
2540.0
  14
3389.999939
  24
1940.0
  50
-90.0
  70
0
  1001
ACAD
  1000
DSTYLE
  1002
{
  1070
140
  1040
65.07692
  1070
78
  1070
8
  1002
}
  0
INSERT
  8
0
  6
CONTINUOUS
  62
7
  67
0
  2
*A2
  10
0.0
  20
0.0
  1001
ACAD
  1000
TCW25DimLead
  1002
{
  1070
11
  1000
6mm gusset
  1000
6mm gusset
  1070
0
  1071
0
  1040
1.0
  1040
0.0
  1000
CONTINUOUS
  1000
0
  1071
3
  1071
130
  1010
2497.662322
  1020
2460.702978
  1071
2
  1010
2497.662322
  1020
2460.702978
  1071
194
  1010
2744.762634
  1020
2406.996948
  1002
}
  0
INSERT
  8
0
  6
CONTINUOUS
  62
7
  67
0
  2
*A3
  10
0.0
  20
0.0
  1001
ACAD
  1000
TCW25DimLead
  1002
{
  1070
16
  1000
102x51 channell
  1000
102x51 channell
  1070
0
  1071
0
  1040
1.0
  1040
0.0
  1000
CONTINUOUS
  1000
0
  1071
3
  1071
130
  1010
2430.073486
  1020
2292.415557
  1071
2
  1010
2430.073486
  1020
2292.415557
  1071
194
  1010
2850.0
  1020
2195.0
  1002
}
  0
DIMENSION
  8
0
  67
0
  1
<>
  2
*D4
  10
3214.283022
  20
1974.364522
  11
3479.13093
  21
1794.684966
  15
3215.475889
  25
1954.400127
  40
160.0
  70
3
  1001
ACAD
  1000
DSTYLE
  1002
{
  1070
140
  1040
65.07692
  1070
78
  1070
8
  1002
}
  0
INSERT
  8
0
  6
CONTINUOUS
  62
7
  67
0
  2
*A5
  10
0.0
  20
0.0
  1001
ACAD
  1000
TCW25DimLead
  1002
{
  1070
17
  1000
plate 20mm thick
  1000
plate 20mm thick
  1070
0
  1071
0
  1040
1.0
  1040
0.0
  1000
CONTINUOUS
  1000
0
  1071
3
  1071
130
  1010
3017.479724
  1020
1538.076433
  1071
2
  1010
3017.479724
  1020
1538.076433
  1071
194
  1010
2725.0
  1020
1935.0
  1002
}
  0
INSERT
  8
0
  6
CONTINUOUS
  62
7
  67
0
  2
*A6
  10
0.0
  20
0.0
  1001
ACAD
  1000
TCW25DimLead
  1002
{
  1070
12
  1000
hinge point
  1000
hinge point
  1070
0
  1071
0
  1040
1.0
  1040
0.0
  1000
CONTINUOUS
  1000
0
  1071
3
  1071
130
  1010
1923.996095
  1020
2855.600783
  1071
2
  1010
1923.996095
  1020
2855.600783
  1071
194
  1010
1290.0
  1020
2455.0
  1002
}
  0
INSERT
  8
0
  6
CONTINUOUS
  62
7
  67
0
  2
*A7
  10
0.0
  20
0.0
  1001
ACAD
  1000
TCW25DimLead
  1002
{
  1070
16
  1000
Pulley attached
  1000
Pulley attached
  1070
0
  1071
0
  1040
1.0
  1040
0.0
  1000
CONTINUOUS
  1000
0
  1071
4
  1071
130
  1010
2315.0
  1020
460.0
  1071
2
  1010
2315.0
  1020
460.0
  1071
194
  1010
1415.0
  1020
675.0
  1071
130
  1010
2205.0
  1020
460.0
  1002
}
  0
INSERT
  8
0
  6
CONTINUOUS
  62
7
  67
0
  2
*A8
  10
0.0
  20
0.0
  1001
ACAD
  1000
TCW25DimLead
  1002
{
  1070
8
  1000
to base
  1000
to base
  1070
0
  1071
0
  1040
1.0
  1040
0.0
  1000
CONTINUOUS
  1000
0
  1071
3
  1071
130
  1010
2351.523529
  1020
397.318039
  1071
2
  1010
2351.523529
  1020
397.318039
  1071
194
  1010
2205.0
  1020
460.0
  1002
}
  0
INSERT
  8
0
  6
CONTINUOUS
  62
7
  67
0
  2
*A9
  10
0.0
  20
0.0
  1001
ACAD
  1000
TCW25DimLead
  1002
{
  1070
17
  1000
pulley attached 
  1000
pulley attached 
  1070
0
  1071
0
  1040
1.0
  1040
0.0
  1000
CONTINUOUS
  1000
0
  1071
3
  1071
130
  1010
1607.461361
  1020
902.951446
  1071
2
  1010
1607.461361
  1020
902.951446
  1071
194
  1010
1275.0
  1020
700.0
  1002
}
  0
INSERT
  8
0
  6
CONTINUOUS
  62
7
  67
0
  2
*A10
  10
0.0
  20
0.0
  1001
ACAD
  1000
TCW25DimLead
  1002
{
  1070
8
  1000
to mast
  1000
to mast
  1070
0
  1071
0
  1040
1.0
  1040
0.0
  1000
CONTINUOUS
  1000
0
  1071
3
  1071
130
  1010
1656.791449
  1020
828.956314
  1071
2
  1010
1656.791449
  1020
828.956314
  1071
194
  1010
1520.0
  1020
885.0
  1002
}
  0
INSERT
  8
0
  6
CONTINUOUS
  62
7
  67
0
  2
*A11
  10
0.0
  20
0.0
  1001
ACAD
  1000
TCW25DimLead
  1002
{
  1070
15
  1000
6mm steel rope
  1000
6mm steel rope
  1070
0
  1071
0
  1040
1.0
  1040
0.0
  1000
CONTINUOUS
  1000
0
  1071
4
  1071
130
  1010
1845.0
  1020
1135.0
  1071
2
  1010
1845.0
  1020
1135.0
  1071
194
  1010
1435.0
  1020
1205.0
  1071
130
  1010
1735.0
  1020
1135.0
  1002
}
  0
INSERT
  8
0
  6
CONTINUOUS
  62
7
  67
0
  2
*A12
  10
0.0
  20
0.0
  1001
ACAD
  1000
TCW25DimLead
  1002
{
  1070
6
  1000
winch
  1000
winch
  1070
0
  1071
0
  1040
1.0
  1040
0.0
  1000
CONTINUOUS
  1000
0
  1071
4
  1071
130
  1010
1780.0
  1020
1450.0
  1071
2
  1010
1780.0
  1020
1450.0
  1071
194
  1010
1560.0
  1020
1530.0
  1071
130
  1010
1670.0
  1020
1450.0
  1002
}
  0
INSERT
  8
0
  6
CONTINUOUS
  62
7
  67
0
  2
*A13
  10
0.0
  20
0.0
  1001
ACAD
  1000
TCW25DimLead
  1002
{
  1070
16
  1000
100x100x5mm RHS
  1000
100x100x5mm RHS
  1070
0
  1071
0
  1040
1.0
  1040
0.0
  1000
CONTINUOUS
  1000
0
  1071
3
  1071
130
  1010
1574.574635
  1020
3199.883448
  1071
2
  1010
1574.574635
  1020
3199.883448
  1071
194
  1010
1175.0
  1020
3295.0
  1002
}
  0
INSERT
  8
0
  6
CONTINUOUS
  62
7
  67
0
  2
*A14
  10
0.0
  20
0.0
  1001
ACAD
  1000
TCW25DimLead
  1002
{
  1070
15
  1000
80x80xx4mm RHS
  1000
80x80xx4mm RHS
  1070
0
  1071
0
  1040
1.0
  1040
0.0
  1000
CONTINUOUS
  1000
0
  1071
4
  1071
130
  1010
1690.0
  1020
4630.0
  1071
2
  1010
1690.0
  1020
4630.0
  1071
194
  1010
1215.0
  1020
4415.0
  1071
130
  1010
1580.0
  1020
4630.0
  1002
}
  0
INSERT
  8
0
  6
CONTINUOUS
  62
7
  67
0
  2
*A15
  10
0.0
  20
0.0
  1001
ACAD
  1000
TCW25DimLead
  1002
{
  1070
11
  1000
Top pulley
  1000
Top pulley
  1070
0
  1071
0
  1040
1.0
  1040
0.0
  1000
CONTINUOUS
  1000
0
  1071
3
  1071
130
  1010
1804.781715
  1020
4054.938315
  1071
2
  1010
1804.781715
  1020
4054.938315
  1071
194
  1010
1310.0
  1020
4185.0
  1002
}
  0
DIMENSION
  8
0
  67
0
  1
<>
  2
*D16
  10
850.0
  20
2495.0
  11
850.0
  21
1485.0
  13
850.0
  23
475.0
  14
850.0
  24
2495.0
  50
-90.0
  70
1
  1001
ACAD
  1000
DSTYLE
  1002
{
  1070
140
  1040
65.07692
  1070
78
  1070
8
  1002
}
  0
LINE
  8
0
  6
CONTINUOUS
  62
7
  67
0
  10
350.0
  20
2450.0
  11
510.0
  21
2450.0
  0
LINE
  8
0
  6
CONTINUOUS
  62
7
  67
0
  10
350.0
  20
2450.0
  11
350.0
  21
2430.0
  0
LINE
  8
0
  6
CONTINUOUS
  62
7
  67
0
  10
350.0
  20
2430.0
  11
510.0
  21
2430.0
  0
LINE
  8
0
  6
CONTINUOUS
  62
7
  67
0
  10
510.0
  20
2450.0
  11
510.0
  21
2430.0
  0
LINE
  8
0
  6
CONTINUOUS
  62
7
  67
0
  10
360.0
  20
2460.0
  11
360.0
  21
2420.0
  0
CIRCLE
  8
0
  6
CONTINUOUS
  62
7
  67
0
  10
360.0
  20
2460.0
  40
5.0
  0
LINE
  8
0
  6
CONTINUOUS
  62
7
  67
0
  10
495.0
  20
2460.0
  11
495.0
  21
2420.0
  0
CIRCLE
  8
0
  6
CONTINUOUS
  62
7
  67
0
  10
495.0
  20
2460.0
  40
5.0
  0
LINE
  8
0
  6
CONTINUOUS
  62
7
  67
0
  10
2900.0
  20
5450.0
  11
3100.0
  21
5450.0
  0
LINE
  8
0
  6
CONTINUOUS
  62
7
  67
0
  10
3100.0
  20
5450.0
  11
3100.0
  21
5445.0
  0
LINE
  8
0
  6
CONTINUOUS
  62
7
  67
0
  10
3100.0
  20
5445.0
  11
2900.0
  21
5445.0
  0
LINE
  8
0
  6
CONTINUOUS
  62
7
  67
0
  10
2900.0
  20
5450.0
  11
2900.0
  21
5445.0
  0
LINE
  8
0
  6
CONTINUOUS
  62
7
  67
0
  10
2975.0
  20
5575.0
  11
2975.0
  21
5350.0
  0
LINE
  8
0
  6
CONTINUOUS
  62
7
  67
0
  10
3025.0
  20
5350.0
  11
3025.0
  21
5575.0
  0
LINE
  8
0
  6
CONTINUOUS
  62
7
  67
0
  10
2975.0
  20
5440.0
  11
2970.0
  21
5440.0
  0
LINE
  8
0
  6
CONTINUOUS
  62
7
  67
0
  10
2970.0
  20
5440.0
  11
2970.0
  21
5450.0
  0
LINE
  8
0
  6
CONTINUOUS
  62
7
  67
0
  10
2970.0
  20
5450.0
  11
2960.0
  21
5450.0
  0
LINE
  8
0
  6
CONTINUOUS
  62
7
  67
0
  10
2960.0
  20
5450.0
  11
2960.0
  21
5455.0
  0
LINE
  8
0
  6
CONTINUOUS
  62
7
  67
0
  10
2960.0
  20
5455.0
  11
3040.0
  21
5455.0
  0
LINE
  8
0
  6
CONTINUOUS
  62
7
  67
0
  10
3040.0
  20
5455.0
  11
3040.0
  21
5450.0
  0
LINE
  8
0
  6
CONTINUOUS
  62
7
  67
0
  10
3030.0
  20
5450.0
  11
3030.0
  21
5440.0
  0
LINE
  8
0
  6
CONTINUOUS
  62
7
  67
0
  10
3030.0
  20
5445.0
  11
3025.0
  21
5445.0
  0
LINE
  8
0
  6
CONTINUOUS
  62
7
  67
0
  10
2975.0
  20
5575.0
  11
3000.0
  21
5565.0
  0
LINE
  8
0
  6
CONTINUOUS
  62
7
  67
0
  10
3000.0
  20
5565.0
  11
3000.0
  21
5585.0
  0
LINE
  8
0
  6
CONTINUOUS
  62
7
  67
0
  10
3000.0
  20
5585.0
  11
3025.0
  21
5575.0
  0
LINE
  8
0
  6
CONTINUOUS
  62
7
  67
0
  10
2975.0
  20
5350.0
  11
2975.0
  21
5125.0
  0
LINE
  8
0
  6
CONTINUOUS
  62
7
  67
0
  10
3025.0
  20
5350.0
  11
3025.0
  21
5125.0
  0
LINE
  8
0
  6
CONTINUOUS
  62
7
  67
0
  10
2915.0
  20
5445.0
  11
2915.0
  21
5445.0
  0
LINE
  8
0
  6
CONTINUOUS
  62
7
  67
0
  10
3125.0
  20
4650.0
  11
2875.0
  21
4650.0
  0
LINE
  8
0
  6
CONTINUOUS
  62
7
  67
0
  10
2925.0
  20
4650.0
  11
2925.0
  21
4750.0
  0
LINE
  8
0
  6
CONTINUOUS
  62
7
  67
0
  10
2925.0
  20
4750.0
  11
3075.0
  21
4750.0
  0
LINE
  8
0
  6
CONTINUOUS
  62
7
  67
0
  10
3075.0
  20
4650.0
  11
3075.0
  21
4750.0
  0
LINE
  8
0
  6
CONTINUOUS
  62
7
  67
0
  10
2950.0
  20
4750.0
  11
2950.0
  21
4900.0
  0
LINE
  8
0
  6
CONTINUOUS
  62
7
  67
0
  10
2950.0
  20
4900.0
  11
3050.0
  21
4900.0
  0
LINE
  8
0
  6
CONTINUOUS
  62
7
  67
0
  10
3050.0
  20
4750.0
  11
3050.0
  21
4900.0
  0
LINE
  8
0
  6
CONTINUOUS
  62
7
  67
0
  10
3025.0
  20
4750.0
  11
3030.0
  21
4750.0
  0
LINE
  8
0
  6
CONTINUOUS
  62
7
  67
0
  10
3025.0
  20
4775.0
  11
3025.0
  21
5125.0
  0
LINE
  8
0
  6
CONTINUOUS
  62
7
  67
0
  10
2975.0
  20
4775.0
  11
2975.0
  21
5125.0
  0
LINE
  8
0
  6
CONTINUOUS
  62
7
  67
0
  10
2875.0
  20
4650.0
  11
2900.0
  21
5445.0
  0
LINE
  8
0
  6
CONTINUOUS
  62
7
  67
0
  10
2915.0
  20
5445.0
  11
2890.0
  21
4650.0
  0
LINE
  8
0
  6
CONTINUOUS
  62
7
  67
0
  10
3125.0
  20
4650.0
  11
3100.0
  21
5445.0
  0
LINE
  8
0
  6
CONTINUOUS
  62
7
  67
0
  10
3085.0
  20
5445.0
  11
3110.0
  21
4650.0
  0
LINE
  8
0
  6
CONTINUOUS
  62
7
  67
0
  10
2875.0
  20
4650.0
  11
2875.0
  21
4645.0
  0
LINE
  8
0
  6
CONTINUOUS
  62
7
  67
0
  10
2875.0
  20
4645.0
  11
3125.0
  21
4645.0
  0
LINE
  8
0
  6
CONTINUOUS
  62
7
  67
0
  10
3125.0
  20
4645.0
  11
3125.0
  21
4650.0
  0
LINE
  8
0
  6
CONTINUOUS
  62
7
  67
0
  10
3035.0
  20
4645.0
  11
3035.0
  21
4345.0
  0
LINE
  8
0
  6
CONTINUOUS
  62
7
  67
0
  10
2965.0
  20
4345.0
  11
2965.0
  21
4645.0
  0
LINE
  8
0
  6
CONTINUOUS
  62
7
  67
0
  10
2965.0
  20
4345.0
  11
3035.0
  21
4345.0
  0
INSERT
  8
0
  6
CONTINUOUS
  62
7
  67
0
  2
*A17
  10
0.0
  20
0.0
  1001
ACAD
  1000
TCW25DimLead
  1002
{
  1070
14
  1000
Spigot to fit
  1000
Spigot to fit
  1070
0
  1071
0
  1040
1.0
  1040
0.0
  1000
CONTINUOUS
  1000
0
  1071
3
  1071
130
  1010
3279.738276
  1020
4137.283202
  1071
2
  1010
3279.738276
  1020
4137.283202
  1071
194
  1010
3000.0
  1020
4330.0
  1002
}
  0
INSERT
  8
0
  6
CONTINUOUS
  62
7
  67
0
  2
*A18
  10
0.0
  20
0.0
  1001
ACAD
  1000
TCW25DimLead
  1002
{
  1070
15
  1000
in top of mast
  1000
in top of mast
  1070
0
  1071
0
  1040
1.0
  1040
0.0
  1000
CONTINUOUS
  1000
0
  1071
3
  1071
130
  1010
3333.179206
  1020
4063.28807
  1071
2
  1010
3333.179206
  1020
4063.28807
  1071
194
  1010
3170.0
  1020
4135.0
  1002
}
  0
DIMENSION
  8
0
  67
0
  1
<>
  2
*D19
  10
3370.0
  20
5450.0
  11
3370.0
  21
5050.0
  13
3225.0
  23
4650.0
  14
3225.0
  24
5450.0
  50
-90.0
  70
1
  1001
ACAD
  1000
DSTYLE
  1002
{
  1070
140
  1040
65.07692
  1070
78
  1070
8
  1002
}
  0
DIMENSION
  8
0
  67
0
  1
<>
  2
*D20
  10
3125.0
  20
4505.0
  11
3531.772465
  21
4505.0
  13
2875.0
  23
4575.0
  14
3125.0
  24
4575.0
  70
0
  1001
ACAD
  1000
DSTYLE
  1002
{
  1070
140
  1040
65.07692
  1070
78
  1070
8
  1002
}
  0
INSERT
  8
0
  6
CONTINUOUS
  62
7
  67
0
  2
*A21
  10
0.0
  20
0.0
  1001
ACAD
  1000
TCW25DimLead
  1002
{
  1070
14
  1000
25x25x3mm RHS
  1000
25x25x3mm RHS
  1070
0
  1071
0
  1040
1.0
  1040
0.0
  1000
CONTINUOUS
  1000
0
  1071
3
  1071
130
  1010
2514.409764
  1020
5041.154401
  1071
2
  1010
2514.409764
  1020
5041.154401
  1071
194
  1010
2875.0
  1020
4960.0
  1002
}
  0
LINE
  8
0
  6
CONTINUOUS
  62
7
  67
0
  10
3035.0
  20
4600.0
  11
3125.0
  21
4645.0
  0
LINE
  8
0
  6
CONTINUOUS
  62
7
  67
0
  10
2965.0
  20
4600.0
  11
2875.0
  21
4645.0
  0
INSERT
  8
0
  6
CONTINUOUS
  62
7
  67
0
  2
*A22
  10
0.0
  20
0.0
  1001
ACAD
  1000
TCW25DimLead
  1002
{
  1070
7
  1000
Gusset
  1000
Gusset
  1070
0
  1071
0
  1040
1.0
  1040
0.0
  1000
CONTINUOUS
  1000
0
  1071
5
  1071
130
  1010
2481.201857
  1020
4530.767932
  1071
2
  1010
2481.201857
  1020
4530.767932
  1071
194
  1010
2895.0
  1020
4625.0
  1071
130
  1010
2591.201857
  1020
4530.767932
  1071
130
  1010
2591.201857
  1020
4530.767932
  1002
}
  0
LINE
  8
0
  6
$AUXILIARY
  62
1
  67
0
  10
1219.46594
  20
4174.089822
  11
1219.722867
  21
1065.324428
  0
LINE
  8
0
  6
$AUXILIARY
  62
1
  67
0
  10
1219.722867
  20
1065.324428
  11
1213.04275
  21
1035.520828
  0
LINE
  8
0
  6
$AUXILIARY
  62
1
  67
0
  10
1212.01504
  20
1034.750046
  11
1209.959619
  21
1000.578678
  0
LINE
  8
0
  6
CONTINUOUS
  62
1
  67
0
  10
1215.0
  20
995.0
  11
1205.0
  21
995.0
  0
LINE
  8
0
  6
CONTINUOUS
  62
1
  67
0
  10
1205.0
  20
995.0
  11
1205.0
  21
1010.0
  0
LINE
  8
0
  6
CONTINUOUS
  62
1
  67
0
  10
1205.0
  20
1010.0
  11
1205.0
  21
1010.0
  0
LINE
  8
0
  6
CONTINUOUS
  62
1
  67
0
  10
1205.0
  20
1010.0
  11
1215.0
  21
1010.0
  0
TEXT
  8
0
  62
7
  67
0
  10
2695.0
  20
1237.0
  1
Each of the telescoping sections
  40
63.0
  7
STANDARD
  72
5
  11
3773.379371
  21
1237.0
  31
0.0
  1001
ACAD
  1000
TCW40_TEXT
  1002
{
  1000
Arial
  1070
-307232768
  1070
0
  1002
}
  0
TEXT
  8
0
  62
7
  67
0
  10
2689.780752
  20
1150.105973
  1
are 7.5 meters long
  40
63.0
  7
STANDARD
  72
5
  11
3337.586696
  21
1150.105973
  31
0.0
  1001
ACAD
  1000
TCW40_TEXT
  1002
{
  1000
Arial
  1070
-307232768
  1070
0
  1002
}
  0
INSERT
  8
0
  6
CONTINUOUS
  62
7
  67
0
  2
*A23
  10
0.0
  20
0.0
  1001
ACAD
  1000
TCW25DimLead
  1002
{
  1070
8
  1000
Rotator
  1000
Rotator
  1070
0
  1071
0
  1040
1.0
  1040
0.0
  1000
CONTINUOUS
  1000
0
  1071
3
  1071
130
  1010
2224.531401
  1020
4842.678497
  1071
2
  1010
2224.531401
  1020
4842.678497
  1071
194
  1010
2915.0
  1020
4715.0
  1002
}
  0
INSERT
  8
0
  6
CONTINUOUS
  62
7
  67
0
  2
*A24
  10
0.0
  20
0.0
  1001
ACAD
  1000
TCW25DimLead
  1002
{
  1070
11
  1000
Nylon bush
  1000
Nylon bush
  1070
0
  1071
0
  1040
1.0
  1040
0.0
  1000
CONTINUOUS
  1000
0
  1071
3
  1071
130
  1010
2228.642242
  1020
5508.634671
  1071
2
  1010
2228.642242
  1020
5508.634671
  1071
194
  1010
2970.0
  1020
5460.0
  1002
}
  0
ENDSEC
  0
EOF
